  0
SECTION
  2
HEADER
  9
$ACADVER
  1
AC1024
  9
$ACADMAINTVER
 70
     6
  9
$DWGCODEPAGE
  3
ANSI_932
  9
$LASTSAVEDBY
  1
営業企画A
  9
$INSBASE
 10
0.0
 20
0.0
 30
0.0
  9
$EXTMIN
 10
0.0
 20
0.0
 30
0.0
  9
$EXTMAX
 10
292.0
 20
205.0
 30
0.0
  9
$LIMMIN
 10
0.0
 20
0.0
  9
$LIMMAX
 10
297.0
 20
210.0
  9
$ORTHOMODE
 70
     1
  9
$REGENMODE
 70
     1
  9
$FILLMODE
 70
     1
  9
$QTEXTMODE
 70
     0
  9
$MIRRTEXT
 70
     1
  9
$LTSCALE
 40
1.0
  9
$ATTMODE
 70
     1
  9
$TEXTSIZE
 40
2.5
  9
$TRACEWID
 40
1.0
  9
$TEXTSTYLE
  7
Standard
  9
$CLAYER
  8
TOS_M1
  9
$CELTYPE
  6
Continuous
  9
$CECOLOR
 62
   256
  9
$CELTSCALE
 40
1.0
  9
$DISPSILH
 70
     0
  9
$DIMSCALE
 40
1.0
  9
$DIMASZ
 40
1.0
  9
$DIMEXO
 40
0.625
  9
$DIMDLI
 40
3.75
  9
$DIMRND
 40
0.0
  9
$DIMDLE
 40
0.0
  9
$DIMEXE
 40
1.25
  9
$DIMTP
 40
0.0
  9
$DIMTM
 40
0.0
  9
$DIMTXT
 40
2.0
  9
$DIMCEN
 40
0.0
  9
$DIMTSZ
 40
0.0
  9
$DIMTOL
 70
     0
  9
$DIMLIM
 70
     0
  9
$DIMTIH
 70
     1
  9
$DIMTOH
 70
     1
  9
$DIMSE1
 70
     0
  9
$DIMSE2
 70
     0
  9
$DIMTAD
 70
     1
  9
$DIMZIN
 70
     8
  9
$DIMBLK
  1

  9
$DIMASO
 70
     1
  9
$DIMSHO
 70
     1
  9
$DIMPOST
  1

  9
$DIMAPOST
  1

  9
$DIMALT
 70
     0
  9
$DIMALTD
 70
     3
  9
$DIMALTF
 40
0.03937007874016
  9
$DIMLFAC
 40
1.0
  9
$DIMTOFL
 70
     0
  9
$DIMTVP
 40
0.0
  9
$DIMTIX
 70
     0
  9
$DIMSOXD
 70
     0
  9
$DIMSAH
 70
     0
  9
$DIMBLK1
  1

  9
$DIMBLK2
  1

  9
$DIMSTYLE
  2
ISO-25
  9
$DIMCLRD
 70
     0
  9
$DIMCLRE
 70
     0
  9
$DIMCLRT
 70
     0
  9
$DIMTFAC
 40
1.0
  9
$DIMGAP
 40
0.625
  9
$DIMJUST
 70
     0
  9
$DIMSD1
 70
     0
  9
$DIMSD2
 70
     0
  9
$DIMTOLJ
 70
     0
  9
$DIMTZIN
 70
     8
  9
$DIMALTZ
 70
     0
  9
$DIMALTTZ
 70
     0
  9
$DIMUPT
 70
     1
  9
$DIMDEC
 70
     2
  9
$DIMTDEC
 70
     2
  9
$DIMALTU
 70
     2
  9
$DIMALTTD
 70
     3
  9
$DIMTXSTY
  7
Standard
  9
$DIMAUNIT
 70
     0
  9
$DIMADEC
 70
     0
  9
$DIMALTRND
 40
0.0
  9
$DIMAZIN
 70
     0
  9
$DIMDSEP
 70
    46
  9
$DIMATFIT
 70
     3
  9
$DIMFRAC
 70
     0
  9
$DIMLDRBLK
  1

  9
$DIMLUNIT
 70
     2
  9
$DIMLWD
 70
    -2
  9
$DIMLWE
 70
    -2
  9
$DIMTMOVE
 70
     2
  9
$DIMFXL
 40
1.0
  9
$DIMFXLON
 70
     0
  9
$DIMJOGANG
 40
0.7853981633974483
  9
$DIMTFILL
 70
     0
  9
$DIMTFILLCLR
 70
     0
  9
$DIMARCSYM
 70
     0
  9
$DIMLTYPE
  6

  9
$DIMLTEX1
  6

  9
$DIMLTEX2
  6

  9
$DIMTXTDIRECTION
 70
     0
  9
$LUNITS
 70
     2
  9
$LUPREC
 70
     4
  9
$SKETCHINC
 40
1.0
  9
$FILLETRAD
 40
0.5
  9
$AUNITS
 70
     0
  9
$AUPREC
 70
     0
  9
$MENU
  1
.
  9
$ELEVATION
 40
0.0
  9
$PELEVATION
 40
0.0
  9
$THICKNESS
 40
0.0
  9
$LIMCHECK
 70
     0
  9
$CHAMFERA
 40
10.0
  9
$CHAMFERB
 40
10.0
  9
$CHAMFERC
 40
20.0
  9
$CHAMFERD
 40
0.0
  9
$SKPOLY
 70
     0
  9
$TDCREATE
 40
2453866.557479954
  9
$TDUCREATE
 40
2453866.182479954
  9
$TDUPDATE
 40
2459762.622652558
  9
$TDUUPDATE
 40
2459762.247652558
  9
$TDINDWG
 40
0.8168651852
  9
$TDUSRTIMER
 40
0.0024138194
  9
$USRTIMER
 70
     1
  9
$ANGBASE
 50
0.0
  9
$ANGDIR
 70
     0
  9
$PDMODE
 70
     0
  9
$PDSIZE
 40
0.0
  9
$PLINEWID
 40
0.0
  9
$SPLFRAME
 70
     0
  9
$SPLINETYPE
 70
     6
  9
$SPLINESEGS
 70
     8
  9
$HANDSEED
  5
3CDF
  9
$SURFTAB1
 70
     6
  9
$SURFTAB2
 70
     6
  9
$SURFTYPE
 70
     6
  9
$SURFU
 70
     6
  9
$SURFV
 70
     6
  9
$UCSBASE
  2

  9
$UCSNAME
  2

  9
$UCSORG
 10
0.0
 20
0.0
 30
0.0
  9
$UCSXDIR
 10
1.0
 20
0.0
 30
0.0
  9
$UCSYDIR
 10
0.0
 20
1.0
 30
0.0
  9
$UCSORTHOREF
  2

  9
$UCSORTHOVIEW
 70
     0
  9
$UCSORGTOP
 10
0.0
 20
0.0
 30
0.0
  9
$UCSORGBOTTOM
 10
0.0
 20
0.0
 30
0.0
  9
$UCSORGLEFT
 10
0.0
 20
0.0
 30
0.0
  9
$UCSORGRIGHT
 10
0.0
 20
0.0
 30
0.0
  9
$UCSORGFRONT
 10
0.0
 20
0.0
 30
0.0
  9
$UCSORGBACK
 10
0.0
 20
0.0
 30
0.0
  9
$PUCSBASE
  2

  9
$PUCSNAME
  2

  9
$PUCSORG
 10
0.0
 20
0.0
 30
0.0
  9
$PUCSXDIR
 10
1.0
 20
0.0
 30
0.0
  9
$PUCSYDIR
 10
0.0
 20
1.0
 30
0.0
  9
$PUCSORTHOREF
  2

  9
$PUCSORTHOVIEW
 70
     0
  9
$PUCSORGTOP
 10
0.0
 20
0.0
 30
0.0
  9
$PUCSORGBOTTOM
 10
0.0
 20
0.0
 30
0.0
  9
$PUCSORGLEFT
 10
0.0
 20
0.0
 30
0.0
  9
$PUCSORGRIGHT
 10
0.0
 20
0.0
 30
0.0
  9
$PUCSORGFRONT
 10
0.0
 20
0.0
 30
0.0
  9
$PUCSORGBACK
 10
0.0
 20
0.0
 30
0.0
  9
$USERI1
 70
     0
  9
$USERI2
 70
     0
  9
$USERI3
 70
     0
  9
$USERI4
 70
     0
  9
$USERI5
 70
     0
  9
$USERR1
 40
0.0
  9
$USERR2
 40
0.0
  9
$USERR3
 40
0.0
  9
$USERR4
 40
0.0
  9
$USERR5
 40
0.0
  9
$WORLDVIEW
 70
     1
  9
$SHADEDGE
 70
     3
  9
$SHADEDIF
 70
    70
  9
$TILEMODE
 70
     1
  9
$MAXACTVP
 70
    64
  9
$PINSBASE
 10
0.0
 20
0.0
 30
0.0
  9
$PLIMCHECK
 70
     0
  9
$PEXTMIN
 10
1.000000000000000E+20
 20
1.000000000000000E+20
 30
1.000000000000000E+20
  9
$PEXTMAX
 10
-1.000000000000000E+20
 20
-1.000000000000000E+20
 30
-1.000000000000000E+20
  9
$PLIMMIN
 10
0.0
 20
0.0
  9
$PLIMMAX
 10
0.0
 20
0.0
  9
$UNITMODE
 70
     0
  9
$VISRETAIN
 70
     1
  9
$PLINEGEN
 70
     0
  9
$PSLTSCALE
 70
     1
  9
$TREEDEPTH
 70
  3020
  9
$CMLSTYLE
  2
Standard
  9
$CMLJUST
 70
     0
  9
$CMLSCALE
 40
20.0
  9
$PROXYGRAPHICS
 70
     1
  9
$MEASUREMENT
 70
     1
  9
$CELWEIGHT
370
    -1
  9
$ENDCAPS
280
     0
  9
$JOINSTYLE
280
     0
  9
$LWDISPLAY
290
     0
  9
$INSUNITS
 70
     4
  9
$HYPERLINKBASE
  1

  9
$STYLESHEET
  1

  9
$XEDIT
290
     1
  9
$CEPSNTYPE
380
     0
  9
$PSTYLEMODE
290
     1
  9
$FINGERPRINTGUID
  2
{49B20B3B-064E-400B-9469-2837C497CFA5}
  9
$VERSIONGUID
  2
{CCDC3A7D-9D77-4BF9-B421-98E64B28052D}
  9
$EXTNAMES
290
     1
  9
$PSVPSCALE
 40
0.0
  9
$OLESTARTUP
290
     0
  9
$SORTENTS
280
    96
  9
$INDEXCTL
280
     0
  9
$HIDETEXT
280
     1
  9
$XCLIPFRAME
280
     2
  9
$HALOGAP
280
     0
  9
$OBSCOLOR
 70
   257
  9
$OBSLTYPE
280
     0
  9
$INTERSECTIONDISPLAY
280
     0
  9
$INTERSECTIONCOLOR
 70
   257
  9
$DIMASSOC
280
     2
  9
$PROJECTNAME
  1

  9
$CAMERADISPLAY
290
     0
  9
$LENSLENGTH
 40
50.0
  9
$CAMERAHEIGHT
 40
0.0
  9
$STEPSPERSEC
 40
2.0
  9
$STEPSIZE
 40
6.0
  9
$3DDWFPREC
 40
2.0
  9
$PSOLWIDTH
 40
0.25
  9
$PSOLHEIGHT
 40
4.0
  9
$LOFTANG1
 40
1.570796326794897
  9
$LOFTANG2
 40
1.570796326794897
  9
$LOFTMAG1
 40
0.0
  9
$LOFTMAG2
 40
0.0
  9
$LOFTPARAM
 70
     7
  9
$LOFTNORMALS
280
     1
  9
$LATITUDE
 40
37.795
  9
$LONGITUDE
 40
-122.394
  9
$NORTHDIRECTION
 40
0.0
  9
$TIMEZONE
 70
 -8000
  9
$LIGHTGLYPHDISPLAY
280
     1
  9
$TILEMODELIGHTSYNCH
280
     1
  9
$SOLIDHIST
280
     0
  9
$SHOWHIST
280
     1
  9
$DWFFRAME
280
     2
  9
$DGNFRAME
280
     2
  9
$REALWORLDSCALE
290
     1
  9
$INTERFERECOLOR
 62
   256
  9
$CSHADOW
280
     0
  9
$SHADOWPLANELOCATION
 40
0.0
  0
ENDSEC
  0
SECTION
  2
CLASSES
  0
CLASS
  1
ACDBDICTIONARYWDFLT
  2
AcDbDictionaryWithDefault
  3
ObjectDBX Classes
 90
        0
 91
        3
280
     0
281
     0
  0
CLASS
  1
ACDBPLACEHOLDER
  2
AcDbPlaceHolder
  3
ObjectDBX Classes
 90
        0
 91
        1
280
     0
281
     0
  0
CLASS
  1
LAYOUT
  2
AcDbLayout
  3
ObjectDBX Classes
 90
        0
 91
        1
280
     0
281
     0
  0
CLASS
  1
DICTIONARYVAR
  2
AcDbDictionaryVar
  3
ObjectDBX Classes
 90
        0
 91
        3
280
     0
281
     0
  0
CLASS
  1
SCALE
  2
AcDbScale
  3
ObjectDBX Classes
 90
     1153
 91
        3
280
     0
281
     0
  0
CLASS
  1
MATERIAL
  2
AcDbMaterial
  3
ObjectDBX Classes
 90
     1153
 91
        3
280
     0
281
     0
  0
CLASS
  1
VISUALSTYLE
  2
AcDbVisualStyle
  3
ObjectDBX Classes
 90
     4095
 91
        3
280
     0
281
     0
  0
CLASS
  1
TABLESTYLE
  2
AcDbTableStyle
  3
ObjectDBX Classes
 90
     4095
 91
        3
280
     0
281
     0
  0
CLASS
  1
RASTERVARIABLES
  2
AcDbRasterVariables
  3
ISM
 90
        0
 91
        3
280
     0
281
     0
  0
CLASS
  1
DIMASSOC
  2
AcDbDimAssoc
  3
"AcDbDimAssoc|Product Desc:     AcDim ARX App For Dimension|Company:          Autodesk, Inc.|WEB Address:      www.autodesk.com"
 90
        0
 91
        3
280
     0
281
     0
  0
CLASS
  1
MLEADERSTYLE
  2
AcDbMLeaderStyle
  3
ACDB_MLEADERSTYLE_CLASS
 90
     4095
 91
        3
280
     0
281
     0
  0
CLASS
  1
SUN
  2
AcDbSun
  3
SCENEOE
 90
     1153
 91
        3
280
     0
281
     0
  0
CLASS
  1
CELLSTYLEMAP
  2
AcDbCellStyleMap
  3
ObjectDBX Classes
 90
     1152
 91
        3
280
     0
281
     0
  0
ENDSEC
  0
SECTION
  2
TABLES
  0
TABLE
  2
VPORT
  5
8
330
0
100
AcDbSymbolTable
 70
     1
  0
VPORT
  5
934
330
8
100
AcDbSymbolTableRecord
100
AcDbViewportTableRecord
  2
*Active
 70
     0
 10
0.0
 20
0.0
 11
1.0
 21
1.0
 12
146.0
 22
102.5
 13
0.0
 23
0.0
 14
10.0
 24
10.0
 15
10.0
 25
10.0
 16
0.0
 26
0.0
 36
1.0
 17
0.0
 27
0.0
 37
0.0
 40
209.1
 41
1.737931034482759
 42
50.0
 43
0.0
 44
0.0
 50
0.0
 51
0.0
 71
    16
 72
   100
 73
     1
 74
     3
 75
     0
 76
     0
 77
     0
 78
     0
281
     0
 65
     1
110
0.0
120
0.0
130
0.0
111
1.0
121
0.0
131
0.0
112
0.0
122
1.0
132
0.0
 79
     0
146
0.0
348
3C83
 60
     3
 61
     5
292
     1
282
     1
141
0.0
142
0.0
 63
   256
361
3CA6
  0
ENDTAB
  0
TABLE
  2
LTYPE
  5
5
330
0
100
AcDbSymbolTable
 70
     5
  0
LTYPE
  5
14
330
5
100
AcDbSymbolTableRecord
100
AcDbLinetypeTableRecord
  2
ByBlock
 70
     0
  3

 72
    65
 73
     0
 40
0.0
  0
LTYPE
  5
15
330
5
100
AcDbSymbolTableRecord
100
AcDbLinetypeTableRecord
  2
ByLayer
 70
     0
  3

 72
    65
 73
     0
 40
0.0
  0
LTYPE
  5
16
330
5
100
AcDbSymbolTableRecord
100
AcDbLinetypeTableRecord
  2
Continuous
 70
     0
  3
Solid line
 72
    65
 73
     0
 40
0.0
  0
LTYPE
  5
C6
330
5
100
AcDbSymbolTableRecord
100
AcDbLinetypeTableRecord
  2
ACAD_ISO02W100
 70
     0
  3
ISO dash __ __ __ __ __ __ __ __ __ __ __ __ __
 72
    65
 73
     2
 40
15.0
 49
12.0
 74
     0
 49
-3.0
 74
     0
  0
LTYPE
  5
63F
330
5
100
AcDbSymbolTableRecord
100
AcDbLinetypeTableRecord
  2
HIDDEN
 70
     0
  3
Hidden __ __ __ __ __ __ __ __ __ __ __ __ __ _
 72
    65
 73
     2
 40
4.5
 49
3.0
 74
     0
 49
-1.5
 74
     0
  0
LTYPE
  5
7A5
330
5
100
AcDbSymbolTableRecord
100
AcDbLinetypeTableRecord
  2
ACAD_ISO07W100
 70
     0
  3
ISO dot . . . . . . . . . . . . . . . . . . . .
 72
    65
 73
     2
 40
3.0
 49
0.0
 74
     0
 49
-3.0
 74
     0
  0
LTYPE
  5
A8D
330
5
100
AcDbSymbolTableRecord
100
AcDbLinetypeTableRecord
  2
CENTER2
 70
     0
  3
Center (.5x) ___ _ ___ _ ___ _ ___ _ ___ _ ___
 72
    65
 73
     4
 40
28.575
 49
19.05
 74
     0
 49
-3.175
 74
     0
 49
3.175
 74
     0
 49
-3.175
 74
     0
  0
ENDTAB
  0
TABLE
  2
LAYER
  5
2
102
{ACAD_XDICTIONARY
360
970
102
}
330
0
100
AcDbSymbolTable
 70
    18
  0
LAYER
  5
10
330
2
100
AcDbSymbolTableRecord
100
AcDbLayerTableRecord
  2
0
 70
     0
 62
     7
  6
Continuous
370
    -3
390
F
347
3C9A
  0
LAYER
  5
110
330
2
100
AcDbSymbolTableRecord
100
AcDbLayerTableRecord
  2
Defpoints
 70
     0
 62
     7
  6
Continuous
290
     0
370
    -3
390
F
347
3C9A
  0
LAYER
  5
4E7
330
2
100
AcDbSymbolTableRecord
100
AcDbLayerTableRecord
  2
100
 70
     0
 62
     7
  6
ACAD_ISO07W100
370
    -3
390
F
347
3C9A
  0
LAYER
  5
68D
330
2
100
AcDbSymbolTableRecord
100
AcDbLayerTableRecord
  2
用紙範囲
 70
     0
 62
    10
  6
Continuous
370
    -3
390
F
347
3C9A
  0
LAYER
  5
68E
330
2
100
AcDbSymbolTableRecord
100
AcDbLayerTableRecord
  2
枠
 70
     0
 62
   112
  6
Continuous
370
    -3
390
F
347
3C9A
  0
LAYER
  5
68F
330
2
100
AcDbSymbolTableRecord
100
AcDbLayerTableRecord
  2
寸法
 70
     0
 62
    90
  6
Continuous
370
    -3
390
F
347
3C9A
  0
LAYER
  5
690
330
2
100
AcDbSymbolTableRecord
100
AcDbLayerTableRecord
  2
金属部分
 70
     0
 62
   170
  6
Continuous
370
    -3
390
F
347
3C9A
  0
LAYER
  5
691
330
2
100
AcDbSymbolTableRecord
100
AcDbLayerTableRecord
  2
品番
 70
     0
 62
   244
  6
Continuous
370
    -3
390
F
347
3C9A
  0
LAYER
  5
786
330
2
100
AcDbSymbolTableRecord
100
AcDbLayerTableRecord
  2
文字
 70
     0
 62
    40
  6
Continuous
370
    -3
390
F
347
3C9A
  0
LAYER
  5
790
330
2
100
AcDbSymbolTableRecord
100
AcDbLayerTableRecord
  2
社名
 70
     0
 62
     1
  6
Continuous
370
    -3
390
F
347
3C9A
  0
LAYER
  5
880
330
2
100
AcDbSymbolTableRecord
100
AcDbLayerTableRecord
  2
軟質樹脂部分
 70
     0
 62
    30
  6
Continuous
370
    -3
390
F
347
3C9A
  0
LAYER
  5
896
330
2
100
AcDbSymbolTableRecord
100
AcDbLayerTableRecord
  2
TOS_M1
 70
     0
 62
     7
  6
Continuous
370
    -3
390
F
347
3C9A
  0
LAYER
  5
897
330
2
100
AcDbSymbolTableRecord
100
AcDbLayerTableRecord
  2
TOS_S1
 70
     0
 62
     4
  6
Continuous
370
    -3
390
F
347
3C9A
  0
LAYER
  5
A57
330
2
100
AcDbSymbolTableRecord
100
AcDbLayerTableRecord
  2
補助
 70
     0
 62
     7
  6
HIDDEN
370
    -3
390
F
347
3C9A
1001
AcAecLayerStandard
1000

1000

  0
LAYER
  5
A86
102
{ACAD_XDICTIONARY
360
A87
102
}
330
2
100
AcDbSymbolTableRecord
100
AcDbLayerTableRecord
  2
SCALE
 70
     0
 62
     3
  6
Continuous
370
    -3
390
F
347
3C9A
  0
LAYER
  5
A8A
102
{ACAD_XDICTIONARY
360
A8B
102
}
330
2
100
AcDbSymbolTableRecord
100
AcDbLayerTableRecord
  2
Hojo
 70
     0
 62
   111
  6
Continuous
370
    -3
390
F
347
3C9A
  0
LAYER
  5
2076
330
2
100
AcDbSymbolTableRecord
100
AcDbLayerTableRecord
  2
硬質樹脂部分
 70
     0
 62
   220
  6
Continuous
370
    -3
390
F
347
3C9A
1001
AcAecLayerStandard
1000

1000

  0
LAYER
  5
34A4
330
2
100
AcDbSymbolTableRecord
100
AcDbLayerTableRecord
  2
両面テープ
 70
     0
 62
     7
  6
Continuous
370
    -3
390
F
347
3C9A
1001
AcAecLayerStandard
1000

1000

  0
ENDTAB
  0
TABLE
  2
STYLE
  5
3
330
0
100
AcDbSymbolTable
 70
     2
  0
STYLE
  5
11
330
3
100
AcDbSymbolTableRecord
100
AcDbTextStyleTableRecord
  2
Standard
 70
     0
 40
0.0
 41
1.0
 50
0.0
 71
     0
 42
2.5
  3
txt.shx
  4
bigfont.shx
  0
STYLE
  5
C5
330
3
100
AcDbSymbolTableRecord
100
AcDbTextStyleTableRecord
  2

 70
     1
 40
0.0
 41
1.0
 50
0.0
 71
     0
 42
2.5
  3
ltypeshp.shx
  4

  0
ENDTAB
  0
TABLE
  2
VIEW
  5
6
330
0
100
AcDbSymbolTable
 70
     0
  0
ENDTAB
  0
TABLE
  2
UCS
  5
7
330
0
100
AcDbSymbolTable
 70
     0
  0
ENDTAB
  0
TABLE
  2
APPID
  5
9
330
0
100
AcDbSymbolTable
 70
     6
  0
APPID
  5
12
330
9
100
AcDbSymbolTableRecord
100
AcDbRegAppTableRecord
  2
ACAD
 70
     0
  0
APPID
  5
A58
330
9
100
AcDbSymbolTableRecord
100
AcDbRegAppTableRecord
  2
AcAecLayerStandard
 70
     0
  0
APPID
  5
A97
330
9
100
AcDbSymbolTableRecord
100
AcDbRegAppTableRecord
  2
ACAD_NAV_VCDISPLAY
 70
     0
  0
APPID
  5
A98
330
9
100
AcDbSymbolTableRecord
100
AcDbRegAppTableRecord
  2
ACAD_PSEXT
 70
     0
  0
APPID
  5
B15
330
9
100
AcDbSymbolTableRecord
100
AcDbRegAppTableRecord
  2
ACAD_DSTYLE_DIMRADIAL_EXTENSION
 70
     0
  0
APPID
  5
3CBF
330
9
100
AcDbSymbolTableRecord
100
AcDbRegAppTableRecord
  2
PLOTTRANSPARENCY
 70
     0
  0
ENDTAB
  0
TABLE
  2
DIMSTYLE
  5
A
330
0
100
AcDbSymbolTable
 70
     4
100
AcDbDimStyleTable
  0
DIMSTYLE
105
27
102
{ACAD_REACTORS
330
385C
330
386D
330
388F
330
38CE
330
38EF
330
3949
330
3C47
102
}
330
A
100
AcDbSymbolTableRecord
100
AcDbDimStyleTableRecord
  2
ISO-25
 70
     0
 41
1.0
 42
0.625
 43
3.75
 44
1.25
 77
     1
 78
     8
140
2.0
141
0.0
143
0.03937007874016
147
0.625
171
     3
178
     0
271
     2
272
     2
274
     3
279
     2
283
     0
284
     8
288
     1
340
11
  0
DIMSTYLE
105
4E8
330
A
100
AcDbSymbolTableRecord
100
AcDbDimStyleTableRecord
  2
Standard
 70
     0
178
     0
340
11
  0
DIMSTYLE
105
14C6
330
A
100
AcDbSymbolTableRecord
100
AcDbDimStyleTableRecord
  2
ISO-1
 70
     0
 41
2.5
 42
0.625
 43
3.75
 44
1.25
 77
     1
 78
     8
140
5.0
141
0.0
143
0.03937007874016
144
0.5
147
0.625
171
     3
178
     0
271
     2
272
     2
274
     3
279
     2
283
     0
284
     8
288
     1
340
11
  0
DIMSTYLE
105
2BCC
330
A
100
AcDbSymbolTableRecord
100
AcDbDimStyleTableRecord
  2
ISO-2
 70
     0
 41
2.5
 42
0.625
 43
3.75
 44
1.25
 77
     1
 78
     8
140
5.0
141
0.0
143
0.03937007874016
144
0.2
147
0.625
171
     3
178
     0
271
     2
272
     2
274
     3
279
     2
283
     0
284
     8
288
     1
340
11
  0
ENDTAB
  0
TABLE
  2
BLOCK_RECORD
  5
1
330
0
100
AcDbSymbolTable
 70
    19
  0
BLOCK_RECORD
  5
1F
330
1
100
AcDbSymbolTableRecord
100
AcDbBlockTableRecord
  2
*Model_Space
340
22
 70
     0
280
     1
281
     0
  0
BLOCK_RECORD
  5
1B
330
1
100
AcDbSymbolTableRecord
100
AcDbBlockTableRecord
  2
*Paper_Space
340
1E
 70
     0
280
     1
281
     0
  0
BLOCK_RECORD
  5
23
330
1
100
AcDbSymbolTableRecord
100
AcDbBlockTableRecord
  2
*Paper_Space0
340
26
 70
     0
280
     1
281
     0
  0
BLOCK_RECORD
  5
A91
330
1
100
AcDbSymbolTableRecord
100
AcDbBlockTableRecord
  2
_OPEN
340
0
 70
     0
280
     1
281
     0
  0
BLOCK_RECORD
  5
385F
330
1
100
AcDbSymbolTableRecord
100
AcDbBlockTableRecord
  2
*D2
340
0
 70
     0
280
     1
281
     0
  0
BLOCK_RECORD
  5
3870
330
1
100
AcDbSymbolTableRecord
100
AcDbBlockTableRecord
  2
*D3
340
0
 70
     0
280
     1
281
     0
  0
BLOCK_RECORD
  5
387F
330
1
100
AcDbSymbolTableRecord
100
AcDbBlockTableRecord
  2
*D4
340
0
 70
     0
280
     1
281
     0
  0
BLOCK_RECORD
  5
3892
330
1
100
AcDbSymbolTableRecord
100
AcDbBlockTableRecord
  2
*D5
340
0
 70
     0
280
     1
281
     0
  0
BLOCK_RECORD
  5
38A2
330
1
100
AcDbSymbolTableRecord
100
AcDbBlockTableRecord
  2
*D6
340
0
 70
     0
280
     1
281
     0
  0
BLOCK_RECORD
  5
38B2
330
1
100
AcDbSymbolTableRecord
100
AcDbBlockTableRecord
  2
*D7
340
0
 70
     0
280
     1
281
     0
  0
BLOCK_RECORD
  5
38C2
330
1
100
AcDbSymbolTableRecord
100
AcDbBlockTableRecord
  2
*D8
340
0
 70
     0
280
     1
281
     0
  0
BLOCK_RECORD
  5
38D1
330
1
100
AcDbSymbolTableRecord
100
AcDbBlockTableRecord
  2
*D9
340
0
 70
     0
280
     1
281
     0
  0
BLOCK_RECORD
  5
38F2
330
1
100
AcDbSymbolTableRecord
100
AcDbBlockTableRecord
  2
*D10
340
0
 70
     0
280
     1
281
     0
  0
BLOCK_RECORD
  5
3902
330
1
100
AcDbSymbolTableRecord
100
AcDbBlockTableRecord
  2
*D11
340
0
 70
     0
280
     1
281
     0
  0
BLOCK_RECORD
  5
390F
330
1
100
AcDbSymbolTableRecord
100
AcDbBlockTableRecord
  2
*D12
340
0
 70
     0
280
     1
281
     0
  0
BLOCK_RECORD
  5
394C
330
1
100
AcDbSymbolTableRecord
100
AcDbBlockTableRecord
  2
*D13
340
0
 70
     0
280
     1
281
     0
  0
BLOCK_RECORD
  5
3962
330
1
100
AcDbSymbolTableRecord
100
AcDbBlockTableRecord
  2
*D14
340
0
 70
     0
280
     1
281
     0
  0
BLOCK_RECORD
  5
3C1D
330
1
100
AcDbSymbolTableRecord
100
AcDbBlockTableRecord
  2
*D15
340
0
 70
     0
280
     1
281
     0
  0
BLOCK_RECORD
  5
3C3D
330
1
100
AcDbSymbolTableRecord
100
AcDbBlockTableRecord
  2
*D16
340
0
 70
     0
280
     1
281
     0
  0
BLOCK_RECORD
  5
3C4A
330
1
100
AcDbSymbolTableRecord
100
AcDbBlockTableRecord
  2
*D17
340
0
 70
     0
280
     1
281
     0
  0
BLOCK_RECORD
  5
3C65
330
1
100
AcDbSymbolTableRecord
100
AcDbBlockTableRecord
  2
*D18
340
0
 70
     0
280
     1
281
     0
  0
ENDTAB
  0
ENDSEC
  0
SECTION
  2
BLOCKS
  0
BLOCK
  5
20
330
1F
100
AcDbEntity
  8
0
100
AcDbBlockBegin
  2
*Model_Space
 70
     0
 10
0.0
 20
0.0
 30
0.0
  3
*Model_Space
  1
*Model_Space
  0
ENDBLK
  5
21
330
1F
100
AcDbEntity
  8
0
100
AcDbBlockEnd
  0
BLOCK
  5
1C
330
1B
100
AcDbEntity
 67
     1
  8
0
100
AcDbBlockBegin
  2
*Paper_Space
 70
     0
 10
0.0
 20
0.0
 30
0.0
  3
*Paper_Space
  1
*Paper_Space
  0
ENDBLK
  5
1D
330
1B
100
AcDbEntity
 67
     1
  8
0
100
AcDbBlockEnd
  0
BLOCK
  5
24
330
23
100
AcDbEntity
  8
0
100
AcDbBlockBegin
  2
*Paper_Space0
 70
     0
 10
0.0
 20
0.0
 30
0.0
  3
*Paper_Space0
  1
*Paper_Space0
  0
ENDBLK
  5
25
330
23
100
AcDbEntity
  8
0
100
AcDbBlockEnd
  0
BLOCK
  5
A92
330
A91
100
AcDbEntity
  8
0
100
AcDbBlockBegin
  2
_OPEN
 70
     0
 10
0.0
 20
0.0
 30
0.0
  3
_OPEN
  1
_OPEN
  0
LINE
  5
A93
330
A91
100
AcDbEntity
  8
0
  6
ByBlock
 62
     0
100
AcDbLine
 10
-1.0
 20
0.1666666666666667
 30
0.0
 11
0.0
 21
0.0
 31
0.0
  0
LINE
  5
A94
330
A91
100
AcDbEntity
  8
0
  6
ByBlock
 62
     0
100
AcDbLine
 10
0.0
 20
0.0
 30
0.0
 11
-1.0
 21
-0.1666666666666667
 31
0.0
  0
LINE
  5
A95
330
A91
100
AcDbEntity
  8
0
  6
ByBlock
 62
     0
100
AcDbLine
 10
0.0
 20
0.0
 30
0.0
 11
-1.0
 21
0.0
 31
0.0
  0
ENDBLK
  5
A96
330
A91
100
AcDbEntity
  8
0
100
AcDbBlockEnd
  0
BLOCK
  5
3860
330
385F
100
AcDbEntity
  8
0
100
AcDbBlockBegin
  2
*D2
 70
     1
 10
0.0
 20
0.0
 30
0.0
  3
*D2
  1
*D408
  0
LINE
  5
3862
330
385F
100
AcDbEntity
  8
寸法
  6
Continuous
 62
     0
370
    -2
100
AcDbLine
 10
152.2089011738633
 20
113.6839181218237
 30
0.0
 11
157.5578142857145
 21
113.6839181218237
 31
0.0
  0
LINE
  5
3863
330
385F
100
AcDbEntity
  8
寸法
  6
Continuous
 62
     0
370
    -2
100
AcDbLine
 10
152.2302650109861
 20
112.8844890461877
 30
0.0
 11
157.5578142857145
 21
112.8844890461877
 31
0.0
  0
LINE
  5
3864
330
385F
100
AcDbEntity
  8
寸法
  6
Continuous
 62
     0
370
    -2
100
AcDbLine
 10
156.3078142857145
 20
114.6839181218237
 30
0.0
 11
156.3078142857145
 21
115.6839181218237
 31
0.0
  0
LINE
  5
3865
330
385F
100
AcDbEntity
  8
寸法
  6
Continuous
 62
     0
370
    -2
100
AcDbLine
 10
156.3078142857145
 20
111.8844890461877
 30
0.0
 11
156.3078142857145
 21
110.8844890461877
 31
0.0
  0
SOLID
  5
3866
330
385F
100
AcDbEntity
  8
寸法
 62
     0
100
AcDbTrace
 10
156.1411476190478
 20
114.6839181218237
 30
0.0
 11
156.4744809523812
 21
114.6839181218237
 31
0.0
 12
156.3078142857145
 22
113.6839181218237
 32
0.0
 13
156.3078142857145
 23
113.6839181218237
 33
0.0
  0
SOLID
  5
3867
330
385F
100
AcDbEntity
  8
寸法
 62
     0
100
AcDbTrace
 10
156.4744809523812
 20
111.8844890461877
 30
0.0
 11
156.1411476190478
 21
111.8844890461877
 31
0.0
 12
156.3078142857145
 22
112.8844890461877
 32
0.0
 13
156.3078142857145
 23
112.8844890461877
 33
0.0
  0
MTEXT
  5
3868
330
385F
100
AcDbEntity
  8
寸法
  6
Continuous
 62
     0
100
AcDbMText
 10
159.9573227058351
 20
113.3830819574052
 30
0.0
 40
2.0
 41
0.0
 46
0.0
 71
     5
 72
     1
  1
0.8
 73
     1
 44
1.0
  0
POINT
  5
3869
330
385F
100
AcDbEntity
  8
Defpoints
 62
     0
100
AcDbPoint
 10
151.5839011738633
 20
113.6839181218237
 30
0.0
  0
POINT
  5
386A
330
385F
100
AcDbEntity
  8
Defpoints
 62
     0
100
AcDbPoint
 10
151.6052650109861
 20
112.8844890461877
 30
0.0
  0
POINT
  5
386B
330
385F
100
AcDbEntity
  8
Defpoints
 62
     0
100
AcDbPoint
 10
156.3078142857145
 20
112.8844890461877
 30
0.0
  0
ENDBLK
  5
3861
330
385F
100
AcDbEntity
  8
0
100
AcDbBlockEnd
  0
BLOCK
  5
3871
330
3870
100
AcDbEntity
  8
0
100
AcDbBlockBegin
  2
*D3
 70
     1
 10
0.0
 20
0.0
 30
0.0
  3
*D3
  1
*D409
  0
LINE
  5
3873
330
3870
100
AcDbEntity
  8
寸法
  6
Continuous
 62
     0
370
    -2
100
AcDbLine
 10
113.7078142857143
 20
119.1290941302482
 30
0.0
 11
113.7078142857143
 21
124.6799362737314
 31
0.0
  0
LINE
  5
3874
330
3870
100
AcDbEntity
  8
寸法
  6
Continuous
 62
     0
370
    -2
100
AcDbLine
 10
118.7078142857143
 20
119.3339130915952
 30
0.0
 11
118.7078142857143
 21
124.6799362737314
 31
0.0
  0
LINE
  5
3875
330
3870
100
AcDbEntity
  8
寸法
  6
Continuous
 62
     0
370
    -2
100
AcDbLine
 10
114.7078142857143
 20
123.4299362737314
 30
0.0
 11
115.0954059274757
 21
123.4299362737314
 31
0.0
  0
LINE
  5
3876
330
3870
100
AcDbEntity
  8
寸法
  6
Continuous
 62
     0
370
    -2
100
AcDbLine
 10
117.7078142857143
 20
123.4299362737314
 30
0.0
 11
117.6787392608091
 21
123.4299362737314
 31
0.0
  0
SOLID
  5
3877
330
3870
100
AcDbEntity
  8
寸法
 62
     0
100
AcDbTrace
 10
114.7078142857143
 20
123.5966029403981
 30
0.0
 11
114.7078142857143
 21
123.2632696070647
 31
0.0
 12
113.7078142857143
 22
123.4299362737314
 32
0.0
 13
113.7078142857143
 23
123.4299362737314
 33
0.0
  0
SOLID
  5
3878
330
3870
100
AcDbEntity
  8
寸法
 62
     0
100
AcDbTrace
 10
117.7078142857143
 20
123.2632696070647
 30
0.0
 11
117.7078142857143
 21
123.5966029403981
 31
0.0
 12
118.7078142857143
 22
123.4299362737314
 32
0.0
 13
118.7078142857143
 23
123.4299362737314
 33
0.0
  0
MTEXT
  5
3879
330
3870
100
AcDbEntity
  8
寸法
  6
Continuous
 62
     0
100
AcDbMText
 10
116.3870725941424
 20
123.4299362737314
 30
0.0
 40
2.0
 41
0.0
 46
0.0
 71
     5
 72
     1
  1
5
 73
     1
 44
1.0
  0
POINT
  5
387A
330
3870
100
AcDbEntity
  8
Defpoints
 62
     0
100
AcDbPoint
 10
113.7078142857143
 20
118.5040941302482
 30
0.0
  0
POINT
  5
387B
330
3870
100
AcDbEntity
  8
Defpoints
 62
     0
100
AcDbPoint
 10
118.7078142857143
 20
118.7089130915952
 30
0.0
  0
POINT
  5
3CCE
330
3870
100
AcDbEntity
  8
Defpoints
 62
     0
100
AcDbPoint
 10
118.7078142857143
 20
123.4299362737314
 30
0.0
  0
ENDBLK
  5
3872
330
3870
100
AcDbEntity
  8
0
100
AcDbBlockEnd
  0
BLOCK
  5
3880
330
387F
100
AcDbEntity
  8
0
100
AcDbBlockBegin
  2
*D4
 70
     1
 10
0.0
 20
0.0
 30
0.0
  3
*D4
  1
*D410
  0
LINE
  5
3882
330
387F
100
AcDbEntity
  8
寸法
  6
Continuous
 62
     0
370
    -2
100
AcDbLine
 10
117.7078142857143
 20
119.4109393274846
 30
0.0
 11
117.7078142857143
 21
123.4532519867651
 31
0.0
  0
LINE
  5
3883
330
387F
100
AcDbEntity
  8
寸法
  6
Continuous
 62
     0
370
    -2
100
AcDbLine
 10
113.7078142857143
 20
119.1290941302482
 30
0.0
 11
113.7078142857143
 21
123.4532519867651
 31
0.0
  0
LINE
  5
3884
330
387F
100
AcDbEntity
  8
寸法
  6
Continuous
 62
     0
370
    -2
100
AcDbLine
 10
116.7078142857143
 20
122.2032519867651
 30
0.0
 11
114.7078142857143
 21
122.2032519867651
 31
0.0
  0
SOLID
  5
3885
330
387F
100
AcDbEntity
  8
寸法
 62
     0
100
AcDbTrace
 10
116.7078142857143
 20
122.0365853200984
 30
0.0
 11
116.7078142857143
 21
122.3699186534317
 31
0.0
 12
117.7078142857143
 22
122.2032519867651
 32
0.0
 13
117.7078142857143
 23
122.2032519867651
 33
0.0
  0
SOLID
  5
3886
330
387F
100
AcDbEntity
  8
寸法
 62
     0
100
AcDbTrace
 10
114.7078142857143
 20
122.3699186534317
 30
0.0
 11
114.7078142857143
 21
122.0365853200984
 31
0.0
 12
113.7078142857143
 22
122.2032519867651
 32
0.0
 13
113.7078142857143
 23
122.2032519867651
 33
0.0
  0
MTEXT
  5
3887
330
387F
100
AcDbEntity
  8
寸法
  6
Continuous
 62
     0
100
AcDbMText
 10
115.4120841598567
 20
123.8615000324793
 30
0.0
 40
2.0
 41
0.0
 46
0.0
 71
     5
 72
     1
  1
4
 73
     1
 44
1.0
  0
POINT
  5
3888
330
387F
100
AcDbEntity
  8
Defpoints
 62
     0
100
AcDbPoint
 10
117.7078142857143
 20
118.7859393274846
 30
0.0
  0
POINT
  5
3889
330
387F
100
AcDbEntity
  8
Defpoints
 62
     0
100
AcDbPoint
 10
113.7078142857143
 20
118.5040941302482
 30
0.0
  0
POINT
  5
388A
330
387F
100
AcDbEntity
  8
Defpoints
 62
     0
100
AcDbPoint
 10
113.7078142857143
 20
122.2032519867651
 30
0.0
  0
ENDBLK
  5
3881
330
387F
100
AcDbEntity
  8
0
100
AcDbBlockEnd
  0
BLOCK
  5
3893
330
3892
100
AcDbEntity
  8
0
100
AcDbBlockBegin
  2
*D5
 70
     1
 10
0.0
 20
0.0
 30
0.0
  3
*D5
  1
*D411
  0
LINE
  5
3895
330
3892
100
AcDbEntity
  8
寸法
  6
Continuous
 62
     0
370
    -2
100
AcDbLine
 10
113.5828142857143
 20
118.4299362737314
 30
0.0
 11
102.4578142857143
 21
118.4299362737314
 31
0.0
  0
LINE
  5
3896
330
3892
100
AcDbEntity
  8
寸法
  6
Continuous
 62
     0
370
    -2
100
AcDbLine
 10
113.0828142857143
 20
109.4299362737314
 30
0.0
 11
102.4578142857143
 21
109.4299362737314
 31
0.0
  0
LINE
  5
3897
330
3892
100
AcDbEntity
  8
寸法
  6
Continuous
 62
     0
370
    -2
100
AcDbLine
 10
103.7078142857143
 20
117.4299362737314
 30
0.0
 11
103.7078142857143
 21
115.5549362737314
 31
0.0
  0
LINE
  5
3898
330
3892
100
AcDbEntity
  8
寸法
  6
Continuous
 62
     0
370
    -2
100
AcDbLine
 10
103.7078142857143
 20
110.4299362737314
 30
0.0
 11
103.7078142857143
 21
112.3049362737314
 31
0.0
  0
SOLID
  5
3899
330
3892
100
AcDbEntity
  8
寸法
 62
     0
100
AcDbTrace
 10
103.874480952381
 20
117.4299362737314
 30
0.0
 11
103.5411476190476
 21
117.4299362737314
 31
0.0
 12
103.7078142857143
 22
118.4299362737314
 32
0.0
 13
103.7078142857143
 23
118.4299362737314
 33
0.0
  0
SOLID
  5
389A
330
3892
100
AcDbEntity
  8
寸法
 62
     0
100
AcDbTrace
 10
103.5411476190476
 20
110.4299362737314
 30
0.0
 11
103.874480952381
 21
110.4299362737314
 31
0.0
 12
103.7078142857143
 22
109.4299362737314
 32
0.0
 13
103.7078142857143
 23
109.4299362737314
 33
0.0
  0
MTEXT
  5
389B
330
3892
100
AcDbEntity
  8
寸法
  6
Continuous
 62
     0
100
AcDbMText
 10
103.7078142857143
 20
113.9299362737314
 30
0.0
 40
2.0
 41
0.0
 46
0.0
 71
     5
 72
     1
  1
9
 73
     1
 44
1.0
  0
POINT
  5
389C
330
3892
100
AcDbEntity
  8
Defpoints
 62
     0
100
AcDbPoint
 10
114.2078142857143
 20
118.4299362737314
 30
0.0
  0
POINT
  5
389D
330
3892
100
AcDbEntity
  8
Defpoints
 62
     0
100
AcDbPoint
 10
113.7078142857143
 20
109.4299362737314
 30
0.0
  0
POINT
  5
3C60
330
3892
100
AcDbEntity
  8
Defpoints
 62
     0
100
AcDbPoint
 10
103.7078142857143
 20
109.4299362737314
 30
0.0
  0
ENDBLK
  5
3894
330
3892
100
AcDbEntity
  8
0
100
AcDbBlockEnd
  0
BLOCK
  5
38A3
330
38A2
100
AcDbEntity
  8
0
100
AcDbBlockBegin
  2
*D6
 70
     1
 10
0.0
 20
0.0
 30
0.0
  3
*D6
  1
*D412
  0
LINE
  5
38A5
330
38A2
100
AcDbEntity
  8
寸法
  6
Continuous
 62
     0
370
    -2
100
AcDbLine
 10
113.0828142857143
 20
109.4299362737314
 30
0.0
 11
107.6358389311957
 21
109.4299362737314
 31
0.0
  0
LINE
  5
38A6
330
38A2
100
AcDbEntity
  8
寸法
  6
Continuous
 62
     0
370
    -2
100
AcDbLine
 10
113.0828142857143
 20
112.9299362702564
 30
0.0
 11
107.6358389311957
 21
112.9299362702564
 31
0.0
  0
LINE
  5
38A7
330
38A2
100
AcDbEntity
  8
寸法
  6
Continuous
 62
     0
370
    -2
100
AcDbLine
 10
108.8858389311957
 20
110.4299362737314
 30
0.0
 11
108.8858389311957
 21
111.9299362702564
 31
0.0
  0
SOLID
  5
38A8
330
38A2
100
AcDbEntity
  8
寸法
 62
     0
100
AcDbTrace
 10
108.719172264529
 20
110.4299362737314
 30
0.0
 11
109.0525055978623
 21
110.4299362737314
 31
0.0
 12
108.8858389311957
 22
109.4299362737314
 32
0.0
 13
108.8858389311957
 23
109.4299362737314
 33
0.0
  0
SOLID
  5
38A9
330
38A2
100
AcDbEntity
  8
寸法
 62
     0
100
AcDbTrace
 10
109.0525055978623
 20
111.9299362702564
 30
0.0
 11
108.719172264529
 21
111.9299362702564
 31
0.0
 12
108.8858389311957
 22
112.9299362702564
 32
0.0
 13
108.8858389311957
 23
112.9299362702564
 33
0.0
  0
MTEXT
  5
38AA
330
38A2
100
AcDbEntity
  8
寸法
  6
Continuous
 62
     0
100
AcDbMText
 10
106.2449253769099
 20
110.8849973808607
 30
0.0
 40
2.0
 41
0.0
 46
0.0
 71
     5
 72
     1
  1
3.5
 73
     1
 44
1.0
  0
POINT
  5
38AB
330
38A2
100
AcDbEntity
  8
Defpoints
 62
     0
100
AcDbPoint
 10
113.7078142857143
 20
109.4299362737314
 30
0.0
  0
POINT
  5
38AC
330
38A2
100
AcDbEntity
  8
Defpoints
 62
     0
100
AcDbPoint
 10
113.7078142857143
 20
112.9299362702564
 30
0.0
  0
POINT
  5
38AD
330
38A2
100
AcDbEntity
  8
Defpoints
 62
     0
100
AcDbPoint
 10
108.8858389311957
 20
112.9299362702564
 30
0.0
  0
ENDBLK
  5
38A4
330
38A2
100
AcDbEntity
  8
0
100
AcDbBlockEnd
  0
BLOCK
  5
38B3
330
38B2
100
AcDbEntity
  8
0
100
AcDbBlockBegin
  2
*D7
 70
     1
 10
0.0
 20
0.0
 30
0.0
  3
*D7
  1
*D413
  0
LINE
  5
38B5
330
38B2
100
AcDbEntity
  8
寸法
  6
Continuous
 62
     0
370
    -2
100
AcDbLine
 10
113.0828142857143
 20
112.9299362702564
 30
0.0
 11
107.6358389311957
 21
112.9299362702564
 31
0.0
  0
LINE
  5
38B6
330
38B2
100
AcDbEntity
  8
寸法
  6
Continuous
 62
     0
370
    -2
100
AcDbLine
 10
113.0828142857143
 20
114.9299362737314
 30
0.0
 11
107.6358389311957
 21
114.9299362737314
 31
0.0
  0
LINE
  5
38B7
330
38B2
100
AcDbEntity
  8
寸法
  6
Continuous
 62
     0
370
    -2
100
AcDbLine
 10
108.8858389311957
 20
111.9299362702564
 30
0.0
 11
108.8858389311957
 21
110.9299362702564
 31
0.0
  0
LINE
  5
38B8
330
38B2
100
AcDbEntity
  8
寸法
  6
Continuous
 62
     0
370
    -2
100
AcDbLine
 10
108.8858389311957
 20
115.9299362737314
 30
0.0
 11
108.8858389311957
 21
116.9299362737314
 31
0.0
  0
SOLID
  5
38B9
330
38B2
100
AcDbEntity
  8
寸法
 62
     0
100
AcDbTrace
 10
109.0525055978623
 20
111.9299362702564
 30
0.0
 11
108.719172264529
 21
111.9299362702564
 31
0.0
 12
108.8858389311957
 22
112.9299362702564
 32
0.0
 13
108.8858389311957
 23
112.9299362702564
 33
0.0
  0
SOLID
  5
38BA
330
38B2
100
AcDbEntity
  8
寸法
 62
     0
100
AcDbTrace
 10
108.719172264529
 20
115.9299362737314
 30
0.0
 11
109.0525055978623
 21
115.9299362737314
 31
0.0
 12
108.8858389311957
 22
114.9299362737314
 32
0.0
 13
108.8858389311957
 23
114.9299362737314
 33
0.0
  0
MTEXT
  5
38BB
330
38B2
100
AcDbEntity
  8
寸法
  6
Continuous
 62
     0
100
AcDbMText
 10
105.675962047447
 20
114.2834784580871
 30
0.0
 40
2.0
 41
0.0
 46
0.0
 71
     5
 72
     1
  1
2
 73
     1
 44
1.0
  0
POINT
  5
38BC
330
38B2
100
AcDbEntity
  8
Defpoints
 62
     0
100
AcDbPoint
 10
113.7078142857143
 20
112.9299362702564
 30
0.0
  0
POINT
  5
38BD
330
38B2
100
AcDbEntity
  8
Defpoints
 62
     0
100
AcDbPoint
 10
113.7078142857143
 20
114.9299362737314
 30
0.0
  0
POINT
  5
38BE
330
38B2
100
AcDbEntity
  8
Defpoints
 62
     0
100
AcDbPoint
 10
108.8858389311957
 20
114.9299362737314
 30
0.0
  0
ENDBLK
  5
38B4
330
38B2
100
AcDbEntity
  8
0
100
AcDbBlockEnd
  0
BLOCK
  5
38C3
330
38C2
100
AcDbEntity
  8
0
100
AcDbBlockBegin
  2
*D8
 70
     1
 10
0.0
 20
0.0
 30
0.0
  3
*D8
  1
*D414
  0
LINE
  5
38C5
330
38C2
100
AcDbEntity
  8
寸法
  6
Continuous
 62
     0
370
    -2
100
AcDbLine
 10
113.0828142857143
 20
114.9299362737314
 30
0.0
 11
107.6358389311957
 21
114.9299362737314
 31
0.0
  0
LINE
  5
38C6
330
38C2
100
AcDbEntity
  8
寸法
  6
Continuous
 62
     0
370
    -2
100
AcDbLine
 10
113.5828142857143
 20
118.4299362737314
 30
0.0
 11
107.6358389311957
 21
118.4299362737314
 31
0.0
  0
LINE
  5
38C7
330
38C2
100
AcDbEntity
  8
寸法
  6
Continuous
 62
     0
370
    -2
100
AcDbLine
 10
108.8858389311957
 20
115.9299362737314
 30
0.0
 11
108.8858389311957
 21
117.4299362737314
 31
0.0
  0
SOLID
  5
38C8
330
38C2
100
AcDbEntity
  8
寸法
 62
     0
100
AcDbTrace
 10
108.719172264529
 20
115.9299362737314
 30
0.0
 11
109.0525055978623
 21
115.9299362737314
 31
0.0
 12
108.8858389311957
 22
114.9299362737314
 32
0.0
 13
108.8858389311957
 23
114.9299362737314
 33
0.0
  0
SOLID
  5
38C9
330
38C2
100
AcDbEntity
  8
寸法
 62
     0
100
AcDbTrace
 10
109.0525055978623
 20
117.4299362737314
 30
0.0
 11
108.719172264529
 21
117.4299362737314
 31
0.0
 12
108.8858389311957
 22
118.4299362737314
 32
0.0
 13
108.8858389311957
 23
118.4299362737314
 33
0.0
  0
MTEXT
  5
38CA
330
38C2
100
AcDbEntity
  8
寸法
  6
Continuous
 62
     0
100
AcDbMText
 10
106.3489588781272
 20
116.7087657612897
 30
0.0
 40
2.0
 41
0.0
 46
0.0
 71
     5
 72
     1
  1
3.5
 73
     1
 44
1.0
  0
POINT
  5
38CB
330
38C2
100
AcDbEntity
  8
Defpoints
 62
     0
100
AcDbPoint
 10
113.7078142857143
 20
114.9299362737314
 30
0.0
  0
POINT
  5
38CC
330
38C2
100
AcDbEntity
  8
Defpoints
 62
     0
100
AcDbPoint
 10
114.2078142857143
 20
118.4299362737314
 30
0.0
  0
POINT
  5
38CD
330
38C2
100
AcDbEntity
  8
Defpoints
 62
     0
100
AcDbPoint
 10
108.8858389311957
 20
118.4299362737314
 30
0.0
  0
ENDBLK
  5
38C4
330
38C2
100
AcDbEntity
  8
0
100
AcDbBlockEnd
  0
BLOCK
  5
38D2
330
38D1
100
AcDbEntity
  8
0
100
AcDbBlockBegin
  2
*D9
 70
     1
 10
0.0
 20
0.0
 30
0.0
  3
*D9
  1
*D415
  0
LINE
  5
38D4
330
38D1
100
AcDbEntity
  8
寸法
  6
Continuous
 62
     0
370
    -2
100
AcDbLine
 10
113.7078142857143
 20
118.5549362737314
 30
0.0
 11
113.7078142857143
 21
129.6799362737314
 31
0.0
  0
LINE
  5
38D5
330
38D1
100
AcDbEntity
  8
寸法
  6
Continuous
 62
     0
370
    -2
100
AcDbLine
 10
151.7078142857145
 20
113.9549362702563
 30
0.0
 11
151.7078142857145
 21
129.6799362737314
 31
0.0
  0
LINE
  5
38D6
330
38D1
100
AcDbEntity
  8
寸法
  6
Continuous
 62
     0
370
    -2
100
AcDbLine
 10
114.7078142857143
 20
128.4299362737314
 30
0.0
 11
130.4161476190477
 21
128.4299362737314
 31
0.0
  0
LINE
  5
38D7
330
38D1
100
AcDbEntity
  8
寸法
  6
Continuous
 62
     0
370
    -2
100
AcDbLine
 10
150.7078142857145
 20
128.4299362737314
 30
0.0
 11
134.999480952381
 21
128.4299362737314
 31
0.0
  0
SOLID
  5
38D8
330
38D1
100
AcDbEntity
  8
寸法
 62
     0
100
AcDbTrace
 10
114.7078142857143
 20
128.5966029403981
 30
0.0
 11
114.7078142857143
 21
128.2632696070648
 31
0.0
 12
113.7078142857143
 22
128.4299362737314
 32
0.0
 13
113.7078142857143
 23
128.4299362737314
 33
0.0
  0
SOLID
  5
38D9
330
38D1
100
AcDbEntity
  8
寸法
 62
     0
100
AcDbTrace
 10
150.7078142857145
 20
128.2632696070648
 30
0.0
 11
150.7078142857145
 21
128.5966029403981
 31
0.0
 12
151.7078142857145
 22
128.4299362737314
 32
0.0
 13
151.7078142857145
 23
128.4299362737314
 33
0.0
  0
MTEXT
  5
38DA
330
38D1
100
AcDbEntity
  8
寸法
  6
Continuous
 62
     0
100
AcDbMText
 10
132.7078142857144
 20
128.4299362737314
 30
0.0
 40
2.0
 41
0.0
 46
0.0
 71
     5
 72
     1
  1
38
 73
     1
 44
1.0
  0
POINT
  5
38DB
330
38D1
100
AcDbEntity
  8
Defpoints
 62
     0
100
AcDbPoint
 10
113.7078142857143
 20
117.9299362737314
 30
0.0
  0
POINT
  5
38DC
330
38D1
100
AcDbEntity
  8
Defpoints
 62
     0
100
AcDbPoint
 10
151.7078142857145
 20
113.3299362702563
 30
0.0
  0
POINT
  5
3C61
330
38D1
100
AcDbEntity
  8
Defpoints
 62
     0
100
AcDbPoint
 10
151.7078142857145
 20
128.4299362737314
 30
0.0
  0
ENDBLK
  5
38D3
330
38D1
100
AcDbEntity
  8
0
100
AcDbBlockEnd
  0
BLOCK
  5
38F3
330
38F2
100
AcDbEntity
  8
0
100
AcDbBlockBegin
  2
*D10
 70
     1
 10
0.0
 20
0.0
 30
0.0
  3
*D10
  1
*D417
  0
LINE
  5
38F5
330
38F2
100
AcDbEntity
  8
寸法
  6
Continuous
 62
     0
370
    -2
100
AcDbLine
 10
113.7078142857143
 20
108.8049362737314
 30
0.0
 11
113.7078142857143
 21
103.1799362737314
 31
0.0
  0
LINE
  5
38F6
330
38F2
100
AcDbEntity
  8
寸法
  6
Continuous
 62
     0
370
    -2
100
AcDbLine
 10
114.9078142857143
 20
108.8049362737314
 30
0.0
 11
114.9078142857143
 21
103.1799362737314
 31
0.0
  0
LINE
  5
38F7
330
38F2
100
AcDbEntity
  8
寸法
  6
Continuous
 62
     0
370
    -2
100
AcDbLine
 10
112.7078142857143
 20
104.4299362737314
 30
0.0
 11
111.7078142857143
 21
104.4299362737314
 31
0.0
  0
LINE
  5
38F8
330
38F2
100
AcDbEntity
  8
寸法
  6
Continuous
 62
     0
370
    -2
100
AcDbLine
 10
115.9078142857143
 20
104.4299362737314
 30
0.0
 11
116.9078142857143
 21
104.4299362737314
 31
0.0
  0
SOLID
  5
38F9
330
38F2
100
AcDbEntity
  8
寸法
 62
     0
100
AcDbTrace
 10
112.7078142857143
 20
104.2632696070647
 30
0.0
 11
112.7078142857143
 21
104.5966029403981
 31
0.0
 12
113.7078142857143
 22
104.4299362737314
 32
0.0
 13
113.7078142857143
 23
104.4299362737314
 33
0.0
  0
SOLID
  5
38FA
330
38F2
100
AcDbEntity
  8
寸法
 62
     0
100
AcDbTrace
 10
115.9078142857143
 20
104.5966029403981
 30
0.0
 11
115.9078142857143
 21
104.2632696070647
 31
0.0
 12
114.9078142857143
 22
104.4299362737314
 32
0.0
 13
114.9078142857143
 23
104.4299362737314
 33
0.0
  0
MTEXT
  5
38FB
330
38F2
100
AcDbEntity
  8
寸法
  6
Continuous
 62
     0
100
AcDbMText
 10
114.4031676148222
 20
101.6223016405037
 30
0.0
 40
2.0
 41
0.0
 46
0.0
 71
     5
 72
     1
  1
1.2
 73
     1
 44
1.0
  0
POINT
  5
38FC
330
38F2
100
AcDbEntity
  8
Defpoints
 62
     0
100
AcDbPoint
 10
113.7078142857143
 20
109.4299362737314
 30
0.0
  0
POINT
  5
38FD
330
38F2
100
AcDbEntity
  8
Defpoints
 62
     0
100
AcDbPoint
 10
114.9078142857143
 20
109.4299362737314
 30
0.0
  0
POINT
  5
38FE
330
38F2
100
AcDbEntity
  8
Defpoints
 62
     0
100
AcDbPoint
 10
114.9078142857143
 20
104.4299362737314
 30
0.0
  0
ENDBLK
  5
38F4
330
38F2
100
AcDbEntity
  8
0
100
AcDbBlockEnd
  0
BLOCK
  5
3903
330
3902
100
AcDbEntity
  8
0
100
AcDbBlockBegin
  2
*D11
 70
     1
 10
0.0
 20
0.0
 30
0.0
  3
*D11
  1
*D418
  0
LINE
  5
3905
330
3902
100
AcDbEntity
  8
寸法
  6
Continuous
 62
     0
370
    -2
100
AcDbLine
 10
113.0297660411308
 20
118.8584847826601
 30
0.0
 11
112.2444005447419
 21
119.477517121946
 31
0.0
  0
MTEXT
  5
3906
330
3902
100
AcDbEntity
  8
寸法
  6
Continuous
 62
     0
100
AcDbMText
 10
107.4938007576793
 20
121.8967269938278
 30
0.0
 40
2.0
 41
0.0
 46
0.0
 71
     5
 72
     1
  1
R0.5
 73
     1
 44
1.0
  0
SOLID
  5
3907
330
3902
100
AcDbEntity
  8
寸法
 62
     0
100
AcDbTrace
 10
112.9265939845832
 20
118.7275905332619
 30
0.0
 11
113.1329380976785
 21
118.9893790320583
 31
0.0
 12
113.8151315375198
 22
118.2394524433743
 32
0.0
 13
113.8151315375198
 23
118.2394524433743
 33
0.0
  0
POINT
  5
3908
330
3902
100
AcDbEntity
  8
Defpoints
 62
     0
100
AcDbPoint
 10
113.8151315375198
 20
118.2394524433743
 30
0.0
  0
POINT
  5
3909
330
3902
100
AcDbEntity
  8
Defpoints
 62
     0
100
AcDbPoint
 10
114.2078142857143
 20
117.9299362737314
 30
0.0
  0
ENDBLK
  5
3904
330
3902
100
AcDbEntity
  8
0
100
AcDbBlockEnd
  0
BLOCK
  5
3910
330
390F
100
AcDbEntity
  8
0
100
AcDbBlockBegin
  2
*D12
 70
     1
 10
0.0
 20
0.0
 30
0.0
  3
*D12
  1
*D419
  0
LINE
  5
3912
330
390F
100
AcDbEntity
  8
寸法
  6
Continuous
 62
     0
370
    -2
100
AcDbLine
 10
119.3691009347538
 20
118.7594619704725
 30
0.0
 11
120.2022708169764
 21
119.3124791016333
 31
0.0
  0
MTEXT
  5
3913
330
390F
100
AcDbEntity
  8
寸法
  6
Continuous
 62
     0
100
AcDbMText
 10
125.1594370037153
 20
121.8007635652563
 30
0.0
 40
2.0
 41
0.0
 46
0.0
 71
     5
 72
     1
  1
R0.5
 73
     1
 44
1.0
  0
SOLID
  5
3914
330
390F
100
AcDbEntity
  8
寸法
 62
     0
100
AcDbTrace
 10
119.2769314128937
 20
118.8983236175096
 30
0.0
 11
119.461270456614
 21
118.6206003234354
 31
0.0
 12
118.5359310525313
 22
118.2064448393117
 32
0.0
 13
118.5359310525313
 23
118.2064448393117
 33
0.0
  0
POINT
  5
3915
330
390F
100
AcDbEntity
  8
Defpoints
 62
     0
100
AcDbPoint
 10
118.5359310525313
 20
118.2064448393117
 30
0.0
  0
POINT
  5
3916
330
390F
100
AcDbEntity
  8
Defpoints
 62
     0
100
AcDbPoint
 10
118.11934611142
 20
117.9299362737314
 30
0.0
  0
ENDBLK
  5
3911
330
390F
100
AcDbEntity
  8
0
100
AcDbBlockEnd
  0
BLOCK
  5
394D
330
394C
100
AcDbEntity
  8
0
100
AcDbBlockBegin
  2
*D13
 70
     1
 10
0.0
 20
0.0
 30
0.0
  3
*D13
  1
*D420
  0
LINE
  5
394F
330
394C
100
AcDbEntity
  8
寸法
  6
Continuous
 62
     0
370
    -2
100
AcDbLine
 10
118.6699492936228
 20
118.4299362737314
 30
0.0
 11
124.2949492936228
 21
118.4299362737314
 31
0.0
  0
LINE
  5
3950
330
394C
100
AcDbEntity
  8
寸法
  6
Continuous
 62
     0
370
    -2
100
AcDbLine
 10
121.0920512736741
 20
114.9299362737314
 30
0.0
 11
124.2949492936228
 21
114.9299362737314
 31
0.0
  0
LINE
  5
3951
330
394C
100
AcDbEntity
  8
寸法
  6
Continuous
 62
     0
370
    -2
100
AcDbLine
 10
123.0449492936228
 20
119.4299362737314
 30
0.0
 11
123.0449492936228
 21
120.4299362737314
 31
0.0
  0
LINE
  5
3952
330
394C
100
AcDbEntity
  8
寸法
  6
Continuous
 62
     0
370
    -2
100
AcDbLine
 10
123.0449492936228
 20
113.9299362737314
 30
0.0
 11
123.0449492936228
 21
112.9299362737314
 31
0.0
  0
SOLID
  5
3953
330
394C
100
AcDbEntity
  8
寸法
 62
     0
100
AcDbTrace
 10
122.8782826269561
 20
119.4299362737314
 30
0.0
 11
123.2116159602895
 21
119.4299362737314
 31
0.0
 12
123.0449492936228
 22
118.4299362737314
 32
0.0
 13
123.0449492936228
 23
118.4299362737314
 33
0.0
  0
SOLID
  5
3954
330
394C
100
AcDbEntity
  8
寸法
 62
     0
100
AcDbTrace
 10
123.2116159602895
 20
113.9299362737314
 30
0.0
 11
122.8782826269561
 21
113.9299362737314
 31
0.0
 12
123.0449492936228
 22
114.9299362737314
 32
0.0
 13
123.0449492936228
 23
114.9299362737314
 33
0.0
  0
MTEXT
  5
3955
330
394C
100
AcDbEntity
  8
寸法
  6
Continuous
 62
     0
100
AcDbMText
 10
123.0449492936228
 20
116.7758874648152
 30
0.0
 40
2.0
 41
0.0
 46
0.0
 71
     5
 72
     1
  1
3.5
 73
     1
 44
1.0
  0
POINT
  5
3956
330
394C
100
AcDbEntity
  8
Defpoints
 62
     0
100
AcDbPoint
 10
118.0449492936228
 20
118.4299362737314
 30
0.0
  0
POINT
  5
3957
330
394C
100
AcDbEntity
  8
Defpoints
 62
     0
100
AcDbPoint
 10
120.4670512736741
 20
114.9299362737314
 30
0.0
  0
POINT
  5
3CDB
330
394C
100
AcDbEntity
  8
Defpoints
 62
     0
100
AcDbPoint
 10
123.0449492936228
 20
114.9299362737314
 30
0.0
  0
ENDBLK
  5
394E
330
394C
100
AcDbEntity
  8
0
100
AcDbBlockEnd
  0
BLOCK
  5
3963
330
3962
100
AcDbEntity
  8
0
100
AcDbBlockBegin
  2
*D14
 70
     1
 10
0.0
 20
0.0
 30
0.0
  3
*D14
  1
*D421
  0
LINE
  5
3965
330
3962
100
AcDbEntity
  8
寸法
  6
Continuous
 62
     0
370
    -2
100
AcDbLine
 10
117.7078142857143
 20
120.0359393274846
 30
0.0
 11
117.7078142857143
 21
123.4532519867651
 31
0.0
  0
LINE
  5
3966
330
3962
100
AcDbEntity
  8
寸法
  6
Continuous
 62
     0
370
    -2
100
AcDbLine
 10
118.7078142857143
 20
119.9589130915952
 30
0.0
 11
118.7078142857143
 21
123.4532519867651
 31
0.0
  0
LINE
  5
3967
330
3962
100
AcDbEntity
  8
寸法
  6
Continuous
 62
     0
370
    -2
100
AcDbLine
 10
116.7078142857143
 20
122.2032519867651
 30
0.0
 11
115.7078142857143
 21
122.2032519867651
 31
0.0
  0
LINE
  5
3968
330
3962
100
AcDbEntity
  8
寸法
  6
Continuous
 62
     0
370
    -2
100
AcDbLine
 10
119.7078142857143
 20
122.2032519867651
 30
0.0
 11
120.7078142857143
 21
122.2032519867651
 31
0.0
  0
SOLID
  5
3969
330
3962
100
AcDbEntity
  8
寸法
 62
     0
100
AcDbTrace
 10
116.7078142857143
 20
122.0365853200984
 30
0.0
 11
116.7078142857143
 21
122.3699186534317
 31
0.0
 12
117.7078142857143
 22
122.2032519867651
 32
0.0
 13
117.7078142857143
 23
122.2032519867651
 33
0.0
  0
SOLID
  5
396A
330
3962
100
AcDbEntity
  8
寸法
 62
     0
100
AcDbTrace
 10
119.7078142857143
 20
122.3699186534317
 30
0.0
 11
119.7078142857143
 21
122.0365853200984
 31
0.0
 12
118.7078142857143
 22
122.2032519867651
 32
0.0
 13
118.7078142857143
 23
122.2032519867651
 33
0.0
  0
MTEXT
  5
396B
330
3962
100
AcDbEntity
  8
寸法
  6
Continuous
 62
     0
100
AcDbMText
 10
118.2697725900193
 20
124.0522057867175
 30
0.0
 40
2.0
 41
0.0
 46
0.0
 71
     5
 72
     1
  1
1
 73
     1
 44
1.0
  0
POINT
  5
396C
330
3962
100
AcDbEntity
  8
Defpoints
 62
     0
100
AcDbPoint
 10
117.7078142857143
 20
119.4109393274846
 30
0.0
  0
POINT
  5
396D
330
3962
100
AcDbEntity
  8
Defpoints
 62
     0
100
AcDbPoint
 10
118.7078142857143
 20
119.3339130915952
 30
0.0
  0
POINT
  5
396E
330
3962
100
AcDbEntity
  8
Defpoints
 62
     0
100
AcDbPoint
 10
118.7078142857143
 20
122.2032519867651
 30
0.0
  0
ENDBLK
  5
3964
330
3962
100
AcDbEntity
  8
0
100
AcDbBlockEnd
  0
BLOCK
  5
3C1E
330
3C1D
100
AcDbEntity
  8
0
100
AcDbBlockBegin
  2
*D15
 70
     1
 10
0.0
 20
0.0
 30
0.0
  3
*D15
  1
*D455
  0
LINE
  5
3C20
330
3C1D
100
AcDbEntity
  8
TOS_M1
  6
Continuous
 62
     0
370
    -2
100
AcDbLine
 10
141.7078142857145
 20
110.3049362702563
 30
0.0
 11
141.7078142857145
 21
107.6898835654584
 31
0.0
  0
LINE
  5
3C21
330
3C1D
100
AcDbEntity
  8
TOS_M1
  6
Continuous
 62
     0
370
    -2
100
AcDbLine
 10
151.7078142857145
 20
112.7049362702563
 30
0.0
 11
151.7078142857145
 21
107.6898835654584
 31
0.0
  0
LINE
  5
3C22
330
3C1D
100
AcDbEntity
  8
TOS_M1
  6
Continuous
 62
     0
370
    -2
100
AcDbLine
 10
142.7078142857145
 20
108.9398835654584
 30
0.0
 11
144.503286687223
 21
108.9398835654584
 31
0.0
  0
LINE
  5
3C23
330
3C1D
100
AcDbEntity
  8
TOS_M1
  6
Continuous
 62
     0
370
    -2
100
AcDbLine
 10
150.7078142857145
 20
108.9398835654584
 30
0.0
 11
148.0866200205564
 21
108.9398835654584
 31
0.0
  0
SOLID
  5
3C24
330
3C1D
100
AcDbEntity
  8
TOS_M1
 62
     0
100
AcDbTrace
 10
142.7078142857145
 20
109.106550232125
 30
0.0
 11
142.7078142857145
 21
108.7732168987917
 31
0.0
 12
141.7078142857145
 22
108.9398835654584
 32
0.0
 13
141.7078142857145
 23
108.9398835654584
 33
0.0
  0
SOLID
  5
3C25
330
3C1D
100
AcDbEntity
  8
TOS_M1
 62
     0
100
AcDbTrace
 10
150.7078142857145
 20
108.7732168987917
 30
0.0
 11
150.7078142857145
 21
109.106550232125
 31
0.0
 12
151.7078142857145
 22
108.9398835654584
 32
0.0
 13
151.7078142857145
 23
108.9398835654584
 33
0.0
  0
MTEXT
  5
3C26
330
3C1D
100
AcDbEntity
  8
TOS_M1
  6
Continuous
 62
     0
100
AcDbMText
 10
146.2949533538897
 20
108.9398835654584
 30
0.0
 40
2.0
 41
0.0
 46
0.0
 71
     5
 72
     1
  1
10
 73
     1
 44
1.0
  0
POINT
  5
3C27
330
3C1D
100
AcDbEntity
  8
Defpoints
 62
     0
100
AcDbPoint
 10
141.7078142857145
 20
110.9299362702563
 30
0.0
  0
POINT
  5
3C28
330
3C1D
100
AcDbEntity
  8
Defpoints
 62
     0
100
AcDbPoint
 10
151.7078142857145
 20
113.3299362702563
 30
0.0
  0
POINT
  5
3C29
330
3C1D
100
AcDbEntity
  8
Defpoints
 62
     0
100
AcDbPoint
 10
151.7078142857145
 20
108.9398835654584
 30
0.0
  0
ENDBLK
  5
3C1F
330
3C1D
100
AcDbEntity
  8
0
100
AcDbBlockEnd
  0
BLOCK
  5
3C3E
330
3C3D
100
AcDbEntity
  8
0
100
AcDbBlockBegin
  2
*D16
 70
     1
 10
0.0
 20
0.0
 30
0.0
  3
*D16
  1
*D457
  0
LINE
  5
3C40
330
3C3D
100
AcDbEntity
  8
寸法
  6
Continuous
 62
     0
370
    -2
100
AcDbLine
 10
118.5142706878285
 20
115.8837248525892
 30
0.0
 11
118.8146644025578
 21
116.8375401471569
 31
0.0
  0
LINE
  5
3C41
330
3C3D
100
AcDbEntity
  8
寸法
  6
Continuous
 62
     0
370
    -2
100
AcDbLine
 10
118.5142706878285
 20
115.8837248525892
 30
0.0
 11
118.8146644025578
 21
116.8375401471569
 31
0.0
  0
LINE
  5
3C42
330
3C3D
100
AcDbEntity
  8
寸法
  6
Continuous
 62
     0
370
    -2
100
AcDbLine
 10
118.5142706878285
 20
115.8837248525892
 30
0.0
 11
118.8146644025578
 21
116.8375401471569
 31
0.0
  0
MTEXT
  5
3C43
330
3C3D
100
AcDbEntity
  8
寸法
  6
Continuous
 62
     0
100
AcDbMText
 10
123.2323929892011
 20
117.0026085459795
 30
0.0
 40
2.0
 41
0.0
 46
0.0
 71
     5
 72
     1
  1
R0.5
 73
     1
 44
1.0
  0
SOLID
  5
3C44
330
3C3D
100
AcDbEntity
  8
寸法
 62
     0
100
AcDbTrace
 10
118.3553014720672
 20
115.9337904717108
 30
0.0
 11
118.6732399035898
 21
115.8336592334677
 31
0.0
 12
118.2138769730992
 22
114.9299095580216
 32
0.0
 13
118.2138769730992
 23
114.9299095580216
 33
0.0
  0
POINT
  5
3C45
330
3C3D
100
AcDbEntity
  8
Defpoints
 62
     0
100
AcDbPoint
 10
118.2138769730992
 20
114.9299095580216
 30
0.0
  0
POINT
  5
3C46
330
3C3D
100
AcDbEntity
  8
Defpoints
 62
     0
100
AcDbPoint
 10
118.3640738304639
 20
115.4068172053054
 30
0.0
  0
ENDBLK
  5
3C3F
330
3C3D
100
AcDbEntity
  8
0
100
AcDbBlockEnd
  0
BLOCK
  5
3C4B
330
3C4A
100
AcDbEntity
  8
0
100
AcDbBlockBegin
  2
*D17
 70
     1
 10
0.0
 20
0.0
 30
0.0
  3
*D17
  1
*D458
  0
LINE
  5
3C4D
330
3C4A
100
AcDbEntity
  8
寸法
  6
Continuous
 62
     0
370
    -2
100
AcDbLine
 10
113.0828142857143
 20
109.4299362737314
 30
0.0
 11
107.4578142857143
 21
109.4299362737314
 31
0.0
  0
LINE
  5
3C4E
330
3C4A
100
AcDbEntity
  8
寸法
  6
Continuous
 62
     0
370
    -2
100
AcDbLine
 10
114.4827879229182
 20
112.9299362702564
 30
0.0
 11
107.4578142857143
 21
112.9299362702564
 31
0.0
  0
LINE
  5
3C4F
330
3C4A
100
AcDbEntity
  8
寸法
  6
Continuous
 62
     0
370
    -2
100
AcDbLine
 10
108.7078142857143
 20
108.4299362737314
 30
0.0
 11
108.7078142857143
 21
107.4299362737314
 31
0.0
  0
LINE
  5
3C50
330
3C4A
100
AcDbEntity
  8
寸法
  6
Continuous
 62
     0
370
    -2
100
AcDbLine
 10
108.7078142857143
 20
113.9299362702564
 30
0.0
 11
108.7078142857143
 21
114.9299362702564
 31
0.0
  0
SOLID
  5
3C51
330
3C4A
100
AcDbEntity
  8
寸法
 62
     0
100
AcDbTrace
 10
108.874480952381
 20
108.4299362737314
 30
0.0
 11
108.5411476190476
 21
108.4299362737314
 31
0.0
 12
108.7078142857143
 22
109.4299362737314
 32
0.0
 13
108.7078142857143
 23
109.4299362737314
 33
0.0
  0
SOLID
  5
3C52
330
3C4A
100
AcDbEntity
  8
寸法
 62
     0
100
AcDbTrace
 10
108.5411476190476
 20
113.9299362702564
 30
0.0
 11
108.874480952381
 21
113.9299362702564
 31
0.0
 12
108.7078142857143
 22
112.9299362702564
 32
0.0
 13
108.7078142857143
 23
112.9299362702564
 33
0.0
  0
MTEXT
  5
3C53
330
3C4A
100
AcDbEntity
  8
寸法
  6
Continuous
 62
     0
100
AcDbMText
 10
108.7078142857143
 20
111.0249704045713
 30
0.0
 40
2.0
 41
0.0
 46
0.0
 71
     5
 72
     1
  1
3.5
 73
     1
 44
1.0
  0
POINT
  5
3C54
330
3C4A
100
AcDbEntity
  8
Defpoints
 62
     0
100
AcDbPoint
 10
113.7078142857143
 20
109.4299362737314
 30
0.0
  0
POINT
  5
3C5D
330
3C4A
100
AcDbEntity
  8
Defpoints
 62
     0
100
AcDbPoint
 10
115.1077879229182
 20
112.9299362702564
 30
0.0
  0
POINT
  5
3CC3
330
3C4A
100
AcDbEntity
  8
Defpoints
 62
     0
100
AcDbPoint
 10
108.7078142857143
 20
112.9299362702564
 30
0.0
  0
ENDBLK
  5
3C4C
330
3C4A
100
AcDbEntity
  8
0
100
AcDbBlockEnd
  0
BLOCK
  5
3C66
330
3C65
100
AcDbEntity
  8
0
100
AcDbBlockBegin
  2
*D18
 70
     1
 10
0.0
 20
0.0
 30
0.0
  3
*D18
  1
*D459
  0
LINE
  5
3C68
330
3C65
100
AcDbEntity
  8
寸法
  6
Continuous
 62
     0
370
    -2
100
AcDbLine
 10
114.9078142857143
 20
108.8049362737314
 30
0.0
 11
114.9078142857143
 21
106.6962056663039
 31
0.0
  0
LINE
  5
3C69
330
3C65
100
AcDbEntity
  8
寸法
  6
Continuous
 62
     0
370
    -2
100
AcDbLine
 10
141.7078142857145
 20
110.3049362702563
 30
0.0
 11
141.7078142857145
 21
106.6962056663039
 31
0.0
  0
LINE
  5
3C6A
330
3C65
100
AcDbEntity
  8
寸法
  6
Continuous
 62
     0
370
    -2
100
AcDbLine
 10
115.9078142857143
 20
107.9462056663039
 30
0.0
 11
128.3656739050057
 21
107.9462056663039
 31
0.0
  0
LINE
  5
3C6B
330
3C65
100
AcDbEntity
  8
寸法
  6
Continuous
 62
     0
370
    -2
100
AcDbLine
 10
140.7078142857145
 20
107.9462056663039
 30
0.0
 11
135.6156739050057
 21
107.9462056663039
 31
0.0
  0
SOLID
  5
3C6C
330
3C65
100
AcDbEntity
  8
寸法
 62
     0
100
AcDbTrace
 10
115.9078142857143
 20
108.1128723329706
 30
0.0
 11
115.9078142857143
 21
107.7795389996373
 31
0.0
 12
114.9078142857143
 22
107.9462056663039
 32
0.0
 13
114.9078142857143
 23
107.9462056663039
 33
0.0
  0
SOLID
  5
3C6D
330
3C65
100
AcDbEntity
  8
寸法
 62
     0
100
AcDbTrace
 10
140.7078142857145
 20
107.7795389996373
 30
0.0
 11
140.7078142857145
 21
108.1128723329706
 31
0.0
 12
141.7078142857145
 22
107.9462056663039
 32
0.0
 13
141.7078142857145
 23
107.9462056663039
 33
0.0
  0
MTEXT
  5
3C6E
330
3C65
100
AcDbEntity
  8
寸法
  6
Continuous
 62
     0
100
AcDbMText
 10
131.9906739050057
 20
107.9462056663039
 30
0.0
 40
2.0
 41
0.0
 46
0.0
 71
     5
 72
     1
  1
26.8
 73
     1
 44
1.0
  0
POINT
  5
3C6F
330
3C65
100
AcDbEntity
  8
Defpoints
 62
     0
100
AcDbPoint
 10
114.9078142857143
 20
109.4299362737314
 30
0.0
  0
POINT
  5
3C70
330
3C65
100
AcDbEntity
  8
Defpoints
 62
     0
100
AcDbPoint
 10
141.7078142857145
 20
110.9299362702563
 30
0.0
  0
POINT
  5
3C71
330
3C65
100
AcDbEntity
  8
Defpoints
 62
     0
100
AcDbPoint
 10
141.7078142857145
 20
107.9462056663039
 30
0.0
  0
ENDBLK
  5
3C67
330
3C65
100
AcDbEntity
  8
0
100
AcDbBlockEnd
  0
ENDSEC
  0
SECTION
  2
ENTITIES
  0
LINE
  5
664
330
1F
100
AcDbEntity
  8
用紙範囲
  6
HIDDEN
100
AcDbLine
 10
0.0
 20
205.0
 30
0.0
 11
0.0
 21
0.0
 31
0.0
  0
LINE
  5
665
330
1F
100
AcDbEntity
  8
用紙範囲
  6
HIDDEN
100
AcDbLine
 10
292.0
 20
205.0
 30
0.0
 11
292.0
 21
0.0
 31
0.0
  0
LINE
  5
666
330
1F
100
AcDbEntity
  8
用紙範囲
  6
HIDDEN
100
AcDbLine
 10
0.0
 20
205.0
 30
0.0
 11
292.0
 21
205.0
 31
0.0
  0
LINE
  5
667
330
1F
100
AcDbEntity
  8
用紙範囲
  6
HIDDEN
100
AcDbLine
 10
0.0
 20
0.0
 30
0.0
 11
292.0
 21
0.0
 31
0.0
  0
LINE
  5
668
330
1F
100
AcDbEntity
  8
枠
  6
Continuous
100
AcDbLine
 10
11.00000000000003
 20
193.5
 30
0.0
 11
281.0
 21
193.5
 31
0.0
  0
LINE
  5
669
330
1F
100
AcDbEntity
  8
枠
  6
Continuous
100
AcDbLine
 10
11.00000000000003
 20
11.5
 30
0.0
 11
281.0
 21
11.5
 31
0.0
  0
LINE
  5
66A
330
1F
100
AcDbEntity
  8
枠
  6
Continuous
100
AcDbLine
 10
11.00000000000003
 20
193.5
 30
0.0
 11
11.00000000000003
 21
11.5
 31
0.0
  0
LINE
  5
66B
330
1F
100
AcDbEntity
  8
枠
  6
Continuous
100
AcDbLine
 10
281.0
 20
193.5
 30
0.0
 11
281.0
 21
11.5
 31
0.0
  0
LINE
  5
673
330
1F
100
AcDbEntity
  8
枠
  6
Continuous
100
AcDbLine
 10
10.00000000000003
 20
194.5
 30
0.0
 11
282.0
 21
194.5
 31
0.0
  0
LINE
  5
674
330
1F
100
AcDbEntity
  8
枠
  6
Continuous
100
AcDbLine
 10
10.00000000000003
 20
194.5
 30
0.0
 11
10.00000000000003
 21
10.5
 31
0.0
  0
LINE
  5
675
330
1F
100
AcDbEntity
  8
枠
  6
Continuous
100
AcDbLine
 10
10.00000000000003
 20
10.5
 30
0.0
 11
282.0
 21
10.5
 31
0.0
  0
LINE
  5
676
330
1F
100
AcDbEntity
  8
枠
  6
Continuous
100
AcDbLine
 10
282.0
 20
194.5
 30
0.0
 11
282.0
 21
10.5
 31
0.0
  0
LINE
  5
677
330
1F
100
AcDbEntity
  8
枠
  6
Continuous
100
AcDbLine
 10
236.0
 20
193.5
 30
0.0
 11
236.0
 21
11.5
 31
0.0
  0
LINE
  5
678
330
1F
100
AcDbEntity
  8
枠
  6
Continuous
100
AcDbLine
 10
236.0
 20
171.3660465293556
 30
0.0
 11
281.0
 21
171.3660465293556
 31
0.0
  0
LINE
  5
679
330
1F
100
AcDbEntity
  8
枠
  6
Continuous
100
AcDbLine
 10
236.0
 20
149.2320930587111
 30
0.0
 11
281.0
 21
149.2320930587111
 31
0.0
  0
LINE
  5
67A
330
1F
100
AcDbEntity
  8
枠
  6
Continuous
100
AcDbLine
 10
236.0
 20
31.87291584484291
 30
0.0
 11
281.0
 21
31.87291584484291
 31
0.0
  0
LINE
  5
67B
330
1F
100
AcDbEntity
  8
枠
  6
Continuous
100
AcDbLine
 10
236.0
 20
41.88960476803794
 30
0.0
 11
281.0
 21
41.88960476803794
 31
0.0
  0
LINE
  5
67D
330
1F
100
AcDbEntity
  8
枠
  6
Continuous
100
AcDbLine
 10
235.0
 20
193.5
 30
0.0
 11
235.0
 21
11.5
 31
0.0
  0
MTEXT
  5
A15
330
1F
100
AcDbEntity
  8
文字
100
AcDbMText
 10
238.0774350305441
 20
192.0038694137743
 30
0.0
 40
2.5
 41
19.50744578598591
 46
2.8275
 71
     1
 72
     5
  1
{\fＭＳ Ｐゴシック|b0|i0|c0|p0;名称}
 73
     1
 44
1.0
1001
ACAD
1000
ACAD_MTEXT_DEFINED_HEIGHT_BEGIN
1070
    46
1040
2.8275
1000
ACAD_MTEXT_DEFINED_HEIGHT_END
  0
MTEXT
  5
A17
330
1F
100
AcDbEntity
  8
文字
100
AcDbMText
 10
236.0
 20
183.859332666015
 30
0.0
 40
2.5
 41
45.0
 46
6.964166666666667
 71
     1
 72
     5
  1
\fＭＳ Ｐゴシック|b0|i0|c0|p0;Ｐｒｅｖｉｏ T\P塩ビタイル用}
 73
     1
 44
1.0
1001
ACAD
1000
ACAD_MTEXT_DEFINED_HEIGHT_BEGIN
1070
    46
1040
6.964166666666667
1000
ACAD_MTEXT_DEFINED_HEIGHT_END
  0
MTEXT
  5
A18
330
1F
100
AcDbEntity
  8
文字
100
AcDbMText
 10
238.0774350305441
 20
169.6766048811238
 30
0.0
 40
2.5
 41
12.9189203585147
 46
2.84
 71
     1
 72
     5
  1
{\fＭＳ Ｐゴシック|b0|i0|c0|p0;品番}
 73
     1
 44
1.0
1001
ACAD
1000
ACAD_MTEXT_DEFINED_HEIGHT_BEGIN
1070
    46
1040
2.84
1000
ACAD_MTEXT_DEFINED_HEIGHT_END
  0
MTEXT
  5
A1C
330
1F
100
AcDbEntity
  8
文字
100
AcDbMText
 10
238.0774350305441
 20
148.0690084662711
 30
0.0
 40
2.5
 41
9.970036363636382
 46
2.8125
 71
     1
 72
     5
  1
{\fＭＳ Ｐゴシック|b0|i0|c0|p0;仕様}
 73
     1
 44
1.0
1001
ACAD
1000
ACAD_MTEXT_DEFINED_HEIGHT_BEGIN
1070
    46
1040
2.8125
1000
ACAD_MTEXT_DEFINED_HEIGHT_END
  0
MTEXT
  5
A1D
330
1F
100
AcDbEntity
  8
文字
100
AcDbMText
 10
245.3794334940524
 20
142.9663202848187
 30
0.0
 40
2.0
 41
31.03349346991041
 46
2.33
 71
     1
 72
     5
  1
{\fＭＳ Ｐゴシック|b0|i0|c0|p0;材質：アルミ製}
 73
     1
 44
1.0
1001
ACAD
1000
ACAD_MTEXT_DEFINED_HEIGHT_BEGIN
1070
    46
1040
2.33
1000
ACAD_MTEXT_DEFINED_HEIGHT_END
  0
MTEXT
  5
A1E
330
1F
100
AcDbEntity
  8
文字
100
AcDbMText
 10
245.3794334940524
 20
134.6324862242587
 30
0.0
 40
2.0
 41
12.28545052080817
 46
2.181818181818182
 71
     1
 72
     5
  1
{\fＭＳ Ｐゴシック|b0|i0|c0|p0;仕上：3色}
 73
     1
 44
1.0
1001
ACAD
1000
ACAD_MTEXT_DEFINED_HEIGHT_BEGIN
1070
    46
1040
2.181818181818182
1000
ACAD_MTEXT_DEFINED_HEIGHT_END
  0
MTEXT
  5
A22
330
1F
100
AcDbEntity
  8
社名
100
AcDbMText
 10
236.0
 20
27.36191229983774
 30
0.0
 40
3.0
 41
46.0
 46
3.375
 71
     1
 72
     5
  1
\fＭＳ Ｐゴシック|b0|i0|c0|p0;株式会社ＡＳＳＩＳＴ}
 73
     1
 44
1.0
1001
ACAD
1000
ACAD_MTEXT_DEFINED_HEIGHT_BEGIN
1070
    46
1040
3.375
1000
ACAD_MTEXT_DEFINED_HEIGHT_END
  0
MTEXT
  5
A24
330
1F
100
AcDbEntity
  8
文字
100
AcDbMText
 10
238.0774350305441
 20
40.58955921885172
 30
0.0
 40
2.5
 41
9.970036363636382
 46
2.8275
 71
     1
 72
     5
  1
{\fＭＳ Ｐゴシック|b0|i0|c0|p0;縮尺}
 73
     1
 44
1.0
1001
ACAD
1000
ACAD_MTEXT_DEFINED_HEIGHT_BEGIN
1070
    46
1040
2.8275
1000
ACAD_MTEXT_DEFINED_HEIGHT_END
  0
MTEXT
  5
A25
330
1F
100
AcDbEntity
  8
文字
100
AcDbMText
 10
251.2855836701089
 20
36.15844413562513
 30
0.0
 40
2.5
 41
28.36545556978234
 46
2.5
 71
     1
 72
     5
  1
{\fＭＳ Ｐゴシック|b0|i0|c0|p0;１：１ }
 73
     1
 44
1.0
1001
ACAD
1000
ACAD_MTEXT_DEFINED_HEIGHT_BEGIN
1070
    46
1040
2.5
1000
ACAD_MTEXT_DEFINED_HEIGHT_END
  0
MTEXT
  5
DF8
330
1F
100
AcDbEntity
  8
文字
100
AcDbMText
 10
253.810188672227
 20
138.9296006928885
 30
0.0
 40
2.0
 41
31.03349346991041
 46
2.228
 71
     1
 72
     5
  1
{\fＭＳ Ｐゴシック|b0|i0|c0|p0;（A6063S-T5)}
 73
     1
 44
1.0
1001
ACAD
1000
ACAD_MTEXT_DEFINED_HEIGHT_BEGIN
1070
    46
1040
2.228
1000
ACAD_MTEXT_DEFINED_HEIGHT_END
  0
LINE
  5
27E4
330
1F
100
AcDbEntity
  8
枠
  6
Continuous
100
AcDbLine
 10
236.0
 20
51.88960476803794
 30
0.0
 11
281.0
 21
51.88960476803794
 31
0.0
  0
MTEXT
  5
27E5
330
1F
100
AcDbEntity
  8
文字
100
AcDbMText
 10
238.0774350305441
 20
50.58955921885172
 30
0.0
 40
2.5
 41
9.970036363636382
 46
2.5
 71
     1
 72
     5
  1
{\fＭＳ Ｐゴシック|b0|i0|c0|p0;Date}
 73
     1
 44
1.0
1001
ACAD
1000
ACAD_MTEXT_DEFINED_HEIGHT_BEGIN
1070
    46
1040
2.5
1000
ACAD_MTEXT_DEFINED_HEIGHT_END
  0
MTEXT
  5
27E6
330
1F
100
AcDbEntity
  8
文字
100
AcDbMText
 10
246.1251641599999
 20
46.15844413562513
 30
0.0
 40
2.5
 41
31.83275012571445
 46
2.627860447667875
 71
     1
 72
     5
  1
{\fＭＳ Ｐゴシック|b0|i0|c0|p0;2022年6月24日}
 73
     1
 44
1.0
1001
ACAD
1000
ACAD_MTEXT_DEFINED_HEIGHT_BEGIN
1070
    46
1040
2.627860447667875
1000
ACAD_MTEXT_DEFINED_HEIGHT_END
  0
MTEXT
  5
2C03
330
1F
100
AcDbEntity
  8
文字
100
AcDbMText
 10
236.0
 20
160.4307612374436
 30
0.0
 40
2.5
 41
45.0
 46
2.5
 71
     1
 72
     5
  1
\fＭＳ Ｐゴシック|b0|i0|c0|p0;ＰVT７１１}
 73
     1
 44
1.0
1001
ACAD
1000
ACAD_MTEXT_DEFINED_HEIGHT_BEGIN
1070
    46
1040
2.5
1000
ACAD_MTEXT_DEFINED_HEIGHT_END
  0
MTEXT
  5
2C09
330
1F
100
AcDbEntity
  8
社名
100
AcDbMText
 10
236.0
 20
19.58027172995764
 30
0.0
 40
5.0
 41
45.0
 46
5.0
 71
     1
 72
     5
  1
{\fＭＳ Ｐゴシック|b0|i0|c0|p0;\T1.15;\W1.3;AFOLA}
 73
     1
 44
1.0
1001
ACAD
1000
ACAD_MTEXT_DEFINED_HEIGHT_BEGIN
1070
    46
1040
5.0
1000
ACAD_MTEXT_DEFINED_HEIGHT_END
  0
LINE
  5
384E
330
1F
100
AcDbEntity
  8
金属部分
  6
Continuous
100
AcDbLine
 10
113.7078142857143
 20
109.4299362737314
 30
0.0
 11
113.7078142857143
 21
117.9299362737314
 31
0.0
  0
LINE
  5
384F
330
1F
100
AcDbEntity
  8
金属部分
  6
Continuous
100
AcDbLine
 10
114.2078142857143
 20
118.4299362737314
 30
0.0
 11
118.0449492936228
 21
118.4299362737314
 31
0.0
  0
LINE
  5
3853
330
1F
100
AcDbEntity
  8
金属部分
  6
Continuous
100
AcDbLine
 10
113.7078142857143
 20
109.4299362737314
 30
0.0
 11
114.9078142857143
 21
109.4299362737314
 31
0.0
  0
LINE
  5
3854
330
1F
100
AcDbEntity
  8
金属部分
  6
Continuous
100
AcDbLine
 10
114.9078142857143
 20
109.4299362737314
 30
0.0
 11
114.9078142857143
 21
112.7299362719939
 31
0.0
  0
ARC
  5
3858
330
1F
100
AcDbEntity
  8
金属部分
  6
Continuous
100
AcDbCircle
 10
114.2078142857143
 20
117.9299362737314
 30
0.0
 40
0.5000000000000002
100
AcDbArc
 50
90.0
 51
180.0
  0
DIMENSION
  5
385C
330
1F
100
AcDbEntity
  8
寸法
  6
Continuous
100
AcDbDimension
280
     0
  2
*D2
 10
156.3078142857145
 20
112.8844890461877
 30
0.0
 11
159.9573227058351
 21
113.3830819574052
 31
0.0
 70
   160
 71
     5
 42
0.7994290756359987
 73
     0
 74
     0
 75
     0
  3
ISO-25
100
AcDbAlignedDimension
 13
151.5839011738633
 23
113.6839181218237
 33
0.0
 14
151.6052650109861
 24
112.8844890461877
 34
0.0
 50
90.0
100
AcDbRotatedDimension
  0
DIMENSION
  5
386D
330
1F
100
AcDbEntity
  8
寸法
  6
Continuous
100
AcDbDimension
280
     0
  2
*D3
 10
118.7078142857143
 20
123.4299362737314
 30
0.0
 11
116.3870725941424
 21
123.4299362737314
 31
0.0
 70
   160
 71
     5
 42
5.0
 73
     0
 74
     0
 75
     0
  3
ISO-25
100
AcDbAlignedDimension
 13
113.7078142857143
 23
118.5040941302482
 33
0.0
 14
118.7078142857143
 24
118.7089130915952
 34
0.0
100
AcDbRotatedDimension
  0
DIMENSION
  5
388F
330
1F
100
AcDbEntity
  8
寸法
  6
Continuous
100
AcDbDimension
280
     0
  2
*D5
 10
103.7078142857143
 20
109.4299362737314
 30
0.0
 11
103.7078142857143
 21
113.9299362737314
 31
0.0
 70
   160
 71
     5
 42
9.0
 73
     0
 74
     0
 75
     0
  3
ISO-25
100
AcDbAlignedDimension
 13
114.2078142857143
 23
118.4299362737314
 33
0.0
 14
113.7078142857143
 24
109.4299362737314
 34
0.0
 50
90.0
100
AcDbRotatedDimension
  0
DIMENSION
  5
38CE
330
1F
100
AcDbEntity
  8
寸法
  6
Continuous
100
AcDbDimension
280
     0
  2
*D9
 10
151.7078142857145
 20
128.4299362737314
 30
0.0
 11
132.7078142857144
 21
128.4299362737314
 31
0.0
 70
   160
 71
     5
 42
38.0000000000002
 73
     0
 74
     0
 75
     0
  3
ISO-25
100
AcDbAlignedDimension
 13
113.7078142857143
 23
117.9299362737314
 33
0.0
 14
151.7078142857145
 24
113.3299362702563
 34
0.0
100
AcDbRotatedDimension
  0
DIMENSION
  5
38EF
330
1F
100
AcDbEntity
  8
寸法
  6
Continuous
100
AcDbDimension
280
     0
  2
*D10
 10
114.9078142857143
 20
104.4299362737314
 30
0.0
 11
114.4031676148222
 21
101.6223016405037
 31
0.0
 70
   160
 71
     5
 42
1.199999999999989
 73
     0
 74
     0
 75
     0
  3
ISO-25
100
AcDbAlignedDimension
 13
113.7078142857143
 23
109.4299362737314
 33
0.0
 14
114.9078142857143
 24
109.4299362737314
 34
0.0
100
AcDbRotatedDimension
  0
DIMENSION
  5
3949
330
1F
100
AcDbEntity
  8
寸法
  6
Continuous
100
AcDbDimension
280
     0
  2
*D13
 10
123.0449492936228
 20
114.9299362737314
 30
0.0
 11
123.0449492936228
 21
116.7758874648152
 31
0.0
 70
   160
 71
     5
 42
3.5
 73
     0
 74
     0
 75
     0
  3
ISO-25
100
AcDbAlignedDimension
 13
118.0449492936228
 23
118.4299362737314
 33
0.0
 14
120.4670512736741
 24
114.9299362737314
 34
0.0
 50
90.0
100
AcDbRotatedDimension
  0
LINE
  5
3974
330
1F
100
AcDbEntity
  8
金属部分
  6
Continuous
100
AcDbLine
 10
118.5257112674432
 20
117.7925757097827
 30
0.0
 11
117.8833118565994
 21
115.5441777690999
 31
0.0
  0
ARC
  5
3977
330
1F
100
AcDbEntity
  8
金属部分
  6
Continuous
100
AcDbCircle
 10
118.0449492936228
 20
117.9299362737314
 30
0.0
 40
0.5
100
AcDbArc
 50
344.0546040990772
 51
90.0
  0
ARC
  5
3979
330
1F
100
AcDbEntity
  8
金属部分
  6
Continuous
100
AcDbCircle
 10
115.1078142857143
 20
112.7299362719939
 30
0.0
 40
0.2
100
AcDbArc
 50
90.00755238479229
 51
180.0
  0
ARC
  5
39DA
330
1F
100
AcDbEntity
  8
金属部分
100
AcDbCircle
 10
123.1578142857144
 20
112.1428189631692
 30
0.0
 40
1.087222909580392
100
AcDbArc
 50
46.38327232990098
 51
133.6167276701065
  0
LWPOLYLINE
  5
39DB
330
1F
100
AcDbEntity
  8
金属部分
100
AcDbPolyline
 90
        2
 70
     0
 43
0.0
 10
119.4078142857143
 20
112.9299362702565
 10
117.9078142857142
 20
112.9299362702564
  0
LWPOLYLINE
  5
39DC
330
1F
100
AcDbEntity
  8
金属部分
100
AcDbPolyline
 90
        2
 70
     0
 43
0.0
 10
116.4078142857143
 20
112.9299362702564
 10
115.1077879229182
 20
112.9299362702564
  0
ARC
  5
39DD
330
1F
100
AcDbEntity
  8
金属部分
100
AcDbCircle
 10
117.1578142857143
 20
112.142818963169
 30
0.0
 40
1.087222909580392
100
AcDbArc
 50
46.38327232989725
 51
133.6167276701027
  0
ARC
  5
39DE
330
1F
100
AcDbEntity
  8
金属部分
100
AcDbCircle
 10
120.1578142857144
 20
112.1428189631692
 30
0.0
 40
1.087222909580392
100
AcDbArc
 50
46.38327232990098
 51
133.6167276701065
  0
LWPOLYLINE
  5
39DF
330
1F
100
AcDbEntity
  8
金属部分
100
AcDbPolyline
 90
        2
 70
     0
 43
0.0
 10
122.4078142857143
 20
112.9299362702565
 10
120.9078142857144
 20
112.9299362702565
  0
ARC
  5
39E0
330
1F
100
AcDbEntity
  8
金属部分
100
AcDbCircle
 10
126.1578142857144
 20
112.1428189631693
 30
0.0
 40
1.087222909580392
100
AcDbArc
 50
46.38327232990098
 51
133.6167276701065
  0
LWPOLYLINE
  5
39E1
330
1F
100
AcDbEntity
  8
金属部分
100
AcDbPolyline
 90
        2
 70
     0
 43
0.0
 10
125.4078142857143
 20
112.9299362702566
 10
123.9078142857144
 20
112.9299362702566
  0
LWPOLYLINE
  5
39E2
330
1F
100
AcDbEntity
  8
金属部分
100
AcDbPolyline
 90
        2
 70
     0
 43
0.0
 10
128.4078142857143
 20
112.9299362702567
 10
126.9078142857144
 20
112.9299362702566
  0
ARC
  5
39E3
330
1F
100
AcDbEntity
  8
金属部分
100
AcDbCircle
 10
132.1578142857145
 20
112.1428189631694
 30
0.0
 40
1.087222909580392
100
AcDbArc
 50
46.38327232990098
 51
133.6167276701065
  0
LWPOLYLINE
  5
39E4
330
1F
100
AcDbEntity
  8
金属部分
100
AcDbPolyline
 90
        2
 70
     0
 43
0.0
 10
128.4078142857144
 20
112.9299362702567
 10
126.9078142857144
 20
112.9299362702566
  0
ARC
  5
39E5
330
1F
100
AcDbEntity
  8
金属部分
100
AcDbCircle
 10
129.1578142857145
 20
112.1428189631693
 30
0.0
 40
1.087222909580392
100
AcDbArc
 50
46.38327232990098
 51
133.6167276701065
  0
LWPOLYLINE
  5
39E6
330
1F
100
AcDbEntity
  8
金属部分
100
AcDbPolyline
 90
        2
 70
     0
 43
0.0
 10
131.4078142857144
 20
112.9299362702567
 10
129.9078142857145
 20
112.9299362702567
  0
LINE
  5
3C0E
330
1F
100
AcDbEntity
  8
金属部分
  6
Continuous
100
AcDbLine
 10
118.3462280652077
 20
114.9071357781316
 30
0.0
 11
151.3078142857148
 21
113.7299362702564
 31
0.0
  0
LINE
  5
3C0F
330
1F
100
AcDbEntity
  8
金属部分
  6
Continuous
100
AcDbLine
 10
132.9078142857143
 20
112.9299362702568
 30
0.0
 11
151.3078142857145
 21
112.9299362702564
 31
0.0
  0
ARC
  5
3C10
330
1F
100
AcDbEntity
  8
金属部分
  6
Continuous
100
AcDbCircle
 10
151.3078142857145
 20
113.3299362702564
 30
0.0
 40
0.4
100
AcDbArc
 50
270.0
 51
89.99999999997557
  0
LINE
  5
3C11
102
{ACAD_REACTORS
330
3C14
102
}
330
1F
100
AcDbEntity
  8
TOS_M1
  6
Continuous
100
AcDbLine
 10
141.2078142857145
 20
111.9299362702563
 30
0.0
 11
142.2078142857145
 21
111.9299362702563
 31
0.0
  0
LINE
  5
3C12
102
{ACAD_REACTORS
330
3C14
102
}
330
1F
100
AcDbEntity
  8
TOS_M1
  6
Continuous
100
AcDbLine
 10
141.7078142857145
 20
110.9299362702563
 30
0.0
 11
141.2078142857145
 21
111.9299362702563
 31
0.0
  0
LINE
  5
3C13
102
{ACAD_REACTORS
330
3C14
102
}
330
1F
100
AcDbEntity
  8
TOS_M1
  6
Continuous
100
AcDbLine
 10
141.7078142857145
 20
110.9299362702563
 30
0.0
 11
142.2078142857145
 21
111.9299362702563
 31
0.0
  0
HATCH
  5
3C14
330
1F
100
AcDbEntity
  8
TOS_M1
  6
Continuous
100
AcDbHatch
 10
0.0
 20
0.0
 30
0.0
210
0.0
220
0.0
230
1.0
  2
SOLID
 70
     1
 71
     1
 91
        1
 92
        7
 72
     0
 73
     1
 93
        3
 10
141.7078142857145
 20
110.9299362702563
 10
142.2078142857145
 20
111.9299362702563
 10
141.2078142857145
 20
111.9299362702563
 97
        3
330
3C13
330
3C11
330
3C12
 75
     0
 76
     1
 47
0.0
 98
        1
 10
141.8611665792154
 20
111.6756243413212
1001
ACAD
1010
0.0
1020
0.0
1030
0.0
  0
ARC
  5
3C2A
330
1F
100
AcDbEntity
  8
金属部分
  6
Continuous
100
AcDbCircle
 10
118.3640738304639
 20
115.4068172053054
 30
0.0
 40
0.5
100
AcDbArc
 50
164.0546041174491
 51
267.9545915111128
  0
DIMENSION
  5
3C47
330
1F
100
AcDbEntity
  8
寸法
  6
Continuous
100
AcDbDimension
280
     0
  2
*D17
 10
108.7078142857143
 20
112.9299362702564
 30
0.0
 11
108.7078142857143
 21
111.0249704045713
 31
0.0
 70
   160
 71
     5
 42
3.499999996525005
 73
     0
 74
     0
 75
     0
  3
ISO-25
100
AcDbAlignedDimension
 13
113.7078142857143
 23
109.4299362737314
 33
0.0
 14
115.1077879229182
 24
112.9299362702564
 34
0.0
 50
90.0
100
AcDbRotatedDimension
  0
LINE
  5
3C73
330
1F
100
AcDbEntity
  8
TOS_M1
  6
ACAD_ISO07W100
 48
0.5
100
AcDbLine
 10
114.9078142857143
 20
109.4299362737314
 30
0.0
 11
141.7078142857145
 21
109.4299362737314
 31
0.0
  0
MTEXT
  5
3C74
330
1F
100
AcDbEntity
  8
TOS_M1
  6
Continuous
100
AcDbMText
 10
126.3063224374858
 20
110.6769857124415
 30
0.0
 40
2.5
 41
5.846859776000002
 46
2.5
 71
     1
 72
     5
  1
{27}
 73
     1
 44
1.0
1001
ACAD
1000
ACAD_MTEXT_DEFINED_HEIGHT_BEGIN
1070
    46
1040
2.5
1000
ACAD_MTEXT_DEFINED_HEIGHT_END
  0
MTEXT
  5
3CBB
330
1F
100
AcDbEntity
  8
文字
100
AcDbMText
 10
254.0
 20
130.3802147336827
 30
0.0
 40
2.0
 41
31.03349346991044
 46
10.20855737568255
 71
     1
 72
     5
  1
{\fＭＳ Ｐゴシック|b0|i0|c0|p0;SV シルバー\PFS フロストシルバー\PAB アルマイトブラック}
 73
     1
 44
1.0
1001
ACAD
1000
ACAD_MTEXT_DEFINED_HEIGHT_BEGIN
1070
    46
1040
10.20855737568255
1000
ACAD_MTEXT_DEFINED_HEIGHT_END
  0
ENDSEC
  0
SECTION
  2
OBJECTS
  0
DICTIONARY
  5
C
330
0
100
AcDbDictionary
281
     1
  3
ACAD_DETAILVIEWSTYLE
350
A4E
  3
ACAD_GROUP
350
D
  3
ACAD_IMAGE_VARS
350
96F
  3
ACAD_LAYOUT
350
1A
  3
ACAD_MATERIAL
350
3C97
  3
ACAD_MLEADERSTYLE
350
3C9D
  3
ACAD_MLINESTYLE
350
17
  3
ACAD_PLOTSETTINGS
350
19
  3
ACAD_PLOTSTYLENAME
350
E
  3
ACAD_SCALELIST
350
935
  3
ACAD_SECTIONVIEWSTYLE
350
A4F
  3
ACAD_TABLESTYLE
350
3C9B
  3
ACAD_VISUALSTYLE
350
3C7E
  3
ACDB_RECOMPOSE_DATA
350
3CDE
  3
AcDbVariableDictionary
350
3E1
  3
APPDATA
350
96E
  3
DimOffsetDictionary
350
14C9
  0
SUN
  5
3CA6
330
934
100
AcDbSun
 90
        1
290
     0
 63
     7
421
 16777215
 40
1.0
291
     1
 91
  2455826
 92
 54000000
292
     0
 70
     2
 71
   256
280
     1
  0
DICTIONARY
  5
970
330
2
100
AcDbDictionary
280
     1
281
     1
  3
ACAD_LAYERSTATES
360
971
  3
ACLYDICTIONARY
360
34A5
  0
DICTIONARY
  5
A87
330
A86
100
AcDbDictionary
280
     1
281
     1
  3
ADSK_XREC_LAYER_RECONCILED
360
A88
  0
DICTIONARY
  5
A8B
330
A8A
100
AcDbDictionary
280
     1
281
     1
  3
ADSK_XREC_LAYER_RECONCILED
360
A8C
  0
DICTIONARY
  5
A4E
102
{ACAD_REACTORS
330
C
102
}
330
C
100
AcDbDictionary
281
     1
  0
DICTIONARY
  5
D
102
{ACAD_REACTORS
330
C
102
}
330
C
100
AcDbDictionary
281
     1
  0
RASTERVARIABLES
  5
96F
102
{ACAD_REACTORS
330
C
102
}
330
C
100
AcDbRasterVariables
 90
        0
 70
     1
 71
     1
 72
     1
  0
DICTIONARY
  5
1A
102
{ACAD_REACTORS
330
C
102
}
330
C
100
AcDbDictionary
281
     1
  3
Model
350
22
  3
ﾚｲｱｳﾄ1
350
1E
  3
ﾚｲｱｳﾄ2
350
26
  0
DICTIONARY
  5
3C97
102
{ACAD_REACTORS
330
C
102
}
330
C
100
AcDbDictionary
281
     1
  3
ByBlock
350
3C99
  3
ByLayer
350
3C98
  3
Global
350
3C9A
  0
DICTIONARY
  5
3C9D
102
{ACAD_REACTORS
330
C
102
}
330
C
100
AcDbDictionary
281
     1
  3
Standard
350
3C9E
  0
DICTIONARY
  5
17
102
{ACAD_REACTORS
330
C
102
}
330
C
100
AcDbDictionary
281
     1
  3
Standard
350
18
  0
DICTIONARY
  5
19
102
{ACAD_REACTORS
330
C
102
}
330
C
100
AcDbDictionary
281
     1
  0
ACDBDICTIONARYWDFLT
  5
E
102
{ACAD_REACTORS
330
C
102
}
330
C
100
AcDbDictionary
281
     1
  3
Normal
350
F
100
AcDbDictionaryWithDefault
340
F
  0
DICTIONARY
  5
935
102
{ACAD_REACTORS
330
C
102
}
330
C
100
AcDbDictionary
281
     1
  3
A0
350
936
  3
A1
350
937
  3
A2
350
938
  3
A3
350
939
  3
A4
350
93A
  3
A5
350
93B
  3
A6
350
93C
  3
A7
350
93D
  3
A8
350
93E
  3
A9
350
93F
  3
B0
350
940
  3
B1
350
941
  3
B2
350
942
  3
B3
350
943
  3
B4
350
944
  3
B5
350
945
  3
B6
350
946
  3
B7
350
947
  3
B8
350
948
  3
B9
350
949
  3
C0
350
94A
  3
C1
350
94B
  3
C2
350
94C
  3
C3
350
94D
  3
C4
350
94E
  3
C5
350
94F
  3
C6
350
950
  3
C7
350
951
  3
C8
350
952
  3
C9
350
953
  3
D0
350
954
  3
D1
350
955
  3
D2
350
956
  0
DICTIONARY
  5
A4F
102
{ACAD_REACTORS
330
C
102
}
330
C
100
AcDbDictionary
281
     1
  0
DICTIONARY
  5
3C9B
102
{ACAD_REACTORS
330
C
102
}
330
C
100
AcDbDictionary
281
     1
  3
Standard
350
3C9C
  0
DICTIONARY
  5
3C7E
102
{ACAD_REACTORS
330
C
102
}
330
C
100
AcDbDictionary
281
     1
  3
2dWireframe
350
3C83
  3
Basic
350
3C86
  3
Brighten
350
3C8A
  3
ColorChange
350
3C8E
  3
Conceptual
350
3C88
  3
Dim
350
3C89
  3
EdgeColorOff
350
3C91
  3
Facepattern
350
3C8D
  3
Flat
350
3C7F
  3
FlatWithEdges
350
3C80
  3
Gouraud
350
3C81
  3
GouraudWithEdges
350
3C82
  3
Hidden
350
3C85
  3
JitterOff
350
3C8F
  3
Linepattern
350
3C8C
  3
OverhangOff
350
3C90
  3
Realistic
350
3C87
  3
Shaded
350
3C96
  3
Shaded with edges
350
3C95
  3
Shades of Gray
350
3C92
  3
Sketchy
350
3C93
  3
Thicken
350
3C8B
  3
Wireframe
350
3C84
  3
X-Ray
350
3C94
  0
XRECORD
  5
3CDE
102
{ACAD_REACTORS
330
C
102
}
330
C
100
AcDbXrecord
280
     1
 90
        1
330
3C9C
  0
DICTIONARY
  5
3E1
102
{ACAD_REACTORS
330
C
102
}
330
C
100
AcDbDictionary
281
     1
  3
CANNOSCALE
350
3C9F
  3
CMLEADERSTYLE
350
3CA4
  3
CTABLESTYLE
350
3CA3
  3
HPTRANSPARENCY
350
14C8
  3
MSLTSCALE
350
3CA5
  3
SORTENTS
350
3E2
  0
DICTIONARY
  5
96E
102
{ACAD_REACTORS
330
C
102
}
330
C
100
AcDbDictionary
281
     1
  0
DICTIONARY
  5
14C9
102
{ACAD_REACTORS
330
C
102
}
330
C
100
AcDbDictionary
281
     1
  3
DIMRAILANGLE
350
3C5B
  3
DIMRAILFIRSTOFFSET
350
3C59
  3
DIMRAILOFFSET
350
3C5A
  3
DIMRAILSENABLED
350
3C5C
  0
DICTIONARY
  5
971
102
{ACAD_REACTORS
330
970
102
}
330
970
100
AcDbDictionary
281
     1
  0
DICTIONARY
  5
34A5
102
{ACAD_REACTORS
330
970
102
}
330
970
100
AcDbDictionary
281
     1
1001
ACAD
1000
<All
  0
XRECORD
  5
A88
102
{ACAD_REACTORS
330
A87
102
}
330
A87
100
AcDbXrecord
280
     1
290
     1
  0
XRECORD
  5
A8C
102
{ACAD_REACTORS
330
A8B
102
}
330
A8B
100
AcDbXrecord
280
     1
290
     1
  0
LAYOUT
  5
22
102
{ACAD_REACTORS
330
1A
102
}
330
1A
100
AcDbPlotSettings
  1

  2
RICOH IPSiO NX850 RPCS
  4
A4
  6

 40
5.873749732971191
 41
5.873747825622559
 42
5.873748779296875
 43
5.873748779296875
 44
209.9733276367188
 45
296.9259948730469
 46
56.21
 47
68.71
 48
0.0
 49
0.0
140
0.0
141
0.0
142
1.0
143
1.0
 70
 11940
 72
     1
 73
     1
 74
     0
  7

 75
     0
 76
     0
 77
     2
 78
   300
147
1.0
148
-86.56519164515282
149
-171.1912652483589
100
AcDbLayout
  1
Model
 70
     1
 71
     0
 10
0.0
 20
0.0
 11
12.0
 21
9.0
 12
0.0
 22
0.0
 32
0.0
 14
0.0
 24
0.0
 34
0.0
 15
292.0
 25
205.0
 35
0.0
146
0.0
 13
0.0
 23
0.0
 33
0.0
 16
1.0
 26
0.0
 36
0.0
 17
0.0
 27
1.0
 37
0.0
 76
     0
330
1F
331
934
  0
LAYOUT
  5
1E
102
{ACAD_REACTORS
330
1A
102
}
330
1A
100
AcDbPlotSettings
  1

  2
RICOH IPSiO NX850 RPCS
  4

  6

 40
0.0
 41
0.0
 42
0.0
 43
0.0
 44
0.0
 45
0.0
 46
0.0
 47
0.0
 48
0.0
 49
0.0
140
0.0
141
0.0
142
1.0
143
1.0
 70
   688
 72
     0
 73
     0
 74
     5
  7

 75
    16
 76
     0
 77
     2
 78
   300
147
1.0
148
0.0
149
0.0
100
AcDbLayout
  1
ﾚｲｱｳﾄ1
 70
     1
 71
     1
 10
0.0
 20
0.0
 11
420.0
 21
297.0
 12
0.0
 22
0.0
 32
0.0
 14
1.000000000000000E+20
 24
1.000000000000000E+20
 34
1.000000000000000E+20
 15
-1.000000000000000E+20
 25
-1.000000000000000E+20
 35
-1.000000000000000E+20
146
0.0
 13
0.0
 23
0.0
 33
0.0
 16
1.0
 26
0.0
 36
0.0
 17
0.0
 27
1.0
 37
0.0
 76
     0
330
1B
  0
LAYOUT
  5
26
102
{ACAD_REACTORS
330
1A
102
}
330
1A
100
AcDbPlotSettings
  1

  2
RICOH IPSiO NX850 RPCS
  4

  6

 40
0.0
 41
0.0
 42
0.0
 43
0.0
 44
0.0
 45
0.0
 46
0.0
 47
0.0
 48
0.0
 49
0.0
140
0.0
141
0.0
142
1.0
143
1.0
 70
   688
 72
     0
 73
     0
 74
     5
  7

 75
    16
 76
     0
 77
     2
 78
   300
147
1.0
148
0.0
149
0.0
100
AcDbLayout
  1
ﾚｲｱｳﾄ2
 70
     1
 71
     2
 10
0.0
 20
0.0
 11
12.0
 21
9.0
 12
0.0
 22
0.0
 32
0.0
 14
0.0
 24
0.0
 34
0.0
 15
0.0
 25
0.0
 35
0.0
146
0.0
 13
0.0
 23
0.0
 33
0.0
 16
1.0
 26
0.0
 36
0.0
 17
0.0
 27
1.0
 37
0.0
 76
     0
330
23
  0
MATERIAL
  5
3C99
102
{ACAD_REACTORS
330
3C97
102
}
330
3C97
100
AcDbMaterial
  1
ByBlock
 72
     1
 94
      127
  0
MATERIAL
  5
3C98
102
{ACAD_REACTORS
330
3C97
102
}
330
3C97
100
AcDbMaterial
  1
ByLayer
 72
     1
 94
      127
  0
MATERIAL
  5
3C9A
102
{ACAD_REACTORS
330
3C97
102
}
330
3C97
100
AcDbMaterial
  1
Global
 72
     1
 94
      127
  0
MLEADERSTYLE
  5
3C9E
102
{ACAD_REACTORS
330
3C9D
102
}
330
3C9D
100
AcDbMLeaderStyle
179
     2
170
     2
171
     1
172
     0
 90
        2
 40
0.0
 41
0.0
173
     1
 91
-1056964608
340
14
 92
       -2
290
     1
 42
2.0
291
     1
 43
8.0
  3
Standard
341
0
 44
4.0
300

342
11
174
     1
178
     1
175
     1
176
     0
 93
-1056964608
 45
4.0
292
     0
297
     0
 46
4.0
343
0
 94
-1056964608
 47
1.0
 49
1.0
140
1.0
293
     1
141
0.0
294
     1
177
     0
142
1.0
295
     0
296
     0
143
3.75
271
     0
272
     9
273
     9
  0
MLINESTYLE
  5
18
102
{ACAD_REACTORS
330
17
102
}
330
17
100
AcDbMlineStyle
  2
STANDARD
 70
     0
  3

 62
   256
 51
90.0
 52
90.0
 71
     2
 49
0.5
 62
   256
  6
BYLAYER
 49
-0.5
 62
   256
  6
BYLAYER
  0
ACDBPLACEHOLDER
  5
F
102
{ACAD_REACTORS
330
E
102
}
330
E
  0
SCALE
  5
936
102
{ACAD_REACTORS
330
935
102
}
330
935
100
AcDbScale
 70
     0
300
1:1
140
1.0
141
1.0
290
     1
  0
SCALE
  5
937
102
{ACAD_REACTORS
330
935
102
}
330
935
100
AcDbScale
 70
     0
300
1:2
140
1.0
141
2.0
290
     0
  0
SCALE
  5
938
102
{ACAD_REACTORS
330
935
102
}
330
935
100
AcDbScale
 70
     0
300
1:4
140
1.0
141
4.0
290
     0
  0
SCALE
  5
939
102
{ACAD_REACTORS
330
935
102
}
330
935
100
AcDbScale
 70
     0
300
1:5
140
1.0
141
5.0
290
     0
  0
SCALE
  5
93A
102
{ACAD_REACTORS
330
935
102
}
330
935
100
AcDbScale
 70
     0
300
1:8
140
1.0
141
8.0
290
     0
  0
SCALE
  5
93B
102
{ACAD_REACTORS
330
935
102
}
330
935
100
AcDbScale
 70
     0
300
1:10
140
1.0
141
10.0
290
     0
  0
SCALE
  5
93C
102
{ACAD_REACTORS
330
935
102
}
330
935
100
AcDbScale
 70
     0
300
1:16
140
1.0
141
16.0
290
     0
  0
SCALE
  5
93D
102
{ACAD_REACTORS
330
935
102
}
330
935
100
AcDbScale
 70
     0
300
1:20
140
1.0
141
20.0
290
     0
  0
SCALE
  5
93E
102
{ACAD_REACTORS
330
935
102
}
330
935
100
AcDbScale
 70
     0
300
1:30
140
1.0
141
30.0
290
     0
  0
SCALE
  5
93F
102
{ACAD_REACTORS
330
935
102
}
330
935
100
AcDbScale
 70
     0
300
1:40
140
1.0
141
40.0
290
     0
  0
SCALE
  5
940
102
{ACAD_REACTORS
330
935
102
}
330
935
100
AcDbScale
 70
     0
300
1:50
140
1.0
141
50.0
290
     0
  0
SCALE
  5
941
102
{ACAD_REACTORS
330
935
102
}
330
935
100
AcDbScale
 70
     0
300
1:100
140
1.0
141
100.0
290
     0
  0
SCALE
  5
942
102
{ACAD_REACTORS
330
935
102
}
330
935
100
AcDbScale
 70
     0
300
2:1
140
2.0
141
1.0
290
     0
  0
SCALE
  5
943
102
{ACAD_REACTORS
330
935
102
}
330
935
100
AcDbScale
 70
     0
300
4:1
140
4.0
141
1.0
290
     0
  0
SCALE
  5
944
102
{ACAD_REACTORS
330
935
102
}
330
935
100
AcDbScale
 70
     0
300
8:1
140
8.0
141
1.0
290
     0
  0
SCALE
  5
945
102
{ACAD_REACTORS
330
935
102
}
330
935
100
AcDbScale
 70
     0
300
10:1
140
10.0
141
1.0
290
     0
  0
SCALE
  5
946
102
{ACAD_REACTORS
330
935
102
}
330
935
100
AcDbScale
 70
     0
300
100:1
140
100.0
141
1.0
290
     0
  0
SCALE
  5
947
102
{ACAD_REACTORS
330
935
102
}
330
935
100
AcDbScale
 70
     0
300
1/128" = 1'-0"
140
0.0078125
141
12.0
290
     0
  0
SCALE
  5
948
102
{ACAD_REACTORS
330
935
102
}
330
935
100
AcDbScale
 70
     0
300
1/64" = 1'-0"
140
0.015625
141
12.0
290
     0
  0
SCALE
  5
949
102
{ACAD_REACTORS
330
935
102
}
330
935
100
AcDbScale
 70
     0
300
1/32" = 1'-0"
140
0.03125
141
12.0
290
     0
  0
SCALE
  5
94A
102
{ACAD_REACTORS
330
935
102
}
330
935
100
AcDbScale
 70
     0
300
1/16" = 1'-0"
140
0.0625
141
12.0
290
     0
  0
SCALE
  5
94B
102
{ACAD_REACTORS
330
935
102
}
330
935
100
AcDbScale
 70
     0
300
3/32" = 1'-0"
140
0.09375
141
12.0
290
     0
  0
SCALE
  5
94C
102
{ACAD_REACTORS
330
935
102
}
330
935
100
AcDbScale
 70
     0
300
1/8" = 1'-0"
140
0.125
141
12.0
290
     0
  0
SCALE
  5
94D
102
{ACAD_REACTORS
330
935
102
}
330
935
100
AcDbScale
 70
     0
300
3/16" = 1'-0"
140
0.1875
141
12.0
290
     0
  0
SCALE
  5
94E
102
{ACAD_REACTORS
330
935
102
}
330
935
100
AcDbScale
 70
     0
300
1/4" = 1'-0"
140
0.25
141
12.0
290
     0
  0
SCALE
  5
94F
102
{ACAD_REACTORS
330
935
102
}
330
935
100
AcDbScale
 70
     0
300
3/8" = 1'-0"
140
0.375
141
12.0
290
     0
  0
SCALE
  5
950
102
{ACAD_REACTORS
330
935
102
}
330
935
100
AcDbScale
 70
     0
300
1/2" = 1'-0"
140
0.5
141
12.0
290
     0
  0
SCALE
  5
951
102
{ACAD_REACTORS
330
935
102
}
330
935
100
AcDbScale
 70
     0
300
3/4" = 1'-0"
140
0.75
141
12.0
290
     0
  0
SCALE
  5
952
102
{ACAD_REACTORS
330
935
102
}
330
935
100
AcDbScale
 70
     0
300
1" = 1'-0"
140
1.0
141
12.0
290
     0
  0
SCALE
  5
953
102
{ACAD_REACTORS
330
935
102
}
330
935
100
AcDbScale
 70
     0
300
1-1/2" = 1'-0"
140
1.5
141
12.0
290
     0
  0
SCALE
  5
954
102
{ACAD_REACTORS
330
935
102
}
330
935
100
AcDbScale
 70
     0
300
3" = 1'-0"
140
3.0
141
12.0
290
     0
  0
SCALE
  5
955
102
{ACAD_REACTORS
330
935
102
}
330
935
100
AcDbScale
 70
     0
300
6" = 1'-0"
140
6.0
141
12.0
290
     0
  0
SCALE
  5
956
102
{ACAD_REACTORS
330
935
102
}
330
935
100
AcDbScale
 70
     0
300
1'-0" = 1'-0"
140
12.0
141
12.0
290
     0
  0
TABLESTYLE
  5
3C9C
102
{ACAD_REACTORS
330
3C9B
102
}
102
{ACAD_XDICTIONARY
360
3CDC
102
}
330
3C9B
100
AcDbTableStyle
  3
Standard
 70
     0
 71
     0
 40
0.06
 41
0.06
280
     0
281
     0
  7
Standard
140
4.5
170
     2
 62
     0
 63
   257
283
     0
 90
        4
 91
        0
  1

274
    -2
284
     1
 64
     0
275
    -2
285
     1
 65
     0
276
    -2
286
     1
 66
     0
277
    -2
287
     1
 67
     0
278
    -2
288
     1
 68
     0
279
    -2
289
     1
 69
     0
  7
Standard
140
6.0
170
     5
 62
     0
 63
   257
283
     0
 90
        4
 91
        0
  1

274
    -2
284
     1
 64
     0
275
    -2
285
     1
 65
     0
276
    -2
286
     1
 66
     0
277
    -2
287
     1
 67
     0
278
    -2
288
     1
 68
     0
279
    -2
289
     1
 69
     0
  7
Standard
140
4.5
170
     5
 62
     0
 63
   257
283
     0
 90
        4
 91
        0
  1

274
    -2
284
     1
 64
     0
275
    -2
285
     1
 65
     0
276
    -2
286
     1
 66
     0
277
    -2
287
     1
 67
     0
278
    -2
288
     1
 68
     0
279
    -2
289
     1
 69
     0
  0
VISUALSTYLE
  5
3C83
102
{ACAD_REACTORS
330
3C7E
102
}
330
3C7E
100
AcDbVisualStyle
  2
2dWireframe
 70
     4
177
     2
291
     0
 71
     0
176
     1
 72
     2
176
     1
 73
     0
176
     1
 90
        0
176
     1
 40
0.6
176
     1
 41
30.0
176
     1
 62
     5
 63
     7
421
 16777215
176
     1
 74
     1
176
     1
 91
        4
176
     1
 64
     7
176
     1
 65
   257
176
     1
 75
     1
176
     1
175
     1
176
     1
 42
1.0
176
     1
 92
        0
176
     1
 66
   257
176
     1
 43
1.0
176
     1
 76
     1
176
     1
 77
     6
176
     1
 78
     2
176
     1
 67
     7
176
     1
 79
     5
176
     1
170
     0
176
     1
171
     0
176
     1
290
     0
176
     1
 93
        1
176
     1
 44
0.0
176
     1
173
     0
176
     1
  0
VISUALSTYLE
  5
3C86
102
{ACAD_REACTORS
330
3C7E
102
}
330
3C7E
100
AcDbVisualStyle
  2
Basic
 70
     7
177
     2
291
     1
 71
     1
176
     1
 72
     0
176
     1
 73
     1
176
     1
 90
        0
176
     1
 40
0.6
176
     1
 41
30.0
176
     1
 62
     5
 63
     7
421
 16777215
176
     1
 74
     0
176
     1
 91
        4
176
     1
 64
     7
176
     1
 65
   257
176
     1
 75
     1
176
     1
175
     1
176
     1
 42
1.0
176
     1
 92
        8
176
     1
 66
     7
176
     1
 43
1.0
176
     1
 76
     1
176
     1
 77
     6
176
     1
 78
     2
176
     1
 67
     7
176
     1
 79
     5
176
     1
170
     0
176
     1
171
     0
176
     1
290
     0
176
     1
 93
        1
176
     1
 44
0.0
176
     1
173
     0
176
     1
  0
VISUALSTYLE
  5
3C8A
102
{ACAD_REACTORS
330
3C7E
102
}
330
3C7E
100
AcDbVisualStyle
  2
Brighten
 70
    12
177
     2
291
     1
 71
     2
176
     1
 72
     2
176
     1
 73
     0
176
     1
 90
        0
176
     1
 40
0.6
176
     1
 41
30.0
176
     1
 62
     5
 63
     7
421
 16777215
176
     1
 74
     1
176
     1
 91
        4
176
     1
 64
     7
176
     1
 65
   257
176
     1
 75
     1
176
     1
175
     1
176
     1
 42
1.0
176
     1
 92
        8
176
     1
 66
     7
176
     1
 43
1.0
176
     1
 76
     1
176
     1
 77
     6
176
     1
 78
     2
176
     1
 67
     7
176
     1
 79
     5
176
     1
170
     0
176
     1
171
     0
176
     1
290
     0
176
     1
 93
        1
176
     1
 44
50.0
176
     1
173
     0
176
     1
  0
VISUALSTYLE
  5
3C8E
102
{ACAD_REACTORS
330
3C7E
102
}
330
3C7E
100
AcDbVisualStyle
  2
ColorChange
 70
    16
177
     2
291
     1
 71
     2
176
     1
 72
     2
176
     1
 73
     3
176
     1
 90
        0
176
     1
 40
0.6
176
     1
 41
30.0
176
     1
 62
     5
 63
     8
421
  8421504
176
     1
 74
     1
176
     1
 91
        4
176
     1
 64
     7
176
     1
 65
   257
176
     1
 75
     1
176
     1
175
     1
176
     1
 42
1.0
176
     1
 92
        8
176
     1
 66
     8
424
  8421504
176
     1
 43
1.0
176
     1
 76
     1
176
     1
 77
     6
176
     1
 78
     2
176
     1
 67
     7
176
     1
 79
     5
176
     1
170
     0
176
     1
171
     0
176
     1
290
     0
176
     1
 93
        1
176
     1
 44
0.0
176
     1
173
     0
176
     1
  0
VISUALSTYLE
  5
3C88
102
{ACAD_REACTORS
330
3C7E
102
}
330
3C7E
100
AcDbVisualStyle
  2
Conceptual
 70
     9
177
     2
291
     0
 71
     3
176
     1
 72
     2
176
     1
 73
     0
176
     1
 90
        0
176
     1
 40
0.6
176
     1
 41
30.0
176
     1
 62
     5
 63
     7
421
 16777215
176
     1
 74
     2
176
     1
 91
        2
176
     1
 64
     7
176
     1
 65
   257
176
     1
 75
     1
176
     1
175
     1
176
     1
 42
179.0
176
     1
 92
        8
176
     1
 66
     7
176
     1
 43
1.0
176
     1
 76
     1
176
     1
 77
     6
176
     1
 78
     2
176
     1
 67
     7
176
     1
 79
     3
176
     1
170
     0
176
     1
171
     0
176
     1
290
     0
176
     1
 93
        1
176
     1
 44
0.0
176
     1
173
     0
176
     1
  0
VISUALSTYLE
  5
3C89
102
{ACAD_REACTORS
330
3C7E
102
}
330
3C7E
100
AcDbVisualStyle
  2
Dim
 70
    11
177
     2
291
     1
 71
     2
176
     1
 72
     2
176
     1
 73
     0
176
     1
 90
        0
176
     1
 40
0.6
176
     1
 41
30.0
176
     1
 62
     5
 63
     7
421
 16777215
176
     1
 74
     1
176
     1
 91
        4
176
     1
 64
     7
176
     1
 65
   257
176
     1
 75
     1
176
     1
175
     1
176
     1
 42
1.0
176
     1
 92
        8
176
     1
 66
     7
176
     1
 43
1.0
176
     1
 76
     1
176
     1
 77
     6
176
     1
 78
     2
176
     1
 67
     7
176
     1
 79
     5
176
     1
170
     0
176
     1
171
     0
176
     1
290
     0
176
     1
 93
        1
176
     1
 44
-50.0
176
     1
173
     0
176
     1
  0
VISUALSTYLE
  5
3C91
102
{ACAD_REACTORS
330
3C7E
102
}
330
3C7E
100
AcDbVisualStyle
  2
EdgeColorOff
 70
    22
177
     2
291
     1
 71
     2
176
     0
 72
     2
176
     0
 73
     0
176
     0
 90
        0
176
     0
 40
0.6
176
     0
 41
30.0
176
     0
 62
     5
 63
     7
421
 16777215
176
     0
 74
     1
176
     0
 91
        4
176
     0
 64
     7
176
     0
 65
   257
176
     0
 75
     1
176
     0
175
     1
176
     0
 42
1.0
176
     0
 92
        8
176
     2
 66
     7
176
     0
 43
1.0
176
     0
 76
     1
176
     0
 77
     6
176
     0
 78
     2
176
     0
 67
     7
176
     0
 79
     5
176
     0
170
     0
176
     0
171
     0
176
     0
290
     0
176
     0
 93
        1
176
     0
 44
0.0
176
     0
173
     0
176
     0
  0
VISUALSTYLE
  5
3C8D
102
{ACAD_REACTORS
330
3C7E
102
}
330
3C7E
100
AcDbVisualStyle
  2
Facepattern
 70
    15
177
     2
291
     1
 71
     2
176
     1
 72
     2
176
     1
 73
     0
176
     1
 90
        0
176
     1
 40
0.6
176
     1
 41
30.0
176
     1
 62
     5
 63
     7
421
 16777215
176
     1
 74
     1
176
     1
 91
        4
176
     1
 64
     7
176
     1
 65
   257
176
     1
 75
     1
176
     1
175
     1
176
     1
 42
1.0
176
     1
 92
        8
176
     1
 66
     7
176
     1
 43
1.0
176
     1
 76
     1
176
     1
 77
     6
176
     1
 78
     2
176
     1
 67
     7
176
     1
 79
     5
176
     1
170
     0
176
     1
171
     0
176
     1
290
     0
176
     1
 93
        1
176
     1
 44
0.0
176
     1
173
     0
176
     1
  0
VISUALSTYLE
  5
3C7F
102
{ACAD_REACTORS
330
3C7E
102
}
330
3C7E
100
AcDbVisualStyle
  2
Flat
 70
     0
177
     2
291
     1
 71
     2
176
     1
 72
     1
176
     1
 73
     1
176
     1
 90
        2
176
     1
 40
0.6
176
     1
 41
30.0
176
     1
 62
     5
 63
     7
421
 16777215
176
     1
 74
     0
176
     1
 91
        0
176
     1
 64
     7
176
     1
 65
   257
176
     1
 75
     1
176
     1
175
     1
176
     1
 42
1.0
176
     1
 92
        8
176
     1
 66
     7
176
     1
 43
1.0
176
     1
 76
     1
176
     1
 77
     6
176
     1
 78
     2
176
     1
 67
     7
176
     1
 79
     5
176
     1
170
     0
176
     1
171
     0
176
     1
290
     0
176
     1
 93
       13
176
     1
 44
0.0
176
     1
173
     0
176
     1
  0
VISUALSTYLE
  5
3C80
102
{ACAD_REACTORS
330
3C7E
102
}
330
3C7E
100
AcDbVisualStyle
  2
FlatWithEdges
 70
     1
177
     2
291
     1
 71
     2
176
     1
 72
     1
176
     1
 73
     1
176
     1
 90
        2
176
     1
 40
0.6
176
     1
 41
30.0
176
     1
 62
     5
 63
     7
421
 16777215
176
     1
 74
     1
176
     1
 91
        0
176
     1
 64
     7
176
     1
 65
   257
176
     1
 75
     1
176
     1
175
     1
176
     1
 42
1.0
176
     1
 92
        0
176
     1
 66
   257
176
     1
 43
1.0
176
     1
 76
     1
176
     1
 77
     6
176
     1
 78
     2
176
     1
 67
     7
176
     1
 79
     5
176
     1
170
     0
176
     1
171
     0
176
     1
290
     0
176
     1
 93
       13
176
     1
 44
0.0
176
     1
173
     0
176
     1
  0
VISUALSTYLE
  5
3C81
102
{ACAD_REACTORS
330
3C7E
102
}
330
3C7E
100
AcDbVisualStyle
  2
Gouraud
 70
     2
177
     2
291
     1
 71
     2
176
     1
 72
     2
176
     1
 73
     1
176
     1
 90
        2
176
     1
 40
0.6
176
     1
 41
30.0
176
     1
 62
     5
 63
     7
421
 16777215
176
     1
 74
     0
176
     1
 91
        0
176
     1
 64
     7
176
     1
 65
   257
176
     1
 75
     1
176
     1
175
     1
176
     1
 42
1.0
176
     1
 92
        0
176
     1
 66
     7
176
     1
 43
1.0
176
     1
 76
     1
176
     1
 77
     6
176
     1
 78
     2
176
     1
 67
     7
176
     1
 79
     5
176
     1
170
     0
176
     1
171
     0
176
     1
290
     0
176
     1
 93
       13
176
     1
 44
0.0
176
     1
173
     0
176
     1
  0
VISUALSTYLE
  5
3C82
102
{ACAD_REACTORS
330
3C7E
102
}
330
3C7E
100
AcDbVisualStyle
  2
GouraudWithEdges
 70
     3
177
     2
291
     1
 71
     2
176
     1
 72
     2
176
     1
 73
     1
176
     1
 90
        2
176
     1
 40
0.6
176
     1
 41
30.0
176
     1
 62
     5
 63
     7
421
 16777215
176
     1
 74
     1
176
     1
 91
        0
176
     1
 64
     7
176
     1
 65
   257
176
     1
 75
     1
176
     1
175
     1
176
     1
 42
1.0
176
     1
 92
        0
176
     1
 66
   257
176
     1
 43
1.0
176
     1
 76
     1
176
     1
 77
     6
176
     1
 78
     2
176
     1
 67
     7
176
     1
 79
     5
176
     1
170
     0
176
     1
171
     0
176
     1
290
     0
176
     1
 93
       13
176
     1
 44
0.0
176
     1
173
     0
176
     1
  0
VISUALSTYLE
  5
3C85
102
{ACAD_REACTORS
330
3C7E
102
}
330
3C7E
100
AcDbVisualStyle
  2
Hidden
 70
     6
177
     2
291
     0
 71
     1
176
     1
 72
     2
176
     1
 73
     2
176
     1
 90
        0
176
     1
 40
0.6
176
     1
 41
30.0
176
     1
 62
     5
 63
     7
421
 16777215
176
     1
 74
     2
176
     1
 91
        2
176
     1
 64
     7
176
     1
 65
   257
176
     1
 75
     2
176
     1
175
     1
176
     1
 42
40.0
176
     1
 92
        0
176
     1
 66
   257
176
     1
 43
1.0
176
     1
 76
     1
176
     1
 77
     6
176
     1
 78
     2
176
     1
 67
     7
176
     1
 79
     3
176
     1
170
     0
176
     1
171
     0
176
     1
290
     0
176
     1
 93
        1
176
     1
 44
0.0
176
     1
173
     0
176
     1
  0
VISUALSTYLE
  5
3C8F
102
{ACAD_REACTORS
330
3C7E
102
}
330
3C7E
100
AcDbVisualStyle
  2
JitterOff
 70
    20
177
     2
291
     1
 71
     2
176
     0
 72
     2
176
     0
 73
     0
176
     0
 90
        0
176
     0
 40
0.6
176
     0
 41
30.0
176
     0
 62
     5
 63
     7
421
 16777215
176
     0
 74
     1
176
     0
 91
        4
176
     0
 64
     7
176
     0
 65
   257
176
     0
 75
     1
176
     0
175
     1
176
     0
 42
1.0
176
     0
 92
       10
176
     2
 66
     7
176
     0
 43
1.0
176
     0
 76
     1
176
     0
 77
     6
176
     0
 78
     2
176
     0
 67
     7
176
     0
 79
     5
176
     0
170
     0
176
     0
171
     0
176
     0
290
     0
176
     0
 93
        1
176
     0
 44
0.0
176
     0
173
     0
176
     0
  0
VISUALSTYLE
  5
3C8C
102
{ACAD_REACTORS
330
3C7E
102
}
330
3C7E
100
AcDbVisualStyle
  2
Linepattern
 70
    14
177
     2
291
     1
 71
     2
176
     1
 72
     2
176
     1
 73
     0
176
     1
 90
        0
176
     1
 40
0.6
176
     1
 41
30.0
176
     1
 62
     5
 63
     7
421
 16777215
176
     1
 74
     1
176
     1
 91
        4
176
     1
 64
     7
176
     1
 65
   257
176
     1
 75
     7
176
     1
175
     7
176
     1
 42
1.0
176
     1
 92
        8
176
     1
 66
     7
176
     1
 43
1.0
176
     1
 76
     1
176
     1
 77
     6
176
     1
 78
     2
176
     1
 67
     7
176
     1
 79
     5
176
     1
170
     0
176
     1
171
     0
176
     1
290
     0
176
     1
 93
        1
176
     1
 44
0.0
176
     1
173
     0
176
     1
  0
VISUALSTYLE
  5
3C90
102
{ACAD_REACTORS
330
3C7E
102
}
330
3C7E
100
AcDbVisualStyle
  2
OverhangOff
 70
    21
177
     2
291
     1
 71
     2
176
     0
 72
     2
176
     0
 73
     0
176
     0
 90
        0
176
     0
 40
0.6
176
     0
 41
30.0
176
     0
 62
     5
 63
     7
421
 16777215
176
     0
 74
     1
176
     0
 91
        4
176
     0
 64
     7
176
     0
 65
   257
176
     0
 75
     1
176
     0
175
     1
176
     0
 42
1.0
176
     0
 92
        9
176
     2
 66
     7
176
     0
 43
1.0
176
     0
 76
     1
176
     0
 77
     6
176
     0
 78
     2
176
     0
 67
     7
176
     0
 79
     5
176
     0
170
     0
176
     0
171
     0
176
     0
290
     0
176
     0
 93
        1
176
     0
 44
0.0
176
     0
173
     0
176
     0
  0
VISUALSTYLE
  5
3C87
102
{ACAD_REACTORS
330
3C7E
102
}
330
3C7E
100
AcDbVisualStyle
  2
Realistic
 70
     8
177
     2
291
     0
 71
     2
176
     1
 72
     3
176
     1
 73
     0
176
     1
 90
        2
176
     1
 40
0.6
176
     1
 41
30.0
176
     1
 62
     5
 63
     7
421
 16777215
176
     1
 74
     0
176
     1
 91
        0
176
     1
 64
     7
176
     1
 65
   257
176
     1
 75
     1
176
     1
175
     1
176
     1
 42
1.0
176
     1
 92
        8
176
     1
 66
   257
176
     1
 43
1.0
176
     1
 76
     1
176
     1
 77
     6
176
     1
 78
     2
176
     1
 67
     7
176
     1
 79
     3
176
     1
170
     0
176
     1
171
     0
176
     1
290
     0
176
     1
 93
       13
176
     1
 44
0.0
176
     1
173
     0
176
     1
  0
VISUALSTYLE
  5
3C96
102
{ACAD_REACTORS
330
3C7E
102
}
330
3C7E
100
AcDbVisualStyle
  2
Shaded
 70
    27
177
     2
291
     0
 71
     2
176
     1
 72
     2
176
     1
 73
     1
176
     1
 90
        2
176
     1
 40
0.6
176
     1
 41
30.0
176
     1
 62
     5
 63
     7
421
 16777215
176
     1
 74
     0
176
     1
 91
        4
176
     1
 64
     7
176
     1
 65
   257
176
     1
 75
     1
176
     1
175
     1
176
     1
 42
1.0
176
     1
 92
        8
176
     1
 66
   257
176
     1
 43
1.0
176
     1
 76
     1
176
     1
 77
     6
176
     1
 78
     2
176
     1
 67
     8
425
  7895160
176
     1
 79
     3
176
     1
170
     0
176
     1
171
     0
176
     1
290
     0
176
     1
 93
        5
176
     1
 44
0.0
176
     1
173
     0
176
     1
  0
VISUALSTYLE
  5
3C95
102
{ACAD_REACTORS
330
3C7E
102
}
330
3C7E
100
AcDbVisualStyle
  2
Shaded with edges
 70
    26
177
     2
291
     0
 71
     2
176
     1
 72
     2
176
     1
 73
     1
176
     1
 90
        2
176
     1
 40
0.6
176
     1
 41
30.0
176
     1
 62
     5
 63
     7
421
 16777215
176
     1
 74
     1
176
     1
 91
       10
176
     1
 64
     7
176
     1
 65
   257
176
     1
 75
     2
176
     1
175
     1
176
     1
 42
1.0
176
     1
 92
        8
176
     1
 66
   257
176
     1
 43
1.0
176
     1
 76
     1
176
     1
 77
     6
176
     1
 78
     2
176
     1
 67
     7
176
     1
 79
     3
176
     1
170
     0
176
     1
171
     0
176
     1
290
     0
176
     1
 93
        5
176
     1
 44
0.0
176
     1
173
     0
176
     1
  0
VISUALSTYLE
  5
3C92
102
{ACAD_REACTORS
330
3C7E
102
}
330
3C7E
100
AcDbVisualStyle
  2
Shades of Gray
 70
    23
177
     2
291
     0
 71
     2
176
     1
 72
     2
176
     1
 73
     3
176
     1
 90
        0
176
     1
 40
0.6
176
     1
 41
30.0
176
     1
 62
     5
 63
     7
421
 16777215
176
     1
 74
     2
176
     1
 91
        2
176
     1
 64
     7
176
     1
 65
     7
176
     1
 75
     1
176
     1
175
     1
176
     1
 42
40.0
176
     1
 92
        8
176
     1
 66
     7
176
     1
 43
1.0
176
     1
 76
     1
176
     1
 77
     6
176
     1
 78
     2
176
     1
 67
     7
176
     1
 79
     3
176
     1
170
     0
176
     1
171
     0
176
     1
290
     0
176
     1
 93
        1
176
     1
 44
0.0
176
     1
173
     0
176
     1
  0
VISUALSTYLE
  5
3C93
102
{ACAD_REACTORS
330
3C7E
102
}
330
3C7E
100
AcDbVisualStyle
  2
Sketchy
 70
    24
177
     2
291
     0
 71
     1
176
     1
 72
     2
176
     1
 73
     2
176
     1
 90
        0
176
     1
 40
0.6
176
     1
 41
30.0
176
     1
 62
     5
 63
     7
421
 16777215
176
     1
 74
     2
176
     1
 91
        2
176
     1
 64
     7
176
     1
 65
     7
176
     1
 75
     1
176
     1
175
     1
176
     1
 42
40.0
176
     1
 92
       11
176
     1
 66
     7
176
     1
 43
1.0
176
     1
 76
     1
176
     1
 77
     6
176
     1
 78
     2
176
     1
 67
     7
176
     1
 79
     6
176
     1
170
     0
176
     1
171
     0
176
     1
290
     0
176
     1
 93
        1
176
     1
 44
0.0
176
     1
173
     0
176
     1
  0
VISUALSTYLE
  5
3C8B
102
{ACAD_REACTORS
330
3C7E
102
}
330
3C7E
100
AcDbVisualStyle
  2
Thicken
 70
    13
177
     2
291
     1
 71
     2
176
     1
 72
     2
176
     1
 73
     0
176
     1
 90
        0
176
     1
 40
0.6
176
     1
 41
30.0
176
     1
 62
     5
 63
     7
421
 16777215
176
     1
 74
     1
176
     1
 91
        4
176
     1
 64
     7
176
     1
 65
   257
176
     1
 75
     1
176
     1
175
     1
176
     1
 42
1.0
176
     1
 92
       12
176
     1
 66
     7
176
     1
 43
1.0
176
     1
 76
     1
176
     1
 77
     6
176
     1
 78
     2
176
     1
 67
     7
176
     1
 79
     5
176
     1
170
     0
176
     1
171
     0
176
     1
290
     0
176
     1
 93
        1
176
     1
 44
0.0
176
     1
173
     0
176
     1
  0
VISUALSTYLE
  5
3C84
102
{ACAD_REACTORS
330
3C7E
102
}
330
3C7E
100
AcDbVisualStyle
  2
Wireframe
 70
     5
177
     2
291
     0
 71
     0
176
     1
 72
     2
176
     1
 73
     0
176
     1
 90
        0
176
     1
 40
0.6
176
     1
 41
30.0
176
     1
 62
     5
 63
     7
421
 16777215
176
     1
 74
     1
176
     1
 91
        4
176
     1
 64
     7
176
     1
 65
   257
176
     1
 75
     1
176
     1
175
     1
176
     1
 42
1.0
176
     1
 92
        0
176
     1
 66
   257
176
     1
 43
1.0
176
     1
 76
     1
176
     1
 77
     6
176
     1
 78
     2
176
     1
 67
     7
176
     1
 79
     3
176
     1
170
     0
176
     1
171
     0
176
     1
290
     0
176
     1
 93
        1
176
     1
 44
0.0
176
     1
173
     0
176
     1
  0
VISUALSTYLE
  5
3C94
102
{ACAD_REACTORS
330
3C7E
102
}
330
3C7E
100
AcDbVisualStyle
  2
X-Ray
 70
    25
177
     2
291
     0
 71
     2
176
     1
 72
     2
176
     1
 73
     1
176
     1
 90
        1
176
     1
 40
0.5
176
     1
 41
30.0
176
     1
 62
     5
 63
     7
421
 16777215
176
     1
 74
     1
176
     1
 91
        0
176
     1
 64
     7
176
     1
 65
   257
176
     1
 75
     1
176
     1
175
     1
176
     1
 42
1.0
176
     1
 92
        8
176
     1
 66
     7
176
     1
 43
1.0
176
     1
 76
     1
176
     1
 77
     6
176
     1
 78
     2
176
     1
 67
     7
176
     1
 79
     3
176
     1
170
     0
176
     1
171
     0
176
     1
290
     0
176
     1
 93
       13
176
     1
 44
0.0
176
     1
173
     0
176
     1
  0
DICTIONARYVAR
  5
3C9F
102
{ACAD_REACTORS
330
3E1
102
}
330
3E1
100
DictionaryVariables
280
     0
  1
1:1
  0
DICTIONARYVAR
  5
3CA4
102
{ACAD_REACTORS
330
3E1
102
}
330
3E1
100
DictionaryVariables
280
     0
  1
Standard
  0
DICTIONARYVAR
  5
3CA3
102
{ACAD_REACTORS
330
3E1
102
}
330
3E1
100
DictionaryVariables
280
     0
  1
Standard
  0
DICTIONARYVAR
  5
14C8
102
{ACAD_REACTORS
330
3E1
102
}
330
3E1
100
DictionaryVariables
280
     0
  1
ByLayer
  0
DICTIONARYVAR
  5
3CA5
102
{ACAD_REACTORS
330
3E1
102
}
330
3E1
100
DictionaryVariables
280
     0
  1
0
  0
DICTIONARYVAR
  5
3E2
102
{ACAD_REACTORS
330
3E1
102
}
330
3E1
100
DictionaryVariables
280
     0
  1
96
  0
DICTIONARYVAR
  5
3C5B
102
{ACAD_REACTORS
330
14C9
102
}
330
14C9
100
DictionaryVariables
280
     0
  1
0.261799
  0
DICTIONARYVAR
  5
3C59
102
{ACAD_REACTORS
330
14C9
102
}
330
14C9
100
DictionaryVariables
280
     0
  1
10.000000
  0
DICTIONARYVAR
  5
3C5A
102
{ACAD_REACTORS
330
14C9
102
}
330
14C9
100
DictionaryVariables
280
     0
  1
6.000000
  0
DICTIONARYVAR
  5
3C5C
102
{ACAD_REACTORS
330
14C9
102
}
330
14C9
100
DictionaryVariables
280
     0
  1
0
  0
DICTIONARY
  5
3CDC
330
3C9C
100
AcDbDictionary
280
     1
281
     1
  3
ACAD_ROUNDTRIP_2008_TABLESTYLE_CELLSTYLEMAP
360
3CDD
  0
CELLSTYLEMAP
  5
3CDD
102
{ACAD_REACTORS
330
3CDC
102
}
330
3CDC
100
AcDbCellStyleMap
 90
        3
300
CELLSTYLE
  1
TABLEFORMAT_BEGIN
 90
        5
170
     1
 91
        0
 92
    32768
 62
   257
 93
        1
300
CONTENTFORMAT
  1
CONTENTFORMAT_BEGIN
 90
        0
 91
        0
 92
        4
 93
        0
300

 40
0.0
140
1.0
 94
        5
 62
     0
340
11
144
6.0
309
CONTENTFORMAT_END
171
     1
301
MARGIN
  1
CELLMARGIN_BEGIN
 40
1.5
 40
1.5
 40
1.5
 40
1.5
 40
1.5
 40
1.5
309
CELLMARGIN_END
 94
        6
 95
        1
302
GRIDFORMAT
  1
GRIDFORMAT_BEGIN
 90
        0
 91
        1
 62
     0
 92
       -2
340
14
 93
        0
 40
0.045
309
GRIDFORMAT_END
 95
        2
302
GRIDFORMAT
  1
GRIDFORMAT_BEGIN
 90
        0
 91
        1
 62
     0
 92
       -2
340
14
 93
        0
 40
0.045
309
GRIDFORMAT_END
 95
        4
302
GRIDFORMAT
  1
GRIDFORMAT_BEGIN
 90
        0
 91
        1
 62
     0
 92
       -2
340
14
 93
        0
 40
0.045
309
GRIDFORMAT_END
 95
        8
302
GRIDFORMAT
  1
GRIDFORMAT_BEGIN
 90
        0
 91
        1
 62
     0
 92
       -2
340
14
 93
        0
 40
0.045
309
GRIDFORMAT_END
 95
       16
302
GRIDFORMAT
  1
GRIDFORMAT_BEGIN
 90
        0
 91
        1
 62
     0
 92
       -2
340
14
 93
        0
 40
0.045
309
GRIDFORMAT_END
 95
       32
302
GRIDFORMAT
  1
GRIDFORMAT_BEGIN
 90
        0
 91
        1
 62
     0
 92
       -2
340
14
 93
        0
 40
0.045
309
GRIDFORMAT_END
309
TABLEFORMAT_END
  1
CELLSTYLE_BEGIN
 90
        1
 91
        1
300
_TITLE
309
CELLSTYLE_END
300
CELLSTYLE
  1
TABLEFORMAT_BEGIN
 90
        5
170
     1
 91
        0
 92
        0
 62
   257
 93
        1
300
CONTENTFORMAT
  1
CONTENTFORMAT_BEGIN
 90
        0
 91
        0
 92
        4
 93
        0
300

 40
0.0
140
1.0
 94
        5
 62
     0
340
11
144
4.5
309
CONTENTFORMAT_END
171
     1
301
MARGIN
  1
CELLMARGIN_BEGIN
 40
1.5
 40
1.5
 40
1.5
 40
1.5
 40
1.5
 40
1.5
309
CELLMARGIN_END
 94
        6
 95
        1
302
GRIDFORMAT
  1
GRIDFORMAT_BEGIN
 90
        0
 91
        1
 62
     0
 92
       -2
340
14
 93
        0
 40
0.045
309
GRIDFORMAT_END
 95
        2
302
GRIDFORMAT
  1
GRIDFORMAT_BEGIN
 90
        0
 91
        1
 62
     0
 92
       -2
340
14
 93
        0
 40
0.045
309
GRIDFORMAT_END
 95
        4
302
GRIDFORMAT
  1
GRIDFORMAT_BEGIN
 90
        0
 91
        1
 62
     0
 92
       -2
340
14
 93
        0
 40
0.045
309
GRIDFORMAT_END
 95
        8
302
GRIDFORMAT
  1
GRIDFORMAT_BEGIN
 90
        0
 91
        1
 62
     0
 92
       -2
340
14
 93
        0
 40
0.045
309
GRIDFORMAT_END
 95
       16
302
GRIDFORMAT
  1
GRIDFORMAT_BEGIN
 90
        0
 91
        1
 62
     0
 92
       -2
340
14
 93
        0
 40
0.045
309
GRIDFORMAT_END
 95
       32
302
GRIDFORMAT
  1
GRIDFORMAT_BEGIN
 90
        0
 91
        1
 62
     0
 92
       -2
340
14
 93
        0
 40
0.045
309
GRIDFORMAT_END
309
TABLEFORMAT_END
  1
CELLSTYLE_BEGIN
 90
        2
 91
        1
300
_HEADER
309
CELLSTYLE_END
300
CELLSTYLE
  1
TABLEFORMAT_BEGIN
 90
        5
170
     1
 91
        0
 92
        0
 62
   257
 93
        1
300
CONTENTFORMAT
  1
CONTENTFORMAT_BEGIN
 90
        0
 91
        0
 92
        4
 93
        0
300

 40
0.0
140
1.0
 94
        2
 62
     0
340
11
144
4.5
309
CONTENTFORMAT_END
171
     1
301
MARGIN
  1
CELLMARGIN_BEGIN
 40
1.5
 40
1.5
 40
1.5
 40
1.5
 40
1.5
 40
1.5
309
CELLMARGIN_END
 94
        6
 95
        1
302
GRIDFORMAT
  1
GRIDFORMAT_BEGIN
 90
        0
 91
        1
 62
     0
 92
       -2
340
14
 93
        0
 40
0.045
309
GRIDFORMAT_END
 95
        2
302
GRIDFORMAT
  1
GRIDFORMAT_BEGIN
 90
        0
 91
        1
 62
     0
 92
       -2
340
14
 93
        0
 40
0.045
309
GRIDFORMAT_END
 95
        4
302
GRIDFORMAT
  1
GRIDFORMAT_BEGIN
 90
        0
 91
        1
 62
     0
 92
       -2
340
14
 93
        0
 40
0.045
309
GRIDFORMAT_END
 95
        8
302
GRIDFORMAT
  1
GRIDFORMAT_BEGIN
 90
        0
 91
        1
 62
     0
 92
       -2
340
14
 93
        0
 40
0.045
309
GRIDFORMAT_END
 95
       16
302
GRIDFORMAT
  1
GRIDFORMAT_BEGIN
 90
        0
 91
        1
 62
     0
 92
       -2
340
14
 93
        0
 40
0.045
309
GRIDFORMAT_END
 95
       32
302
GRIDFORMAT
  1
GRIDFORMAT_BEGIN
 90
        0
 91
        1
 62
     0
 92
       -2
340
14
 93
        0
 40
0.045
309
GRIDFORMAT_END
309
TABLEFORMAT_END
  1
CELLSTYLE_BEGIN
 90
        3
 91
        2
300
_DATA
309
CELLSTYLE_END
  0
ENDSEC
  0
EOF
