  0
SECTION
  2
HEADER
  9
$ACADVER
  1
AC1024
  9
$ACADMAINTVER
 70
     6
  9
$DWGCODEPAGE
  3
ANSI_932
  9
$LASTSAVEDBY
  1
営業企画A
  9
$INSBASE
 10
0.0
 20
0.0
 30
0.0
  9
$EXTMIN
 10
0.0
 20
0.0
 30
0.0
  9
$EXTMAX
 10
292.0
 20
205.0
 30
0.0
  9
$LIMMIN
 10
0.0
 20
0.0
  9
$LIMMAX
 10
297.0
 20
210.0
  9
$ORTHOMODE
 70
     1
  9
$REGENMODE
 70
     1
  9
$FILLMODE
 70
     1
  9
$QTEXTMODE
 70
     0
  9
$MIRRTEXT
 70
     1
  9
$LTSCALE
 40
1.0
  9
$ATTMODE
 70
     1
  9
$TEXTSIZE
 40
2.5
  9
$TRACEWID
 40
1.0
  9
$TEXTSTYLE
  7
Standard
  9
$CLAYER
  8
可視
  9
$CELTYPE
  6
Continuous
  9
$CECOLOR
 62
   256
  9
$CELTSCALE
 40
1.0
  9
$DISPSILH
 70
     0
  9
$DIMSCALE
 40
1.0
  9
$DIMASZ
 40
1.0
  9
$DIMEXO
 40
0.625
  9
$DIMDLI
 40
3.75
  9
$DIMRND
 40
0.0
  9
$DIMDLE
 40
0.0
  9
$DIMEXE
 40
1.25
  9
$DIMTP
 40
0.0
  9
$DIMTM
 40
0.0
  9
$DIMTXT
 40
2.0
  9
$DIMCEN
 40
0.0
  9
$DIMTSZ
 40
0.0
  9
$DIMTOL
 70
     0
  9
$DIMLIM
 70
     0
  9
$DIMTIH
 70
     1
  9
$DIMTOH
 70
     1
  9
$DIMSE1
 70
     0
  9
$DIMSE2
 70
     0
  9
$DIMTAD
 70
     1
  9
$DIMZIN
 70
     8
  9
$DIMBLK
  1

  9
$DIMASO
 70
     1
  9
$DIMSHO
 70
     1
  9
$DIMPOST
  1

  9
$DIMAPOST
  1

  9
$DIMALT
 70
     0
  9
$DIMALTD
 70
     3
  9
$DIMALTF
 40
0.03937007874016
  9
$DIMLFAC
 40
1.0
  9
$DIMTOFL
 70
     0
  9
$DIMTVP
 40
0.0
  9
$DIMTIX
 70
     0
  9
$DIMSOXD
 70
     0
  9
$DIMSAH
 70
     0
  9
$DIMBLK1
  1

  9
$DIMBLK2
  1

  9
$DIMSTYLE
  2
ISO-25
  9
$DIMCLRD
 70
     0
  9
$DIMCLRE
 70
     0
  9
$DIMCLRT
 70
     0
  9
$DIMTFAC
 40
1.0
  9
$DIMGAP
 40
0.625
  9
$DIMJUST
 70
     0
  9
$DIMSD1
 70
     0
  9
$DIMSD2
 70
     0
  9
$DIMTOLJ
 70
     0
  9
$DIMTZIN
 70
     8
  9
$DIMALTZ
 70
     0
  9
$DIMALTTZ
 70
     0
  9
$DIMUPT
 70
     1
  9
$DIMDEC
 70
     2
  9
$DIMTDEC
 70
     2
  9
$DIMALTU
 70
     2
  9
$DIMALTTD
 70
     3
  9
$DIMTXSTY
  7
Standard
  9
$DIMAUNIT
 70
     0
  9
$DIMADEC
 70
     0
  9
$DIMALTRND
 40
0.0
  9
$DIMAZIN
 70
     0
  9
$DIMDSEP
 70
    46
  9
$DIMATFIT
 70
     3
  9
$DIMFRAC
 70
     0
  9
$DIMLDRBLK
  1

  9
$DIMLUNIT
 70
     2
  9
$DIMLWD
 70
    -2
  9
$DIMLWE
 70
    -2
  9
$DIMTMOVE
 70
     2
  9
$DIMFXL
 40
1.0
  9
$DIMFXLON
 70
     0
  9
$DIMJOGANG
 40
0.7853981633974483
  9
$DIMTFILL
 70
     0
  9
$DIMTFILLCLR
 70
     0
  9
$DIMARCSYM
 70
     0
  9
$DIMLTYPE
  6

  9
$DIMLTEX1
  6

  9
$DIMLTEX2
  6

  9
$DIMTXTDIRECTION
 70
     0
  9
$LUNITS
 70
     2
  9
$LUPREC
 70
     4
  9
$SKETCHINC
 40
1.0
  9
$FILLETRAD
 40
0.5
  9
$AUNITS
 70
     0
  9
$AUPREC
 70
     0
  9
$MENU
  1
.
  9
$ELEVATION
 40
0.0
  9
$PELEVATION
 40
0.0
  9
$THICKNESS
 40
0.0
  9
$LIMCHECK
 70
     0
  9
$CHAMFERA
 40
10.0
  9
$CHAMFERB
 40
10.0
  9
$CHAMFERC
 40
20.0
  9
$CHAMFERD
 40
0.0
  9
$SKPOLY
 70
     0
  9
$TDCREATE
 40
2453866.557479954
  9
$TDUCREATE
 40
2453866.182479954
  9
$TDUPDATE
 40
2459762.602722789
  9
$TDUUPDATE
 40
2459762.227722789
  9
$TDINDWG
 40
0.8263739583
  9
$TDUSRTIMER
 40
0.0030736574
  9
$USRTIMER
 70
     1
  9
$ANGBASE
 50
0.0
  9
$ANGDIR
 70
     0
  9
$PDMODE
 70
     0
  9
$PDSIZE
 40
0.0
  9
$PLINEWID
 40
0.0
  9
$SPLFRAME
 70
     0
  9
$SPLINETYPE
 70
     6
  9
$SPLINESEGS
 70
     8
  9
$HANDSEED
  5
3EE1
  9
$SURFTAB1
 70
     6
  9
$SURFTAB2
 70
     6
  9
$SURFTYPE
 70
     6
  9
$SURFU
 70
     6
  9
$SURFV
 70
     6
  9
$UCSBASE
  2

  9
$UCSNAME
  2

  9
$UCSORG
 10
0.0
 20
0.0
 30
0.0
  9
$UCSXDIR
 10
1.0
 20
0.0
 30
0.0
  9
$UCSYDIR
 10
0.0
 20
1.0
 30
0.0
  9
$UCSORTHOREF
  2

  9
$UCSORTHOVIEW
 70
     0
  9
$UCSORGTOP
 10
0.0
 20
0.0
 30
0.0
  9
$UCSORGBOTTOM
 10
0.0
 20
0.0
 30
0.0
  9
$UCSORGLEFT
 10
0.0
 20
0.0
 30
0.0
  9
$UCSORGRIGHT
 10
0.0
 20
0.0
 30
0.0
  9
$UCSORGFRONT
 10
0.0
 20
0.0
 30
0.0
  9
$UCSORGBACK
 10
0.0
 20
0.0
 30
0.0
  9
$PUCSBASE
  2

  9
$PUCSNAME
  2

  9
$PUCSORG
 10
0.0
 20
0.0
 30
0.0
  9
$PUCSXDIR
 10
1.0
 20
0.0
 30
0.0
  9
$PUCSYDIR
 10
0.0
 20
1.0
 30
0.0
  9
$PUCSORTHOREF
  2

  9
$PUCSORTHOVIEW
 70
     0
  9
$PUCSORGTOP
 10
0.0
 20
0.0
 30
0.0
  9
$PUCSORGBOTTOM
 10
0.0
 20
0.0
 30
0.0
  9
$PUCSORGLEFT
 10
0.0
 20
0.0
 30
0.0
  9
$PUCSORGRIGHT
 10
0.0
 20
0.0
 30
0.0
  9
$PUCSORGFRONT
 10
0.0
 20
0.0
 30
0.0
  9
$PUCSORGBACK
 10
0.0
 20
0.0
 30
0.0
  9
$USERI1
 70
     0
  9
$USERI2
 70
     0
  9
$USERI3
 70
     0
  9
$USERI4
 70
     0
  9
$USERI5
 70
     0
  9
$USERR1
 40
0.0
  9
$USERR2
 40
0.0
  9
$USERR3
 40
0.0
  9
$USERR4
 40
0.0
  9
$USERR5
 40
0.0
  9
$WORLDVIEW
 70
     1
  9
$SHADEDGE
 70
     3
  9
$SHADEDIF
 70
    70
  9
$TILEMODE
 70
     1
  9
$MAXACTVP
 70
    64
  9
$PINSBASE
 10
0.0
 20
0.0
 30
0.0
  9
$PLIMCHECK
 70
     0
  9
$PEXTMIN
 10
1.000000000000000E+20
 20
1.000000000000000E+20
 30
1.000000000000000E+20
  9
$PEXTMAX
 10
-1.000000000000000E+20
 20
-1.000000000000000E+20
 30
-1.000000000000000E+20
  9
$PLIMMIN
 10
0.0
 20
0.0
  9
$PLIMMAX
 10
0.0
 20
0.0
  9
$UNITMODE
 70
     0
  9
$VISRETAIN
 70
     1
  9
$PLINEGEN
 70
     0
  9
$PSLTSCALE
 70
     1
  9
$TREEDEPTH
 70
  3020
  9
$CMLSTYLE
  2
Standard
  9
$CMLJUST
 70
     0
  9
$CMLSCALE
 40
20.0
  9
$PROXYGRAPHICS
 70
     1
  9
$MEASUREMENT
 70
     1
  9
$CELWEIGHT
370
    -1
  9
$ENDCAPS
280
     0
  9
$JOINSTYLE
280
     0
  9
$LWDISPLAY
290
     0
  9
$INSUNITS
 70
     4
  9
$HYPERLINKBASE
  1

  9
$STYLESHEET
  1

  9
$XEDIT
290
     1
  9
$CEPSNTYPE
380
     0
  9
$PSTYLEMODE
290
     1
  9
$FINGERPRINTGUID
  2
{49B20B3B-064E-400B-9469-2837C497CFA5}
  9
$VERSIONGUID
  2
{CCDC3A7D-9D77-4BF9-B421-98E64B28052D}
  9
$EXTNAMES
290
     1
  9
$PSVPSCALE
 40
0.0
  9
$OLESTARTUP
290
     0
  9
$SORTENTS
280
    96
  9
$INDEXCTL
280
     0
  9
$HIDETEXT
280
     1
  9
$XCLIPFRAME
280
     2
  9
$HALOGAP
280
     0
  9
$OBSCOLOR
 70
   257
  9
$OBSLTYPE
280
     0
  9
$INTERSECTIONDISPLAY
280
     0
  9
$INTERSECTIONCOLOR
 70
   257
  9
$DIMASSOC
280
     2
  9
$PROJECTNAME
  1

  9
$CAMERADISPLAY
290
     0
  9
$LENSLENGTH
 40
50.0
  9
$CAMERAHEIGHT
 40
0.0
  9
$STEPSPERSEC
 40
2.0
  9
$STEPSIZE
 40
6.0
  9
$3DDWFPREC
 40
2.0
  9
$PSOLWIDTH
 40
0.25
  9
$PSOLHEIGHT
 40
4.0
  9
$LOFTANG1
 40
1.570796326794897
  9
$LOFTANG2
 40
1.570796326794897
  9
$LOFTMAG1
 40
0.0
  9
$LOFTMAG2
 40
0.0
  9
$LOFTPARAM
 70
     7
  9
$LOFTNORMALS
280
     1
  9
$LATITUDE
 40
37.795
  9
$LONGITUDE
 40
-122.394
  9
$NORTHDIRECTION
 40
0.0
  9
$TIMEZONE
 70
 -8000
  9
$LIGHTGLYPHDISPLAY
280
     1
  9
$TILEMODELIGHTSYNCH
280
     1
  9
$SOLIDHIST
280
     0
  9
$SHOWHIST
280
     1
  9
$DWFFRAME
280
     2
  9
$DGNFRAME
280
     2
  9
$REALWORLDSCALE
290
     1
  9
$INTERFERECOLOR
 62
   256
  9
$CSHADOW
280
     0
  9
$SHADOWPLANELOCATION
 40
0.0
  0
ENDSEC
  0
SECTION
  2
CLASSES
  0
CLASS
  1
ACDBDICTIONARYWDFLT
  2
AcDbDictionaryWithDefault
  3
ObjectDBX Classes
 90
        0
 91
        3
280
     0
281
     0
  0
CLASS
  1
ACDBPLACEHOLDER
  2
AcDbPlaceHolder
  3
ObjectDBX Classes
 90
        0
 91
        1
280
     0
281
     0
  0
CLASS
  1
LAYOUT
  2
AcDbLayout
  3
ObjectDBX Classes
 90
        0
 91
        1
280
     0
281
     0
  0
CLASS
  1
DICTIONARYVAR
  2
AcDbDictionaryVar
  3
ObjectDBX Classes
 90
        0
 91
        3
280
     0
281
     0
  0
CLASS
  1
SCALE
  2
AcDbScale
  3
ObjectDBX Classes
 90
     1153
 91
        3
280
     0
281
     0
  0
CLASS
  1
MATERIAL
  2
AcDbMaterial
  3
ObjectDBX Classes
 90
     1153
 91
        3
280
     0
281
     0
  0
CLASS
  1
VISUALSTYLE
  2
AcDbVisualStyle
  3
ObjectDBX Classes
 90
     4095
 91
        3
280
     0
281
     0
  0
CLASS
  1
TABLESTYLE
  2
AcDbTableStyle
  3
ObjectDBX Classes
 90
     4095
 91
        3
280
     0
281
     0
  0
CLASS
  1
RASTERVARIABLES
  2
AcDbRasterVariables
  3
ISM
 90
        0
 91
        3
280
     0
281
     0
  0
CLASS
  1
DIMASSOC
  2
AcDbDimAssoc
  3
"AcDbDimAssoc|Product Desc:     AcDim ARX App For Dimension|Company:          Autodesk, Inc.|WEB Address:      www.autodesk.com"
 90
        0
 91
        3
280
     0
281
     0
  0
CLASS
  1
MLEADERSTYLE
  2
AcDbMLeaderStyle
  3
ACDB_MLEADERSTYLE_CLASS
 90
     4095
 91
        3
280
     0
281
     0
  0
CLASS
  1
SUN
  2
AcDbSun
  3
SCENEOE
 90
     1153
 91
        3
280
     0
281
     0
  0
CLASS
  1
CELLSTYLEMAP
  2
AcDbCellStyleMap
  3
ObjectDBX Classes
 90
     1152
 91
        3
280
     0
281
     0
  0
ENDSEC
  0
SECTION
  2
TABLES
  0
TABLE
  2
VPORT
  5
8
330
0
100
AcDbSymbolTable
 70
     1
  0
VPORT
  5
934
330
8
100
AcDbSymbolTableRecord
100
AcDbViewportTableRecord
  2
*Active
 70
     0
 10
0.0
 20
0.0
 11
1.0
 21
1.0
 12
146.0
 22
102.5
 13
0.0
 23
0.0
 14
10.0
 24
10.0
 15
10.0
 25
10.0
 16
0.0
 26
0.0
 36
1.0
 17
0.0
 27
0.0
 37
0.0
 40
209.1
 41
1.737931034482759
 42
50.0
 43
0.0
 44
0.0
 50
0.0
 51
0.0
 71
    16
 72
   100
 73
     1
 74
     3
 75
     0
 76
     0
 77
     0
 78
     0
281
     0
 65
     1
110
0.0
120
0.0
130
0.0
111
1.0
121
0.0
131
0.0
112
0.0
122
1.0
132
0.0
 79
     0
146
0.0
348
3D13
 60
     3
 61
     5
292
     1
282
     1
141
0.0
142
0.0
 63
   256
361
3E47
  0
ENDTAB
  0
TABLE
  2
LTYPE
  5
5
330
0
100
AcDbSymbolTable
 70
     5
  0
LTYPE
  5
14
330
5
100
AcDbSymbolTableRecord
100
AcDbLinetypeTableRecord
  2
ByBlock
 70
     0
  3

 72
    65
 73
     0
 40
0.0
  0
LTYPE
  5
15
330
5
100
AcDbSymbolTableRecord
100
AcDbLinetypeTableRecord
  2
ByLayer
 70
     0
  3

 72
    65
 73
     0
 40
0.0
  0
LTYPE
  5
16
330
5
100
AcDbSymbolTableRecord
100
AcDbLinetypeTableRecord
  2
Continuous
 70
     0
  3
Solid line
 72
    65
 73
     0
 40
0.0
  0
LTYPE
  5
C6
330
5
100
AcDbSymbolTableRecord
100
AcDbLinetypeTableRecord
  2
ACAD_ISO02W100
 70
     0
  3
ISO dash __ __ __ __ __ __ __ __ __ __ __ __ __
 72
    65
 73
     2
 40
15.0
 49
12.0
 74
     0
 49
-3.0
 74
     0
  0
LTYPE
  5
63F
330
5
100
AcDbSymbolTableRecord
100
AcDbLinetypeTableRecord
  2
HIDDEN
 70
     0
  3
Hidden __ __ __ __ __ __ __ __ __ __ __ __ __ _
 72
    65
 73
     2
 40
4.5
 49
3.0
 74
     0
 49
-1.5
 74
     0
  0
LTYPE
  5
7A5
330
5
100
AcDbSymbolTableRecord
100
AcDbLinetypeTableRecord
  2
ACAD_ISO07W100
 70
     0
  3
ISO dot . . . . . . . . . . . . . . . . . . . .
 72
    65
 73
     2
 40
3.0
 49
0.0
 74
     0
 49
-3.0
 74
     0
  0
LTYPE
  5
A8D
330
5
100
AcDbSymbolTableRecord
100
AcDbLinetypeTableRecord
  2
CENTER2
 70
     0
  3
Center (.5x) ___ _ ___ _ ___ _ ___ _ ___ _ ___
 72
    65
 73
     4
 40
28.575
 49
19.05
 74
     0
 49
-3.175
 74
     0
 49
3.175
 74
     0
 49
-3.175
 74
     0
  0
ENDTAB
  0
TABLE
  2
LAYER
  5
2
102
{ACAD_XDICTIONARY
360
970
102
}
330
0
100
AcDbSymbolTable
 70
    19
  0
LAYER
  5
10
330
2
100
AcDbSymbolTableRecord
100
AcDbLayerTableRecord
  2
0
 70
     0
 62
     7
  6
Continuous
370
    -3
390
F
347
3D2A
  0
LAYER
  5
110
330
2
100
AcDbSymbolTableRecord
100
AcDbLayerTableRecord
  2
Defpoints
 70
     0
 62
     7
  6
Continuous
290
     0
370
    -3
390
F
347
3D2A
  0
LAYER
  5
4E7
330
2
100
AcDbSymbolTableRecord
100
AcDbLayerTableRecord
  2
100
 70
     0
 62
     7
  6
ACAD_ISO07W100
370
    -3
390
F
347
3D2A
  0
LAYER
  5
68D
330
2
100
AcDbSymbolTableRecord
100
AcDbLayerTableRecord
  2
用紙範囲
 70
     0
 62
    10
  6
Continuous
370
    -3
390
F
347
3D2A
  0
LAYER
  5
68E
330
2
100
AcDbSymbolTableRecord
100
AcDbLayerTableRecord
  2
枠
 70
     0
 62
   112
  6
Continuous
370
    -3
390
F
347
3D2A
  0
LAYER
  5
68F
330
2
100
AcDbSymbolTableRecord
100
AcDbLayerTableRecord
  2
寸法
 70
     0
 62
    90
  6
Continuous
370
    -3
390
F
347
3D2A
  0
LAYER
  5
690
330
2
100
AcDbSymbolTableRecord
100
AcDbLayerTableRecord
  2
金属部分
 70
     0
 62
   170
  6
Continuous
370
    -3
390
F
347
3D2A
  0
LAYER
  5
691
330
2
100
AcDbSymbolTableRecord
100
AcDbLayerTableRecord
  2
品番
 70
     0
 62
   244
  6
Continuous
370
    -3
390
F
347
3D2A
  0
LAYER
  5
786
330
2
100
AcDbSymbolTableRecord
100
AcDbLayerTableRecord
  2
文字
 70
     0
 62
    40
  6
Continuous
370
    -3
390
F
347
3D2A
  0
LAYER
  5
790
330
2
100
AcDbSymbolTableRecord
100
AcDbLayerTableRecord
  2
社名
 70
     0
 62
     1
  6
Continuous
370
    -3
390
F
347
3D2A
  0
LAYER
  5
880
330
2
100
AcDbSymbolTableRecord
100
AcDbLayerTableRecord
  2
軟質樹脂部分
 70
     0
 62
    30
  6
Continuous
370
    -3
390
F
347
3D2A
  0
LAYER
  5
896
330
2
100
AcDbSymbolTableRecord
100
AcDbLayerTableRecord
  2
TOS_M1
 70
     0
 62
     7
  6
Continuous
370
    -3
390
F
347
3D2A
  0
LAYER
  5
897
330
2
100
AcDbSymbolTableRecord
100
AcDbLayerTableRecord
  2
TOS_S1
 70
     0
 62
     4
  6
Continuous
370
    -3
390
F
347
3D2A
  0
LAYER
  5
A57
330
2
100
AcDbSymbolTableRecord
100
AcDbLayerTableRecord
  2
補助
 70
     0
 62
     7
  6
HIDDEN
370
    -3
390
F
347
3D2A
1001
AcAecLayerStandard
1000

1000

  0
LAYER
  5
A86
102
{ACAD_XDICTIONARY
360
A87
102
}
330
2
100
AcDbSymbolTableRecord
100
AcDbLayerTableRecord
  2
SCALE
 70
     0
 62
     3
  6
Continuous
370
    -3
390
F
347
3D2A
  0
LAYER
  5
A8A
102
{ACAD_XDICTIONARY
360
A8B
102
}
330
2
100
AcDbSymbolTableRecord
100
AcDbLayerTableRecord
  2
Hojo
 70
     0
 62
   111
  6
Continuous
370
    -3
390
F
347
3D2A
  0
LAYER
  5
2076
330
2
100
AcDbSymbolTableRecord
100
AcDbLayerTableRecord
  2
硬質樹脂部分
 70
     0
 62
   220
  6
Continuous
370
    -3
390
F
347
3D2A
1001
AcAecLayerStandard
1000

1000

  0
LAYER
  5
34A4
330
2
100
AcDbSymbolTableRecord
100
AcDbLayerTableRecord
  2
両面テープ
 70
     0
 62
     7
  6
Continuous
370
    -3
390
F
347
3D2A
1001
AcAecLayerStandard
1000

1000

  0
LAYER
  5
3D32
330
2
100
AcDbSymbolTableRecord
100
AcDbLayerTableRecord
  2
可視
 70
     0
 62
     7
  6
Continuous
370
    -3
390
F
347
3D2A
  0
ENDTAB
  0
TABLE
  2
STYLE
  5
3
330
0
100
AcDbSymbolTable
 70
     2
  0
STYLE
  5
11
330
3
100
AcDbSymbolTableRecord
100
AcDbTextStyleTableRecord
  2
Standard
 70
     0
 40
0.0
 41
1.0
 50
0.0
 71
     0
 42
2.5
  3
txt.shx
  4
bigfont.shx
  0
STYLE
  5
C5
330
3
100
AcDbSymbolTableRecord
100
AcDbTextStyleTableRecord
  2

 70
     1
 40
0.0
 41
1.0
 50
0.0
 71
     0
 42
2.5
  3
ltypeshp.shx
  4

  0
ENDTAB
  0
TABLE
  2
VIEW
  5
6
330
0
100
AcDbSymbolTable
 70
     0
  0
ENDTAB
  0
TABLE
  2
UCS
  5
7
330
0
100
AcDbSymbolTable
 70
     0
  0
ENDTAB
  0
TABLE
  2
APPID
  5
9
330
0
100
AcDbSymbolTable
 70
     9
  0
APPID
  5
12
330
9
100
AcDbSymbolTableRecord
100
AcDbRegAppTableRecord
  2
ACAD
 70
     0
  0
APPID
  5
A58
330
9
100
AcDbSymbolTableRecord
100
AcDbRegAppTableRecord
  2
AcAecLayerStandard
 70
     0
  0
APPID
  5
A97
330
9
100
AcDbSymbolTableRecord
100
AcDbRegAppTableRecord
  2
ACAD_NAV_VCDISPLAY
 70
     0
  0
APPID
  5
A98
330
9
100
AcDbSymbolTableRecord
100
AcDbRegAppTableRecord
  2
ACAD_PSEXT
 70
     0
  0
APPID
  5
B15
330
9
100
AcDbSymbolTableRecord
100
AcDbRegAppTableRecord
  2
ACAD_DSTYLE_DIMRADIAL_EXTENSION
 70
     0
  0
APPID
  5
3D0C
330
9
100
AcDbSymbolTableRecord
100
AcDbRegAppTableRecord
  2
ACAD_DSTYLE_DIMFLIPARROW_SYMBOL
 70
     0
  0
APPID
  5
3D0D
330
9
100
AcDbSymbolTableRecord
100
AcDbRegAppTableRecord
  2
ACAD_DSTYLE_DIMFLIPARROW_WHICH_SYMBOL
 70
     0
  0
APPID
  5
3D39
330
9
100
AcDbSymbolTableRecord
100
AcDbRegAppTableRecord
  2
AcadAnnotative
 70
     0
  0
APPID
  5
3E6F
330
9
100
AcDbSymbolTableRecord
100
AcDbRegAppTableRecord
  2
PLOTTRANSPARENCY
 70
     0
  0
ENDTAB
  0
TABLE
  2
DIMSTYLE
  5
A
330
0
100
AcDbSymbolTable
 70
     5
100
AcDbDimStyleTable
  0
DIMSTYLE
105
27
102
{ACAD_REACTORS
330
3D62
330
3D96
330
3DB6
330
3DC6
330
3DD6
330
3DE6
330
3DF6
330
3E93
330
3EB7
102
}
330
A
100
AcDbSymbolTableRecord
100
AcDbDimStyleTableRecord
  2
ISO-25
 70
     0
 41
1.0
 42
0.625
 43
3.75
 44
1.25
 77
     1
 78
     8
140
2.0
141
0.0
143
0.03937007874016
147
0.625
171
     3
178
     0
271
     2
272
     2
274
     3
279
     2
283
     0
284
     8
288
     1
340
11
  0
DIMSTYLE
105
4E8
330
A
100
AcDbSymbolTableRecord
100
AcDbDimStyleTableRecord
  2
Standard
 70
     0
178
     0
340
11
  0
DIMSTYLE
105
14C6
330
A
100
AcDbSymbolTableRecord
100
AcDbDimStyleTableRecord
  2
ISO-1
 70
     0
 41
2.5
 42
0.625
 43
3.75
 44
1.25
 77
     1
 78
     8
140
5.0
141
0.0
143
0.03937007874016
144
0.5
147
0.625
171
     3
178
     0
271
     2
272
     2
274
     3
279
     2
283
     0
284
     8
288
     1
340
11
  0
DIMSTYLE
105
2BCC
330
A
100
AcDbSymbolTableRecord
100
AcDbDimStyleTableRecord
  2
ISO-2
 70
     0
 41
2.5
 42
0.625
 43
3.75
 44
1.25
 77
     1
 78
     8
140
5.0
141
0.0
143
0.03937007874016
144
0.2
147
0.625
171
     3
178
     0
271
     2
272
     2
274
     3
279
     2
283
     0
284
     8
288
     1
340
11
  0
DIMSTYLE
105
3D38
330
A
100
AcDbSymbolTableRecord
100
AcDbDimStyleTableRecord
  2
Annotative
 70
     0
 40
0.0
 41
2.5
 42
0.625
 43
7.071068
 44
1.25
 73
     0
 74
     0
 77
     1
 78
     8
 79
     2
140
2.5
141
2.5
143
0.03937
147
0.625
171
     3
172
     1
178
     0
179
     1
271
     1
272
     1
274
     3
278
    44
283
     0
284
     8
285
     8
286
     8
340
11
1001
AcadAnnotative
1000
AnnotativeData
1002
{
1070
     1
1070
     1
1002
}
  0
ENDTAB
  0
TABLE
  2
BLOCK_RECORD
  5
1
330
0
100
AcDbSymbolTable
 70
    12
  0
BLOCK_RECORD
  5
1F
330
1
100
AcDbSymbolTableRecord
100
AcDbBlockTableRecord
  2
*Model_Space
340
22
 70
     0
280
     1
281
     0
  0
BLOCK_RECORD
  5
1B
330
1
100
AcDbSymbolTableRecord
100
AcDbBlockTableRecord
  2
*Paper_Space
340
1E
 70
     0
280
     1
281
     0
  0
BLOCK_RECORD
  5
23
330
1
100
AcDbSymbolTableRecord
100
AcDbBlockTableRecord
  2
*Paper_Space0
340
26
 70
     0
280
     1
281
     0
  0
BLOCK_RECORD
  5
A91
330
1
100
AcDbSymbolTableRecord
100
AcDbBlockTableRecord
  2
_OPEN
340
0
 70
     0
280
     1
281
     0
  0
BLOCK_RECORD
  5
3D65
330
1
100
AcDbSymbolTableRecord
100
AcDbBlockTableRecord
  2
*D2
340
0
 70
     0
280
     1
281
     0
  0
BLOCK_RECORD
  5
3D99
330
1
100
AcDbSymbolTableRecord
100
AcDbBlockTableRecord
  2
*D3
340
0
 70
     0
280
     1
281
     0
  0
BLOCK_RECORD
  5
3DA9
330
1
100
AcDbSymbolTableRecord
100
AcDbBlockTableRecord
  2
*D4
340
0
 70
     0
280
     1
281
     0
  0
BLOCK_RECORD
  5
3DB9
330
1
100
AcDbSymbolTableRecord
100
AcDbBlockTableRecord
  2
*D5
340
0
 70
     0
280
     1
281
     0
  0
BLOCK_RECORD
  5
3DC9
330
1
100
AcDbSymbolTableRecord
100
AcDbBlockTableRecord
  2
*D6
340
0
 70
     0
280
     1
281
     0
  0
BLOCK_RECORD
  5
3DD9
330
1
100
AcDbSymbolTableRecord
100
AcDbBlockTableRecord
  2
*D7
340
0
 70
     0
280
     1
281
     0
  0
BLOCK_RECORD
  5
3DE9
330
1
100
AcDbSymbolTableRecord
100
AcDbBlockTableRecord
  2
*D8
340
0
 70
     0
280
     1
281
     0
  0
BLOCK_RECORD
  5
3DF9
330
1
100
AcDbSymbolTableRecord
100
AcDbBlockTableRecord
  2
*D9
340
0
 70
     0
280
     1
281
     0
  0
BLOCK_RECORD
  5
3E96
330
1
100
AcDbSymbolTableRecord
100
AcDbBlockTableRecord
  2
*D10
340
0
 70
     0
280
     1
281
     0
  0
BLOCK_RECORD
  5
3EBA
330
1
100
AcDbSymbolTableRecord
100
AcDbBlockTableRecord
  2
*D11
340
0
 70
     0
280
     1
281
     0
  0
ENDTAB
  0
ENDSEC
  0
SECTION
  2
BLOCKS
  0
BLOCK
  5
20
330
1F
100
AcDbEntity
  8
0
100
AcDbBlockBegin
  2
*Model_Space
 70
     0
 10
0.0
 20
0.0
 30
0.0
  3
*Model_Space
  1
*Model_Space
  0
ENDBLK
  5
21
330
1F
100
AcDbEntity
  8
0
100
AcDbBlockEnd
  0
BLOCK
  5
1C
330
1B
100
AcDbEntity
 67
     1
  8
0
100
AcDbBlockBegin
  2
*Paper_Space
 70
     0
 10
0.0
 20
0.0
 30
0.0
  3
*Paper_Space
  1
*Paper_Space
  0
ENDBLK
  5
1D
330
1B
100
AcDbEntity
 67
     1
  8
0
100
AcDbBlockEnd
  0
BLOCK
  5
24
330
23
100
AcDbEntity
  8
0
100
AcDbBlockBegin
  2
*Paper_Space0
 70
     0
 10
0.0
 20
0.0
 30
0.0
  3
*Paper_Space0
  1
*Paper_Space0
  0
ENDBLK
  5
25
330
23
100
AcDbEntity
  8
0
100
AcDbBlockEnd
  0
BLOCK
  5
A92
330
A91
100
AcDbEntity
  8
0
100
AcDbBlockBegin
  2
_OPEN
 70
     0
 10
0.0
 20
0.0
 30
0.0
  3
_OPEN
  1
_OPEN
  0
LINE
  5
A93
330
A91
100
AcDbEntity
  8
0
  6
ByBlock
 62
     0
100
AcDbLine
 10
-1.0
 20
0.1666666666666667
 30
0.0
 11
0.0
 21
0.0
 31
0.0
  0
LINE
  5
A94
330
A91
100
AcDbEntity
  8
0
  6
ByBlock
 62
     0
100
AcDbLine
 10
0.0
 20
0.0
 30
0.0
 11
-1.0
 21
-0.1666666666666667
 31
0.0
  0
LINE
  5
A95
330
A91
100
AcDbEntity
  8
0
  6
ByBlock
 62
     0
100
AcDbLine
 10
0.0
 20
0.0
 30
0.0
 11
-1.0
 21
0.0
 31
0.0
  0
ENDBLK
  5
A96
330
A91
100
AcDbEntity
  8
0
100
AcDbBlockEnd
  0
BLOCK
  5
3D66
330
3D65
100
AcDbEntity
  8
0
100
AcDbBlockBegin
  2
*D2
 70
     1
 10
0.0
 20
0.0
 30
0.0
  3
*D2
  1

  0
LINE
  5
3D68
330
3D65
100
AcDbEntity
  8
TOS_M1
  6
Continuous
 62
     0
370
    -2
100
AcDbLine
 10
104.0
 20
108.625
 30
0.0
 11
104.0
 21
119.75
 31
0.0
  0
LINE
  5
3D69
330
3D65
100
AcDbEntity
  8
TOS_M1
  6
Continuous
 62
     0
370
    -2
100
AcDbLine
 10
141.9998873584734
 20
101.2135600548542
 30
0.0
 11
141.9998873584734
 21
119.75
 31
0.0
  0
LINE
  5
3D6A
330
3D65
100
AcDbEntity
  8
TOS_M1
  6
Continuous
 62
     0
370
    -2
100
AcDbLine
 10
105.0
 20
118.5
 30
0.0
 11
120.7083333333333
 21
118.5
 31
0.0
  0
LINE
  5
3D6B
330
3D65
100
AcDbEntity
  8
TOS_M1
  6
Continuous
 62
     0
370
    -2
100
AcDbLine
 10
140.9998873584734
 20
118.5
 30
0.0
 11
125.2916666666666
 21
118.5
 31
0.0
  0
SOLID
  5
3D6C
330
3D65
100
AcDbEntity
  8
TOS_M1
 62
     0
100
AcDbTrace
 10
105.0
 20
118.6666666666667
 30
0.0
 11
105.0
 21
118.3333333333333
 31
0.0
 12
104.0
 22
118.5
 32
0.0
 13
104.0
 23
118.5
 33
0.0
  0
SOLID
  5
3D6D
330
3D65
100
AcDbEntity
  8
TOS_M1
 62
     0
100
AcDbTrace
 10
140.9998873584734
 20
118.3333333333333
 30
0.0
 11
140.9998873584734
 21
118.6666666666667
 31
0.0
 12
141.9998873584734
 22
118.5
 32
0.0
 13
141.9998873584734
 23
118.5
 33
0.0
  0
MTEXT
  5
3D6E
330
3D65
100
AcDbEntity
  8
TOS_M1
  6
Continuous
 62
     0
100
AcDbMText
 10
123.0
 20
118.5
 30
0.0
 40
2.0
 41
0.0
 46
0.0
 71
     5
 72
     1
  1
38
 73
     1
 44
1.0
  0
POINT
  5
3D6F
330
3D65
100
AcDbEntity
  8
Defpoints
 62
     0
100
AcDbPoint
 10
104.0
 20
108.0
 30
0.0
  0
POINT
  5
3D70
330
3D65
100
AcDbEntity
  8
Defpoints
 62
     0
100
AcDbPoint
 10
141.9998873584734
 20
100.5885600548542
 30
0.0
  0
POINT
  5
3D71
330
3D65
100
AcDbEntity
  8
Defpoints
 62
     0
100
AcDbPoint
 10
141.9998873584734
 20
118.5
 30
0.0
  0
ENDBLK
  5
3D67
330
3D65
100
AcDbEntity
  8
0
100
AcDbBlockEnd
  0
BLOCK
  5
3D9A
330
3D99
100
AcDbEntity
  8
0
100
AcDbBlockBegin
  2
*D3
 70
     1
 10
0.0
 20
0.0
 30
0.0
  3
*D3
  1

  0
LINE
  5
3D9C
330
3D99
100
AcDbEntity
  8
TOS_M1
  6
Continuous
 62
     0
370
    -2
100
AcDbLine
 10
103.375
 20
96.49999999999999
 30
0.0
 11
97.75
 21
96.49999999999999
 31
0.0
  0
LINE
  5
3D9D
330
3D99
100
AcDbEntity
  8
TOS_M1
  6
Continuous
 62
     0
370
    -2
100
AcDbLine
 10
104.575
 20
100.0
 30
0.0
 11
97.75
 21
100.0
 31
0.0
  0
LINE
  5
3D9E
330
3D99
100
AcDbEntity
  8
TOS_M1
  6
Continuous
 62
     0
370
    -2
100
AcDbLine
 10
99.0
 20
95.49999999999999
 30
0.0
 11
99.0
 21
94.49999999999999
 31
0.0
  0
LINE
  5
3D9F
330
3D99
100
AcDbEntity
  8
TOS_M1
  6
Continuous
 62
     0
370
    -2
100
AcDbLine
 10
99.0
 20
101.0
 30
0.0
 11
99.0
 21
102.0
 31
0.0
  0
SOLID
  5
3DA0
330
3D99
100
AcDbEntity
  8
TOS_M1
 62
     0
100
AcDbTrace
 10
99.16666666666667
 20
95.49999999999999
 30
0.0
 11
98.83333333333333
 21
95.49999999999999
 31
0.0
 12
99.0
 22
96.49999999999999
 32
0.0
 13
99.0
 23
96.49999999999999
 33
0.0
  0
SOLID
  5
3DA1
330
3D99
100
AcDbEntity
  8
TOS_M1
 62
     0
100
AcDbTrace
 10
98.83333333333333
 20
101.0
 30
0.0
 11
99.16666666666667
 21
101.0
 31
0.0
 12
99.0
 22
100.0
 32
0.0
 13
99.0
 23
100.0
 33
0.0
  0
MTEXT
  5
3DA2
330
3D99
100
AcDbEntity
  8
TOS_M1
  6
Continuous
 62
     0
100
AcDbMText
 10
99.0
 20
98.36585160455216
 30
0.0
 40
2.0
 41
0.0
 46
0.0
 71
     5
 72
     1
  1
3.5
 73
     1
 44
1.0
  0
POINT
  5
3DA3
330
3D99
100
AcDbEntity
  8
Defpoints
 62
     0
100
AcDbPoint
 10
104.0
 20
96.49999999999999
 30
0.0
  0
POINT
  5
3DA4
330
3D99
100
AcDbEntity
  8
Defpoints
 62
     0
100
AcDbPoint
 10
105.2
 20
100.0
 30
0.0
  0
POINT
  5
3DA5
330
3D99
100
AcDbEntity
  8
Defpoints
 62
     0
100
AcDbPoint
 10
99.0
 20
100.0
 30
0.0
  0
ENDBLK
  5
3D9B
330
3D99
100
AcDbEntity
  8
0
100
AcDbBlockEnd
  0
BLOCK
  5
3DAA
330
3DA9
100
AcDbEntity
  8
0
100
AcDbBlockBegin
  2
*D4
 70
     1
 10
0.0
 20
0.0
 30
0.0
  3
*D4
  1

  0
LINE
  5
3DAC
330
3DA9
100
AcDbEntity
  8
TOS_M1
  6
Continuous
 62
     0
370
    -2
100
AcDbLine
 10
103.875
 20
108.5
 30
0.0
 11
99.45531455418075
 21
108.5
 31
0.0
  0
LINE
  5
3DAD
330
3DA9
100
AcDbEntity
  8
TOS_M1
  6
Continuous
 62
     0
370
    -2
100
AcDbLine
 10
103.375
 20
100.0
 30
0.0
 11
99.45531455418075
 21
100.0
 31
0.0
  0
LINE
  5
3DAE
330
3DA9
100
AcDbEntity
  8
TOS_M1
  6
Continuous
 62
     0
370
    -2
100
AcDbLine
 10
100.7053145541807
 20
107.5
 30
0.0
 11
100.7053145541807
 21
105.9888734294174
 31
0.0
  0
LINE
  5
3DAF
330
3DA9
100
AcDbEntity
  8
TOS_M1
  6
Continuous
 62
     0
370
    -2
100
AcDbLine
 10
100.7053145541807
 20
101.0
 30
0.0
 11
100.7053145541807
 21
102.7388734294174
 31
0.0
  0
SOLID
  5
3DB0
330
3DA9
100
AcDbEntity
  8
TOS_M1
 62
     0
100
AcDbTrace
 10
100.8719812208474
 20
107.5
 30
0.0
 11
100.5386478875141
 21
107.5
 31
0.0
 12
100.7053145541807
 22
108.5
 32
0.0
 13
100.7053145541807
 23
108.5
 33
0.0
  0
SOLID
  5
3DB1
330
3DA9
100
AcDbEntity
  8
TOS_M1
 62
     0
100
AcDbTrace
 10
100.5386478875141
 20
101.0
 30
0.0
 11
100.8719812208474
 21
101.0
 31
0.0
 12
100.7053145541807
 22
100.0
 32
0.0
 13
100.7053145541807
 23
100.0
 33
0.0
  0
MTEXT
  5
3DB2
330
3DA9
100
AcDbEntity
  8
TOS_M1
  6
Continuous
 62
     0
100
AcDbMText
 10
100.7053145541807
 20
104.3638734294174
 30
0.0
 40
2.0
 41
0.0
 46
0.0
 71
     5
 72
     1
  1
8.5
 73
     1
 44
1.0
  0
POINT
  5
3DB3
330
3DA9
100
AcDbEntity
  8
Defpoints
 62
     0
100
AcDbPoint
 10
104.5
 20
108.5
 30
0.0
  0
POINT
  5
3DB4
330
3DA9
100
AcDbEntity
  8
Defpoints
 62
     0
100
AcDbPoint
 10
104.0
 20
100.0
 30
0.0
  0
POINT
  5
3DB5
330
3DA9
100
AcDbEntity
  8
Defpoints
 62
     0
100
AcDbPoint
 10
100.7053145541807
 20
100.0
 30
0.0
  0
ENDBLK
  5
3DAB
330
3DA9
100
AcDbEntity
  8
0
100
AcDbBlockEnd
  0
BLOCK
  5
3DBA
330
3DB9
100
AcDbEntity
  8
0
100
AcDbBlockBegin
  2
*D5
 70
     1
 10
0.0
 20
0.0
 30
0.0
  3
*D5
  1

  0
LINE
  5
3DBC
330
3DB9
100
AcDbEntity
  8
TOS_M1
  6
Continuous
 62
     0
370
    -2
100
AcDbLine
 10
103.875
 20
108.5
 30
0.0
 11
92.75
 21
108.5
 31
0.0
  0
LINE
  5
3DBD
330
3DB9
100
AcDbEntity
  8
TOS_M1
  6
Continuous
 62
     0
370
    -2
100
AcDbLine
 10
103.375
 20
96.49999999999999
 30
0.0
 11
92.75
 21
96.49999999999999
 31
0.0
  0
LINE
  5
3DBE
330
3DB9
100
AcDbEntity
  8
TOS_M1
  6
Continuous
 62
     0
370
    -2
100
AcDbLine
 10
94.0
 20
107.5
 30
0.0
 11
94.0
 21
103.8307106839759
 31
0.0
  0
LINE
  5
3DBF
330
3DB9
100
AcDbEntity
  8
TOS_M1
  6
Continuous
 62
     0
370
    -2
100
AcDbLine
 10
94.0
 20
97.49999999999999
 30
0.0
 11
94.0
 21
100.5807106839759
 31
0.0
  0
SOLID
  5
3DC0
330
3DB9
100
AcDbEntity
  8
TOS_M1
 62
     0
100
AcDbTrace
 10
94.16666666666667
 20
107.5
 30
0.0
 11
93.83333333333333
 21
107.5
 31
0.0
 12
94.0
 22
108.5
 32
0.0
 13
94.0
 23
108.5
 33
0.0
  0
SOLID
  5
3DC1
330
3DB9
100
AcDbEntity
  8
TOS_M1
 62
     0
100
AcDbTrace
 10
93.83333333333333
 20
97.49999999999999
 30
0.0
 11
94.16666666666667
 21
97.49999999999999
 31
0.0
 12
94.0
 22
96.49999999999999
 32
0.0
 13
94.0
 23
96.49999999999999
 33
0.0
  0
MTEXT
  5
3DC2
330
3DB9
100
AcDbEntity
  8
TOS_M1
  6
Continuous
 62
     0
100
AcDbMText
 10
94.0
 20
102.2057106839759
 30
0.0
 40
2.0
 41
0.0
 46
0.0
 71
     5
 72
     1
  1
12
 73
     1
 44
1.0
  0
POINT
  5
3DC3
330
3DB9
100
AcDbEntity
  8
Defpoints
 62
     0
100
AcDbPoint
 10
104.5
 20
108.5
 30
0.0
  0
POINT
  5
3DC4
330
3DB9
100
AcDbEntity
  8
Defpoints
 62
     0
100
AcDbPoint
 10
104.0
 20
96.49999999999999
 30
0.0
  0
POINT
  5
3DC5
330
3DB9
100
AcDbEntity
  8
Defpoints
 62
     0
100
AcDbPoint
 10
94.0
 20
96.49999999999999
 30
0.0
  0
ENDBLK
  5
3DBB
330
3DB9
100
AcDbEntity
  8
0
100
AcDbBlockEnd
  0
BLOCK
  5
3DCA
330
3DC9
100
AcDbEntity
  8
0
100
AcDbBlockBegin
  2
*D6
 70
     1
 10
0.0
 20
0.0
 30
0.0
  3
*D6
  1

  0
LINE
  5
3DCC
330
3DC9
100
AcDbEntity
  8
TOS_M1
  6
Continuous
 62
     0
370
    -2
100
AcDbLine
 10
142.048101
 20
101.2
 30
0.0
 11
147.649774
 21
101.2
 31
0.0
  0
LINE
  5
3DCD
330
3DC9
100
AcDbEntity
  8
TOS_M1
  6
Continuous
 62
     0
370
    -2
100
AcDbLine
 10
142.024774
 20
100.0
 30
0.0
 11
147.649774
 21
100.0
 31
0.0
  0
LINE
  5
3DCE
330
3DC9
100
AcDbEntity
  8
TOS_M1
  6
Continuous
 62
     0
370
    -2
100
AcDbLine
 10
146.399774
 20
102.2
 30
0.0
 11
146.399774
 21
103.2
 31
0.0
  0
LINE
  5
3DCF
330
3DC9
100
AcDbEntity
  8
TOS_M1
  6
Continuous
 62
     0
370
    -2
100
AcDbLine
 10
146.399774
 20
99.0
 30
0.0
 11
146.399774
 21
98.0
 31
0.0
  0
SOLID
  5
3DD0
330
3DC9
100
AcDbEntity
  8
TOS_M1
 62
     0
100
AcDbTrace
 10
146.2331073333334
 20
102.2
 30
0.0
 11
146.5664406666667
 21
102.2
 31
0.0
 12
146.399774
 22
101.2
 32
0.0
 13
146.399774
 23
101.2
 33
0.0
  0
SOLID
  5
3DD1
330
3DC9
100
AcDbEntity
  8
TOS_M1
 62
     0
100
AcDbTrace
 10
146.5664406666667
 20
99.0
 30
0.0
 11
146.2331073333334
 21
99.0
 31
0.0
 12
146.399774
 22
100.0
 32
0.0
 13
146.399774
 23
100.0
 33
0.0
  0
MTEXT
  5
3DD2
330
3DC9
100
AcDbEntity
  8
TOS_M1
  6
Continuous
 62
     0
100
AcDbMText
 10
149.9231272716149
 20
100.5964445775862
 30
0.0
 40
2.0
 41
0.0
 46
0.0
 71
     5
 72
     1
  1
1.2
 73
     1
 44
1.0
  0
POINT
  5
3DD3
330
3DC9
100
AcDbEntity
  8
Defpoints
 62
     0
100
AcDbPoint
 10
141.423101
 20
101.2
 30
0.0
  0
POINT
  5
3DD4
330
3DC9
100
AcDbEntity
  8
Defpoints
 62
     0
100
AcDbPoint
 10
141.399774
 20
100.0
 30
0.0
  0
POINT
  5
3DD5
330
3DC9
100
AcDbEntity
  8
Defpoints
 62
     0
100
AcDbPoint
 10
146.399774
 20
100.0
 30
0.0
  0
ENDBLK
  5
3DCB
330
3DC9
100
AcDbEntity
  8
0
100
AcDbBlockEnd
  0
BLOCK
  5
3DDA
330
3DD9
100
AcDbEntity
  8
0
100
AcDbBlockBegin
  2
*D7
 70
     1
 10
0.0
 20
0.0
 30
0.0
  3
*D7
  1

  0
LINE
  5
3DDC
330
3DD9
100
AcDbEntity
  8
TOS_M1
  6
Continuous
 62
     0
370
    -2
100
AcDbLine
 10
112.718039
 20
100.0
 30
0.0
 11
118.65
 21
100.0
 31
0.0
  0
LINE
  5
3DDD
330
3DD9
100
AcDbEntity
  8
TOS_M1
  6
Continuous
 62
     0
370
    -2
100
AcDbLine
 10
113.0250002120862
 20
97.4999996180304
 30
0.0
 11
118.65
 21
97.4999996180304
 31
0.0
  0
LINE
  5
3DDE
330
3DD9
100
AcDbEntity
  8
TOS_M1
  6
Continuous
 62
     0
370
    -2
100
AcDbLine
 10
117.4
 20
101.0
 30
0.0
 11
117.4
 21
102.0
 31
0.0
  0
LINE
  5
3DDF
330
3DD9
100
AcDbEntity
  8
TOS_M1
  6
Continuous
 62
     0
370
    -2
100
AcDbLine
 10
117.4
 20
96.4999996180304
 30
0.0
 11
117.4
 21
95.4999996180304
 31
0.0
  0
SOLID
  5
3DE0
330
3DD9
100
AcDbEntity
  8
TOS_M1
 62
     0
100
AcDbTrace
 10
117.2333333333333
 20
101.0
 30
0.0
 11
117.5666666666667
 21
101.0
 31
0.0
 12
117.4
 22
100.0
 32
0.0
 13
117.4
 23
100.0
 33
0.0
  0
SOLID
  5
3DE1
330
3DD9
100
AcDbEntity
  8
TOS_M1
 62
     0
100
AcDbTrace
 10
117.5666666666667
 20
96.4999996180304
 30
0.0
 11
117.2333333333333
 21
96.4999996180304
 31
0.0
 12
117.4
 22
97.4999996180304
 32
0.0
 13
117.4
 23
97.4999996180304
 33
0.0
  0
MTEXT
  5
3DE2
330
3DD9
100
AcDbEntity
  8
TOS_M1
  6
Continuous
 62
     0
100
AcDbMText
 10
121.5714233033967
 20
98.64099249691235
 30
0.0
 40
2.0
 41
0.0
 46
0.0
 71
     5
 72
     1
  1
2.5
 73
     1
 44
1.0
  0
POINT
  5
3DE3
330
3DD9
100
AcDbEntity
  8
Defpoints
 62
     0
100
AcDbPoint
 10
112.093039
 20
100.0
 30
0.0
  0
POINT
  5
3DE4
330
3DD9
100
AcDbEntity
  8
Defpoints
 62
     0
100
AcDbPoint
 10
112.4000002120862
 20
97.4999996180304
 30
0.0
  0
POINT
  5
3DE5
330
3DD9
100
AcDbEntity
  8
Defpoints
 62
     0
100
AcDbPoint
 10
117.4
 20
97.4999996180304
 30
0.0
  0
ENDBLK
  5
3DDB
330
3DD9
100
AcDbEntity
  8
0
100
AcDbBlockEnd
  0
BLOCK
  5
3DEA
330
3DE9
100
AcDbEntity
  8
0
100
AcDbBlockBegin
  2
*D8
 70
     1
 10
0.0
 20
0.0
 30
0.0
  3
*D8
  1

  0
LINE
  5
3DEC
330
3DE9
100
AcDbEntity
  8
TOS_M1
  6
Continuous
 62
     0
370
    -2
100
AcDbLine
 10
111.1388699576586
 20
97.92447044313799
 30
0.0
 11
111.9748967394871
 21
91.1155787088621
 31
0.0
  0
LINE
  5
3DED
330
3DE9
100
AcDbEntity
  8
TOS_M1
  6
Continuous
 62
     0
370
    -2
100
AcDbLine
 10
112.3299253396282
 20
98.07071365522417
 30
0.0
 11
113.1659521214567
 21
91.26182192094828
 31
0.0
  0
LINE
  5
3DEE
330
3DE9
100
AcDbEntity
  8
TOS_M1
  6
Continuous
 62
     0
370
    -2
100
AcDbLine
 10
110.8300139085893
 20
92.2343920550086
 30
0.0
 11
109.837467756948
 21
92.11252271160345
 31
0.0
  0
LINE
  5
3DEF
330
3DE9
100
AcDbEntity
  8
TOS_M1
  6
Continuous
 62
     0
370
    -2
100
AcDbLine
 10
114.0061615938416
 20
92.62437395390508
 30
0.0
 11
114.9987077454829
 21
92.74624329731023
 31
0.0
  0
SOLID
  5
3DF0
330
3DE9
100
AcDbEntity
  8
TOS_M1
 62
     0
100
AcDbTrace
 10
110.8503254658235
 20
92.06896769640171
 30
0.0
 11
110.8097023513551
 21
92.39981641361548
 31
0.0
 12
111.8225600602307
 22
92.35626139841375
 32
0.0
 13
111.8225600602307
 23
92.35626139841375
 33
0.0
  0
SOLID
  5
3DF1
330
3DE9
100
AcDbEntity
  8
TOS_M1
 62
     0
100
AcDbTrace
 10
113.9858500366074
 20
92.78979831251196
 30
0.0
 11
114.0264731510758
 21
92.4589495952982
 31
0.0
 12
113.0136154422002
 22
92.50250461049993
 32
0.0
 13
113.0136154422002
 23
92.50250461049993
 33
0.0
  0
MTEXT
  5
3DF2
330
3DE9
100
AcDbEntity
  8
TOS_M1
  6
Continuous
 62
     0
100
AcDbMText
 10
112.9935657983294
 20
89.49248048823611
 30
0.0
 40
2.0
 41
0.0
 46
0.0
 71
     5
 72
     1
  1
1.2
 73
     1
 44
1.0
  0
POINT
  5
3DF3
330
3DE9
100
AcDbEntity
  8
Defpoints
 62
     0
100
AcDbPoint
 10
111.0627016180304
 20
98.54481178791382
 30
0.0
  0
POINT
  5
3DF4
330
3DE9
100
AcDbEntity
  8
Defpoints
 62
     0
100
AcDbPoint
 10
112.253757
 20
98.69105499999999
 30
0.0
  0
POINT
  5
3DF5
330
3DE9
100
AcDbEntity
  8
Defpoints
 62
     0
100
AcDbPoint
 10
113.0136154422002
 20
92.50250461049993
 30
0.0
  0
ENDBLK
  5
3DEB
330
3DE9
100
AcDbEntity
  8
0
100
AcDbBlockEnd
  0
BLOCK
  5
3DFA
330
3DF9
100
AcDbEntity
  8
0
100
AcDbBlockBegin
  2
*D9
 70
     1
 10
0.0
 20
0.0
 30
0.0
  3
*D9
  1

  0
LINE
  5
3DFC
330
3DF9
100
AcDbEntity
  8
TOS_M1
  6
Continuous
 62
     0
370
    -2
100
AcDbLine
 10
104.0
 20
95.87499999999999
 30
0.0
 11
104.0
 21
90.24999999999999
 31
0.0
  0
LINE
  5
3DFD
330
3DF9
100
AcDbEntity
  8
TOS_M1
  6
Continuous
 62
     0
370
    -2
100
AcDbLine
 10
105.2
 20
95.87499999999999
 30
0.0
 11
105.2
 21
90.24999999999999
 31
0.0
  0
LINE
  5
3DFE
330
3DF9
100
AcDbEntity
  8
TOS_M1
  6
Continuous
 62
     0
370
    -2
100
AcDbLine
 10
103.0
 20
91.49999999999999
 30
0.0
 11
102.0
 21
91.49999999999999
 31
0.0
  0
LINE
  5
3DFF
330
3DF9
100
AcDbEntity
  8
TOS_M1
  6
Continuous
 62
     0
370
    -2
100
AcDbLine
 10
106.2
 20
91.49999999999999
 30
0.0
 11
107.2
 21
91.49999999999999
 31
0.0
  0
SOLID
  5
3E00
330
3DF9
100
AcDbEntity
  8
TOS_M1
 62
     0
100
AcDbTrace
 10
103.0
 20
91.33333333333331
 30
0.0
 11
103.0
 21
91.66666666666666
 31
0.0
 12
104.0
 22
91.49999999999999
 32
0.0
 13
104.0
 23
91.49999999999999
 33
0.0
  0
SOLID
  5
3E01
330
3DF9
100
AcDbEntity
  8
TOS_M1
 62
     0
100
AcDbTrace
 10
106.2
 20
91.66666666666666
 30
0.0
 11
106.2
 21
91.33333333333331
 31
0.0
 12
105.2
 22
91.49999999999999
 32
0.0
 13
105.2
 23
91.49999999999999
 33
0.0
  0
MTEXT
  5
3E02
330
3DF9
100
AcDbEntity
  8
TOS_M1
  6
Continuous
 62
     0
100
AcDbMText
 10
104.627862916099
 20
88.78199536100615
 30
0.0
 40
2.0
 41
0.0
 46
0.0
 71
     5
 72
     1
  1
1.2
 73
     1
 44
1.0
  0
POINT
  5
3E03
330
3DF9
100
AcDbEntity
  8
Defpoints
 62
     0
100
AcDbPoint
 10
104.0
 20
96.49999999999999
 30
0.0
  0
POINT
  5
3E04
330
3DF9
100
AcDbEntity
  8
Defpoints
 62
     0
100
AcDbPoint
 10
105.2
 20
96.49999999999999
 30
0.0
  0
POINT
  5
3E05
330
3DF9
100
AcDbEntity
  8
Defpoints
 62
     0
100
AcDbPoint
 10
105.2
 20
91.49999999999999
 30
0.0
  0
ENDBLK
  5
3DFB
330
3DF9
100
AcDbEntity
  8
0
100
AcDbBlockEnd
  0
BLOCK
  5
3E97
330
3E96
100
AcDbEntity
  8
0
100
AcDbBlockBegin
  2
*D10
 70
     1
 10
0.0
 20
0.0
 30
0.0
  3
*D10
  1

  0
LINE
  5
3E99
330
3E96
100
AcDbEntity
  8
寸法
  6
Continuous
 62
     0
370
    -2
100
AcDbLine
 10
104.0
 20
108.625
 30
0.0
 11
104.0
 21
114.75
 31
0.0
  0
LINE
  5
3E9A
330
3E96
100
AcDbEntity
  8
寸法
  6
Continuous
 62
     0
370
    -2
100
AcDbLine
 10
109.0000003133597
 20
109.3662244841171
 30
0.0
 11
109.0000003133597
 21
114.75
 31
0.0
  0
LINE
  5
3E9B
330
3E96
100
AcDbEntity
  8
寸法
  6
Continuous
 62
     0
370
    -2
100
AcDbLine
 10
105.0
 20
113.5
 30
0.0
 11
105.3127919414754
 21
113.5
 31
0.0
  0
LINE
  5
3E9C
330
3E96
100
AcDbEntity
  8
寸法
  6
Continuous
 62
     0
370
    -2
100
AcDbLine
 10
108.0000003133597
 20
113.5
 30
0.0
 11
107.8961252748088
 21
113.5
 31
0.0
  0
SOLID
  5
3E9D
330
3E96
100
AcDbEntity
  8
寸法
 62
     0
100
AcDbTrace
 10
105.0
 20
113.6666666666667
 30
0.0
 11
105.0
 21
113.3333333333334
 31
0.0
 12
104.0
 22
113.5
 32
0.0
 13
104.0
 23
113.5
 33
0.0
  0
SOLID
  5
3E9E
330
3E96
100
AcDbEntity
  8
寸法
 62
     0
100
AcDbTrace
 10
108.0000003133597
 20
113.3333333333334
 30
0.0
 11
108.0000003133597
 21
113.6666666666667
 31
0.0
 12
109.0000003133597
 22
113.5
 32
0.0
 13
109.0000003133597
 23
113.5
 33
0.0
  0
MTEXT
  5
3E9F
330
3E96
100
AcDbEntity
  8
寸法
  6
Continuous
 62
     0
100
AcDbMText
 10
106.6044586081421
 20
113.5
 30
0.0
 40
2.0
 41
0.0
 46
0.0
 71
     5
 72
     1
  1
5
 73
     1
 44
1.0
  0
POINT
  5
3EA0
330
3E96
100
AcDbEntity
  8
Defpoints
 62
     0
100
AcDbPoint
 10
104.0
 20
108.0
 30
0.0
  0
POINT
  5
3EA1
330
3E96
100
AcDbEntity
  8
Defpoints
 62
     0
100
AcDbPoint
 10
109.0000003133597
 20
108.7412244841171
 30
0.0
  0
POINT
  5
3EA2
330
3E96
100
AcDbEntity
  8
Defpoints
 62
     0
100
AcDbPoint
 10
109.0000003133597
 20
113.5
 30
0.0
  0
ENDBLK
  5
3E98
330
3E96
100
AcDbEntity
  8
0
100
AcDbBlockEnd
  0
BLOCK
  5
3EBB
330
3EBA
100
AcDbEntity
  8
0
100
AcDbBlockBegin
  2
*D11
 70
     1
 10
0.0
 20
0.0
 30
0.0
  3
*D11
  1

  0
LINE
  5
3EBD
330
3EBA
100
AcDbEntity
  8
寸法
  6
Continuous
 62
     0
370
    -2
100
AcDbLine
 10
109.03477
 20
102.5
 30
0.0
 11
114.65977
 21
102.5
 31
0.0
  0
LINE
  5
3EBE
330
3EBA
100
AcDbEntity
  8
寸法
  6
Continuous
 62
     0
370
    -2
100
AcDbLine
 10
109.03477
 20
108.5
 30
0.0
 11
114.65977
 21
108.5
 31
0.0
  0
LINE
  5
3EBF
330
3EBA
100
AcDbEntity
  8
寸法
  6
Continuous
 62
     0
370
    -2
100
AcDbLine
 10
113.40977
 20
103.5
 30
0.0
 11
113.40977
 21
103.875
 31
0.0
  0
LINE
  5
3EC0
330
3EBA
100
AcDbEntity
  8
寸法
  6
Continuous
 62
     0
370
    -2
100
AcDbLine
 10
113.40977
 20
107.5
 30
0.0
 11
113.40977
 21
107.125
 31
0.0
  0
SOLID
  5
3EC1
330
3EBA
100
AcDbEntity
  8
寸法
 62
     0
100
AcDbTrace
 10
113.2431033333333
 20
103.5
 30
0.0
 11
113.5764366666667
 21
103.5
 31
0.0
 12
113.40977
 22
102.5
 32
0.0
 13
113.40977
 23
102.5
 33
0.0
  0
SOLID
  5
3EC2
330
3EBA
100
AcDbEntity
  8
寸法
 62
     0
100
AcDbTrace
 10
113.5764366666667
 20
107.5
 30
0.0
 11
113.2431033333333
 21
107.5
 31
0.0
 12
113.40977
 22
108.5
 32
0.0
 13
113.40977
 23
108.5
 33
0.0
  0
MTEXT
  5
3EC3
330
3EBA
100
AcDbEntity
  8
寸法
  6
Continuous
 62
     0
100
AcDbMText
 10
113.40977
 20
105.5
 30
0.0
 40
2.0
 41
0.0
 46
0.0
 71
     5
 72
     1
  1
6
 73
     1
 44
1.0
  0
POINT
  5
3EC4
330
3EBA
100
AcDbEntity
  8
Defpoints
 62
     0
100
AcDbPoint
 10
108.40977
 20
102.5
 30
0.0
  0
POINT
  5
3EC5
330
3EBA
100
AcDbEntity
  8
Defpoints
 62
     0
100
AcDbPoint
 10
108.40977
 20
108.5
 30
0.0
  0
POINT
  5
3EC6
330
3EBA
100
AcDbEntity
  8
Defpoints
 62
     0
100
AcDbPoint
 10
113.40977
 20
108.5
 30
0.0
  0
ENDBLK
  5
3EBC
330
3EBA
100
AcDbEntity
  8
0
100
AcDbBlockEnd
  0
ENDSEC
  0
SECTION
  2
ENTITIES
  0
LINE
  5
664
330
1F
100
AcDbEntity
  8
用紙範囲
  6
HIDDEN
100
AcDbLine
 10
0.0
 20
205.0
 30
0.0
 11
0.0
 21
0.0
 31
0.0
  0
LINE
  5
665
330
1F
100
AcDbEntity
  8
用紙範囲
  6
HIDDEN
100
AcDbLine
 10
292.0
 20
205.0
 30
0.0
 11
292.0
 21
0.0
 31
0.0
  0
LINE
  5
666
330
1F
100
AcDbEntity
  8
用紙範囲
  6
HIDDEN
100
AcDbLine
 10
0.0
 20
205.0
 30
0.0
 11
292.0
 21
205.0
 31
0.0
  0
LINE
  5
667
330
1F
100
AcDbEntity
  8
用紙範囲
  6
HIDDEN
100
AcDbLine
 10
0.0
 20
0.0
 30
0.0
 11
292.0
 21
0.0
 31
0.0
  0
LINE
  5
668
330
1F
100
AcDbEntity
  8
枠
  6
Continuous
100
AcDbLine
 10
11.00000000000003
 20
193.5
 30
0.0
 11
281.0
 21
193.5
 31
0.0
  0
LINE
  5
669
330
1F
100
AcDbEntity
  8
枠
  6
Continuous
100
AcDbLine
 10
11.00000000000003
 20
11.5
 30
0.0
 11
281.0
 21
11.5
 31
0.0
  0
LINE
  5
66A
330
1F
100
AcDbEntity
  8
枠
  6
Continuous
100
AcDbLine
 10
11.00000000000003
 20
193.5
 30
0.0
 11
11.00000000000003
 21
11.5
 31
0.0
  0
LINE
  5
66B
330
1F
100
AcDbEntity
  8
枠
  6
Continuous
100
AcDbLine
 10
281.0
 20
193.5
 30
0.0
 11
281.0
 21
11.5
 31
0.0
  0
LINE
  5
673
330
1F
100
AcDbEntity
  8
枠
  6
Continuous
100
AcDbLine
 10
10.00000000000003
 20
194.5
 30
0.0
 11
282.0
 21
194.5
 31
0.0
  0
LINE
  5
674
330
1F
100
AcDbEntity
  8
枠
  6
Continuous
100
AcDbLine
 10
10.00000000000003
 20
194.5
 30
0.0
 11
10.00000000000003
 21
10.5
 31
0.0
  0
LINE
  5
675
330
1F
100
AcDbEntity
  8
枠
  6
Continuous
100
AcDbLine
 10
10.00000000000003
 20
10.5
 30
0.0
 11
282.0
 21
10.5
 31
0.0
  0
LINE
  5
676
330
1F
100
AcDbEntity
  8
枠
  6
Continuous
100
AcDbLine
 10
282.0
 20
194.5
 30
0.0
 11
282.0
 21
10.5
 31
0.0
  0
LINE
  5
677
330
1F
100
AcDbEntity
  8
枠
  6
Continuous
100
AcDbLine
 10
236.0
 20
193.5
 30
0.0
 11
236.0
 21
11.5
 31
0.0
  0
LINE
  5
678
330
1F
100
AcDbEntity
  8
枠
  6
Continuous
100
AcDbLine
 10
236.0
 20
171.3660465293556
 30
0.0
 11
281.0
 21
171.3660465293556
 31
0.0
  0
LINE
  5
679
330
1F
100
AcDbEntity
  8
枠
  6
Continuous
100
AcDbLine
 10
236.0
 20
149.2320930587111
 30
0.0
 11
281.0
 21
149.2320930587111
 31
0.0
  0
LINE
  5
67A
330
1F
100
AcDbEntity
  8
枠
  6
Continuous
100
AcDbLine
 10
236.0
 20
31.87291584484291
 30
0.0
 11
281.0
 21
31.87291584484291
 31
0.0
  0
LINE
  5
67B
330
1F
100
AcDbEntity
  8
枠
  6
Continuous
100
AcDbLine
 10
236.0
 20
41.88960476803794
 30
0.0
 11
281.0
 21
41.88960476803794
 31
0.0
  0
LINE
  5
67D
330
1F
100
AcDbEntity
  8
枠
  6
Continuous
100
AcDbLine
 10
235.0
 20
193.5
 30
0.0
 11
235.0
 21
11.5
 31
0.0
  0
MTEXT
  5
A15
330
1F
100
AcDbEntity
  8
文字
100
AcDbMText
 10
238.0774350305441
 20
192.0038694137743
 30
0.0
 40
2.5
 41
19.50744578598591
 46
2.8275
 71
     1
 72
     5
  1
{\fＭＳ Ｐゴシック|b0|i0|c0|p0;名称}
 73
     1
 44
1.0
1001
ACAD
1000
ACAD_MTEXT_DEFINED_HEIGHT_BEGIN
1070
    46
1040
2.8275
1000
ACAD_MTEXT_DEFINED_HEIGHT_END
  0
MTEXT
  5
A17
330
1F
100
AcDbEntity
  8
文字
100
AcDbMText
 10
236.0
 20
183.859332666015
 30
0.0
 40
2.5
 41
45.0
 46
6.964981659789088
 71
     1
 72
     5
  1
{\fＭＳ Ｐゴシック|b0|i0|c0|p0;　Ｐｒｅｖｉｏ T\P　タイルカーペット用}
 73
     1
 44
1.0
1001
ACAD
1000
ACAD_MTEXT_DEFINED_HEIGHT_BEGIN
1070
    46
1040
6.964981659789088
1000
ACAD_MTEXT_DEFINED_HEIGHT_END
  0
MTEXT
  5
A18
330
1F
100
AcDbEntity
  8
文字
100
AcDbMText
 10
238.0774350305441
 20
169.6766048811238
 30
0.0
 40
2.5
 41
12.9189203585147
 46
2.84
 71
     1
 72
     5
  1
{\fＭＳ Ｐゴシック|b0|i0|c0|p0;品番}
 73
     1
 44
1.0
1001
ACAD
1000
ACAD_MTEXT_DEFINED_HEIGHT_BEGIN
1070
    46
1040
2.84
1000
ACAD_MTEXT_DEFINED_HEIGHT_END
  0
MTEXT
  5
A1C
330
1F
100
AcDbEntity
  8
文字
100
AcDbMText
 10
238.0774350305441
 20
148.0690084662711
 30
0.0
 40
2.5
 41
9.970036363636382
 46
2.8125
 71
     1
 72
     5
  1
{\fＭＳ Ｐゴシック|b0|i0|c0|p0;仕様}
 73
     1
 44
1.0
1001
ACAD
1000
ACAD_MTEXT_DEFINED_HEIGHT_BEGIN
1070
    46
1040
2.8125
1000
ACAD_MTEXT_DEFINED_HEIGHT_END
  0
MTEXT
  5
A1D
330
1F
100
AcDbEntity
  8
文字
100
AcDbMText
 10
245.3794334940524
 20
142.9663202848187
 30
0.0
 40
2.0
 41
31.03349346991044
 46
2.306833812679755
 71
     1
 72
     5
  1
{\fＭＳ Ｐゴシック|b0|i0|c0|p0;材質：真鍮製}
 73
     1
 44
1.0
1001
ACAD
1000
ACAD_MTEXT_DEFINED_HEIGHT_BEGIN
1070
    46
1040
2.306833812679755
1000
ACAD_MTEXT_DEFINED_HEIGHT_END
  0
MTEXT
  5
A1E
330
1F
100
AcDbEntity
  8
文字
100
AcDbMText
 10
245.3794334940524
 20
138.2345671489362
 30
0.0
 40
2.0
 41
31.03349346991044
 46
2.170063773915218
 71
     1
 72
     5
  1
{\fＭＳ Ｐゴシック|b0|i0|c0|p0;仕上：磨き}
 73
     1
 44
1.0
1001
ACAD
1000
ACAD_MTEXT_DEFINED_HEIGHT_BEGIN
1070
    46
1040
2.170063773915218
1000
ACAD_MTEXT_DEFINED_HEIGHT_END
  0
MTEXT
  5
A22
330
1F
100
AcDbEntity
  8
社名
100
AcDbMText
 10
236.0
 20
27.36191229983774
 30
0.0
 40
3.0
 41
46.0
 46
3.375
 71
     1
 72
     5
  1
\fＭＳ Ｐゴシック|b0|i0|c0|p0;株式会社ＡＳＳＩＳＴ}
 73
     1
 44
1.0
1001
ACAD
1000
ACAD_MTEXT_DEFINED_HEIGHT_BEGIN
1070
    46
1040
3.375
1000
ACAD_MTEXT_DEFINED_HEIGHT_END
  0
MTEXT
  5
A24
330
1F
100
AcDbEntity
  8
文字
100
AcDbMText
 10
238.0774350305441
 20
40.58955921885172
 30
0.0
 40
2.5
 41
9.970036363636382
 46
2.8275
 71
     1
 72
     5
  1
{\fＭＳ Ｐゴシック|b0|i0|c0|p0;縮尺}
 73
     1
 44
1.0
1001
ACAD
1000
ACAD_MTEXT_DEFINED_HEIGHT_BEGIN
1070
    46
1040
2.8275
1000
ACAD_MTEXT_DEFINED_HEIGHT_END
  0
MTEXT
  5
A25
330
1F
100
AcDbEntity
  8
文字
100
AcDbMText
 10
251.2855836701089
 20
36.15844413562513
 30
0.0
 40
2.5
 41
28.36545556978234
 46
2.5
 71
     1
 72
     5
  1
{\fＭＳ Ｐゴシック|b0|i0|c0|p0;１：１ }
 73
     1
 44
1.0
1001
ACAD
1000
ACAD_MTEXT_DEFINED_HEIGHT_BEGIN
1070
    46
1040
2.5
1000
ACAD_MTEXT_DEFINED_HEIGHT_END
  0
LINE
  5
27E4
330
1F
100
AcDbEntity
  8
枠
  6
Continuous
100
AcDbLine
 10
236.0
 20
51.88960476803794
 30
0.0
 11
281.0
 21
51.88960476803794
 31
0.0
  0
MTEXT
  5
27E5
330
1F
100
AcDbEntity
  8
文字
100
AcDbMText
 10
238.0774350305441
 20
50.58955921885172
 30
0.0
 40
2.5
 41
9.970036363636382
 46
2.5
 71
     1
 72
     5
  1
{\fＭＳ Ｐゴシック|b0|i0|c0|p0;Date}
 73
     1
 44
1.0
1001
ACAD
1000
ACAD_MTEXT_DEFINED_HEIGHT_BEGIN
1070
    46
1040
2.5
1000
ACAD_MTEXT_DEFINED_HEIGHT_END
  0
MTEXT
  5
27E6
330
1F
100
AcDbEntity
  8
文字
100
AcDbMText
 10
246.1251641599999
 20
46.15844413562513
 30
0.0
 40
2.5
 41
31.83275012571445
 46
2.627860447667875
 71
     1
 72
     5
  1
{\fＭＳ Ｐゴシック|b0|i0|c0|p0;2022年6月24日}
 73
     1
 44
1.0
1001
ACAD
1000
ACAD_MTEXT_DEFINED_HEIGHT_BEGIN
1070
    46
1040
2.627860447667875
1000
ACAD_MTEXT_DEFINED_HEIGHT_END
  0
MTEXT
  5
2C03
330
1F
100
AcDbEntity
  8
文字
100
AcDbMText
 10
236.0
 20
160.4307612374436
 30
0.0
 40
2.5
 41
45.0
 46
2.5
 71
     1
 72
     5
  1
{\fＭＳ Ｐゴシック|b0|i0|c0|p0;　ＰVT７０7}
 73
     1
 44
1.0
1001
ACAD
1000
ACAD_MTEXT_DEFINED_HEIGHT_BEGIN
1070
    46
1040
2.5
1000
ACAD_MTEXT_DEFINED_HEIGHT_END
  0
MTEXT
  5
2C09
330
1F
100
AcDbEntity
  8
社名
100
AcDbMText
 10
236.0
 20
19.58027172995764
 30
0.0
 40
5.0
 41
45.0
 46
5.0
 71
     1
 72
     5
  1
{\fＭＳ Ｐゴシック|b0|i0|c0|p0;\T1.15;\W1.3;AFOLA}
 73
     1
 44
1.0
1001
ACAD
1000
ACAD_MTEXT_DEFINED_HEIGHT_BEGIN
1070
    46
1040
5.0
1000
ACAD_MTEXT_DEFINED_HEIGHT_END
  0
LINE
  5
3D52
330
1F
100
AcDbEntity
  8
金属部分
 62
     5
100
AcDbLine
 10
108.093287
 20
103.059719
 30
0.0
 11
108.9029669622145
 21
107.917800508138
 31
0.0
210
0.0
220
1.0
230
0.0
  0
ARC
  5
3D53
330
1F
100
AcDbEntity
  8
金属部分
 62
     5
100
AcDbCircle
 10
-108.586484
 20
102.97752
 30
0.0000000000000067
 40
0.5000000000002279
210
-2.000000000000000E-16
220
0.0
230
-1.0
100
AcDbArc
 50
272.2273299999994
 51
9.462321999999102
  0
LINE
  5
3D54
102
{ACAD_REACTORS
330
3DC8
102
}
330
1F
100
AcDbEntity
  8
金属部分
 62
     5
100
AcDbLine
 10
141.423101
 20
101.2
 30
0.0
 11
108.567052
 21
102.477898
 31
0.0
210
0.0
220
1.0
230
0.0
  0
ARC
  5
3D55
330
1F
100
AcDbEntity
  8
金属部分
 62
     5
100
AcDbCircle
 10
141.399774
 20
100.600226
 30
0.0
 40
0.6002267382367777
100
AcDbArc
 50
270.0
 51
87.77267000000133
  0
LINE
  5
3D56
102
{ACAD_REACTORS
330
3DC8
102
}
330
1F
100
AcDbEntity
  8
金属部分
 62
     5
100
AcDbLine
 10
112.093039
 20
100.0
 30
0.0
 11
141.399774
 21
100.0
 31
0.0
210
0.0
220
1.0
230
0.0
  0
LINE
  5
3D57
102
{ACAD_REACTORS
330
3DD8
102
}
330
1F
100
AcDbEntity
  8
金属部分
 62
     5
100
AcDbLine
 10
112.4
 20
97.49999999999999
 30
0.0
 11
112.093039
 21
100.0
 31
0.0
210
0.0
220
1.0
230
0.0
  0
ARC
  5
3D58
102
{ACAD_REACTORS
330
3DD8
330
3DE8
102
}
330
1F
100
AcDbEntity
  8
金属部分
 62
     5
100
AcDbCircle
 10
112.253757
 20
98.69105499999999
 30
0.0
 40
1.200000000000007
100
AcDbArc
 50
186.9999999999999
 51
277.0
  0
LINE
  5
3D59
330
1F
100
AcDbEntity
  8
金属部分
 62
     5
100
AcDbLine
 10
110.884027
 20
100.0
 30
0.0
 11
111.062702
 21
98.544812
 31
0.0
210
0.0
220
1.0
230
0.0
  0
LINE
  5
3D5A
102
{ACAD_REACTORS
330
3D98
102
}
330
1F
100
AcDbEntity
  8
金属部分
 62
     5
100
AcDbLine
 10
105.2
 20
100.0
 30
0.0
 11
110.884027
 21
100.0
 31
0.0
210
0.0
220
1.0
230
0.0
  0
LINE
  5
3D5B
102
{ACAD_REACTORS
330
3DF8
102
}
330
1F
100
AcDbEntity
  8
金属部分
 62
     5
100
AcDbLine
 10
105.2
 20
96.49999999999999
 30
0.0
 11
105.2
 21
100.0
 31
0.0
210
0.0
220
1.0
230
0.0
  0
LINE
  5
3D5C
102
{ACAD_REACTORS
330
3D98
330
3DB8
330
3DF8
102
}
330
1F
100
AcDbEntity
  8
金属部分
 62
     5
100
AcDbLine
 10
104.0
 20
96.49999999999999
 30
0.0
 11
105.2
 21
96.49999999999999
 31
0.0
210
0.0
220
1.0
230
0.0
  0
LINE
  5
3D5D
102
{ACAD_REACTORS
330
3D64
102
}
330
1F
100
AcDbEntity
  8
金属部分
 62
     5
100
AcDbLine
 10
104.0
 20
108.0
 30
0.0
 11
104.0
 21
96.49999999999999
 31
0.0
210
0.0
220
1.0
230
0.0
  0
ARC
  5
3D5E
102
{ACAD_REACTORS
330
3E95
102
}
330
1F
100
AcDbEntity
  8
金属部分
 62
     5
100
AcDbCircle
 10
104.5
 20
108.0
 30
0.0
 40
0.500000000000025
100
AcDbArc
 50
90.0
 51
180.0
  0
LINE
  5
3D5F
102
{ACAD_REACTORS
330
3DB8
330
3EB9
102
}
330
1F
100
AcDbEntity
  8
金属部分
 62
     5
100
AcDbLine
 10
108.40977
 20
108.5
 30
0.0
 11
104.5
 21
108.5
 31
0.0
210
0.0
220
1.0
230
0.0
  0
ARC
  5
3D60
330
1F
100
AcDbEntity
  8
金属部分
 62
     5
100
AcDbCircle
 10
108.40977
 20
108.0
 30
0.0
 40
0.5000000000000088
100
AcDbArc
 50
350.5376780000001
 51
90.0
  0
DIMENSION
  5
3D62
102
{ACAD_REACTORS
330
3D64
102
}
102
{ACAD_XDICTIONARY
360
3D63
102
}
330
1F
100
AcDbEntity
  8
TOS_M1
  6
Continuous
 62
     3
100
AcDbDimension
280
     0
  2
*D2
 10
141.9998873584734
 20
118.5
 30
0.0
 11
123.0
 21
118.5
 31
0.0
 70
   160
 71
     5
 42
37.99988735847339
 73
     0
 74
     0
 75
     0
  3
ISO-25
100
AcDbAlignedDimension
 13
104.0
 23
108.0
 33
0.0
 14
141.9998873584734
 24
100.5885600548542
 34
0.0
100
AcDbRotatedDimension
  0
DIMENSION
  5
3D96
102
{ACAD_REACTORS
330
3D98
102
}
102
{ACAD_XDICTIONARY
360
3D97
102
}
330
1F
100
AcDbEntity
  8
TOS_M1
  6
Continuous
 62
     3
100
AcDbDimension
280
     0
  2
*D3
 10
99.0
 20
100.0
 30
0.0
 11
99.0
 21
98.36585160455216
 31
0.0
 70
   160
 71
     5
 42
3.500000000000014
 73
     0
 74
     0
 75
     0
  3
ISO-25
100
AcDbAlignedDimension
 13
104.0
 23
96.49999999999999
 33
0.0
 14
105.2
 24
100.0
 34
0.0
 50
90.0
100
AcDbRotatedDimension
  0
DIMENSION
  5
3DB6
102
{ACAD_REACTORS
330
3DB8
102
}
102
{ACAD_XDICTIONARY
360
3DB7
102
}
330
1F
100
AcDbEntity
  8
TOS_M1
  6
Continuous
 62
     3
100
AcDbDimension
280
     0
  2
*D5
 10
94.0
 20
96.49999999999999
 30
0.0
 11
94.0
 21
102.2057106839759
 31
0.0
 70
   160
 71
     5
 42
12.00000000000001
 73
     0
 74
     0
 75
     0
  3
ISO-25
100
AcDbAlignedDimension
 13
104.5
 23
108.5
 33
0.0
 14
104.0
 24
96.49999999999999
 34
0.0
 50
90.0
100
AcDbRotatedDimension
  0
DIMENSION
  5
3DC6
102
{ACAD_REACTORS
330
3DC8
102
}
102
{ACAD_XDICTIONARY
360
3DC7
102
}
330
1F
100
AcDbEntity
  8
TOS_M1
  6
Continuous
 62
     3
100
AcDbDimension
280
     0
  2
*D6
 10
146.399774
 20
100.0
 30
0.0
 11
149.9231272716149
 21
100.5964445775862
 31
0.0
 70
   160
 71
     5
 42
1.200000000000003
 73
     0
 74
     0
 75
     0
  3
ISO-25
100
AcDbAlignedDimension
 13
141.423101
 23
101.2
 33
0.0
 14
141.399774
 24
100.0
 34
0.0
 50
90.0
100
AcDbRotatedDimension
  0
DIMENSION
  5
3DD6
102
{ACAD_REACTORS
330
3DD8
102
}
102
{ACAD_XDICTIONARY
360
3DD7
102
}
330
1F
100
AcDbEntity
  8
TOS_M1
  6
Continuous
 62
     3
100
AcDbDimension
280
     0
  2
*D7
 10
117.4
 20
97.4999996180304
 30
0.0
 11
121.5714233033967
 21
98.64099249691235
 31
0.0
 70
   160
 71
     5
 42
2.500000381969599
 73
     0
 74
     0
 75
     0
  3
ISO-25
100
AcDbAlignedDimension
 13
112.093039
 23
100.0
 33
0.0
 14
112.4000002120862
 24
97.4999996180304
 34
0.0
 50
90.0
100
AcDbRotatedDimension
  0
DIMENSION
  5
3DE6
102
{ACAD_REACTORS
330
3DE8
102
}
102
{ACAD_XDICTIONARY
360
3DE7
102
}
330
1F
100
AcDbEntity
  8
TOS_M1
  6
Continuous
 62
     3
100
AcDbDimension
280
     0
  2
*D8
 10
113.0136154422002
 20
92.50250461049993
 30
0.0
 11
112.9935657983294
 21
89.49248048823611
 31
0.0
 70
   161
 71
     5
 42
1.200000000000004
 73
     0
 74
     0
 75
     0
  3
ISO-25
100
AcDbAlignedDimension
 13
111.0627016180304
 23
98.54481178791382
 33
0.0
 14
112.253757
 24
98.69105499999999
 34
0.0
  0
DIMENSION
  5
3DF6
102
{ACAD_REACTORS
330
3DF8
102
}
102
{ACAD_XDICTIONARY
360
3DF7
102
}
330
1F
100
AcDbEntity
  8
TOS_M1
  6
Continuous
 62
     3
100
AcDbDimension
280
     0
  2
*D9
 10
105.2
 20
91.49999999999999
 30
0.0
 11
104.627862916099
 21
88.78199536100615
 31
0.0
 70
   160
 71
     5
 42
1.200000000000003
 73
     0
 74
     0
 75
     0
  3
ISO-25
100
AcDbAlignedDimension
 13
104.0
 23
96.49999999999999
 33
0.0
 14
105.2
 24
96.49999999999999
 34
0.0
100
AcDbRotatedDimension
  0
LINE
  5
3E3D
330
1F
100
AcDbEntity
  8
TOS_M1
  6
Continuous
100
AcDbLine
 10
129.5000002120862
 20
99.48253353219705
 30
0.0
 11
128.5000002120862
 21
99.48253353219705
 31
0.0
  0
LINE
  5
3E3E
330
1F
100
AcDbEntity
  8
TOS_M1
  6
Continuous
100
AcDbLine
 10
129.0000002120862
 20
98.48253353219705
 30
0.0
 11
128.5000002120862
 21
99.48253353219705
 31
0.0
  0
LINE
  5
3E3F
330
1F
100
AcDbEntity
  8
TOS_M1
  6
Continuous
100
AcDbLine
 10
129.0000002120862
 20
98.48253353219705
 30
0.0
 11
129.5000002120862
 21
99.48253353219705
 31
0.0
  0
HATCH
  5
3E40
330
1F
100
AcDbEntity
  8
TOS_M1
  6
Continuous
100
AcDbHatch
 10
0.0
 20
0.0
 30
0.0
210
0.0
220
0.0
230
1.0
  2
SOLID
 70
     1
 71
     0
 91
        1
 92
        7
 72
     0
 73
     1
 93
        3
 10
129.0000002120862
 20
98.48253353219705
 10
129.5000002120862
 20
99.48253353219705
 10
128.5000002120862
 20
99.48253353219705
 97
        0
 75
     0
 76
     1
 47
0.0
 98
        1
 10
128.9396746151583
 20
99.27761294090355
1001
ACAD
1010
0.0
1020
0.0
1030
0.0
  0
LINE
  5
3E41
330
1F
100
AcDbEntity
  8
TOS_M1
  6
ACAD_ISO07W100
 62
     3
 48
0.5
100
AcDbLine
 10
129.0000002120862
 20
97.4999996180304
 30
0.0
 11
112.4000002120862
 21
97.4999996180304
 31
0.0
  0
MTEXT
  5
3E42
330
1F
100
AcDbEntity
  8
TOS_M1
  6
Continuous
100
AcDbMText
 10
124.9585696563898
 20
98.48465351909516
 30
0.0
 40
2.0
 41
5.011594093714308
 46
2.0
 71
     1
 72
     5
  1
{17}
 73
     1
 44
1.0
1001
ACAD
1000
ACAD_MTEXT_DEFINED_HEIGHT_BEGIN
1070
    46
1040
2.0
1000
ACAD_MTEXT_DEFINED_HEIGHT_END
  0
DIMENSION
  5
3E93
102
{ACAD_REACTORS
330
3E95
102
}
102
{ACAD_XDICTIONARY
360
3E94
102
}
330
1F
100
AcDbEntity
  8
寸法
  6
Continuous
100
AcDbDimension
280
     0
  2
*D10
 10
109.0000003133597
 20
113.5
 30
0.0
 11
106.6044586081421
 21
113.5
 31
0.0
 70
   160
 71
     5
 42
5.000000313359706
 73
     0
 74
     0
 75
     0
  3
ISO-25
100
AcDbAlignedDimension
 13
104.0
 23
108.0
 33
0.0
 14
109.0000003133597
 24
108.7412244841171
 34
0.0
100
AcDbRotatedDimension
  0
DIMENSION
  5
3EB7
102
{ACAD_REACTORS
330
3EB9
102
}
102
{ACAD_XDICTIONARY
360
3EB8
102
}
330
1F
100
AcDbEntity
  8
寸法
  6
Continuous
100
AcDbDimension
280
     0
  2
*D11
 10
113.40977
 20
108.5
 30
0.0
 11
113.40977
 21
105.5
 31
0.0
 70
   160
 71
     5
 42
6.0
 73
     0
 74
     0
 75
     0
  3
ISO-25
100
AcDbAlignedDimension
 13
108.40977
 23
102.5
 33
0.0
 14
108.40977
 24
108.5
 34
0.0
 50
90.0
100
AcDbRotatedDimension
  0
ENDSEC
  0
SECTION
  2
OBJECTS
  0
DICTIONARY
  5
C
330
0
100
AcDbDictionary
281
     1
  3
ACAD_COLOR
350
3D3B
  3
ACAD_DETAILVIEWSTYLE
350
A4E
  3
ACAD_GROUP
350
D
  3
ACAD_IMAGE_VARS
350
96F
  3
ACAD_LAYOUT
350
1A
  3
ACAD_MATERIAL
350
3D27
  3
ACAD_MLEADERSTYLE
350
3D2D
  3
ACAD_MLINESTYLE
350
17
  3
ACAD_PLOTSETTINGS
350
19
  3
ACAD_PLOTSTYLENAME
350
E
  3
ACAD_SCALELIST
350
935
  3
ACAD_SECTIONVIEWSTYLE
350
A4F
  3
ACAD_TABLESTYLE
350
3D2B
  3
ACAD_VISUALSTYLE
350
3D0E
  3
ACDB_RECOMPOSE_DATA
350
3EE0
  3
AcDbVariableDictionary
350
3E1
  3
APPDATA
350
96E
  3
DimOffsetDictionary
350
14C9
  0
SUN
  5
3E47
330
934
100
AcDbSun
 90
        1
290
     0
 63
     7
421
 16777215
 40
1.0
291
     1
 91
  2455826
 92
 54000000
292
     0
 70
     2
 71
   256
280
     1
  0
DICTIONARY
  5
970
330
2
100
AcDbDictionary
280
     1
281
     1
  3
ACAD_LAYERSTATES
360
971
  3
ACLYDICTIONARY
360
3E91
  0
DICTIONARY
  5
A87
330
A86
100
AcDbDictionary
280
     1
281
     1
  3
ADSK_XREC_LAYER_RECONCILED
360
A88
  0
DICTIONARY
  5
A8B
330
A8A
100
AcDbDictionary
280
     1
281
     1
  3
ADSK_XREC_LAYER_RECONCILED
360
A8C
  0
DICTIONARY
  5
3D63
330
3D62
100
AcDbDictionary
280
     1
281
     1
  3
ACAD_DIMASSOC
360
3D64
  0
DICTIONARY
  5
3D97
330
3D96
100
AcDbDictionary
280
     1
281
     1
  3
ACAD_DIMASSOC
360
3D98
  0
DICTIONARY
  5
3DB7
330
3DB6
100
AcDbDictionary
280
     1
281
     1
  3
ACAD_DIMASSOC
360
3DB8
  0
DICTIONARY
  5
3DC7
330
3DC6
100
AcDbDictionary
280
     1
281
     1
  3
ACAD_DIMASSOC
360
3DC8
  0
DICTIONARY
  5
3DD7
330
3DD6
100
AcDbDictionary
280
     1
281
     1
  3
ACAD_DIMASSOC
360
3DD8
  0
DICTIONARY
  5
3DE7
330
3DE6
100
AcDbDictionary
280
     1
281
     1
  3
ACAD_DIMASSOC
360
3DE8
  0
DICTIONARY
  5
3DF7
330
3DF6
100
AcDbDictionary
280
     1
281
     1
  3
ACAD_DIMASSOC
360
3DF8
  0
DICTIONARY
  5
3E94
330
3E93
100
AcDbDictionary
280
     1
281
     1
  3
ACAD_DIMASSOC
360
3E95
  0
DICTIONARY
  5
3EB8
330
3EB7
100
AcDbDictionary
280
     1
281
     1
  3
ACAD_DIMASSOC
360
3EB9
  0
DICTIONARY
  5
3D3B
102
{ACAD_REACTORS
330
C
102
}
330
C
100
AcDbDictionary
281
     1
  0
DICTIONARY
  5
A4E
102
{ACAD_REACTORS
330
C
102
}
330
C
100
AcDbDictionary
281
     1
  0
DICTIONARY
  5
D
102
{ACAD_REACTORS
330
C
102
}
330
C
100
AcDbDictionary
281
     1
  0
RASTERVARIABLES
  5
96F
102
{ACAD_REACTORS
330
C
102
}
330
C
100
AcDbRasterVariables
 90
        0
 70
     1
 71
     1
 72
     1
  0
DICTIONARY
  5
1A
102
{ACAD_REACTORS
330
C
102
}
330
C
100
AcDbDictionary
281
     1
  3
Model
350
22
  3
ﾚｲｱｳﾄ1
350
1E
  3
ﾚｲｱｳﾄ2
350
26
  0
DICTIONARY
  5
3D27
102
{ACAD_REACTORS
330
C
102
}
330
C
100
AcDbDictionary
281
     1
  3
ByBlock
350
3D29
  3
ByLayer
350
3D28
  3
Global
350
3D2A
  0
DICTIONARY
  5
3D2D
102
{ACAD_REACTORS
330
C
102
}
330
C
100
AcDbDictionary
281
     1
  3
Standard
350
3D2E
  0
DICTIONARY
  5
17
102
{ACAD_REACTORS
330
C
102
}
330
C
100
AcDbDictionary
281
     1
  3
Standard
350
18
  0
DICTIONARY
  5
19
102
{ACAD_REACTORS
330
C
102
}
330
C
100
AcDbDictionary
281
     1
  0
ACDBDICTIONARYWDFLT
  5
E
102
{ACAD_REACTORS
330
C
102
}
330
C
100
AcDbDictionary
281
     1
  3
Normal
350
F
100
AcDbDictionaryWithDefault
340
F
  0
DICTIONARY
  5
935
102
{ACAD_REACTORS
330
C
102
}
330
C
100
AcDbDictionary
281
     1
  3
A0
350
936
  3
A1
350
937
  3
A2
350
938
  3
A3
350
939
  3
A4
350
93A
  3
A5
350
93B
  3
A6
350
93C
  3
A7
350
93D
  3
A8
350
93E
  3
A9
350
93F
  3
B0
350
940
  3
B1
350
941
  3
B2
350
942
  3
B3
350
943
  3
B4
350
944
  3
B5
350
945
  3
B6
350
946
  3
B7
350
947
  3
B8
350
948
  3
B9
350
949
  3
C0
350
94A
  3
C1
350
94B
  3
C2
350
94C
  3
C3
350
94D
  3
C4
350
94E
  3
C5
350
94F
  3
C6
350
950
  3
C7
350
951
  3
C8
350
952
  3
C9
350
953
  3
D0
350
954
  3
D1
350
955
  3
D2
350
956
  0
DICTIONARY
  5
A4F
102
{ACAD_REACTORS
330
C
102
}
330
C
100
AcDbDictionary
281
     1
  0
DICTIONARY
  5
3D2B
102
{ACAD_REACTORS
330
C
102
}
330
C
100
AcDbDictionary
281
     1
  3
Standard
350
3D2C
  0
DICTIONARY
  5
3D0E
102
{ACAD_REACTORS
330
C
102
}
330
C
100
AcDbDictionary
281
     1
  3
2dWireframe
350
3D13
  3
Basic
350
3D16
  3
Brighten
350
3D1A
  3
ColorChange
350
3D1E
  3
Conceptual
350
3D18
  3
Dim
350
3D19
  3
EdgeColorOff
350
3D21
  3
Facepattern
350
3D1D
  3
Flat
350
3D0F
  3
FlatWithEdges
350
3D10
  3
Gouraud
350
3D11
  3
GouraudWithEdges
350
3D12
  3
Hidden
350
3D15
  3
JitterOff
350
3D1F
  3
Linepattern
350
3D1C
  3
OverhangOff
350
3D20
  3
Realistic
350
3D17
  3
Shaded
350
3D26
  3
Shaded with edges
350
3D25
  3
Shades of Gray
350
3D22
  3
Sketchy
350
3D23
  3
Thicken
350
3D1B
  3
Wireframe
350
3D14
  3
X-Ray
350
3D24
  0
XRECORD
  5
3EE0
102
{ACAD_REACTORS
330
C
102
}
330
C
100
AcDbXrecord
280
     1
 90
        1
330
3D2C
  0
DICTIONARY
  5
3E1
102
{ACAD_REACTORS
330
C
102
}
330
C
100
AcDbDictionary
281
     1
  3
CANNOSCALE
350
3D82
  3
CMLEADERSTYLE
350
3D84
  3
CTABLESTYLE
350
3D83
  3
HPTRANSPARENCY
350
14C8
  3
MSLTSCALE
350
3D85
  3
SORTENTS
350
3E2
  0
DICTIONARY
  5
96E
102
{ACAD_REACTORS
330
C
102
}
330
C
100
AcDbDictionary
281
     1
  0
DICTIONARY
  5
14C9
102
{ACAD_REACTORS
330
C
102
}
330
C
100
AcDbDictionary
281
     1
  3
DIMRAILANGLE
350
3CEC
  3
DIMRAILFIRSTOFFSET
350
3CEA
  3
DIMRAILOFFSET
350
3CEB
  3
DIMRAILSENABLED
350
3CED
  0
DICTIONARY
  5
971
102
{ACAD_REACTORS
330
970
102
}
330
970
100
AcDbDictionary
281
     1
  0
DICTIONARY
  5
3E91
102
{ACAD_REACTORS
330
970
102
}
330
970
100
AcDbDictionary
281
     1
1001
ACAD
1000
<All
  0
XRECORD
  5
A88
102
{ACAD_REACTORS
330
A87
102
}
330
A87
100
AcDbXrecord
280
     1
290
     1
  0
XRECORD
  5
A8C
102
{ACAD_REACTORS
330
A8B
102
}
330
A8B
100
AcDbXrecord
280
     1
290
     1
  0
DIMASSOC
  5
3D64
102
{ACAD_REACTORS
330
3D63
102
}
330
3D63
100
AcDbDimAssoc
330
3D62
 90
        1
 70
     0
 71
     1
  1
AcDbOsnapPointRef
 72
    13
331
3D5D
 73
     0
 91
        0
 40
0.0
 10
0.0
 20
0.0
 30
0.0
 75
     0
  0
DIMASSOC
  5
3D98
102
{ACAD_REACTORS
330
3D97
102
}
330
3D97
100
AcDbDimAssoc
330
3D96
 90
        3
 70
     0
 71
     1
  1
AcDbOsnapPointRef
 72
    13
331
3D5C
 73
     0
 91
        0
 40
0.0
 10
0.0
 20
0.0
 30
0.0
 75
     0
  1
AcDbOsnapPointRef
 72
    13
331
3D5A
 73
     0
 91
        0
 40
0.0
 10
0.0
 20
0.0
 30
0.0
 75
     0
  0
DIMASSOC
  5
3DB8
102
{ACAD_REACTORS
330
3DB7
102
}
330
3DB7
100
AcDbDimAssoc
330
3DB6
 90
        3
 70
     0
 71
     1
  1
AcDbOsnapPointRef
 72
     1
331
3D5F
 73
     0
 91
        0
 40
0.0
 10
0.0
 20
0.0
 30
0.0
 75
     0
  1
AcDbOsnapPointRef
 72
    13
331
3D5C
 73
     0
 91
        0
 40
0.0
 10
0.0
 20
0.0
 30
0.0
 75
     0
  0
DIMASSOC
  5
3DC8
102
{ACAD_REACTORS
330
3DC7
102
}
330
3DC7
100
AcDbDimAssoc
330
3DC6
 90
        3
 70
     0
 71
     1
  1
AcDbOsnapPointRef
 72
    13
331
3D54
 73
     0
 91
        0
 40
0.0
 10
0.0
 20
0.0
 30
0.0
 75
     0
  1
AcDbOsnapPointRef
 72
     1
331
3D56
 73
     0
 91
        0
 40
0.0
 10
0.0
 20
0.0
 30
0.0
 75
     0
  0
DIMASSOC
  5
3DD8
102
{ACAD_REACTORS
330
3DD7
102
}
330
3DD7
100
AcDbDimAssoc
330
3DD6
 90
        3
 70
     0
 71
     1
  1
AcDbOsnapPointRef
 72
     1
331
3D57
 73
     0
 91
        0
 40
0.0
 10
0.0
 20
0.0
 30
0.0
 75
     0
  1
AcDbOsnapPointRef
 72
     1
331
3D58
 73
     0
 91
        0
 40
0.0
 10
0.0
 20
0.0
 30
0.0
 75
     0
  0
DIMASSOC
  5
3DE8
102
{ACAD_REACTORS
330
3DE7
102
}
330
3DE7
100
AcDbDimAssoc
330
3DE6
 90
        3
 70
     0
 71
     1
  1
AcDbOsnapPointRef
 72
    13
331
3D58
 73
     0
 91
        0
 40
0.0
 10
0.0
 20
0.0
 30
0.0
 75
     0
  1
AcDbOsnapPointRef
 72
     3
331
3D58
 73
     0
 91
        0
 40
0.0
 10
0.0
 20
0.0
 30
0.0
 75
     0
  0
DIMASSOC
  5
3DF8
102
{ACAD_REACTORS
330
3DF7
102
}
330
3DF7
100
AcDbDimAssoc
330
3DF6
 90
        3
 70
     0
 71
     1
  1
AcDbOsnapPointRef
 72
    13
331
3D5C
 73
     0
 91
        0
 40
0.0
 10
0.0
 20
0.0
 30
0.0
 75
     0
  1
AcDbOsnapPointRef
 72
    13
331
3D5B
 73
     0
 91
        0
 40
0.0
 10
0.0
 20
0.0
 30
0.0
 75
     0
  0
DIMASSOC
  5
3E95
102
{ACAD_REACTORS
330
3E94
102
}
330
3E94
100
AcDbDimAssoc
330
3E93
 90
        1
 70
     0
 71
     1
  1
AcDbOsnapPointRef
 72
     1
331
3D5E
 73
     0
 91
        0
 40
0.0
 10
0.0
 20
0.0
 30
0.0
 75
     0
  0
DIMASSOC
  5
3EB9
102
{ACAD_REACTORS
330
3EB8
102
}
330
3EB8
100
AcDbDimAssoc
330
3EB7
 90
        2
 70
     0
 71
     1
  1
AcDbOsnapPointRef
 72
    13
331
3D5F
 73
     0
 91
        0
 40
0.0
 10
0.0
 20
0.0
 30
0.0
 75
     0
  0
LAYOUT
  5
22
102
{ACAD_REACTORS
330
1A
102
}
330
1A
100
AcDbPlotSettings
  1

  2
RICOH IPSiO NX850 RPCS
  4
A4
  6

 40
5.873749732971191
 41
5.873747825622559
 42
5.873748779296875
 43
5.873748779296875
 44
209.9733276367188
 45
296.9259948730469
 46
56.21
 47
68.71
 48
0.0
 49
0.0
140
0.0
141
0.0
142
1.0
143
1.0
 70
 11940
 72
     1
 73
     1
 74
     0
  7

 75
     0
 76
     0
 77
     2
 78
   300
147
1.0
148
-86.56519164515282
149
-171.1912652483589
100
AcDbLayout
  1
Model
 70
     1
 71
     0
 10
0.0
 20
0.0
 11
12.0
 21
9.0
 12
0.0
 22
0.0
 32
0.0
 14
0.0
 24
0.0
 34
0.0
 15
292.0
 25
205.0
 35
0.0
146
0.0
 13
0.0
 23
0.0
 33
0.0
 16
1.0
 26
0.0
 36
0.0
 17
0.0
 27
1.0
 37
0.0
 76
     0
330
1F
331
934
  0
LAYOUT
  5
1E
102
{ACAD_REACTORS
330
1A
102
}
330
1A
100
AcDbPlotSettings
  1

  2
RICOH IPSiO NX850 RPCS
  4

  6

 40
0.0
 41
0.0
 42
0.0
 43
0.0
 44
0.0
 45
0.0
 46
0.0
 47
0.0
 48
0.0
 49
0.0
140
0.0
141
0.0
142
1.0
143
1.0
 70
   688
 72
     0
 73
     0
 74
     5
  7

 75
    16
 76
     0
 77
     2
 78
   300
147
1.0
148
0.0
149
0.0
100
AcDbLayout
  1
ﾚｲｱｳﾄ1
 70
     1
 71
     1
 10
0.0
 20
0.0
 11
420.0
 21
297.0
 12
0.0
 22
0.0
 32
0.0
 14
1.000000000000000E+20
 24
1.000000000000000E+20
 34
1.000000000000000E+20
 15
-1.000000000000000E+20
 25
-1.000000000000000E+20
 35
-1.000000000000000E+20
146
0.0
 13
0.0
 23
0.0
 33
0.0
 16
1.0
 26
0.0
 36
0.0
 17
0.0
 27
1.0
 37
0.0
 76
     0
330
1B
  0
LAYOUT
  5
26
102
{ACAD_REACTORS
330
1A
102
}
330
1A
100
AcDbPlotSettings
  1

  2
RICOH IPSiO NX850 RPCS
  4

  6

 40
0.0
 41
0.0
 42
0.0
 43
0.0
 44
0.0
 45
0.0
 46
0.0
 47
0.0
 48
0.0
 49
0.0
140
0.0
141
0.0
142
1.0
143
1.0
 70
   688
 72
     0
 73
     0
 74
     5
  7

 75
    16
 76
     0
 77
     2
 78
   300
147
1.0
148
0.0
149
0.0
100
AcDbLayout
  1
ﾚｲｱｳﾄ2
 70
     1
 71
     2
 10
0.0
 20
0.0
 11
12.0
 21
9.0
 12
0.0
 22
0.0
 32
0.0
 14
0.0
 24
0.0
 34
0.0
 15
0.0
 25
0.0
 35
0.0
146
0.0
 13
0.0
 23
0.0
 33
0.0
 16
1.0
 26
0.0
 36
0.0
 17
0.0
 27
1.0
 37
0.0
 76
     0
330
23
  0
MATERIAL
  5
3D29
102
{ACAD_REACTORS
330
3D27
102
}
330
3D27
100
AcDbMaterial
  1
ByBlock
 72
     1
 94
      127
  0
MATERIAL
  5
3D28
102
{ACAD_REACTORS
330
3D27
102
}
330
3D27
100
AcDbMaterial
  1
ByLayer
 72
     1
 94
      127
  0
MATERIAL
  5
3D2A
102
{ACAD_REACTORS
330
3D27
102
}
330
3D27
100
AcDbMaterial
  1
Global
 72
     1
 94
      127
  0
MLEADERSTYLE
  5
3D2E
102
{ACAD_REACTORS
330
3D2D
102
}
330
3D2D
100
AcDbMLeaderStyle
179
     2
170
     2
171
     1
172
     0
 90
        2
 40
0.0
 41
0.0
173
     1
 91
-1056964608
340
14
 92
       -2
290
     1
 42
2.0
291
     1
 43
8.0
  3
Standard
341
0
 44
4.0
300

342
11
174
     1
178
     1
175
     1
176
     0
 93
-1056964608
 45
4.0
292
     0
297
     0
 46
4.0
343
0
 94
-1056964608
 47
1.0
 49
1.0
140
1.0
293
     1
141
0.0
294
     1
177
     0
142
1.0
295
     0
296
     0
143
3.75
271
     0
272
     9
273
     9
  0
MLINESTYLE
  5
18
102
{ACAD_REACTORS
330
17
102
}
330
17
100
AcDbMlineStyle
  2
STANDARD
 70
     0
  3

 62
   256
 51
90.0
 52
90.0
 71
     2
 49
0.5
 62
   256
  6
BYLAYER
 49
-0.5
 62
   256
  6
BYLAYER
  0
ACDBPLACEHOLDER
  5
F
102
{ACAD_REACTORS
330
E
102
}
330
E
  0
SCALE
  5
936
102
{ACAD_REACTORS
330
935
102
}
330
935
100
AcDbScale
 70
     0
300
1:1
140
1.0
141
1.0
290
     1
  0
SCALE
  5
937
102
{ACAD_REACTORS
330
935
102
}
330
935
100
AcDbScale
 70
     0
300
1:2
140
1.0
141
2.0
290
     0
  0
SCALE
  5
938
102
{ACAD_REACTORS
330
935
102
}
330
935
100
AcDbScale
 70
     0
300
1:4
140
1.0
141
4.0
290
     0
  0
SCALE
  5
939
102
{ACAD_REACTORS
330
935
102
}
330
935
100
AcDbScale
 70
     0
300
1:5
140
1.0
141
5.0
290
     0
  0
SCALE
  5
93A
102
{ACAD_REACTORS
330
935
102
}
330
935
100
AcDbScale
 70
     0
300
1:8
140
1.0
141
8.0
290
     0
  0
SCALE
  5
93B
102
{ACAD_REACTORS
330
935
102
}
330
935
100
AcDbScale
 70
     0
300
1:10
140
1.0
141
10.0
290
     0
  0
SCALE
  5
93C
102
{ACAD_REACTORS
330
935
102
}
330
935
100
AcDbScale
 70
     0
300
1:16
140
1.0
141
16.0
290
     0
  0
SCALE
  5
93D
102
{ACAD_REACTORS
330
935
102
}
330
935
100
AcDbScale
 70
     0
300
1:20
140
1.0
141
20.0
290
     0
  0
SCALE
  5
93E
102
{ACAD_REACTORS
330
935
102
}
330
935
100
AcDbScale
 70
     0
300
1:30
140
1.0
141
30.0
290
     0
  0
SCALE
  5
93F
102
{ACAD_REACTORS
330
935
102
}
330
935
100
AcDbScale
 70
     0
300
1:40
140
1.0
141
40.0
290
     0
  0
SCALE
  5
940
102
{ACAD_REACTORS
330
935
102
}
330
935
100
AcDbScale
 70
     0
300
1:50
140
1.0
141
50.0
290
     0
  0
SCALE
  5
941
102
{ACAD_REACTORS
330
935
102
}
330
935
100
AcDbScale
 70
     0
300
1:100
140
1.0
141
100.0
290
     0
  0
SCALE
  5
942
102
{ACAD_REACTORS
330
935
102
}
330
935
100
AcDbScale
 70
     0
300
2:1
140
2.0
141
1.0
290
     0
  0
SCALE
  5
943
102
{ACAD_REACTORS
330
935
102
}
330
935
100
AcDbScale
 70
     0
300
4:1
140
4.0
141
1.0
290
     0
  0
SCALE
  5
944
102
{ACAD_REACTORS
330
935
102
}
330
935
100
AcDbScale
 70
     0
300
8:1
140
8.0
141
1.0
290
     0
  0
SCALE
  5
945
102
{ACAD_REACTORS
330
935
102
}
330
935
100
AcDbScale
 70
     0
300
10:1
140
10.0
141
1.0
290
     0
  0
SCALE
  5
946
102
{ACAD_REACTORS
330
935
102
}
330
935
100
AcDbScale
 70
     0
300
100:1
140
100.0
141
1.0
290
     0
  0
SCALE
  5
947
102
{ACAD_REACTORS
330
935
102
}
330
935
100
AcDbScale
 70
     0
300
1/128" = 1'-0"
140
0.0078125
141
12.0
290
     0
  0
SCALE
  5
948
102
{ACAD_REACTORS
330
935
102
}
330
935
100
AcDbScale
 70
     0
300
1/64" = 1'-0"
140
0.015625
141
12.0
290
     0
  0
SCALE
  5
949
102
{ACAD_REACTORS
330
935
102
}
330
935
100
AcDbScale
 70
     0
300
1/32" = 1'-0"
140
0.03125
141
12.0
290
     0
  0
SCALE
  5
94A
102
{ACAD_REACTORS
330
935
102
}
330
935
100
AcDbScale
 70
     0
300
1/16" = 1'-0"
140
0.0625
141
12.0
290
     0
  0
SCALE
  5
94B
102
{ACAD_REACTORS
330
935
102
}
330
935
100
AcDbScale
 70
     0
300
3/32" = 1'-0"
140
0.09375
141
12.0
290
     0
  0
SCALE
  5
94C
102
{ACAD_REACTORS
330
935
102
}
330
935
100
AcDbScale
 70
     0
300
1/8" = 1'-0"
140
0.125
141
12.0
290
     0
  0
SCALE
  5
94D
102
{ACAD_REACTORS
330
935
102
}
330
935
100
AcDbScale
 70
     0
300
3/16" = 1'-0"
140
0.1875
141
12.0
290
     0
  0
SCALE
  5
94E
102
{ACAD_REACTORS
330
935
102
}
330
935
100
AcDbScale
 70
     0
300
1/4" = 1'-0"
140
0.25
141
12.0
290
     0
  0
SCALE
  5
94F
102
{ACAD_REACTORS
330
935
102
}
330
935
100
AcDbScale
 70
     0
300
3/8" = 1'-0"
140
0.375
141
12.0
290
     0
  0
SCALE
  5
950
102
{ACAD_REACTORS
330
935
102
}
330
935
100
AcDbScale
 70
     0
300
1/2" = 1'-0"
140
0.5
141
12.0
290
     0
  0
SCALE
  5
951
102
{ACAD_REACTORS
330
935
102
}
330
935
100
AcDbScale
 70
     0
300
3/4" = 1'-0"
140
0.75
141
12.0
290
     0
  0
SCALE
  5
952
102
{ACAD_REACTORS
330
935
102
}
330
935
100
AcDbScale
 70
     0
300
1" = 1'-0"
140
1.0
141
12.0
290
     0
  0
SCALE
  5
953
102
{ACAD_REACTORS
330
935
102
}
330
935
100
AcDbScale
 70
     0
300
1-1/2" = 1'-0"
140
1.5
141
12.0
290
     0
  0
SCALE
  5
954
102
{ACAD_REACTORS
330
935
102
}
330
935
100
AcDbScale
 70
     0
300
3" = 1'-0"
140
3.0
141
12.0
290
     0
  0
SCALE
  5
955
102
{ACAD_REACTORS
330
935
102
}
330
935
100
AcDbScale
 70
     0
300
6" = 1'-0"
140
6.0
141
12.0
290
     0
  0
SCALE
  5
956
102
{ACAD_REACTORS
330
935
102
}
330
935
100
AcDbScale
 70
     0
300
1'-0" = 1'-0"
140
12.0
141
12.0
290
     0
  0
TABLESTYLE
  5
3D2C
102
{ACAD_REACTORS
330
3D2B
102
}
102
{ACAD_XDICTIONARY
360
3EDE
102
}
330
3D2B
100
AcDbTableStyle
  3
Standard
 70
     0
 71
     0
 40
1.5
 41
1.5
280
     0
281
     0
  7
Standard
140
4.5
170
     2
 62
     0
 63
   257
283
     0
 90
        4
 91
        0
  1

274
    -2
284
     1
 64
     0
275
    -2
285
     1
 65
     0
276
    -2
286
     1
 66
     0
277
    -2
287
     1
 67
     0
278
    -2
288
     1
 68
     0
279
    -2
289
     1
 69
     0
  7
Standard
140
6.0
170
     5
 62
     0
 63
   257
283
     0
 90
        4
 91
        0
  1

274
    -2
284
     1
 64
     0
275
    -2
285
     1
 65
     0
276
    -2
286
     1
 66
     0
277
    -2
287
     1
 67
     0
278
    -2
288
     1
 68
     0
279
    -2
289
     1
 69
     0
  7
Standard
140
4.5
170
     5
 62
     0
 63
   257
283
     0
 90
        4
 91
        0
  1

274
    -2
284
     1
 64
     0
275
    -2
285
     1
 65
     0
276
    -2
286
     1
 66
     0
277
    -2
287
     1
 67
     0
278
    -2
288
     1
 68
     0
279
    -2
289
     1
 69
     0
  0
VISUALSTYLE
  5
3D13
102
{ACAD_REACTORS
330
3D0E
102
}
330
3D0E
100
AcDbVisualStyle
  2
2dWireframe
 70
     4
177
     2
291
     0
 71
     0
176
     1
 72
     2
176
     1
 73
     0
176
     1
 90
        0
176
     1
 40
0.6
176
     1
 41
30.0
176
     1
 62
     5
 63
     7
421
 16777215
176
     1
 74
     1
176
     1
 91
        4
176
     1
 64
     7
176
     1
 65
   257
176
     1
 75
     1
176
     1
175
     1
176
     1
 42
1.0
176
     1
 92
        0
176
     1
 66
   257
176
     1
 43
1.0
176
     1
 76
     1
176
     1
 77
     6
176
     1
 78
     2
176
     1
 67
     7
176
     1
 79
     5
176
     1
170
     0
176
     1
171
     0
176
     1
290
     0
176
     1
 93
        1
176
     1
 44
0.0
176
     1
173
     0
176
     1
  0
VISUALSTYLE
  5
3D16
102
{ACAD_REACTORS
330
3D0E
102
}
330
3D0E
100
AcDbVisualStyle
  2
Basic
 70
     7
177
     2
291
     1
 71
     1
176
     1
 72
     0
176
     1
 73
     1
176
     1
 90
        0
176
     1
 40
0.6
176
     1
 41
30.0
176
     1
 62
     5
 63
     7
421
 16777215
176
     1
 74
     0
176
     1
 91
        4
176
     1
 64
     7
176
     1
 65
   257
176
     1
 75
     1
176
     1
175
     1
176
     1
 42
1.0
176
     1
 92
        8
176
     1
 66
     7
176
     1
 43
1.0
176
     1
 76
     1
176
     1
 77
     6
176
     1
 78
     2
176
     1
 67
     7
176
     1
 79
     5
176
     1
170
     0
176
     1
171
     0
176
     1
290
     0
176
     1
 93
        1
176
     1
 44
0.0
176
     1
173
     0
176
     1
  0
VISUALSTYLE
  5
3D1A
102
{ACAD_REACTORS
330
3D0E
102
}
330
3D0E
100
AcDbVisualStyle
  2
Brighten
 70
    12
177
     2
291
     1
 71
     2
176
     1
 72
     2
176
     1
 73
     0
176
     1
 90
        0
176
     1
 40
0.6
176
     1
 41
30.0
176
     1
 62
     5
 63
     7
421
 16777215
176
     1
 74
     1
176
     1
 91
        4
176
     1
 64
     7
176
     1
 65
   257
176
     1
 75
     1
176
     1
175
     1
176
     1
 42
1.0
176
     1
 92
        8
176
     1
 66
     7
176
     1
 43
1.0
176
     1
 76
     1
176
     1
 77
     6
176
     1
 78
     2
176
     1
 67
     7
176
     1
 79
     5
176
     1
170
     0
176
     1
171
     0
176
     1
290
     0
176
     1
 93
        1
176
     1
 44
50.0
176
     1
173
     0
176
     1
  0
VISUALSTYLE
  5
3D1E
102
{ACAD_REACTORS
330
3D0E
102
}
330
3D0E
100
AcDbVisualStyle
  2
ColorChange
 70
    16
177
     2
291
     1
 71
     2
176
     1
 72
     2
176
     1
 73
     3
176
     1
 90
        0
176
     1
 40
0.6
176
     1
 41
30.0
176
     1
 62
     5
 63
     8
421
  8421504
176
     1
 74
     1
176
     1
 91
        4
176
     1
 64
     7
176
     1
 65
   257
176
     1
 75
     1
176
     1
175
     1
176
     1
 42
1.0
176
     1
 92
        8
176
     1
 66
     8
424
  8421504
176
     1
 43
1.0
176
     1
 76
     1
176
     1
 77
     6
176
     1
 78
     2
176
     1
 67
     7
176
     1
 79
     5
176
     1
170
     0
176
     1
171
     0
176
     1
290
     0
176
     1
 93
        1
176
     1
 44
0.0
176
     1
173
     0
176
     1
  0
VISUALSTYLE
  5
3D18
102
{ACAD_REACTORS
330
3D0E
102
}
330
3D0E
100
AcDbVisualStyle
  2
Conceptual
 70
     9
177
     2
291
     0
 71
     3
176
     1
 72
     2
176
     1
 73
     0
176
     1
 90
        0
176
     1
 40
0.6
176
     1
 41
30.0
176
     1
 62
     5
 63
     7
421
 16777215
176
     1
 74
     2
176
     1
 91
        2
176
     1
 64
     7
176
     1
 65
   257
176
     1
 75
     1
176
     1
175
     1
176
     1
 42
179.0
176
     1
 92
        8
176
     1
 66
     7
176
     1
 43
1.0
176
     1
 76
     1
176
     1
 77
     6
176
     1
 78
     2
176
     1
 67
     7
176
     1
 79
     3
176
     1
170
     0
176
     1
171
     0
176
     1
290
     0
176
     1
 93
        1
176
     1
 44
0.0
176
     1
173
     0
176
     1
  0
VISUALSTYLE
  5
3D19
102
{ACAD_REACTORS
330
3D0E
102
}
330
3D0E
100
AcDbVisualStyle
  2
Dim
 70
    11
177
     2
291
     1
 71
     2
176
     1
 72
     2
176
     1
 73
     0
176
     1
 90
        0
176
     1
 40
0.6
176
     1
 41
30.0
176
     1
 62
     5
 63
     7
421
 16777215
176
     1
 74
     1
176
     1
 91
        4
176
     1
 64
     7
176
     1
 65
   257
176
     1
 75
     1
176
     1
175
     1
176
     1
 42
1.0
176
     1
 92
        8
176
     1
 66
     7
176
     1
 43
1.0
176
     1
 76
     1
176
     1
 77
     6
176
     1
 78
     2
176
     1
 67
     7
176
     1
 79
     5
176
     1
170
     0
176
     1
171
     0
176
     1
290
     0
176
     1
 93
        1
176
     1
 44
-50.0
176
     1
173
     0
176
     1
  0
VISUALSTYLE
  5
3D21
102
{ACAD_REACTORS
330
3D0E
102
}
330
3D0E
100
AcDbVisualStyle
  2
EdgeColorOff
 70
    22
177
     2
291
     1
 71
     2
176
     0
 72
     2
176
     0
 73
     0
176
     0
 90
        0
176
     0
 40
0.6
176
     0
 41
30.0
176
     0
 62
     5
 63
     7
421
 16777215
176
     0
 74
     1
176
     0
 91
        4
176
     0
 64
     7
176
     0
 65
   257
176
     0
 75
     1
176
     0
175
     1
176
     0
 42
1.0
176
     0
 92
        8
176
     2
 66
     7
176
     0
 43
1.0
176
     0
 76
     1
176
     0
 77
     6
176
     0
 78
     2
176
     0
 67
     7
176
     0
 79
     5
176
     0
170
     0
176
     0
171
     0
176
     0
290
     0
176
     0
 93
        1
176
     0
 44
0.0
176
     0
173
     0
176
     0
  0
VISUALSTYLE
  5
3D1D
102
{ACAD_REACTORS
330
3D0E
102
}
330
3D0E
100
AcDbVisualStyle
  2
Facepattern
 70
    15
177
     2
291
     1
 71
     2
176
     1
 72
     2
176
     1
 73
     0
176
     1
 90
        0
176
     1
 40
0.6
176
     1
 41
30.0
176
     1
 62
     5
 63
     7
421
 16777215
176
     1
 74
     1
176
     1
 91
        4
176
     1
 64
     7
176
     1
 65
   257
176
     1
 75
     1
176
     1
175
     1
176
     1
 42
1.0
176
     1
 92
        8
176
     1
 66
     7
176
     1
 43
1.0
176
     1
 76
     1
176
     1
 77
     6
176
     1
 78
     2
176
     1
 67
     7
176
     1
 79
     5
176
     1
170
     0
176
     1
171
     0
176
     1
290
     0
176
     1
 93
        1
176
     1
 44
0.0
176
     1
173
     0
176
     1
  0
VISUALSTYLE
  5
3D0F
102
{ACAD_REACTORS
330
3D0E
102
}
330
3D0E
100
AcDbVisualStyle
  2
Flat
 70
     0
177
     2
291
     1
 71
     2
176
     1
 72
     1
176
     1
 73
     1
176
     1
 90
        2
176
     1
 40
0.6
176
     1
 41
30.0
176
     1
 62
     5
 63
     7
421
 16777215
176
     1
 74
     0
176
     1
 91
        0
176
     1
 64
     7
176
     1
 65
   257
176
     1
 75
     1
176
     1
175
     1
176
     1
 42
1.0
176
     1
 92
        8
176
     1
 66
     7
176
     1
 43
1.0
176
     1
 76
     1
176
     1
 77
     6
176
     1
 78
     2
176
     1
 67
     7
176
     1
 79
     5
176
     1
170
     0
176
     1
171
     0
176
     1
290
     0
176
     1
 93
       13
176
     1
 44
0.0
176
     1
173
     0
176
     1
  0
VISUALSTYLE
  5
3D10
102
{ACAD_REACTORS
330
3D0E
102
}
330
3D0E
100
AcDbVisualStyle
  2
FlatWithEdges
 70
     1
177
     2
291
     1
 71
     2
176
     1
 72
     1
176
     1
 73
     1
176
     1
 90
        2
176
     1
 40
0.6
176
     1
 41
30.0
176
     1
 62
     5
 63
     7
421
 16777215
176
     1
 74
     1
176
     1
 91
        0
176
     1
 64
     7
176
     1
 65
   257
176
     1
 75
     1
176
     1
175
     1
176
     1
 42
1.0
176
     1
 92
        0
176
     1
 66
   257
176
     1
 43
1.0
176
     1
 76
     1
176
     1
 77
     6
176
     1
 78
     2
176
     1
 67
     7
176
     1
 79
     5
176
     1
170
     0
176
     1
171
     0
176
     1
290
     0
176
     1
 93
       13
176
     1
 44
0.0
176
     1
173
     0
176
     1
  0
VISUALSTYLE
  5
3D11
102
{ACAD_REACTORS
330
3D0E
102
}
330
3D0E
100
AcDbVisualStyle
  2
Gouraud
 70
     2
177
     2
291
     1
 71
     2
176
     1
 72
     2
176
     1
 73
     1
176
     1
 90
        2
176
     1
 40
0.6
176
     1
 41
30.0
176
     1
 62
     5
 63
     7
421
 16777215
176
     1
 74
     0
176
     1
 91
        0
176
     1
 64
     7
176
     1
 65
   257
176
     1
 75
     1
176
     1
175
     1
176
     1
 42
1.0
176
     1
 92
        0
176
     1
 66
     7
176
     1
 43
1.0
176
     1
 76
     1
176
     1
 77
     6
176
     1
 78
     2
176
     1
 67
     7
176
     1
 79
     5
176
     1
170
     0
176
     1
171
     0
176
     1
290
     0
176
     1
 93
       13
176
     1
 44
0.0
176
     1
173
     0
176
     1
  0
VISUALSTYLE
  5
3D12
102
{ACAD_REACTORS
330
3D0E
102
}
330
3D0E
100
AcDbVisualStyle
  2
GouraudWithEdges
 70
     3
177
     2
291
     1
 71
     2
176
     1
 72
     2
176
     1
 73
     1
176
     1
 90
        2
176
     1
 40
0.6
176
     1
 41
30.0
176
     1
 62
     5
 63
     7
421
 16777215
176
     1
 74
     1
176
     1
 91
        0
176
     1
 64
     7
176
     1
 65
   257
176
     1
 75
     1
176
     1
175
     1
176
     1
 42
1.0
176
     1
 92
        0
176
     1
 66
   257
176
     1
 43
1.0
176
     1
 76
     1
176
     1
 77
     6
176
     1
 78
     2
176
     1
 67
     7
176
     1
 79
     5
176
     1
170
     0
176
     1
171
     0
176
     1
290
     0
176
     1
 93
       13
176
     1
 44
0.0
176
     1
173
     0
176
     1
  0
VISUALSTYLE
  5
3D15
102
{ACAD_REACTORS
330
3D0E
102
}
330
3D0E
100
AcDbVisualStyle
  2
Hidden
 70
     6
177
     2
291
     0
 71
     1
176
     1
 72
     2
176
     1
 73
     2
176
     1
 90
        0
176
     1
 40
0.6
176
     1
 41
30.0
176
     1
 62
     5
 63
     7
421
 16777215
176
     1
 74
     2
176
     1
 91
        2
176
     1
 64
     7
176
     1
 65
   257
176
     1
 75
     2
176
     1
175
     1
176
     1
 42
40.0
176
     1
 92
        0
176
     1
 66
   257
176
     1
 43
1.0
176
     1
 76
     1
176
     1
 77
     6
176
     1
 78
     2
176
     1
 67
     7
176
     1
 79
     3
176
     1
170
     0
176
     1
171
     0
176
     1
290
     0
176
     1
 93
        1
176
     1
 44
0.0
176
     1
173
     0
176
     1
  0
VISUALSTYLE
  5
3D1F
102
{ACAD_REACTORS
330
3D0E
102
}
330
3D0E
100
AcDbVisualStyle
  2
JitterOff
 70
    20
177
     2
291
     1
 71
     2
176
     0
 72
     2
176
     0
 73
     0
176
     0
 90
        0
176
     0
 40
0.6
176
     0
 41
30.0
176
     0
 62
     5
 63
     7
421
 16777215
176
     0
 74
     1
176
     0
 91
        4
176
     0
 64
     7
176
     0
 65
   257
176
     0
 75
     1
176
     0
175
     1
176
     0
 42
1.0
176
     0
 92
       10
176
     2
 66
     7
176
     0
 43
1.0
176
     0
 76
     1
176
     0
 77
     6
176
     0
 78
     2
176
     0
 67
     7
176
     0
 79
     5
176
     0
170
     0
176
     0
171
     0
176
     0
290
     0
176
     0
 93
        1
176
     0
 44
0.0
176
     0
173
     0
176
     0
  0
VISUALSTYLE
  5
3D1C
102
{ACAD_REACTORS
330
3D0E
102
}
330
3D0E
100
AcDbVisualStyle
  2
Linepattern
 70
    14
177
     2
291
     1
 71
     2
176
     1
 72
     2
176
     1
 73
     0
176
     1
 90
        0
176
     1
 40
0.6
176
     1
 41
30.0
176
     1
 62
     5
 63
     7
421
 16777215
176
     1
 74
     1
176
     1
 91
        4
176
     1
 64
     7
176
     1
 65
   257
176
     1
 75
     7
176
     1
175
     7
176
     1
 42
1.0
176
     1
 92
        8
176
     1
 66
     7
176
     1
 43
1.0
176
     1
 76
     1
176
     1
 77
     6
176
     1
 78
     2
176
     1
 67
     7
176
     1
 79
     5
176
     1
170
     0
176
     1
171
     0
176
     1
290
     0
176
     1
 93
        1
176
     1
 44
0.0
176
     1
173
     0
176
     1
  0
VISUALSTYLE
  5
3D20
102
{ACAD_REACTORS
330
3D0E
102
}
330
3D0E
100
AcDbVisualStyle
  2
OverhangOff
 70
    21
177
     2
291
     1
 71
     2
176
     0
 72
     2
176
     0
 73
     0
176
     0
 90
        0
176
     0
 40
0.6
176
     0
 41
30.0
176
     0
 62
     5
 63
     7
421
 16777215
176
     0
 74
     1
176
     0
 91
        4
176
     0
 64
     7
176
     0
 65
   257
176
     0
 75
     1
176
     0
175
     1
176
     0
 42
1.0
176
     0
 92
        9
176
     2
 66
     7
176
     0
 43
1.0
176
     0
 76
     1
176
     0
 77
     6
176
     0
 78
     2
176
     0
 67
     7
176
     0
 79
     5
176
     0
170
     0
176
     0
171
     0
176
     0
290
     0
176
     0
 93
        1
176
     0
 44
0.0
176
     0
173
     0
176
     0
  0
VISUALSTYLE
  5
3D17
102
{ACAD_REACTORS
330
3D0E
102
}
330
3D0E
100
AcDbVisualStyle
  2
Realistic
 70
     8
177
     2
291
     0
 71
     2
176
     1
 72
     3
176
     1
 73
     0
176
     1
 90
        2
176
     1
 40
0.6
176
     1
 41
30.0
176
     1
 62
     5
 63
     7
421
 16777215
176
     1
 74
     0
176
     1
 91
        0
176
     1
 64
     7
176
     1
 65
   257
176
     1
 75
     1
176
     1
175
     1
176
     1
 42
1.0
176
     1
 92
        8
176
     1
 66
   257
176
     1
 43
1.0
176
     1
 76
     1
176
     1
 77
     6
176
     1
 78
     2
176
     1
 67
     7
176
     1
 79
     3
176
     1
170
     0
176
     1
171
     0
176
     1
290
     0
176
     1
 93
       13
176
     1
 44
0.0
176
     1
173
     0
176
     1
  0
VISUALSTYLE
  5
3D26
102
{ACAD_REACTORS
330
3D0E
102
}
330
3D0E
100
AcDbVisualStyle
  2
Shaded
 70
    27
177
     2
291
     0
 71
     2
176
     1
 72
     2
176
     1
 73
     1
176
     1
 90
        2
176
     1
 40
0.6
176
     1
 41
30.0
176
     1
 62
     5
 63
     7
421
 16777215
176
     1
 74
     0
176
     1
 91
        4
176
     1
 64
     7
176
     1
 65
   257
176
     1
 75
     1
176
     1
175
     1
176
     1
 42
1.0
176
     1
 92
        8
176
     1
 66
   257
176
     1
 43
1.0
176
     1
 76
     1
176
     1
 77
     6
176
     1
 78
     2
176
     1
 67
     8
425
  7895160
176
     1
 79
     3
176
     1
170
     0
176
     1
171
     0
176
     1
290
     0
176
     1
 93
        5
176
     1
 44
0.0
176
     1
173
     0
176
     1
  0
VISUALSTYLE
  5
3D25
102
{ACAD_REACTORS
330
3D0E
102
}
330
3D0E
100
AcDbVisualStyle
  2
Shaded with edges
 70
    26
177
     2
291
     0
 71
     2
176
     1
 72
     2
176
     1
 73
     1
176
     1
 90
        2
176
     1
 40
0.6
176
     1
 41
30.0
176
     1
 62
     5
 63
     7
421
 16777215
176
     1
 74
     1
176
     1
 91
       10
176
     1
 64
     7
176
     1
 65
   257
176
     1
 75
     2
176
     1
175
     1
176
     1
 42
1.0
176
     1
 92
        8
176
     1
 66
   257
176
     1
 43
1.0
176
     1
 76
     1
176
     1
 77
     6
176
     1
 78
     2
176
     1
 67
     7
176
     1
 79
     3
176
     1
170
     0
176
     1
171
     0
176
     1
290
     0
176
     1
 93
        5
176
     1
 44
0.0
176
     1
173
     0
176
     1
  0
VISUALSTYLE
  5
3D22
102
{ACAD_REACTORS
330
3D0E
102
}
330
3D0E
100
AcDbVisualStyle
  2
Shades of Gray
 70
    23
177
     2
291
     0
 71
     2
176
     1
 72
     2
176
     1
 73
     3
176
     1
 90
        0
176
     1
 40
0.6
176
     1
 41
30.0
176
     1
 62
     5
 63
     7
421
 16777215
176
     1
 74
     2
176
     1
 91
        2
176
     1
 64
     7
176
     1
 65
     7
176
     1
 75
     1
176
     1
175
     1
176
     1
 42
40.0
176
     1
 92
        8
176
     1
 66
     7
176
     1
 43
1.0
176
     1
 76
     1
176
     1
 77
     6
176
     1
 78
     2
176
     1
 67
     7
176
     1
 79
     3
176
     1
170
     0
176
     1
171
     0
176
     1
290
     0
176
     1
 93
        1
176
     1
 44
0.0
176
     1
173
     0
176
     1
  0
VISUALSTYLE
  5
3D23
102
{ACAD_REACTORS
330
3D0E
102
}
330
3D0E
100
AcDbVisualStyle
  2
Sketchy
 70
    24
177
     2
291
     0
 71
     1
176
     1
 72
     2
176
     1
 73
     2
176
     1
 90
        0
176
     1
 40
0.6
176
     1
 41
30.0
176
     1
 62
     5
 63
     7
421
 16777215
176
     1
 74
     2
176
     1
 91
        2
176
     1
 64
     7
176
     1
 65
     7
176
     1
 75
     1
176
     1
175
     1
176
     1
 42
40.0
176
     1
 92
       11
176
     1
 66
     7
176
     1
 43
1.0
176
     1
 76
     1
176
     1
 77
     6
176
     1
 78
     2
176
     1
 67
     7
176
     1
 79
     6
176
     1
170
     0
176
     1
171
     0
176
     1
290
     0
176
     1
 93
        1
176
     1
 44
0.0
176
     1
173
     0
176
     1
  0
VISUALSTYLE
  5
3D1B
102
{ACAD_REACTORS
330
3D0E
102
}
330
3D0E
100
AcDbVisualStyle
  2
Thicken
 70
    13
177
     2
291
     1
 71
     2
176
     1
 72
     2
176
     1
 73
     0
176
     1
 90
        0
176
     1
 40
0.6
176
     1
 41
30.0
176
     1
 62
     5
 63
     7
421
 16777215
176
     1
 74
     1
176
     1
 91
        4
176
     1
 64
     7
176
     1
 65
   257
176
     1
 75
     1
176
     1
175
     1
176
     1
 42
1.0
176
     1
 92
       12
176
     1
 66
     7
176
     1
 43
1.0
176
     1
 76
     1
176
     1
 77
     6
176
     1
 78
     2
176
     1
 67
     7
176
     1
 79
     5
176
     1
170
     0
176
     1
171
     0
176
     1
290
     0
176
     1
 93
        1
176
     1
 44
0.0
176
     1
173
     0
176
     1
  0
VISUALSTYLE
  5
3D14
102
{ACAD_REACTORS
330
3D0E
102
}
330
3D0E
100
AcDbVisualStyle
  2
Wireframe
 70
     5
177
     2
291
     0
 71
     0
176
     1
 72
     2
176
     1
 73
     0
176
     1
 90
        0
176
     1
 40
0.6
176
     1
 41
30.0
176
     1
 62
     5
 63
     7
421
 16777215
176
     1
 74
     1
176
     1
 91
        4
176
     1
 64
     7
176
     1
 65
   257
176
     1
 75
     1
176
     1
175
     1
176
     1
 42
1.0
176
     1
 92
        0
176
     1
 66
   257
176
     1
 43
1.0
176
     1
 76
     1
176
     1
 77
     6
176
     1
 78
     2
176
     1
 67
     7
176
     1
 79
     3
176
     1
170
     0
176
     1
171
     0
176
     1
290
     0
176
     1
 93
        1
176
     1
 44
0.0
176
     1
173
     0
176
     1
  0
VISUALSTYLE
  5
3D24
102
{ACAD_REACTORS
330
3D0E
102
}
330
3D0E
100
AcDbVisualStyle
  2
X-Ray
 70
    25
177
     2
291
     0
 71
     2
176
     1
 72
     2
176
     1
 73
     1
176
     1
 90
        1
176
     1
 40
0.5
176
     1
 41
30.0
176
     1
 62
     5
 63
     7
421
 16777215
176
     1
 74
     1
176
     1
 91
        0
176
     1
 64
     7
176
     1
 65
   257
176
     1
 75
     1
176
     1
175
     1
176
     1
 42
1.0
176
     1
 92
        8
176
     1
 66
     7
176
     1
 43
1.0
176
     1
 76
     1
176
     1
 77
     6
176
     1
 78
     2
176
     1
 67
     7
176
     1
 79
     3
176
     1
170
     0
176
     1
171
     0
176
     1
290
     0
176
     1
 93
       13
176
     1
 44
0.0
176
     1
173
     0
176
     1
  0
DICTIONARYVAR
  5
3D82
102
{ACAD_REACTORS
330
3E1
102
}
330
3E1
100
DictionaryVariables
280
     0
  1
1:1
  0
DICTIONARYVAR
  5
3D84
102
{ACAD_REACTORS
330
3E1
102
}
330
3E1
100
DictionaryVariables
280
     0
  1
Standard
  0
DICTIONARYVAR
  5
3D83
102
{ACAD_REACTORS
330
3E1
102
}
330
3E1
100
DictionaryVariables
280
     0
  1
Standard
  0
DICTIONARYVAR
  5
14C8
102
{ACAD_REACTORS
330
3E1
102
}
330
3E1
100
DictionaryVariables
280
     0
  1
ByLayer
  0
DICTIONARYVAR
  5
3D85
102
{ACAD_REACTORS
330
3E1
102
}
330
3E1
100
DictionaryVariables
280
     0
  1
0
  0
DICTIONARYVAR
  5
3E2
102
{ACAD_REACTORS
330
3E1
102
}
330
3E1
100
DictionaryVariables
280
     0
  1
96
  0
DICTIONARYVAR
  5
3CEC
102
{ACAD_REACTORS
330
14C9
102
}
330
14C9
100
DictionaryVariables
280
     0
  1
0.261799
  0
DICTIONARYVAR
  5
3CEA
102
{ACAD_REACTORS
330
14C9
102
}
330
14C9
100
DictionaryVariables
280
     0
  1
10.000000
  0
DICTIONARYVAR
  5
3CEB
102
{ACAD_REACTORS
330
14C9
102
}
330
14C9
100
DictionaryVariables
280
     0
  1
6.000000
  0
DICTIONARYVAR
  5
3CED
102
{ACAD_REACTORS
330
14C9
102
}
330
14C9
100
DictionaryVariables
280
     0
  1
0
  0
DICTIONARY
  5
3EDE
330
3D2C
100
AcDbDictionary
280
     1
281
     1
  3
ACAD_ROUNDTRIP_2008_TABLESTYLE_CELLSTYLEMAP
360
3EDF
  0
CELLSTYLEMAP
  5
3EDF
102
{ACAD_REACTORS
330
3EDE
102
}
330
3EDE
100
AcDbCellStyleMap
 90
        3
300
CELLSTYLE
  1
TABLEFORMAT_BEGIN
 90
        5
170
     1
 91
        0
 92
    32768
 62
   257
 93
        1
300
CONTENTFORMAT
  1
CONTENTFORMAT_BEGIN
 90
        0
 91
        0
 92
        4
 93
        0
300

 40
0.0
140
1.0
 94
        5
 62
     0
340
11
144
6.0
309
CONTENTFORMAT_END
171
     1
301
MARGIN
  1
CELLMARGIN_BEGIN
 40
1.5
 40
1.5
 40
1.5
 40
1.5
 40
1.5
 40
1.5
309
CELLMARGIN_END
 94
        6
 95
        1
302
GRIDFORMAT
  1
GRIDFORMAT_BEGIN
 90
        0
 91
        1
 62
     0
 92
       -2
340
14
 93
        0
 40
0.045
309
GRIDFORMAT_END
 95
        2
302
GRIDFORMAT
  1
GRIDFORMAT_BEGIN
 90
        0
 91
        1
 62
     0
 92
       -2
340
14
 93
        0
 40
0.045
309
GRIDFORMAT_END
 95
        4
302
GRIDFORMAT
  1
GRIDFORMAT_BEGIN
 90
        0
 91
        1
 62
     0
 92
       -2
340
14
 93
        0
 40
0.045
309
GRIDFORMAT_END
 95
        8
302
GRIDFORMAT
  1
GRIDFORMAT_BEGIN
 90
        0
 91
        1
 62
     0
 92
       -2
340
14
 93
        0
 40
0.045
309
GRIDFORMAT_END
 95
       16
302
GRIDFORMAT
  1
GRIDFORMAT_BEGIN
 90
        0
 91
        1
 62
     0
 92
       -2
340
14
 93
        0
 40
0.045
309
GRIDFORMAT_END
 95
       32
302
GRIDFORMAT
  1
GRIDFORMAT_BEGIN
 90
        0
 91
        1
 62
     0
 92
       -2
340
14
 93
        0
 40
0.045
309
GRIDFORMAT_END
309
TABLEFORMAT_END
  1
CELLSTYLE_BEGIN
 90
        1
 91
        1
300
_TITLE
309
CELLSTYLE_END
300
CELLSTYLE
  1
TABLEFORMAT_BEGIN
 90
        5
170
     1
 91
        0
 92
        0
 62
   257
 93
        1
300
CONTENTFORMAT
  1
CONTENTFORMAT_BEGIN
 90
        0
 91
        0
 92
        4
 93
        0
300

 40
0.0
140
1.0
 94
        5
 62
     0
340
11
144
4.5
309
CONTENTFORMAT_END
171
     1
301
MARGIN
  1
CELLMARGIN_BEGIN
 40
1.5
 40
1.5
 40
1.5
 40
1.5
 40
1.5
 40
1.5
309
CELLMARGIN_END
 94
        6
 95
        1
302
GRIDFORMAT
  1
GRIDFORMAT_BEGIN
 90
        0
 91
        1
 62
     0
 92
       -2
340
14
 93
        0
 40
0.045
309
GRIDFORMAT_END
 95
        2
302
GRIDFORMAT
  1
GRIDFORMAT_BEGIN
 90
        0
 91
        1
 62
     0
 92
       -2
340
14
 93
        0
 40
0.045
309
GRIDFORMAT_END
 95
        4
302
GRIDFORMAT
  1
GRIDFORMAT_BEGIN
 90
        0
 91
        1
 62
     0
 92
       -2
340
14
 93
        0
 40
0.045
309
GRIDFORMAT_END
 95
        8
302
GRIDFORMAT
  1
GRIDFORMAT_BEGIN
 90
        0
 91
        1
 62
     0
 92
       -2
340
14
 93
        0
 40
0.045
309
GRIDFORMAT_END
 95
       16
302
GRIDFORMAT
  1
GRIDFORMAT_BEGIN
 90
        0
 91
        1
 62
     0
 92
       -2
340
14
 93
        0
 40
0.045
309
GRIDFORMAT_END
 95
       32
302
GRIDFORMAT
  1
GRIDFORMAT_BEGIN
 90
        0
 91
        1
 62
     0
 92
       -2
340
14
 93
        0
 40
0.045
309
GRIDFORMAT_END
309
TABLEFORMAT_END
  1
CELLSTYLE_BEGIN
 90
        2
 91
        1
300
_HEADER
309
CELLSTYLE_END
300
CELLSTYLE
  1
TABLEFORMAT_BEGIN
 90
        5
170
     1
 91
        0
 92
        0
 62
   257
 93
        1
300
CONTENTFORMAT
  1
CONTENTFORMAT_BEGIN
 90
        0
 91
        0
 92
        4
 93
        0
300

 40
0.0
140
1.0
 94
        2
 62
     0
340
11
144
4.5
309
CONTENTFORMAT_END
171
     1
301
MARGIN
  1
CELLMARGIN_BEGIN
 40
1.5
 40
1.5
 40
1.5
 40
1.5
 40
1.5
 40
1.5
309
CELLMARGIN_END
 94
        6
 95
        1
302
GRIDFORMAT
  1
GRIDFORMAT_BEGIN
 90
        0
 91
        1
 62
     0
 92
       -2
340
14
 93
        0
 40
0.045
309
GRIDFORMAT_END
 95
        2
302
GRIDFORMAT
  1
GRIDFORMAT_BEGIN
 90
        0
 91
        1
 62
     0
 92
       -2
340
14
 93
        0
 40
0.045
309
GRIDFORMAT_END
 95
        4
302
GRIDFORMAT
  1
GRIDFORMAT_BEGIN
 90
        0
 91
        1
 62
     0
 92
       -2
340
14
 93
        0
 40
0.045
309
GRIDFORMAT_END
 95
        8
302
GRIDFORMAT
  1
GRIDFORMAT_BEGIN
 90
        0
 91
        1
 62
     0
 92
       -2
340
14
 93
        0
 40
0.045
309
GRIDFORMAT_END
 95
       16
302
GRIDFORMAT
  1
GRIDFORMAT_BEGIN
 90
        0
 91
        1
 62
     0
 92
       -2
340
14
 93
        0
 40
0.045
309
GRIDFORMAT_END
 95
       32
302
GRIDFORMAT
  1
GRIDFORMAT_BEGIN
 90
        0
 91
        1
 62
     0
 92
       -2
340
14
 93
        0
 40
0.045
309
GRIDFORMAT_END
309
TABLEFORMAT_END
  1
CELLSTYLE_BEGIN
 90
        3
 91
        2
300
_DATA
309
CELLSTYLE_END
  0
ENDSEC
  0
EOF
