  0
SECTION
  2
HEADER
  9
$ACADVER
  1
AC1024
  9
$ACADMAINTVER
 70
     6
  9
$DWGCODEPAGE
  3
ANSI_932
  9
$LASTSAVEDBY
  1
kouno
  9
$INSBASE
 10
0.0
 20
0.0
 30
0.0
  9
$EXTMIN
 10
2.5
 20
2.5
 30
0.0
  9
$EXTMAX
 10
294.5
 20
207.5
 30
0.0
  9
$LIMMIN
 10
0.0
 20
0.0
  9
$LIMMAX
 10
297.0
 20
210.0
  9
$ORTHOMODE
 70
     1
  9
$REGENMODE
 70
     1
  9
$FILLMODE
 70
     1
  9
$QTEXTMODE
 70
     0
  9
$MIRRTEXT
 70
     1
  9
$LTSCALE
 40
1.0
  9
$ATTMODE
 70
     1
  9
$TEXTSIZE
 40
2.5
  9
$TRACEWID
 40
1.0
  9
$TEXTSTYLE
  7
Standard
  9
$CLAYER
  8
寸法
  9
$CELTYPE
  6
ByLayer
  9
$CECOLOR
 62
   256
  9
$CELTSCALE
 40
1.0
  9
$DISPSILH
 70
     0
  9
$DIMSCALE
 40
1.0
  9
$DIMASZ
 40
1.0
  9
$DIMEXO
 40
0.625
  9
$DIMDLI
 40
3.75
  9
$DIMRND
 40
0.0
  9
$DIMDLE
 40
0.0
  9
$DIMEXE
 40
1.25
  9
$DIMTP
 40
0.0
  9
$DIMTM
 40
0.0
  9
$DIMTXT
 40
2.0
  9
$DIMCEN
 40
0.0
  9
$DIMTSZ
 40
0.0
  9
$DIMTOL
 70
     0
  9
$DIMLIM
 70
     0
  9
$DIMTIH
 70
     1
  9
$DIMTOH
 70
     1
  9
$DIMSE1
 70
     0
  9
$DIMSE2
 70
     0
  9
$DIMTAD
 70
     1
  9
$DIMZIN
 70
     8
  9
$DIMBLK
  1

  9
$DIMASO
 70
     1
  9
$DIMSHO
 70
     1
  9
$DIMPOST
  1

  9
$DIMAPOST
  1

  9
$DIMALT
 70
     0
  9
$DIMALTD
 70
     3
  9
$DIMALTF
 40
0.03937007874016
  9
$DIMLFAC
 40
1.0
  9
$DIMTOFL
 70
     0
  9
$DIMTVP
 40
0.0
  9
$DIMTIX
 70
     0
  9
$DIMSOXD
 70
     0
  9
$DIMSAH
 70
     0
  9
$DIMBLK1
  1

  9
$DIMBLK2
  1

  9
$DIMSTYLE
  2
ISO-25
  9
$DIMCLRD
 70
     0
  9
$DIMCLRE
 70
     0
  9
$DIMCLRT
 70
     0
  9
$DIMTFAC
 40
1.0
  9
$DIMGAP
 40
0.625
  9
$DIMJUST
 70
     0
  9
$DIMSD1
 70
     0
  9
$DIMSD2
 70
     0
  9
$DIMTOLJ
 70
     0
  9
$DIMTZIN
 70
     8
  9
$DIMALTZ
 70
     0
  9
$DIMALTTZ
 70
     0
  9
$DIMUPT
 70
     1
  9
$DIMDEC
 70
     2
  9
$DIMTDEC
 70
     2
  9
$DIMALTU
 70
     2
  9
$DIMALTTD
 70
     3
  9
$DIMTXSTY
  7
Standard
  9
$DIMAUNIT
 70
     0
  9
$DIMADEC
 70
     0
  9
$DIMALTRND
 40
0.0
  9
$DIMAZIN
 70
     0
  9
$DIMDSEP
 70
    46
  9
$DIMATFIT
 70
     3
  9
$DIMFRAC
 70
     0
  9
$DIMLDRBLK
  1

  9
$DIMLUNIT
 70
     2
  9
$DIMLWD
 70
    -2
  9
$DIMLWE
 70
    -2
  9
$DIMTMOVE
 70
     2
  9
$DIMFXL
 40
1.0
  9
$DIMFXLON
 70
     0
  9
$DIMJOGANG
 40
0.7853981633974483
  9
$DIMTFILL
 70
     0
  9
$DIMTFILLCLR
 70
     0
  9
$DIMARCSYM
 70
     0
  9
$DIMLTYPE
  6

  9
$DIMLTEX1
  6

  9
$DIMLTEX2
  6

  9
$DIMTXTDIRECTION
 70
     0
  9
$LUNITS
 70
     2
  9
$LUPREC
 70
     4
  9
$SKETCHINC
 40
1.0
  9
$FILLETRAD
 40
0.3
  9
$AUNITS
 70
     0
  9
$AUPREC
 70
     0
  9
$MENU
  1
.
  9
$ELEVATION
 40
0.0
  9
$PELEVATION
 40
0.0
  9
$THICKNESS
 40
0.0
  9
$LIMCHECK
 70
     0
  9
$CHAMFERA
 40
10.0
  9
$CHAMFERB
 40
10.0
  9
$CHAMFERC
 40
20.0
  9
$CHAMFERD
 40
0.0
  9
$SKPOLY
 70
     0
  9
$TDCREATE
 40
2453866.557479954
  9
$TDUCREATE
 40
2453866.182479954
  9
$TDUPDATE
 40
2459158.686844664
  9
$TDUUPDATE
 40
2459158.311844664
  9
$TDINDWG
 40
0.4790910532
  9
$TDUSRTIMER
 40
0.0025655208
  9
$USRTIMER
 70
     1
  9
$ANGBASE
 50
0.0
  9
$ANGDIR
 70
     0
  9
$PDMODE
 70
     0
  9
$PDSIZE
 40
0.0
  9
$PLINEWID
 40
0.0
  9
$SPLFRAME
 70
     0
  9
$SPLINETYPE
 70
     6
  9
$SPLINESEGS
 70
     8
  9
$HANDSEED
  5
1F37
  9
$SURFTAB1
 70
     6
  9
$SURFTAB2
 70
     6
  9
$SURFTYPE
 70
     6
  9
$SURFU
 70
     6
  9
$SURFV
 70
     6
  9
$UCSBASE
  2

  9
$UCSNAME
  2

  9
$UCSORG
 10
0.0
 20
0.0
 30
0.0
  9
$UCSXDIR
 10
1.0
 20
0.0
 30
0.0
  9
$UCSYDIR
 10
0.0
 20
1.0
 30
0.0
  9
$UCSORTHOREF
  2

  9
$UCSORTHOVIEW
 70
     0
  9
$UCSORGTOP
 10
0.0
 20
0.0
 30
0.0
  9
$UCSORGBOTTOM
 10
0.0
 20
0.0
 30
0.0
  9
$UCSORGLEFT
 10
0.0
 20
0.0
 30
0.0
  9
$UCSORGRIGHT
 10
0.0
 20
0.0
 30
0.0
  9
$UCSORGFRONT
 10
0.0
 20
0.0
 30
0.0
  9
$UCSORGBACK
 10
0.0
 20
0.0
 30
0.0
  9
$PUCSBASE
  2

  9
$PUCSNAME
  2

  9
$PUCSORG
 10
0.0
 20
0.0
 30
0.0
  9
$PUCSXDIR
 10
1.0
 20
0.0
 30
0.0
  9
$PUCSYDIR
 10
0.0
 20
1.0
 30
0.0
  9
$PUCSORTHOREF
  2

  9
$PUCSORTHOVIEW
 70
     0
  9
$PUCSORGTOP
 10
0.0
 20
0.0
 30
0.0
  9
$PUCSORGBOTTOM
 10
0.0
 20
0.0
 30
0.0
  9
$PUCSORGLEFT
 10
0.0
 20
0.0
 30
0.0
  9
$PUCSORGRIGHT
 10
0.0
 20
0.0
 30
0.0
  9
$PUCSORGFRONT
 10
0.0
 20
0.0
 30
0.0
  9
$PUCSORGBACK
 10
0.0
 20
0.0
 30
0.0
  9
$USERI1
 70
     0
  9
$USERI2
 70
     0
  9
$USERI3
 70
     0
  9
$USERI4
 70
     0
  9
$USERI5
 70
     0
  9
$USERR1
 40
0.0
  9
$USERR2
 40
0.0
  9
$USERR3
 40
0.0
  9
$USERR4
 40
0.0
  9
$USERR5
 40
0.0
  9
$WORLDVIEW
 70
     1
  9
$SHADEDGE
 70
     3
  9
$SHADEDIF
 70
    70
  9
$TILEMODE
 70
     1
  9
$MAXACTVP
 70
    64
  9
$PINSBASE
 10
0.0
 20
0.0
 30
0.0
  9
$PLIMCHECK
 70
     0
  9
$PEXTMIN
 10
1.000000000000000E+20
 20
1.000000000000000E+20
 30
1.000000000000000E+20
  9
$PEXTMAX
 10
-1.000000000000000E+20
 20
-1.000000000000000E+20
 30
-1.000000000000000E+20
  9
$PLIMMIN
 10
0.0
 20
0.0
  9
$PLIMMAX
 10
0.0
 20
0.0
  9
$UNITMODE
 70
     0
  9
$VISRETAIN
 70
     1
  9
$PLINEGEN
 70
     0
  9
$PSLTSCALE
 70
     1
  9
$TREEDEPTH
 70
  3020
  9
$CMLSTYLE
  2
Standard
  9
$CMLJUST
 70
     0
  9
$CMLSCALE
 40
20.0
  9
$PROXYGRAPHICS
 70
     1
  9
$MEASUREMENT
 70
     1
  9
$CELWEIGHT
370
    -1
  9
$ENDCAPS
280
     0
  9
$JOINSTYLE
280
     0
  9
$LWDISPLAY
290
     0
  9
$INSUNITS
 70
     4
  9
$HYPERLINKBASE
  1

  9
$STYLESHEET
  1

  9
$XEDIT
290
     1
  9
$CEPSNTYPE
380
     0
  9
$PSTYLEMODE
290
     1
  9
$FINGERPRINTGUID
  2
{49B20B3B-064E-400B-9469-2837C497CFA5}
  9
$VERSIONGUID
  2
{CCDC3A7D-9D77-4BF9-B421-98E64B28052D}
  9
$EXTNAMES
290
     1
  9
$PSVPSCALE
 40
0.0
  9
$OLESTARTUP
290
     0
  9
$SORTENTS
280
    96
  9
$INDEXCTL
280
     0
  9
$HIDETEXT
280
     1
  9
$XCLIPFRAME
280
     2
  9
$HALOGAP
280
     0
  9
$OBSCOLOR
 70
   257
  9
$OBSLTYPE
280
     0
  9
$INTERSECTIONDISPLAY
280
     0
  9
$INTERSECTIONCOLOR
 70
   257
  9
$DIMASSOC
280
     2
  9
$PROJECTNAME
  1

  9
$CAMERADISPLAY
290
     0
  9
$LENSLENGTH
 40
50.0
  9
$CAMERAHEIGHT
 40
0.0
  9
$STEPSPERSEC
 40
2.0
  9
$STEPSIZE
 40
6.0
  9
$3DDWFPREC
 40
2.0
  9
$PSOLWIDTH
 40
0.25
  9
$PSOLHEIGHT
 40
4.0
  9
$LOFTANG1
 40
1.570796326794897
  9
$LOFTANG2
 40
1.570796326794897
  9
$LOFTMAG1
 40
0.0
  9
$LOFTMAG2
 40
0.0
  9
$LOFTPARAM
 70
     7
  9
$LOFTNORMALS
280
     1
  9
$LATITUDE
 40
37.795
  9
$LONGITUDE
 40
-122.394
  9
$NORTHDIRECTION
 40
0.0
  9
$TIMEZONE
 70
 -8000
  9
$LIGHTGLYPHDISPLAY
280
     1
  9
$TILEMODELIGHTSYNCH
280
     1
  9
$SOLIDHIST
280
     0
  9
$SHOWHIST
280
     1
  9
$DWFFRAME
280
     2
  9
$DGNFRAME
280
     2
  9
$REALWORLDSCALE
290
     1
  9
$INTERFERECOLOR
 62
   256
  9
$CSHADOW
280
     0
  9
$SHADOWPLANELOCATION
 40
0.0
  0
ENDSEC
  0
SECTION
  2
CLASSES
  0
CLASS
  1
ACDBDICTIONARYWDFLT
  2
AcDbDictionaryWithDefault
  3
ObjectDBX Classes
 90
        0
 91
        3
280
     0
281
     0
  0
CLASS
  1
ACDBPLACEHOLDER
  2
AcDbPlaceHolder
  3
ObjectDBX Classes
 90
        0
 91
        1
280
     0
281
     0
  0
CLASS
  1
LAYOUT
  2
AcDbLayout
  3
ObjectDBX Classes
 90
        0
 91
        1
280
     0
281
     0
  0
CLASS
  1
DICTIONARYVAR
  2
AcDbDictionaryVar
  3
ObjectDBX Classes
 90
        0
 91
        3
280
     0
281
     0
  0
CLASS
  1
SCALE
  2
AcDbScale
  3
ObjectDBX Classes
 90
     1153
 91
        3
280
     0
281
     0
  0
CLASS
  1
MATERIAL
  2
AcDbMaterial
  3
ObjectDBX Classes
 90
     1153
 91
        3
280
     0
281
     0
  0
CLASS
  1
VISUALSTYLE
  2
AcDbVisualStyle
  3
ObjectDBX Classes
 90
     4095
 91
        3
280
     0
281
     0
  0
CLASS
  1
TABLESTYLE
  2
AcDbTableStyle
  3
ObjectDBX Classes
 90
     4095
 91
        3
280
     0
281
     0
  0
CLASS
  1
RASTERVARIABLES
  2
AcDbRasterVariables
  3
ISM
 90
        0
 91
        3
280
     0
281
     0
  0
CLASS
  1
DIMASSOC
  2
AcDbDimAssoc
  3
"AcDbDimAssoc|Product Desc:     AcDim ARX App For Dimension|Company:          Autodesk, Inc.|WEB Address:      www.autodesk.com"
 90
        0
 91
        3
280
     0
281
     0
  0
CLASS
  1
MLEADERSTYLE
  2
AcDbMLeaderStyle
  3
ACDB_MLEADERSTYLE_CLASS
 90
     4095
 91
        3
280
     0
281
     0
  0
CLASS
  1
SUN
  2
AcDbSun
  3
SCENEOE
 90
     1153
 91
        3
280
     0
281
     0
  0
CLASS
  1
SORTENTSTABLE
  2
AcDbSortentsTable
  3
ObjectDBX Classes
 90
        0
 91
        3
280
     0
281
     0
  0
CLASS
  1
CELLSTYLEMAP
  2
AcDbCellStyleMap
  3
ObjectDBX Classes
 90
     1152
 91
        3
280
     0
281
     0
  0
ENDSEC
  0
SECTION
  2
TABLES
  0
TABLE
  2
VPORT
  5
8
330
0
100
AcDbSymbolTable
 70
     1
  0
VPORT
  5
934
330
8
100
AcDbSymbolTableRecord
100
AcDbViewportTableRecord
  2
*Active
 70
     0
 10
0.0
 20
0.0
 11
1.0
 21
1.0
 12
148.5
 22
105.0
 13
0.0
 23
0.0
 14
10.0
 24
10.0
 15
10.0
 25
10.0
 16
0.0
 26
0.0
 36
1.0
 17
0.0
 27
0.0
 37
0.0
 40
209.1
 41
2.336842105263158
 42
50.0
 43
0.0
 44
0.0
 50
0.0
 51
0.0
 71
    16
 72
   100
 73
     1
 74
     3
 75
     0
 76
     0
 77
     0
 78
     0
281
     0
 65
     1
110
0.0
120
0.0
130
0.0
111
1.0
121
0.0
131
0.0
112
0.0
122
1.0
132
0.0
 79
     0
146
0.0
348
A2E
 60
     3
 61
     5
292
     1
282
     1
141
0.0
142
0.0
 63
   256
361
A4A
  0
ENDTAB
  0
TABLE
  2
LTYPE
  5
5
330
0
100
AcDbSymbolTable
 70
     5
  0
LTYPE
  5
14
330
5
100
AcDbSymbolTableRecord
100
AcDbLinetypeTableRecord
  2
ByBlock
 70
     0
  3

 72
    65
 73
     0
 40
0.0
  0
LTYPE
  5
15
330
5
100
AcDbSymbolTableRecord
100
AcDbLinetypeTableRecord
  2
ByLayer
 70
     0
  3

 72
    65
 73
     0
 40
0.0
  0
LTYPE
  5
16
330
5
100
AcDbSymbolTableRecord
100
AcDbLinetypeTableRecord
  2
Continuous
 70
     0
  3
Solid line
 72
    65
 73
     0
 40
0.0
  0
LTYPE
  5
C6
330
5
100
AcDbSymbolTableRecord
100
AcDbLinetypeTableRecord
  2
ACAD_ISO02W100
 70
     0
  3
ISO dash __ __ __ __ __ __ __ __ __ __ __ __ __
 72
    65
 73
     2
 40
15.0
 49
12.0
 74
     0
 49
-3.0
 74
     0
  0
LTYPE
  5
63F
330
5
100
AcDbSymbolTableRecord
100
AcDbLinetypeTableRecord
  2
HIDDEN
 70
     0
  3
Hidden __ __ __ __ __ __ __ __ __ __ __ __ __ _
 72
    65
 73
     2
 40
4.5
 49
3.0
 74
     0
 49
-1.5
 74
     0
  0
LTYPE
  5
7A5
330
5
100
AcDbSymbolTableRecord
100
AcDbLinetypeTableRecord
  2
ACAD_ISO07W100
 70
     0
  3
ISO dot . . . . . . . . . . . . . . . . . . . .
 72
    65
 73
     2
 40
3.0
 49
0.0
 74
     0
 49
-3.0
 74
     0
  0
LTYPE
  5
AB5
330
5
100
AcDbSymbolTableRecord
100
AcDbLinetypeTableRecord
  2
DOT
 70
     0
  3
Dot line
 72
    65
 73
     2
 40
1.0
 49
0.0
 74
     0
 49
-1.0
 74
     0
  0
ENDTAB
  0
TABLE
  2
LAYER
  5
2
102
{ACAD_XDICTIONARY
360
970
102
}
330
0
100
AcDbSymbolTable
 70
    14
  0
LAYER
  5
10
330
2
100
AcDbSymbolTableRecord
100
AcDbLayerTableRecord
  2
0
 70
     0
 62
     7
  6
Continuous
370
    -3
390
F
347
A45
  0
LAYER
  5
110
330
2
100
AcDbSymbolTableRecord
100
AcDbLayerTableRecord
  2
Defpoints
 70
     0
 62
     7
  6
Continuous
290
     0
370
    -3
390
F
347
A45
  0
LAYER
  5
4E7
330
2
100
AcDbSymbolTableRecord
100
AcDbLayerTableRecord
  2
100
 70
     0
 62
     7
  6
ACAD_ISO07W100
370
    -3
390
F
347
A45
  0
LAYER
  5
68D
330
2
100
AcDbSymbolTableRecord
100
AcDbLayerTableRecord
  2
用紙範囲
 70
     0
 62
    10
  6
Continuous
370
    -3
390
F
347
A45
  0
LAYER
  5
68E
330
2
100
AcDbSymbolTableRecord
100
AcDbLayerTableRecord
  2
枠
 70
     0
 62
   112
  6
Continuous
370
    -3
390
F
347
A45
  0
LAYER
  5
68F
330
2
100
AcDbSymbolTableRecord
100
AcDbLayerTableRecord
  2
寸法
 70
     0
 62
    90
  6
Continuous
370
    -3
390
F
347
A45
  0
LAYER
  5
690
330
2
100
AcDbSymbolTableRecord
100
AcDbLayerTableRecord
  2
金属部分
 70
     0
 62
   170
  6
Continuous
370
    -3
390
F
347
A45
  0
LAYER
  5
691
330
2
100
AcDbSymbolTableRecord
100
AcDbLayerTableRecord
  2
品番
 70
     0
 62
   244
  6
Continuous
370
    -3
390
F
347
A45
  0
LAYER
  5
786
330
2
100
AcDbSymbolTableRecord
100
AcDbLayerTableRecord
  2
文字
 70
     0
 62
    40
  6
Continuous
370
    -3
390
F
347
A45
  0
LAYER
  5
790
330
2
100
AcDbSymbolTableRecord
100
AcDbLayerTableRecord
  2
社名
 70
     0
 62
     1
  6
Continuous
370
    -3
390
F
347
A45
  0
LAYER
  5
880
330
2
100
AcDbSymbolTableRecord
100
AcDbLayerTableRecord
  2
樹脂部分
 70
     0
 62
   220
  6
Continuous
370
    -3
390
F
347
A45
  0
LAYER
  5
896
330
2
100
AcDbSymbolTableRecord
100
AcDbLayerTableRecord
  2
TOS_M1
 70
     0
 62
     7
  6
Continuous
370
    -3
390
F
347
A45
  0
LAYER
  5
897
330
2
100
AcDbSymbolTableRecord
100
AcDbLayerTableRecord
  2
TOS_S1
 70
     0
 62
     4
  6
Continuous
370
    -3
390
F
347
A45
  0
LAYER
  5
D32
330
2
100
AcDbSymbolTableRecord
100
AcDbLayerTableRecord
  2
補助線
 70
     0
 62
     1
  6
Continuous
370
    -3
390
F
347
A45
1001
AcAecLayerStandard
1000

1000

  0
ENDTAB
  0
TABLE
  2
STYLE
  5
3
330
0
100
AcDbSymbolTable
 70
     3
  0
STYLE
  5
11
330
3
100
AcDbSymbolTableRecord
100
AcDbTextStyleTableRecord
  2
Standard
 70
     0
 40
0.0
 41
1.0
 50
0.0
 71
     0
 42
2.5
  3
txt.shx
  4
bigfont.shx
  0
STYLE
  5
C5
330
3
100
AcDbSymbolTableRecord
100
AcDbTextStyleTableRecord
  2

 70
     1
 40
0.0
 41
1.0
 50
0.0
 71
     0
 42
2.5
  3
ltypeshp.shx
  4

  0
STYLE
  5
F56
330
3
100
AcDbSymbolTableRecord
100
AcDbTextStyleTableRecord
  2
BIGFONT
 70
     0
 40
3.0
 41
1.0
 50
0.0
 71
     0
 42
2.5
  3
txt.shx
  4
bigfont
  0
ENDTAB
  0
TABLE
  2
VIEW
  5
6
330
0
100
AcDbSymbolTable
 70
     0
  0
ENDTAB
  0
TABLE
  2
UCS
  5
7
330
0
100
AcDbSymbolTable
 70
     0
  0
ENDTAB
  0
TABLE
  2
APPID
  5
9
330
0
100
AcDbSymbolTable
 70
     6
  0
APPID
  5
12
330
9
100
AcDbSymbolTableRecord
100
AcDbRegAppTableRecord
  2
ACAD
 70
     0
  0
APPID
  5
D33
330
9
100
AcDbSymbolTableRecord
100
AcDbRegAppTableRecord
  2
AcAecLayerStandard
 70
     0
  0
APPID
  5
FAB
330
9
100
AcDbSymbolTableRecord
100
AcDbRegAppTableRecord
  2
ACAD_DSTYLE_DIMRADIAL_EXTENSION
 70
     0
  0
APPID
  5
162A
330
9
100
AcDbSymbolTableRecord
100
AcDbRegAppTableRecord
  2
PLOTTRANSPARENCY
 70
     0
  0
APPID
  5
1C8F
330
9
100
AcDbSymbolTableRecord
100
AcDbRegAppTableRecord
  2
ACAD_NAV_VCDISPLAY
 70
     0
  0
APPID
  5
1C90
330
9
100
AcDbSymbolTableRecord
100
AcDbRegAppTableRecord
  2
ACAD_PSEXT
 70
     0
  0
ENDTAB
  0
TABLE
  2
DIMSTYLE
  5
A
330
0
100
AcDbSymbolTable
 70
     9
100
AcDbDimStyleTable
  0
DIMSTYLE
105
27
102
{ACAD_REACTORS
330
1A70
330
1DD3
330
1DEB
330
1DFB
330
1E0B
330
1E1B
330
1E2B
330
1E3B
330
1E49
330
1E65
330
1E73
330
1E81
102
}
330
A
100
AcDbSymbolTableRecord
100
AcDbDimStyleTableRecord
  2
ISO-25
 70
     0
 41
1.0
 42
0.625
 43
3.75
 44
1.25
 77
     1
 78
     8
140
2.0
141
0.0
143
0.03937007874016
147
0.625
171
     3
178
     0
271
     2
272
     2
274
     3
279
     2
283
     0
284
     8
288
     1
340
11
  0
DIMSTYLE
105
4E8
330
A
100
AcDbSymbolTableRecord
100
AcDbDimStyleTableRecord
  2
Standard
 70
     0
178
     0
340
11
  0
DIMSTYLE
105
F55
330
A
100
AcDbSymbolTableRecord
100
AcDbDimStyleTableRecord
  2
KIHON
 70
     0
 41
3.0
 42
1.0
 43
10.0
 44
1.199999999999999
 47
0.1
 73
     0
 74
     0
 77
     1
 78
     8
140
2.5
143
0.0394
146
0.5
147
0.625
172
     1
176
     5
177
     5
271
     2
178
     5
179
     2
271
     2
272
     2
284
     8
285
     8
286
     8
340
F56
  0
DIMSTYLE
105
1C83
330
A
100
AcDbSymbolTableRecord
100
AcDbDimStyleTableRecord
  2
DIM
 70
     0
 41
2.0
 42
0.0
 43
7.0
 44
1.0
 73
     0
 74
     0
 77
     1
 78
     8
 79
     2
140
2.5
141
0.0
147
0.625
172
     1
176
     7
177
     7
271
     2
178
     7
179
     2
271
     2
272
     2
289
     0
340
11
341
1C85
342
1C85
371
    25
372
    25
  0
DIMSTYLE
105
1C8C
330
A
100
AcDbSymbolTableRecord
100
AcDbDimStyleTableRecord
  2
standard$2
 70
     0
 41
2.0
 42
0.0
 43
7.0
 44
1.0
 73
     0
 74
     0
 77
     1
 78
     8
 79
     2
140
2.0
141
0.0
147
0.625
172
     1
176
     7
177
     7
271
     2
178
     7
179
     2
271
     2
272
     2
289
     0
340
11
341
1C85
342
1C85
371
    25
372
    25
  0
DIMSTYLE
105
1C8D
330
A
100
AcDbSymbolTableRecord
100
AcDbDimStyleTableRecord
  2
standard$3
 70
     0
  3
φ<>
 41
2.0
 42
0.0
 43
7.0
 44
1.0
 73
     0
 74
     0
 77
     1
 78
     8
 79
     2
140
2.0
141
0.0
147
0.625
172
     1
176
     7
177
     7
271
     2
178
     7
179
     2
271
     2
272
     2
289
     0
340
11
341
1C85
342
1C85
371
    25
372
    25
  0
DIMSTYLE
105
1C8E
330
A
100
AcDbSymbolTableRecord
100
AcDbDimStyleTableRecord
  2
standard$4
 70
     0
 41
2.0
 42
0.0
 43
7.0
 44
1.0
 73
     0
 74
     0
 77
     1
 78
     8
 79
     2
140
2.0
141
0.0
147
0.625
172
     1
176
     7
177
     7
271
     2
178
     7
179
     2
271
     2
272
     2
289
     0
340
11
341
1C85
342
1C85
371
    25
372
    25
  0
DIMSTYLE
105
1DAA
330
A
100
AcDbSymbolTableRecord
100
AcDbDimStyleTableRecord
  2
ISO-1
 70
     0
 41
2.5
 42
0.625
 43
3.75
 44
1.25
 77
     1
 78
     8
140
5.0
141
0.0
143
0.03937007874016
144
0.5
147
0.625
171
     3
178
     0
271
     2
272
     2
274
     3
279
     2
283
     0
284
     8
288
     1
340
11
  0
DIMSTYLE
105
1DAB
330
A
100
AcDbSymbolTableRecord
100
AcDbDimStyleTableRecord
  2
ISO-2
 70
     0
 41
2.5
 42
0.625
 43
3.75
 44
1.25
 77
     1
 78
     8
140
5.0
141
0.0
143
0.03937007874016
144
0.2
147
0.625
171
     3
178
     0
271
     2
272
     2
274
     3
279
     2
283
     0
284
     8
288
     1
340
11
  0
ENDTAB
  0
TABLE
  2
BLOCK_RECORD
  5
1
330
0
100
AcDbSymbolTable
 70
    17
  0
BLOCK_RECORD
  5
1F
330
1
100
AcDbSymbolTableRecord
100
AcDbBlockTableRecord
  2
*Model_Space
340
22
 70
     0
280
     1
281
     0
  0
BLOCK_RECORD
  5
1B
330
1
100
AcDbSymbolTableRecord
100
AcDbBlockTableRecord
  2
*Paper_Space
340
1E
 70
     0
280
     1
281
     0
  0
BLOCK_RECORD
  5
23
330
1
100
AcDbSymbolTableRecord
100
AcDbBlockTableRecord
  2
*Paper_Space0
340
26
 70
     0
280
     1
281
     0
  0
BLOCK_RECORD
  5
169A
330
1
100
AcDbSymbolTableRecord
100
AcDbBlockTableRecord
  2
_DotSmall
340
0
102
{BLKREFS
331
1AAC
331
1AAD
331
1AB9
331
1ABA
331
1AC6
331
1AC7
331
1AD3
331
1AD4
331
1AE0
331
1AE1
331
1AED
331
1AEE
331
1AFA
331
1AFB
331
1B07
331
1B08
331
1B14
331
1B15
331
1B29
331
1B2A
331
1B36
331
1B37
331
1B43
331
1B44
102
}
 70
     0
280
     1
281
     0
  0
BLOCK_RECORD
  5
1721
330
1
100
AcDbSymbolTableRecord
100
AcDbBlockTableRecord
  2
_DotBlank
340
0
 70
     0
280
     1
281
     0
  0
BLOCK_RECORD
  5
1A98
330
1
100
AcDbSymbolTableRecord
100
AcDbBlockTableRecord
  2
*D66
340
0
 70
     0
280
     1
281
     0
  0
BLOCK_RECORD
  5
1C5E
330
1
100
AcDbSymbolTableRecord
100
AcDbBlockTableRecord
  2
_Open30
340
0
 70
     0
280
     1
281
     0
  0
BLOCK_RECORD
  5
1C85
330
1
100
AcDbSymbolTableRecord
100
AcDbBlockTableRecord
  2
_Open
340
0
 70
     0
280
     1
281
     0
  0
BLOCK_RECORD
  5
1DD6
330
1
100
AcDbSymbolTableRecord
100
AcDbBlockTableRecord
  2
*D103
340
0
 70
     0
280
     1
281
     0
  0
BLOCK_RECORD
  5
1DEE
330
1
100
AcDbSymbolTableRecord
100
AcDbBlockTableRecord
  2
*D104
340
0
 70
     0
280
     1
281
     0
  0
BLOCK_RECORD
  5
1DFE
330
1
100
AcDbSymbolTableRecord
100
AcDbBlockTableRecord
  2
*D105
340
0
 70
     0
280
     1
281
     0
  0
BLOCK_RECORD
  5
1E0E
330
1
100
AcDbSymbolTableRecord
100
AcDbBlockTableRecord
  2
*D106
340
0
 70
     0
280
     1
281
     0
  0
BLOCK_RECORD
  5
1E1E
330
1
100
AcDbSymbolTableRecord
100
AcDbBlockTableRecord
  2
*D107
340
0
 70
     0
280
     1
281
     0
  0
BLOCK_RECORD
  5
1E2E
330
1
100
AcDbSymbolTableRecord
100
AcDbBlockTableRecord
  2
*D108
340
0
 70
     0
280
     1
281
     0
  0
BLOCK_RECORD
  5
1E3C
330
1
100
AcDbSymbolTableRecord
100
AcDbBlockTableRecord
  2
*D109
340
0
 70
     0
280
     1
281
     0
  0
BLOCK_RECORD
  5
1E4A
330
1
100
AcDbSymbolTableRecord
100
AcDbBlockTableRecord
  2
*D110
340
0
 70
     0
280
     1
281
     0
  0
BLOCK_RECORD
  5
1E66
330
1
100
AcDbSymbolTableRecord
100
AcDbBlockTableRecord
  2
*D112
340
0
 70
     0
280
     1
281
     0
  0
BLOCK_RECORD
  5
1E74
330
1
100
AcDbSymbolTableRecord
100
AcDbBlockTableRecord
  2
*D113
340
0
 70
     0
280
     1
281
     0
  0
BLOCK_RECORD
  5
1E82
330
1
100
AcDbSymbolTableRecord
100
AcDbBlockTableRecord
  2
*D114
340
0
 70
     0
280
     1
281
     0
  0
ENDTAB
  0
ENDSEC
  0
SECTION
  2
BLOCKS
  0
BLOCK
  5
20
330
1F
100
AcDbEntity
  8
0
100
AcDbBlockBegin
  2
*Model_Space
 70
     0
 10
0.0
 20
0.0
 30
0.0
  3
*Model_Space
  1
*Model_Space
  0
ENDBLK
  5
21
330
1F
100
AcDbEntity
  8
0
100
AcDbBlockEnd
  0
BLOCK
  5
1C
330
1B
100
AcDbEntity
 67
     1
  8
0
100
AcDbBlockBegin
  2
*Paper_Space
 70
     0
 10
0.0
 20
0.0
 30
0.0
  3
*Paper_Space
  1
*Paper_Space
  0
ENDBLK
  5
1D
330
1B
100
AcDbEntity
 67
     1
  8
0
100
AcDbBlockEnd
  0
BLOCK
  5
24
330
23
100
AcDbEntity
  8
0
100
AcDbBlockBegin
  2
*Paper_Space0
 70
     0
 10
0.0
 20
0.0
 30
0.0
  3
*Paper_Space0
  1
*Paper_Space0
  0
ENDBLK
  5
25
330
23
100
AcDbEntity
  8
0
100
AcDbBlockEnd
  0
BLOCK
  5
169B
330
169A
100
AcDbEntity
  8
0
100
AcDbBlockBegin
  2
_DotSmall
 70
     0
 10
0.0
 20
0.0
 30
0.0
  3
_DotSmall
  1

  0
LWPOLYLINE
  5
169D
330
169A
100
AcDbEntity
  8
0
  6
ByBlock
 62
     0
100
AcDbPolyline
 90
        2
 70
     1
 43
0.5
 10
-0.0625
 20
0.0
 42
1.0
 10
0.0625
 20
0.0
 42
1.0
  0
ENDBLK
  5
169C
330
169A
100
AcDbEntity
  8
0
100
AcDbBlockEnd
  0
BLOCK
  5
1722
330
1721
100
AcDbEntity
  8
0
100
AcDbBlockBegin
  2
_DotBlank
 70
     0
 10
0.0
 20
0.0
 30
0.0
  3
_DotBlank
  1

  0
CIRCLE
  5
1724
330
1721
100
AcDbEntity
  8
0
  6
ByBlock
 62
     0
370
    -2
100
AcDbCircle
 10
0.0
 20
0.0
 30
0.0
 40
0.5
  0
LINE
  5
1725
330
1721
100
AcDbEntity
  8
0
  6
ByBlock
 62
     0
370
    -2
100
AcDbLine
 10
-0.5
 20
0.0
 30
0.0
 11
-1.0
 21
0.0
 31
0.0
  0
ENDBLK
  5
1723
330
1721
100
AcDbEntity
  8
0
100
AcDbBlockEnd
  0
BLOCK
  5
1A99
330
1A98
100
AcDbEntity
  8
0
100
AcDbBlockBegin
  2
*D66
 70
     1
 10
0.0
 20
0.0
 30
0.0
  3
*D66
  1

  0
LINE
  5
1A9B
330
1A98
100
AcDbEntity
  8
寸法
 62
     0
370
    -2
100
AcDbLine
 10
91.95083178925864
 20
98.76085553311681
 30
0.0
 11
86.97775398155824
 21
98.76085553311681
 31
0.0
  0
LINE
  5
1A9C
330
1A98
100
AcDbEntity
  8
寸法
 62
     0
370
    -2
100
AcDbLine
 10
91.6130109040422
 20
87.76085553311681
 30
0.0
 11
86.97775398155824
 21
87.76085553311681
 31
0.0
  0
LINE
  5
1A9D
330
1A98
100
AcDbEntity
  8
寸法
 62
     0
370
    -2
100
AcDbLine
 10
88.22775398155824
 20
97.76085553311681
 30
0.0
 11
88.22775398155824
 21
94.88585553311681
 31
0.0
  0
LINE
  5
1A9E
330
1A98
100
AcDbEntity
  8
寸法
 62
     0
370
    -2
100
AcDbLine
 10
88.22775398155824
 20
88.76085553311681
 30
0.0
 11
88.22775398155824
 21
91.63585553311681
 31
0.0
  0
SOLID
  5
1A9F
330
1A98
100
AcDbEntity
  8
寸法
 62
     0
100
AcDbTrace
 10
88.39442064822491
 20
97.76085553311681
 30
0.0
 11
88.06108731489157
 21
97.76085553311681
 31
0.0
 12
88.22775398155824
 22
98.76085553311681
 32
0.0
 13
88.22775398155824
 23
98.76085553311681
 33
0.0
  0
SOLID
  5
1AA0
330
1A98
100
AcDbEntity
  8
寸法
 62
     0
100
AcDbTrace
 10
88.06108731489157
 20
88.76085553311681
 30
0.0
 11
88.39442064822491
 21
88.76085553311681
 31
0.0
 12
88.22775398155824
 22
87.76085553311681
 32
0.0
 13
88.22775398155824
 23
87.76085553311681
 33
0.0
  0
MTEXT
  5
1AA1
330
1A98
100
AcDbEntity
  8
寸法
 62
     0
100
AcDbMText
 10
88.22775398155824
 20
93.26085553311681
 30
0.0
 40
2.0
 41
0.0
 46
0.0
 71
     5
 72
     1
  1
11
 73
     1
 44
1.0
  0
POINT
  5
1AA2
330
1A98
100
AcDbEntity
  8
Defpoints
 62
     0
100
AcDbPoint
 10
92.57583178925864
 20
98.76085553311681
 30
0.0
  0
POINT
  5
1AA3
330
1A98
100
AcDbEntity
  8
Defpoints
 62
     0
100
AcDbPoint
 10
92.2380109040422
 20
87.76085553311681
 30
0.0
  0
POINT
  5
1AA4
330
1A98
100
AcDbEntity
  8
Defpoints
 62
     0
100
AcDbPoint
 10
88.22775398155824
 20
87.76085553311681
 30
0.0
  0
ENDBLK
  5
1A9A
330
1A98
100
AcDbEntity
  8
0
100
AcDbBlockEnd
  0
BLOCK
  5
1C5F
330
1C5E
100
AcDbEntity
  8
0
100
AcDbBlockBegin
  2
_Open30
 70
     0
 10
0.0
 20
0.0
 30
0.0
  3
_Open30
  1

  0
LINE
  5
1C61
330
1C5E
100
AcDbEntity
  8
0
  6
ByBlock
 62
     0
370
    -2
100
AcDbLine
 10
-1.0
 20
0.267949
 30
0.0
 11
0.0
 21
0.0
 31
0.0
  0
LINE
  5
1C62
330
1C5E
100
AcDbEntity
  8
0
  6
ByBlock
 62
     0
370
    -2
100
AcDbLine
 10
0.0
 20
0.0
 30
0.0
 11
-1.0
 21
-0.267949
 31
0.0
  0
LINE
  5
1C63
330
1C5E
100
AcDbEntity
  8
0
  6
ByBlock
 62
     0
370
    -2
100
AcDbLine
 10
0.0
 20
0.0
 30
0.0
 11
-1.0
 21
0.0
 31
0.0
  0
ENDBLK
  5
1C60
330
1C5E
100
AcDbEntity
  8
0
100
AcDbBlockEnd
  0
BLOCK
  5
1C86
330
1C85
100
AcDbEntity
  8
0
100
AcDbBlockBegin
  2
_Open
 70
     0
 10
0.0
 20
0.0
 30
0.0
  3
_Open
  1

  0
LINE
  5
1C87
330
1C85
100
AcDbEntity
  8
0
  6
Continuous
 62
     0
370
    -2
100
AcDbLine
 10
-1.0
 20
0.1666666666666667
 30
0.0
 11
0.0
 21
0.0
 31
0.0
  0
LINE
  5
1C88
330
1C85
100
AcDbEntity
  8
0
  6
Continuous
 62
     0
370
    -2
100
AcDbLine
 10
-1.0
 20
-0.1666666666666667
 30
0.0
 11
0.0
 21
0.0
 31
0.0
  0
LINE
  5
1C89
330
1C85
100
AcDbEntity
  8
0
  6
Continuous
 62
     0
370
    -2
100
AcDbLine
 10
0.0
 20
0.0
 30
0.0
 11
-1.0
 21
0.0
 31
0.0
  0
ENDBLK
  5
1C8A
330
1C85
100
AcDbEntity
  8
0
100
AcDbBlockEnd
  0
BLOCK
  5
1DD7
330
1DD6
100
AcDbEntity
  8
0
100
AcDbBlockBegin
  2
*D103
 70
     1
 10
0.0
 20
0.0
 30
0.0
  3
*D103
  1

  0
LINE
  5
1DD9
330
1DD6
100
AcDbEntity
  8
寸法
 62
     0
370
    -2
100
AcDbLine
 10
127.554373273553
 20
98.76085553311682
 30
0.0
 11
132.9278518814469
 21
98.76085553311682
 31
0.0
  0
LINE
  5
1DDA
330
1DD6
100
AcDbEntity
  8
寸法
 62
     0
370
    -2
100
AcDbLine
 10
127.7554326757125
 20
92.7608880801818
 30
0.0
 11
132.9278518814469
 21
92.7608880801818
 31
0.0
  0
LINE
  5
1DDB
330
1DD6
100
AcDbEntity
  8
寸法
 62
     0
370
    -2
100
AcDbLine
 10
131.6778518814469
 20
97.76085553311682
 30
0.0
 11
131.6778518814469
 21
97.3858718066493
 31
0.0
  0
LINE
  5
1DDC
330
1DD6
100
AcDbEntity
  8
寸法
 62
     0
370
    -2
100
AcDbLine
 10
131.6778518814469
 20
93.7608880801818
 30
0.0
 11
131.6778518814469
 21
94.1358718066493
 31
0.0
  0
SOLID
  5
1DDD
330
1DD6
100
AcDbEntity
  8
寸法
 62
     0
100
AcDbTrace
 10
131.8445185481135
 20
97.76085553311682
 30
0.0
 11
131.5111852147802
 21
97.76085553311682
 31
0.0
 12
131.6778518814469
 22
98.76085553311682
 32
0.0
 13
131.6778518814469
 23
98.76085553311682
 33
0.0
  0
SOLID
  5
1DDE
330
1DD6
100
AcDbEntity
  8
寸法
 62
     0
100
AcDbTrace
 10
131.5111852147802
 20
93.7608880801818
 30
0.0
 11
131.8445185481135
 21
93.7608880801818
 31
0.0
 12
131.6778518814469
 22
92.7608880801818
 32
0.0
 13
131.6778518814469
 23
92.7608880801818
 33
0.0
  0
MTEXT
  5
1DDF
330
1DD6
100
AcDbEntity
  8
寸法
 62
     0
100
AcDbMText
 10
131.6778518814469
 20
95.7608718066493
 30
0.0
 40
2.0
 41
0.0
 46
0.0
 71
     5
 72
     1
  1
6
 73
     1
 44
1.0
  0
POINT
  5
1DE0
330
1DD6
100
AcDbEntity
  8
Defpoints
 62
     0
100
AcDbPoint
 10
126.929373273553
 20
98.76085553311682
 30
0.0
  0
POINT
  5
1DE1
330
1DD6
100
AcDbEntity
  8
Defpoints
 62
     0
100
AcDbPoint
 10
127.1304326757125
 20
92.7608880801818
 30
0.0
  0
POINT
  5
1DE2
330
1DD6
100
AcDbEntity
  8
Defpoints
 62
     0
100
AcDbPoint
 10
131.6778518814469
 20
92.7608880801818
 30
0.0
  0
ENDBLK
  5
1DD8
330
1DD6
100
AcDbEntity
  8
0
100
AcDbBlockEnd
  0
BLOCK
  5
1DEF
330
1DEE
100
AcDbEntity
  8
0
100
AcDbBlockBegin
  2
*D104
 70
     1
 10
0.0
 20
0.0
 30
0.0
  3
*D104
  1

  0
LINE
  5
1DF1
330
1DEE
100
AcDbEntity
  8
寸法
 62
     0
370
    -2
100
AcDbLine
 10
95.96115102048373
 20
90.76085553311681
 30
0.0
 11
97.9546171249605
 21
90.76085553311681
 31
0.0
  0
LINE
  5
1DF2
330
1DEE
100
AcDbEntity
  8
寸法
 62
     0
370
    -2
100
AcDbLine
 10
95.76115102048372
 20
87.76085553311681
 30
0.0
 11
97.9546171249605
 21
87.76085553311681
 31
0.0
  0
LINE
  5
1DF3
330
1DEE
100
AcDbEntity
  8
寸法
 62
     0
370
    -2
100
AcDbLine
 10
96.7046171249605
 20
90.76085553311681
 30
0.0
 11
96.7046171249605
 21
91.76085553311681
 31
0.0
  0
LINE
  5
1DF4
330
1DEE
100
AcDbEntity
  8
寸法
 62
     0
370
    -2
100
AcDbLine
 10
96.7046171249605
 20
87.76085553311681
 30
0.0
 11
96.7046171249605
 21
86.76085553311681
 31
0.0
  0
SOLID
  5
1DF5
330
1DEE
100
AcDbEntity
  8
寸法
 62
     0
100
AcDbTrace
 10
96.87128379162718
 20
89.76085553311681
 30
0.0
 11
96.53795045829384
 21
89.76085553311681
 31
0.0
 12
96.7046171249605
 22
90.76085553311681
 32
0.0
 13
96.7046171249605
 23
90.76085553311681
 33
0.0
  0
SOLID
  5
1DF6
330
1DEE
100
AcDbEntity
  8
寸法
 62
     0
100
AcDbTrace
 10
96.53795045829384
 20
88.76085553311681
 30
0.0
 11
96.87128379162718
 21
88.76085553311681
 31
0.0
 12
96.7046171249605
 22
87.76085553311681
 32
0.0
 13
96.7046171249605
 23
87.76085553311681
 33
0.0
  0
MTEXT
  5
1DF7
330
1DEE
100
AcDbEntity
  8
寸法
 62
     0
100
AcDbMText
 10
98.84602534349459
 20
89.10582441326272
 30
0.0
 40
2.0
 41
0.0
 46
0.0
 71
     5
 72
     1
  1
3
 73
     1
 44
1.0
  0
POINT
  5
1DF8
330
1DEE
100
AcDbEntity
  8
Defpoints
 62
     0
100
AcDbPoint
 10
95.33615102048373
 20
90.76085553311681
 30
0.0
  0
POINT
  5
1DF9
330
1DEE
100
AcDbEntity
  8
Defpoints
 62
     0
100
AcDbPoint
 10
95.13615102048372
 20
87.76085553311681
 30
0.0
  0
POINT
  5
1DFA
330
1DEE
100
AcDbEntity
  8
Defpoints
 62
     0
100
AcDbPoint
 10
96.7046171249605
 20
87.76085553311681
 30
0.0
  0
ENDBLK
  5
1DF0
330
1DEE
100
AcDbEntity
  8
0
100
AcDbBlockEnd
  0
BLOCK
  5
1DFF
330
1DFE
100
AcDbEntity
  8
0
100
AcDbBlockBegin
  2
*D105
 70
     1
 10
0.0
 20
0.0
 30
0.0
  3
*D105
  1

  0
LINE
  5
1E01
330
1DFE
100
AcDbEntity
  8
寸法
 62
     0
370
    -2
100
AcDbLine
 10
94.13615102048372
 20
87.3358555331168
 30
0.0
 11
94.13615102048372
 21
81.96840885077123
 31
0.0
  0
LINE
  5
1E02
330
1DFE
100
AcDbEntity
  8
寸法
 62
     0
370
    -2
100
AcDbLine
 10
95.33615102048373
 20
87.3358555331168
 30
0.0
 11
95.33615102048373
 21
81.96840885077123
 31
0.0
  0
LINE
  5
1E03
330
1DFE
100
AcDbEntity
  8
寸法
 62
     0
370
    -2
100
AcDbLine
 10
93.13615102048372
 20
83.21840885077123
 30
0.0
 11
92.13615102048372
 21
83.21840885077123
 31
0.0
  0
LINE
  5
1E04
330
1DFE
100
AcDbEntity
  8
寸法
 62
     0
370
    -2
100
AcDbLine
 10
96.33615102048373
 20
83.21840885077123
 30
0.0
 11
97.33615102048373
 21
83.21840885077123
 31
0.0
  0
SOLID
  5
1E05
330
1DFE
100
AcDbEntity
  8
寸法
 62
     0
100
AcDbTrace
 10
93.13615102048372
 20
83.05174218410455
 30
0.0
 11
93.13615102048372
 21
83.3850755174379
 31
0.0
 12
94.13615102048372
 22
83.21840885077123
 32
0.0
 13
94.13615102048372
 23
83.21840885077123
 33
0.0
  0
SOLID
  5
1E06
330
1DFE
100
AcDbEntity
  8
寸法
 62
     0
100
AcDbTrace
 10
96.33615102048373
 20
83.3850755174379
 30
0.0
 11
96.33615102048373
 21
83.05174218410455
 31
0.0
 12
95.33615102048373
 22
83.21840885077123
 32
0.0
 13
95.33615102048373
 23
83.21840885077123
 33
0.0
  0
MTEXT
  5
1E07
330
1DFE
100
AcDbEntity
  8
寸法
 62
     0
100
AcDbMText
 10
94.76453566351773
 20
80.64628207435214
 30
0.0
 40
2.0
 41
0.0
 46
0.0
 71
     5
 72
     1
  1
1.2
 73
     1
 44
1.0
  0
POINT
  5
1E08
330
1DFE
100
AcDbEntity
  8
Defpoints
 62
     0
100
AcDbPoint
 10
94.13615102048372
 20
87.9608555331168
 30
0.0
  0
POINT
  5
1E09
330
1DFE
100
AcDbEntity
  8
Defpoints
 62
     0
100
AcDbPoint
 10
95.33615102048373
 20
87.9608555331168
 30
0.0
  0
POINT
  5
1E0A
330
1DFE
100
AcDbEntity
  8
Defpoints
 62
     0
100
AcDbPoint
 10
95.33615102048373
 20
83.21840885077123
 30
0.0
  0
ENDBLK
  5
1E00
330
1DFE
100
AcDbEntity
  8
0
100
AcDbBlockEnd
  0
BLOCK
  5
1E0F
330
1E0E
100
AcDbEntity
  8
0
100
AcDbBlockBegin
  2
*D106
 70
     1
 10
0.0
 20
0.0
 30
0.0
  3
*D106
  1

  0
LINE
  5
1E11
330
1E0E
100
AcDbEntity
  8
寸法
 62
     0
370
    -2
100
AcDbLine
 10
148.0103343167246
 20
91.56012382409786
 30
0.0
 11
152.8689151743126
 21
91.56012382409786
 31
0.0
  0
LINE
  5
1E12
330
1E0E
100
AcDbEntity
  8
寸法
 62
     0
370
    -2
100
AcDbLine
 10
147.9861510204837
 20
90.76085553311681
 30
0.0
 11
152.8689151743126
 21
90.76085553311681
 31
0.0
  0
LINE
  5
1E13
330
1E0E
100
AcDbEntity
  8
寸法
 62
     0
370
    -2
100
AcDbLine
 10
151.6189151743126
 20
92.56012382409786
 30
0.0
 11
151.6189151743126
 21
93.56012382409786
 31
0.0
  0
LINE
  5
1E14
330
1E0E
100
AcDbEntity
  8
寸法
 62
     0
370
    -2
100
AcDbLine
 10
151.6189151743126
 20
89.76085553311681
 30
0.0
 11
151.6189151743126
 21
88.76085553311681
 31
0.0
  0
SOLID
  5
1E15
330
1E0E
100
AcDbEntity
  8
寸法
 62
     0
100
AcDbTrace
 10
151.4522485076459
 20
92.56012382409786
 30
0.0
 11
151.7855818409792
 21
92.56012382409786
 31
0.0
 12
151.6189151743126
 22
91.56012382409786
 32
0.0
 13
151.6189151743126
 23
91.56012382409786
 33
0.0
  0
SOLID
  5
1E16
330
1E0E
100
AcDbEntity
  8
寸法
 62
     0
100
AcDbTrace
 10
151.7855818409792
 20
89.76085553311681
 30
0.0
 11
151.4522485076459
 21
89.76085553311681
 31
0.0
 12
151.6189151743126
 22
90.76085553311681
 32
0.0
 13
151.6189151743126
 23
90.76085553311681
 33
0.0
  0
MTEXT
  5
1E17
330
1E0E
100
AcDbEntity
  8
寸法
 62
     0
100
AcDbMText
 10
155.0267483803812
 20
91.15970097733586
 30
0.0
 40
2.0
 41
0.0
 46
0.0
 71
     5
 72
     1
  1
0.8
 73
     1
 44
1.0
  0
POINT
  5
1E18
330
1E0E
100
AcDbEntity
  8
Defpoints
 62
     0
100
AcDbPoint
 10
147.3853343167246
 20
91.56012382409786
 30
0.0
  0
POINT
  5
1E19
330
1E0E
100
AcDbEntity
  8
Defpoints
 62
     0
100
AcDbPoint
 10
147.3611510204837
 20
90.76085553311681
 30
0.0
  0
POINT
  5
1E1A
330
1E0E
100
AcDbEntity
  8
Defpoints
 62
     0
100
AcDbPoint
 10
151.6189151743126
 20
90.76085553311681
 30
0.0
  0
ENDBLK
  5
1E10
330
1E0E
100
AcDbEntity
  8
0
100
AcDbBlockEnd
  0
BLOCK
  5
1E1F
330
1E1E
100
AcDbEntity
  8
0
100
AcDbBlockBegin
  2
*D107
 70
     1
 10
0.0
 20
0.0
 30
0.0
  3
*D107
  1

  0
LINE
  5
1E21
330
1E1E
100
AcDbEntity
  8
寸法
 62
     0
370
    -2
100
AcDbLine
 10
94.13615102048372
 20
99.18585553311682
 30
0.0
 11
94.13615102048372
 21
110.6221698927886
 31
0.0
  0
LINE
  5
1E22
330
1E1E
100
AcDbEntity
  8
寸法
 62
     0
370
    -2
100
AcDbLine
 10
147.1361510204837
 20
91.78585553311682
 30
0.0
 11
147.1361510204837
 21
110.6221698927886
 31
0.0
  0
LINE
  5
1E23
330
1E1E
100
AcDbEntity
  8
寸法
 62
     0
370
    -2
100
AcDbLine
 10
95.13615102048372
 20
109.3721698927886
 30
0.0
 11
118.344484353817
 21
109.3721698927886
 31
0.0
  0
LINE
  5
1E24
330
1E1E
100
AcDbEntity
  8
寸法
 62
     0
370
    -2
100
AcDbLine
 10
146.1361510204837
 20
109.3721698927886
 30
0.0
 11
122.9278176871504
 21
109.3721698927886
 31
0.0
  0
SOLID
  5
1E25
330
1E1E
100
AcDbEntity
  8
寸法
 62
     0
100
AcDbTrace
 10
95.13615102048372
 20
109.5388365594553
 30
0.0
 11
95.13615102048372
 21
109.2055032261219
 31
0.0
 12
94.13615102048372
 22
109.3721698927886
 32
0.0
 13
94.13615102048372
 23
109.3721698927886
 33
0.0
  0
SOLID
  5
1E26
330
1E1E
100
AcDbEntity
  8
寸法
 62
     0
100
AcDbTrace
 10
146.1361510204837
 20
109.2055032261219
 30
0.0
 11
146.1361510204837
 21
109.5388365594553
 31
0.0
 12
147.1361510204837
 22
109.3721698927886
 32
0.0
 13
147.1361510204837
 23
109.3721698927886
 33
0.0
  0
MTEXT
  5
1E27
330
1E1E
100
AcDbEntity
  8
寸法
 62
     0
100
AcDbMText
 10
120.6361510204837
 20
109.3721698927886
 30
0.0
 40
2.0
 41
0.0
 46
0.0
 71
     5
 72
     1
  1
53
 73
     1
 44
1.0
  0
POINT
  5
1E28
330
1E1E
100
AcDbEntity
  8
Defpoints
 62
     0
100
AcDbPoint
 10
94.13615102048372
 20
98.56085553311682
 30
0.0
  0
POINT
  5
1E29
330
1E1E
100
AcDbEntity
  8
Defpoints
 62
     0
100
AcDbPoint
 10
147.1361510204837
 20
91.16085553311682
 30
0.0
  0
POINT
  5
1E2A
330
1E1E
100
AcDbEntity
  8
Defpoints
 62
     0
100
AcDbPoint
 10
147.1361510204837
 20
109.3721698927886
 30
0.0
  0
ENDBLK
  5
1E20
330
1E1E
100
AcDbEntity
  8
0
100
AcDbBlockEnd
  0
BLOCK
  5
1E2F
330
1E2E
100
AcDbEntity
  8
0
100
AcDbBlockBegin
  2
*D108
 70
     1
 10
0.0
 20
0.0
 30
0.0
  3
*D108
  1

  0
LINE
  5
1E31
330
1E2E
100
AcDbEntity
  8
寸法
 62
     0
370
    -2
100
AcDbLine
 10
94.13615102048372
 20
99.81085553311682
 30
0.0
 11
94.13615102048372
 21
103.6715811277616
 31
0.0
  0
LINE
  5
1E32
330
1E2E
100
AcDbEntity
  8
寸法
 62
     0
370
    -2
100
AcDbLine
 10
97.13615102048371
 20
100.4744037341964
 30
0.0
 11
97.13615102048371
 21
103.6715811277616
 31
0.0
  0
LINE
  5
1E33
330
1E2E
100
AcDbEntity
  8
寸法
 62
     0
370
    -2
100
AcDbLine
 10
94.13615102048372
 20
102.4215811277616
 30
0.0
 11
93.13615102048372
 21
102.4215811277616
 31
0.0
  0
LINE
  5
1E34
330
1E2E
100
AcDbEntity
  8
寸法
 62
     0
370
    -2
100
AcDbLine
 10
97.13615102048371
 20
102.4215811277616
 30
0.0
 11
98.13615102048371
 21
102.4215811277616
 31
0.0
  0
SOLID
  5
1E35
330
1E2E
100
AcDbEntity
  8
寸法
 62
     0
100
AcDbTrace
 10
95.13615102048372
 20
102.5882477944283
 30
0.0
 11
95.13615102048372
 21
102.2549144610949
 31
0.0
 12
94.13615102048372
 22
102.4215811277616
 32
0.0
 13
94.13615102048372
 23
102.4215811277616
 33
0.0
  0
SOLID
  5
1E36
330
1E2E
100
AcDbEntity
  8
寸法
 62
     0
100
AcDbTrace
 10
96.13615102048371
 20
102.2549144610949
 30
0.0
 11
96.13615102048371
 21
102.5882477944283
 31
0.0
 12
97.13615102048371
 22
102.4215811277616
 32
0.0
 13
97.13615102048371
 23
102.4215811277616
 33
0.0
  0
MTEXT
  5
1E37
330
1E2E
100
AcDbEntity
  8
寸法
 62
     0
100
AcDbMText
 10
95.63615102048374
 20
104.0342132164001
 30
0.0
 40
2.0
 41
0.0
 46
0.0
 71
     5
 72
     1
  1
3
 73
     1
 44
1.0
  0
POINT
  5
1E38
330
1E2E
100
AcDbEntity
  8
Defpoints
 62
     0
100
AcDbPoint
 10
94.13615102048372
 20
99.18585553311682
 30
0.0
  0
POINT
  5
1E39
330
1E2E
100
AcDbEntity
  8
Defpoints
 62
     0
100
AcDbPoint
 10
97.13615102048371
 20
99.84940373419641
 30
0.0
  0
POINT
  5
1E3A
330
1E2E
100
AcDbEntity
  8
Defpoints
 62
     0
100
AcDbPoint
 10
97.13615102048371
 20
102.4215811277616
 30
0.0
  0
ENDBLK
  5
1E30
330
1E2E
100
AcDbEntity
  8
0
100
AcDbBlockEnd
  0
BLOCK
  5
1E3D
330
1E3C
100
AcDbEntity
  8
0
100
AcDbBlockBegin
  2
*D109
 70
     1
 10
0.0
 20
0.0
 30
0.0
  3
*D109
  1

  0
LINE
  5
1E3F
330
1E3C
100
AcDbEntity
  8
寸法
 62
     0
370
    -2
100
AcDbLine
 10
97.13615102048371
 20
102.0234585892167
 30
0.0
 11
97.13615102048371
 21
103.6715811277616
 31
0.0
  0
LINE
  5
1E40
330
1E3C
100
AcDbEntity
  8
寸法
 62
     0
370
    -2
100
AcDbLine
 10
109.1361510204837
 20
100.4744037341964
 30
0.0
 11
109.1361510204837
 21
103.6715811277616
 31
0.0
  0
LINE
  5
1E41
330
1E3C
100
AcDbEntity
  8
寸法
 62
     0
370
    -2
100
AcDbLine
 10
98.13615102048371
 20
102.4215811277616
 30
0.0
 11
108.1361510204837
 21
102.4215811277616
 31
0.0
  0
LINE
  5
1E42
330
1E3C
100
AcDbEntity
  8
寸法
 62
     0
370
    -2
100
AcDbLine
 10
108.1361510204837
 20
102.4215811277616
 30
0.0
 11
98.13615102048371
 21
102.4215811277616
 31
0.0
  0
SOLID
  5
1E43
330
1E3C
100
AcDbEntity
  8
寸法
 62
     0
100
AcDbTrace
 10
98.13615102048371
 20
102.5882477944283
 30
0.0
 11
98.13615102048371
 21
102.2549144610949
 31
0.0
 12
97.13615102048371
 22
102.4215811277616
 32
0.0
 13
97.13615102048371
 23
102.4215811277616
 33
0.0
  0
SOLID
  5
1E44
330
1E3C
100
AcDbEntity
  8
寸法
 62
     0
100
AcDbTrace
 10
108.1361510204837
 20
102.2549144610949
 30
0.0
 11
108.1361510204837
 21
102.5882477944283
 31
0.0
 12
109.1361510204837
 22
102.4215811277616
 32
0.0
 13
109.1361510204837
 23
102.4215811277616
 33
0.0
  0
MTEXT
  5
1E45
330
1E3C
100
AcDbEntity
  8
寸法
 62
     0
100
AcDbMText
 10
103.1361510204837
 20
104.0465811277616
 30
0.0
 40
2.0
 41
0.0
 46
0.0
 71
     5
 72
     1
  1
12
 73
     1
 44
1.0
  0
POINT
  5
1E46
330
1E3C
100
AcDbEntity
  8
Defpoints
 62
     0
100
AcDbPoint
 10
97.13615102048371
 20
101.3984585892167
 30
0.0
  0
POINT
  5
1E47
330
1E3C
100
AcDbEntity
  8
Defpoints
 62
     0
100
AcDbPoint
 10
109.1361510204837
 20
99.84940373419641
 30
0.0
  0
POINT
  5
1E48
330
1E3C
100
AcDbEntity
  8
Defpoints
 62
     0
100
AcDbPoint
 10
109.1361510204837
 20
102.4215811277616
 30
0.0
  0
ENDBLK
  5
1E3E
330
1E3C
100
AcDbEntity
  8
0
100
AcDbBlockEnd
  0
BLOCK
  5
1E4B
330
1E4A
100
AcDbEntity
  8
0
100
AcDbBlockBegin
  2
*D110
 70
     1
 10
0.0
 20
0.0
 30
0.0
  3
*D110
  1

  0
LINE
  5
1E4D
330
1E4A
100
AcDbEntity
  8
寸法
 62
     0
370
    -2
100
AcDbLine
 10
109.1361510204837
 20
103.0465811277616
 30
0.0
 11
109.1361510204837
 21
103.6715811277616
 31
0.0
  0
LINE
  5
1E4E
330
1E4A
100
AcDbEntity
  8
寸法
 62
     0
370
    -2
100
AcDbLine
 10
112.1361510204838
 20
100.4744037341964
 30
0.0
 11
112.1361510204838
 21
103.6715811277616
 31
0.0
  0
LINE
  5
1E4F
330
1E4A
100
AcDbEntity
  8
寸法
 62
     0
370
    -2
100
AcDbLine
 10
109.1361510204837
 20
102.4215811277616
 30
0.0
 11
108.1361510204837
 21
102.4215811277616
 31
0.0
  0
LINE
  5
1E50
330
1E4A
100
AcDbEntity
  8
寸法
 62
     0
370
    -2
100
AcDbLine
 10
112.1361510204838
 20
102.4215811277616
 30
0.0
 11
113.1361510204838
 21
102.4215811277616
 31
0.0
  0
SOLID
  5
1E51
330
1E4A
100
AcDbEntity
  8
寸法
 62
     0
100
AcDbTrace
 10
110.1361510204837
 20
102.5882477944283
 30
0.0
 11
110.1361510204837
 21
102.2549144610949
 31
0.0
 12
109.1361510204837
 22
102.4215811277616
 32
0.0
 13
109.1361510204837
 23
102.4215811277616
 33
0.0
  0
SOLID
  5
1E52
330
1E4A
100
AcDbEntity
  8
寸法
 62
     0
100
AcDbTrace
 10
111.1361510204838
 20
102.2549144610949
 30
0.0
 11
111.1361510204838
 21
102.5882477944283
 31
0.0
 12
112.1361510204838
 22
102.4215811277616
 32
0.0
 13
112.1361510204838
 23
102.4215811277616
 33
0.0
  0
MTEXT
  5
1E53
330
1E4A
100
AcDbEntity
  8
寸法
 62
     0
100
AcDbMText
 10
110.6361510204837
 20
104.0465811277616
 30
0.0
 40
2.0
 41
0.0
 46
0.0
 71
     5
 72
     1
  1
3
 73
     1
 44
1.0
  0
POINT
  5
1E54
330
1E4A
100
AcDbEntity
  8
Defpoints
 62
     0
100
AcDbPoint
 10
109.1361510204837
 20
102.4215811277616
 30
0.0
  0
POINT
  5
1E55
330
1E4A
100
AcDbEntity
  8
Defpoints
 62
     0
100
AcDbPoint
 10
112.1361510204838
 20
99.84940373419641
 30
0.0
  0
POINT
  5
1E56
330
1E4A
100
AcDbEntity
  8
Defpoints
 62
     0
100
AcDbPoint
 10
112.1361510204838
 20
102.4215811277616
 30
0.0
  0
ENDBLK
  5
1E4C
330
1E4A
100
AcDbEntity
  8
0
100
AcDbBlockEnd
  0
BLOCK
  5
1E67
330
1E66
100
AcDbEntity
  8
0
100
AcDbBlockBegin
  2
*D112
 70
     1
 10
0.0
 20
0.0
 30
0.0
  3
*D112
  1

  0
LINE
  5
1E69
330
1E66
100
AcDbEntity
  8
寸法
 62
     0
370
    -2
100
AcDbLine
 10
112.1361510204838
 20
103.0465811277616
 30
0.0
 11
112.1361510204838
 21
103.6715811277616
 31
0.0
  0
LINE
  5
1E6A
330
1E66
100
AcDbEntity
  8
寸法
 62
     0
370
    -2
100
AcDbLine
 10
124.1361510204837
 20
100.4744037341964
 30
0.0
 11
124.1361510204837
 21
103.6715811277616
 31
0.0
  0
LINE
  5
1E6B
330
1E66
100
AcDbEntity
  8
寸法
 62
     0
370
    -2
100
AcDbLine
 10
113.1361510204838
 20
102.4215811277616
 30
0.0
 11
123.1361510204837
 21
102.4215811277616
 31
0.0
  0
LINE
  5
1E6C
330
1E66
100
AcDbEntity
  8
寸法
 62
     0
370
    -2
100
AcDbLine
 10
123.1361510204837
 20
102.4215811277616
 30
0.0
 11
113.1361510204838
 21
102.4215811277616
 31
0.0
  0
SOLID
  5
1E6D
330
1E66
100
AcDbEntity
  8
寸法
 62
     0
100
AcDbTrace
 10
113.1361510204838
 20
102.5882477944283
 30
0.0
 11
113.1361510204838
 21
102.2549144610949
 31
0.0
 12
112.1361510204838
 22
102.4215811277616
 32
0.0
 13
112.1361510204838
 23
102.4215811277616
 33
0.0
  0
SOLID
  5
1E6E
330
1E66
100
AcDbEntity
  8
寸法
 62
     0
100
AcDbTrace
 10
123.1361510204837
 20
102.2549144610949
 30
0.0
 11
123.1361510204837
 21
102.5882477944283
 31
0.0
 12
124.1361510204837
 22
102.4215811277616
 32
0.0
 13
124.1361510204837
 23
102.4215811277616
 33
0.0
  0
MTEXT
  5
1E6F
330
1E66
100
AcDbEntity
  8
寸法
 62
     0
100
AcDbMText
 10
118.1361510204838
 20
104.0465811277616
 30
0.0
 40
2.0
 41
0.0
 46
0.0
 71
     5
 72
     1
  1
12
 73
     1
 44
1.0
  0
POINT
  5
1E70
330
1E66
100
AcDbEntity
  8
Defpoints
 62
     0
100
AcDbPoint
 10
112.1361510204838
 20
102.4215811277616
 30
0.0
  0
POINT
  5
1E71
330
1E66
100
AcDbEntity
  8
Defpoints
 62
     0
100
AcDbPoint
 10
124.1361510204837
 20
99.84940373419641
 30
0.0
  0
POINT
  5
1E72
330
1E66
100
AcDbEntity
  8
Defpoints
 62
     0
100
AcDbPoint
 10
124.1361510204837
 20
102.4215811277616
 30
0.0
  0
ENDBLK
  5
1E68
330
1E66
100
AcDbEntity
  8
0
100
AcDbBlockEnd
  0
BLOCK
  5
1E75
330
1E74
100
AcDbEntity
  8
0
100
AcDbBlockBegin
  2
*D113
 70
     1
 10
0.0
 20
0.0
 30
0.0
  3
*D113
  1

  0
LINE
  5
1E77
330
1E74
100
AcDbEntity
  8
寸法
 62
     0
370
    -2
100
AcDbLine
 10
124.1361510204837
 20
100.4744037341964
 30
0.0
 11
124.1361510204837
 21
103.6715811277616
 31
0.0
  0
LINE
  5
1E78
330
1E74
100
AcDbEntity
  8
寸法
 62
     0
370
    -2
100
AcDbLine
 10
127.1361510204838
 20
100.4744037341964
 30
0.0
 11
127.1361510204838
 21
103.6715811277616
 31
0.0
  0
LINE
  5
1E79
330
1E74
100
AcDbEntity
  8
寸法
 62
     0
370
    -2
100
AcDbLine
 10
124.1361510204837
 20
102.4215811277616
 30
0.0
 11
123.1361510204837
 21
102.4215811277616
 31
0.0
  0
LINE
  5
1E7A
330
1E74
100
AcDbEntity
  8
寸法
 62
     0
370
    -2
100
AcDbLine
 10
127.1361510204838
 20
102.4215811277616
 30
0.0
 11
128.1361510204838
 21
102.4215811277616
 31
0.0
  0
SOLID
  5
1E7B
330
1E74
100
AcDbEntity
  8
寸法
 62
     0
100
AcDbTrace
 10
125.1361510204837
 20
102.5882477944283
 30
0.0
 11
125.1361510204837
 21
102.2549144610949
 31
0.0
 12
124.1361510204837
 22
102.4215811277616
 32
0.0
 13
124.1361510204837
 23
102.4215811277616
 33
0.0
  0
SOLID
  5
1E7C
330
1E74
100
AcDbEntity
  8
寸法
 62
     0
100
AcDbTrace
 10
126.1361510204838
 20
102.2549144610949
 30
0.0
 11
126.1361510204838
 21
102.5882477944283
 31
0.0
 12
127.1361510204838
 22
102.4215811277616
 32
0.0
 13
127.1361510204838
 23
102.4215811277616
 33
0.0
  0
MTEXT
  5
1E7D
330
1E74
100
AcDbEntity
  8
寸法
 62
     0
100
AcDbMText
 10
125.6361510204838
 20
104.0465811277616
 30
0.0
 40
2.0
 41
0.0
 46
0.0
 71
     5
 72
     1
  1
3
 73
     1
 44
1.0
  0
POINT
  5
1E7E
330
1E74
100
AcDbEntity
  8
Defpoints
 62
     0
100
AcDbPoint
 10
124.1361510204837
 20
99.84940373419641
 30
0.0
  0
POINT
  5
1E7F
330
1E74
100
AcDbEntity
  8
Defpoints
 62
     0
100
AcDbPoint
 10
127.1361510204838
 20
99.84940373419641
 30
0.0
  0
POINT
  5
1E80
330
1E74
100
AcDbEntity
  8
Defpoints
 62
     0
100
AcDbPoint
 10
127.1361510204838
 20
102.4215811277616
 30
0.0
  0
ENDBLK
  5
1E76
330
1E74
100
AcDbEntity
  8
0
100
AcDbBlockEnd
  0
BLOCK
  5
1E83
330
1E82
100
AcDbEntity
  8
0
100
AcDbBlockBegin
  2
*D114
 70
     1
 10
0.0
 20
0.0
 30
0.0
  3
*D114
  1

  0
LINE
  5
1E85
330
1E82
100
AcDbEntity
  8
寸法
 62
     0
370
    -2
100
AcDbLine
 10
127.1361510204838
 20
103.0465811277616
 30
0.0
 11
127.1361510204838
 21
103.6715811277616
 31
0.0
  0
LINE
  5
1E86
330
1E82
100
AcDbEntity
  8
寸法
 62
     0
370
    -2
100
AcDbLine
 10
147.1361510204837
 20
92.41085553311682
 30
0.0
 11
147.1361510204837
 21
103.6715811277616
 31
0.0
  0
LINE
  5
1E87
330
1E82
100
AcDbEntity
  8
寸法
 62
     0
370
    -2
100
AcDbLine
 10
128.1361510204838
 20
102.4215811277616
 30
0.0
 11
146.1361510204837
 21
102.4215811277616
 31
0.0
  0
LINE
  5
1E88
330
1E82
100
AcDbEntity
  8
寸法
 62
     0
370
    -2
100
AcDbLine
 10
146.1361510204837
 20
102.4215811277616
 30
0.0
 11
128.1361510204838
 21
102.4215811277616
 31
0.0
  0
SOLID
  5
1E89
330
1E82
100
AcDbEntity
  8
寸法
 62
     0
100
AcDbTrace
 10
128.1361510204838
 20
102.5882477944283
 30
0.0
 11
128.1361510204838
 21
102.2549144610949
 31
0.0
 12
127.1361510204838
 22
102.4215811277616
 32
0.0
 13
127.1361510204838
 23
102.4215811277616
 33
0.0
  0
SOLID
  5
1E8A
330
1E82
100
AcDbEntity
  8
寸法
 62
     0
100
AcDbTrace
 10
146.1361510204837
 20
102.2549144610949
 30
0.0
 11
146.1361510204837
 21
102.5882477944283
 31
0.0
 12
147.1361510204837
 22
102.4215811277616
 32
0.0
 13
147.1361510204837
 23
102.4215811277616
 33
0.0
  0
MTEXT
  5
1E8B
330
1E82
100
AcDbEntity
  8
寸法
 62
     0
100
AcDbMText
 10
137.1361510204837
 20
104.0465811277616
 30
0.0
 40
2.0
 41
0.0
 46
0.0
 71
     5
 72
     1
  1
20
 73
     1
 44
1.0
  0
POINT
  5
1E8C
330
1E82
100
AcDbEntity
  8
Defpoints
 62
     0
100
AcDbPoint
 10
127.1361510204838
 20
102.4215811277616
 30
0.0
  0
POINT
  5
1E8D
330
1E82
100
AcDbEntity
  8
Defpoints
 62
     0
100
AcDbPoint
 10
147.1361510204837
 20
91.78585553311682
 30
0.0
  0
POINT
  5
1E8E
330
1E82
100
AcDbEntity
  8
Defpoints
 62
     0
100
AcDbPoint
 10
147.1361510204837
 20
102.4215811277616
 30
0.0
  0
ENDBLK
  5
1E84
330
1E82
100
AcDbEntity
  8
0
100
AcDbBlockEnd
  0
ENDSEC
  0
SECTION
  2
ENTITIES
  0
LINE
  5
668
330
1F
100
AcDbEntity
  8
枠
  6
Continuous
100
AcDbLine
 10
13.50000000000003
 20
196.0
 30
0.0
 11
283.5
 21
196.0
 31
0.0
  0
LINE
  5
669
330
1F
100
AcDbEntity
  8
枠
  6
Continuous
100
AcDbLine
 10
13.50000000000003
 20
14.0
 30
0.0
 11
283.5
 21
14.0
 31
0.0
  0
LINE
  5
66A
330
1F
100
AcDbEntity
  8
枠
  6
Continuous
100
AcDbLine
 10
13.50000000000003
 20
196.0
 30
0.0
 11
13.50000000000003
 21
14.0
 31
0.0
  0
LINE
  5
66B
330
1F
100
AcDbEntity
  8
枠
  6
Continuous
100
AcDbLine
 10
283.5
 20
196.0
 30
0.0
 11
283.5
 21
14.0
 31
0.0
  0
LINE
  5
673
330
1F
100
AcDbEntity
  8
枠
  6
Continuous
100
AcDbLine
 10
12.50000000000003
 20
197.0
 30
0.0
 11
284.5
 21
197.0
 31
0.0
  0
LINE
  5
674
330
1F
100
AcDbEntity
  8
枠
  6
Continuous
100
AcDbLine
 10
12.50000000000003
 20
197.0
 30
0.0
 11
12.50000000000003
 21
13.0
 31
0.0
  0
LINE
  5
675
330
1F
100
AcDbEntity
  8
枠
  6
Continuous
100
AcDbLine
 10
12.50000000000003
 20
13.0
 30
0.0
 11
284.5
 21
13.0
 31
0.0
  0
LINE
  5
676
330
1F
100
AcDbEntity
  8
枠
  6
Continuous
100
AcDbLine
 10
284.5
 20
197.0
 30
0.0
 11
284.5
 21
13.0
 31
0.0
  0
LINE
  5
677
330
1F
100
AcDbEntity
  8
枠
  6
Continuous
100
AcDbLine
 10
238.5
 20
196.0
 30
0.0
 11
238.5
 21
14.0
 31
0.0
  0
LINE
  5
678
330
1F
100
AcDbEntity
  8
枠
  6
Continuous
100
AcDbLine
 10
238.5
 20
173.8660465293556
 30
0.0
 11
283.5
 21
173.8660465293556
 31
0.0
  0
LINE
  5
679
330
1F
100
AcDbEntity
  8
枠
  6
Continuous
100
AcDbLine
 10
238.5
 20
151.7320930587111
 30
0.0
 11
283.5
 21
151.7320930587111
 31
0.0
  0
LINE
  5
67D
330
1F
100
AcDbEntity
  8
枠
  6
Continuous
100
AcDbLine
 10
237.5
 20
196.0
 30
0.0
 11
237.5
 21
14.0
 31
0.0
  0
MTEXT
  5
A15
330
1F
100
AcDbEntity
  8
文字
100
AcDbMText
 10
240.5774350305441
 20
194.5038694137743
 30
0.0
 40
2.5
 41
19.50744578598591
 46
2.8275
 71
     1
 72
     5
  1
{\fメイリオ|b0|i0|c0|p0;名称}
 73
     1
 44
1.0
1001
ACAD
1000
ACAD_MTEXT_DEFINED_HEIGHT_BEGIN
1070
    46
1040
2.8275
1000
ACAD_MTEXT_DEFINED_HEIGHT_END
  0
MTEXT
  5
A18
330
1F
100
AcDbEntity
  8
文字
100
AcDbMText
 10
240.5774350305441
 20
172.1766048811238
 30
0.0
 40
2.5
 41
12.9189203585147
 46
2.84
 71
     1
 72
     5
  1
{\fメイリオ|b0|i0|c0|p0;品番}
 73
     1
 44
1.0
1001
ACAD
1000
ACAD_MTEXT_DEFINED_HEIGHT_BEGIN
1070
    46
1040
2.84
1000
ACAD_MTEXT_DEFINED_HEIGHT_END
  0
MTEXT
  5
A1C
330
1F
100
AcDbEntity
  8
文字
100
AcDbMText
 10
240.5774350305441
 20
150.5690084662711
 30
0.0
 40
2.5
 41
9.970036363636382
 46
2.8125
 71
     1
 72
     5
  1
{\fメイリオ|b0|i0|c0|p0;仕様}
 73
     1
 44
1.0
1001
ACAD
1000
ACAD_MTEXT_DEFINED_HEIGHT_BEGIN
1070
    46
1040
2.8125
1000
ACAD_MTEXT_DEFINED_HEIGHT_END
  0
MTEXT
  5
1746
330
1F
100
AcDbEntity
  8
文字
100
AcDbMText
 10
246.6004807976261
 20
186.0383037607122
 30
0.0
 40
2.5
 41
32.11417155648903
 46
6.974127604166667
 71
     1
 72
     5
  1
{\fメイリオ|b0|i0|c0|p0;Previo　T\P\pxi-3,l3,t2,3;タイルカーペット用}
 73
     1
 44
1.0
1001
ACAD
1000
ACAD_MTEXT_DEFINED_HEIGHT_BEGIN
1070
    46
1040
6.974127604166667
1000
ACAD_MTEXT_DEFINED_HEIGHT_END
  0
MTEXT
  5
1759
330
1F
100
AcDbEntity
  8
文字
100
AcDbMText
 10
253.1701050302671
 20
164.7436690651014
 30
0.0
 40
2.5
 41
32.11417155648903
 46
2.5525
 71
     1
 72
     5
  1
{\fメイリオ|b0|i0|c0|p0;PVT703}
 73
     1
 44
1.0
1001
ACAD
1000
ACAD_MTEXT_DEFINED_HEIGHT_BEGIN
1070
    46
1040
2.5525
1000
ACAD_MTEXT_DEFINED_HEIGHT_END
  0
MTEXT
  5
176C
330
1F
100
AcDbEntity
  8
文字
100
AcDbMText
 10
242.7914469756676
 20
139.8952367204723
 30
0.0
 40
2.0
 41
36.18331118247977
 46
16.79122916666667
 71
     1
 72
     5
  1
{\fメイリオ|b0|i0|c0|p0;材質：アルミ\P　　　(A6063S-T）\P\P仕上：SVシルバー\P　　　FSフロストシルバー}
 73
     1
 44
1.0
1001
ACAD
1000
ACAD_MTEXT_DEFINED_HEIGHT_BEGIN
1070
    46
1040
16.79122916666667
1000
ACAD_MTEXT_DEFINED_HEIGHT_END
  0
DIMENSION
  5
1A70
102
{ACAD_XDICTIONARY
360
1A71
102
}
330
1F
100
AcDbEntity
  8
寸法
 62
     3
100
AcDbDimension
280
     0
  2
*D66
 10
88.22775398155824
 20
87.76085553311681
 30
0.0
 11
88.22775398155824
 21
93.26085553311681
 31
0.0
 70
   160
 71
     5
 42
11.0
 73
     0
 74
     0
 75
     0
  3
ISO-25
100
AcDbAlignedDimension
 13
92.57583178925864
 23
98.76085553311681
 33
0.0
 14
92.2380109040422
 24
87.76085553311681
 34
0.0
 50
90.0
100
AcDbRotatedDimension
1001
ACAD
1000
DSTYLE
1002
{
1070
   140
1040
2.0
1002
}
  0
LINE
  5
1D62
102
{ACAD_REACTORS
330
1DED
102
}
330
1F
100
AcDbEntity
  8
金属部分
 48
0.7
100
AcDbLine
 10
94.33615102048373
 20
87.76085553311681
 30
0.0
 11
95.13615102048372
 21
87.76085553311681
 31
0.0
  0
LINE
  5
1D63
330
1F
100
AcDbEntity
  8
金属部分
 48
0.7
100
AcDbLine
 10
95.33615102048373
 20
90.76085553311681
 30
0.0
 11
97.06001543839083
 21
90.76085553311681
 31
0.0
  0
LINE
  5
1D64
330
1F
100
AcDbEntity
  8
金属部分
 48
0.7
100
AcDbLine
 10
98.71228660257661
 20
90.76085553311681
 30
0.0
 11
100.0600154383908
 21
90.76085553311681
 31
0.0
  0
LINE
  5
1D65
330
1F
100
AcDbEntity
  8
金属部分
 48
0.7
100
AcDbLine
 10
101.7122866025766
 20
90.76085553311681
 30
0.0
 11
103.0600154383908
 21
90.76085553311681
 31
0.0
  0
LINE
  5
1D66
330
1F
100
AcDbEntity
  8
金属部分
 48
0.7
100
AcDbLine
 10
104.7122866025766
 20
90.76085553311681
 30
0.0
 11
106.0600154383906
 21
90.76085553311681
 31
0.0
  0
LINE
  5
1D67
330
1F
100
AcDbEntity
  8
金属部分
 48
0.7
100
AcDbLine
 10
107.7122866025769
 20
90.76085553311681
 30
0.0
 11
109.0600154383906
 21
90.76085553311684
 31
0.0
  0
LINE
  5
1D68
330
1F
100
AcDbEntity
  8
金属部分
 48
0.7
100
AcDbLine
 10
110.7122866025769
 20
90.76085553311684
 30
0.0
 11
112.0600154383906
 21
90.76085553311684
 31
0.0
  0
LINE
  5
1D69
330
1F
100
AcDbEntity
  8
金属部分
 48
0.7
100
AcDbLine
 10
113.7122866025769
 20
90.76085553311684
 30
0.0
 11
115.0600154383906
 21
90.76085553311681
 31
0.0
  0
LINE
  5
1D6A
330
1F
100
AcDbEntity
  8
金属部分
 48
0.7
100
AcDbLine
 10
116.7122866025769
 20
90.76085553311681
 30
0.0
 11
118.0600154383906
 21
90.76085553311681
 31
0.0
  0
LINE
  5
1D6B
330
1F
100
AcDbEntity
  8
金属部分
 48
0.7
100
AcDbLine
 10
119.7122866025769
 20
90.76085553311681
 30
0.0
 11
121.0600154383906
 21
90.76085553311681
 31
0.0
  0
LINE
  5
1D6C
330
1F
100
AcDbEntity
  8
金属部分
 48
0.7
100
AcDbLine
 10
122.7122866025769
 20
90.76085553311681
 30
0.0
 11
146.7361510204837
 21
90.76085553311681
 31
0.0
  0
LINE
  5
1D6D
330
1F
100
AcDbEntity
  8
金属部分
 48
0.7
100
AcDbLine
 10
124.129373273553
 20
92.76085553311681
 30
0.0
 11
112.1429287674144
 21
92.76085553311681
 31
0.0
  0
ARC
  5
1D6E
330
1F
100
AcDbEntity
  8
金属部分
 48
0.7
100
AcDbCircle
 10
112.1429287674144
 20
92.9608555331168
 30
0.0
 40
0.2
100
AcDbArc
 50
178.0908475670059
 51
270.0
  0
LINE
  5
1D6F
330
1F
100
AcDbEntity
  8
金属部分
 48
0.7
100
AcDbLine
 10
109.129373273553
 20
92.76085553311681
 30
0.0
 11
97.14292876741443
 21
92.76085553311681
 31
0.0
  0
LINE
  5
1D70
330
1F
100
AcDbEntity
  8
金属部分
 48
0.7
100
AcDbLine
 10
96.92937327355301
 20
98.76085553311681
 30
0.0
 11
94.33615102048373
 21
98.76085553311681
 31
0.0
  0
LINE
  5
1D71
330
1F
100
AcDbEntity
  8
金属部分
 48
0.7
100
AcDbLine
 10
109.3429287674144
 20
98.76085553311681
 30
0.0
 11
111.929373273553
 21
98.76085553311681
 31
0.0
  0
LINE
  5
1D72
330
1F
100
AcDbEntity
  8
金属部分
 48
0.7
100
AcDbLine
 10
124.3429287674144
 20
98.76085553311681
 30
0.0
 11
126.929373273553
 21
98.76085553311681
 31
0.0
  0
LINE
  5
1D73
102
{ACAD_REACTORS
330
1DFD
330
1E1D
102
}
330
1F
100
AcDbEntity
  8
金属部分
 48
0.7
100
AcDbLine
 10
94.13615102048372
 20
87.9608555331168
 30
0.0
 11
94.13615102048372
 21
98.56085553311682
 31
0.0
  0
ARC
  5
1D74
330
1F
100
AcDbEntity
  8
金属部分
 48
0.7
100
AcDbCircle
 10
94.33615102048373
 20
87.9608555331168
 30
0.0
 40
0.2
100
AcDbArc
 50
180.0
 51
270.0
  0
LINE
  5
1D75
102
{ACAD_REACTORS
330
1DED
102
}
330
1F
100
AcDbEntity
  8
金属部分
 48
0.7
100
AcDbLine
 10
95.33615102048373
 20
87.9608555331168
 30
0.0
 11
95.33615102048373
 21
90.76085553311681
 31
0.0
  0
ARC
  5
1D76
102
{ACAD_REACTORS
330
1DFD
102
}
330
1F
100
AcDbEntity
  8
金属部分
 48
0.7
100
AcDbCircle
 10
95.13615102048372
 20
87.9608555331168
 30
0.0
 40
0.2
100
AcDbArc
 50
270.0
 51
0.0
  0
LINE
  5
1D77
330
1F
100
AcDbEntity
  8
金属部分
 48
0.7
100
AcDbLine
 10
97.12926225494884
 20
98.5541925670703
 30
0.0
 11
96.9430397860186
 21
92.96751849916332
 31
0.0
  0
ARC
  5
1D78
330
1F
100
AcDbEntity
  8
金属部分
 48
0.7
100
AcDbCircle
 10
97.14292876741443
 20
92.9608555331168
 30
0.0
 40
0.2
100
AcDbArc
 50
178.0908475670059
 51
270.0
  0
ARC
  5
1D79
330
1F
100
AcDbEntity
  8
金属部分
 48
0.7
100
AcDbCircle
 10
96.92937327355301
 20
98.56085553311682
 30
0.0
 40
0.2
100
AcDbArc
 50
358.0908475670059
 51
90.0
  0
LINE
  5
1D7A
330
1F
100
AcDbEntity
  8
金属部分
 48
0.7
100
AcDbLine
 10
109.1430397860186
 20
98.5541925670703
 30
0.0
 11
109.3292622549488
 21
92.96751849916332
 31
0.0
  0
ARC
  5
1D7B
330
1F
100
AcDbEntity
  8
金属部分
 48
0.7
100
AcDbCircle
 10
109.3429287674144
 20
98.56085553311682
 30
0.0
 40
0.2
100
AcDbArc
 50
90.0
 51
181.9091524329941
  0
ARC
  5
1D7C
330
1F
100
AcDbEntity
  8
金属部分
 48
0.7
100
AcDbCircle
 10
109.129373273553
 20
92.9608555331168
 30
0.0
 40
0.2
100
AcDbArc
 50
270.0
 51
1.909152433002208
  0
LINE
  5
1D7D
330
1F
100
AcDbEntity
  8
金属部分
 48
0.7
100
AcDbLine
 10
111.9430397860186
 20
92.96751849916332
 30
0.0
 11
112.1292622549488
 21
98.5541925670703
 31
0.0
  0
ARC
  5
1D7E
330
1F
100
AcDbEntity
  8
金属部分
 48
0.7
100
AcDbCircle
 10
111.929373273553
 20
98.56085553311682
 30
0.0
 40
0.2
100
AcDbArc
 50
358.0908475670059
 51
90.0
  0
LINE
  5
1D7F
330
1F
100
AcDbEntity
  8
金属部分
 48
0.7
100
AcDbLine
 10
124.1430397860186
 20
98.5541925670703
 30
0.0
 11
124.3292622549488
 21
92.96751849916332
 31
0.0
  0
ARC
  5
1D80
330
1F
100
AcDbEntity
  8
金属部分
 48
0.7
100
AcDbCircle
 10
124.3429287674144
 20
98.56085553311682
 30
0.0
 40
0.2
100
AcDbArc
 50
90.0
 51
181.9091524329941
  0
ARC
  5
1D81
330
1F
100
AcDbEntity
  8
金属部分
 48
0.7
100
AcDbCircle
 10
124.129373273553
 20
92.9608555331168
 30
0.0
 40
0.2
100
AcDbArc
 50
270.0
 51
1.909152433002208
  0
LINE
  5
1D82
330
1F
100
AcDbEntity
  8
金属部分
 48
0.7
100
AcDbLine
 10
126.9426353424371
 20
92.95538519171883
 30
0.0
 11
127.1292622549488
 21
98.5541925670703
 31
0.0
  0
ARC
  5
1D83
330
1F
100
AcDbEntity
  8
金属部分
 48
0.7
100
AcDbCircle
 10
127.1425243238329
 20
92.94872222567231
 30
0.0
 40
0.2
100
AcDbArc
 50
178.0908475670059
 51
266.5338842287081
  0
ARC
  5
1D84
102
{ACAD_REACTORS
330
1DD5
102
}
330
1F
100
AcDbEntity
  8
金属部分
 48
0.7
100
AcDbCircle
 10
126.929373273553
 20
98.56085553311682
 30
0.0
 40
0.2
100
AcDbArc
 50
358.0908475670059
 51
90.0
  0
ARC
  5
1D85
330
1F
100
AcDbEntity
  8
金属部分
 48
0.7
100
AcDbCircle
 10
94.33615102048377
 20
98.5608555331168
 30
0.0
 40
0.2
100
AcDbArc
 50
90.00000000001221
 51
179.9999999999919
  0
ARC
  5
1D86
102
{ACAD_REACTORS
330
1E1D
102
}
330
1F
100
AcDbEntity
  8
金属部分
 48
0.7
100
AcDbCircle
 10
146.7361510204837
 20
91.16085553311682
 30
0.0
 40
0.4
100
AcDbArc
 50
270.0
 51
86.53388422870792
  0
LINE
  5
1D87
330
1F
100
AcDbEntity
  8
金属部分
 48
0.7
100
AcDbLine
 10
127.1304326757125
 20
92.7490880801818
 30
0.0
 11
146.7603343167246
 21
91.56012382409786
 31
0.0
  0
ARC
  5
1D88
330
1F
100
AcDbEntity
  8
金属部分
 48
0.7
100
AcDbCircle
 10
97.88615102048372
 20
89.97335553311682
 30
0.0
 40
1.087499999999991
100
AcDbArc
 50
50.08438359200831
 51
129.9156164079917
  0
ARC
  5
1D89
330
1F
100
AcDbEntity
  8
金属部分
 48
0.7
100
AcDbCircle
 10
98.71228660257661
 20
90.96085553311683
 30
0.0
 40
0.2
100
AcDbArc
 50
230.0843835920083
 51
270.0
  0
ARC
  5
1D8A
330
1F
100
AcDbEntity
  8
金属部分
 48
0.7
100
AcDbCircle
 10
97.06001543839083
 20
90.96085553311683
 30
0.0
 40
0.2
100
AcDbArc
 50
270.0
 51
309.9156164079886
  0
ARC
  5
1D8B
330
1F
100
AcDbEntity
  8
金属部分
 48
0.7
100
AcDbCircle
 10
100.8861510204837
 20
89.97335553311682
 30
0.0
 40
1.087499999999991
100
AcDbArc
 50
50.08438359200831
 51
129.9156164079917
  0
ARC
  5
1D8C
330
1F
100
AcDbEntity
  8
金属部分
 48
0.7
100
AcDbCircle
 10
101.7122866025766
 20
90.96085553311683
 30
0.0
 40
0.2
100
AcDbArc
 50
230.0843835920083
 51
270.0
  0
ARC
  5
1D8D
330
1F
100
AcDbEntity
  8
金属部分
 48
0.7
100
AcDbCircle
 10
100.0600154383908
 20
90.96085553311683
 30
0.0
 40
0.2
100
AcDbArc
 50
270.0
 51
309.9156164079886
  0
ARC
  5
1D8E
330
1F
100
AcDbEntity
  8
金属部分
 48
0.7
100
AcDbCircle
 10
103.8861510204837
 20
89.97335553311682
 30
0.0
 40
1.087499999999991
100
AcDbArc
 50
50.08438359200831
 51
129.9156164079917
  0
ARC
  5
1D8F
330
1F
100
AcDbEntity
  8
金属部分
 48
0.7
100
AcDbCircle
 10
104.7122866025766
 20
90.96085553311683
 30
0.0
 40
0.2
100
AcDbArc
 50
230.0843835920114
 51
270.0
  0
ARC
  5
1D90
330
1F
100
AcDbEntity
  8
金属部分
 48
0.7
100
AcDbCircle
 10
103.0600154383908
 20
90.96085553311683
 30
0.0
 40
0.2
100
AcDbArc
 50
270.0
 51
309.9156164079886
  0
ARC
  5
1D91
330
1F
100
AcDbEntity
  8
金属部分
 48
0.7
100
AcDbCircle
 10
106.8861510204837
 20
89.97335553311682
 30
0.0
 40
1.087499999999991
100
AcDbArc
 50
50.0843835919993
 51
129.9156164080013
  0
ARC
  5
1D92
330
1F
100
AcDbEntity
  8
金属部分
 48
0.7
100
AcDbCircle
 10
107.7122866025769
 20
90.96085553311683
 30
0.0
 40
0.2
100
AcDbArc
 50
230.084383592
 51
270.0
  0
ARC
  5
1D93
330
1F
100
AcDbEntity
  8
金属部分
 48
0.7
100
AcDbCircle
 10
106.0600154383906
 20
90.96085553311683
 30
0.0
 40
0.2
100
AcDbArc
 50
270.0
 51
309.9156164080031
  0
ARC
  5
1D94
330
1F
100
AcDbEntity
  8
金属部分
 48
0.7
100
AcDbCircle
 10
109.8861510204837
 20
89.97335553311682
 30
0.0
 40
1.087499999999991
100
AcDbArc
 50
50.0843835919993
 51
129.9156164080007
  0
ARC
  5
1D95
330
1F
100
AcDbEntity
  8
金属部分
 48
0.7
100
AcDbCircle
 10
110.7122866025769
 20
90.96085553311683
 30
0.0
 40
0.2
100
AcDbArc
 50
230.084383592
 51
270.0
  0
ARC
  5
1D96
330
1F
100
AcDbEntity
  8
金属部分
 48
0.7
100
AcDbCircle
 10
109.0600154383906
 20
90.96085553311683
 30
0.0
 40
0.2
100
AcDbArc
 50
270.0
 51
309.915616408
  0
ARC
  5
1D97
330
1F
100
AcDbEntity
  8
金属部分
 48
0.7
100
AcDbCircle
 10
112.8861510204837
 20
89.97335553311682
 30
0.0
 40
1.087499999999991
100
AcDbArc
 50
50.0843835919993
 51
129.9156164080007
  0
ARC
  5
1D98
330
1F
100
AcDbEntity
  8
金属部分
 48
0.7
100
AcDbCircle
 10
113.7122866025769
 20
90.96085553311683
 30
0.0
 40
0.2
100
AcDbArc
 50
230.084383592
 51
270.0
  0
ARC
  5
1D99
330
1F
100
AcDbEntity
  8
金属部分
 48
0.7
100
AcDbCircle
 10
112.0600154383906
 20
90.96085553311683
 30
0.0
 40
0.2
100
AcDbArc
 50
270.0
 51
309.915616408
  0
ARC
  5
1D9A
330
1F
100
AcDbEntity
  8
金属部分
 48
0.7
100
AcDbCircle
 10
115.8861510204837
 20
89.97335553311682
 30
0.0
 40
1.087499999999991
100
AcDbArc
 50
50.0843835919993
 51
129.9156164080007
  0
ARC
  5
1D9B
330
1F
100
AcDbEntity
  8
金属部分
 48
0.7
100
AcDbCircle
 10
116.7122866025769
 20
90.96085553311683
 30
0.0
 40
0.2
100
AcDbArc
 50
230.084383592
 51
270.0
  0
ARC
  5
1D9C
330
1F
100
AcDbEntity
  8
金属部分
 48
0.7
100
AcDbCircle
 10
115.0600154383906
 20
90.96085553311683
 30
0.0
 40
0.2
100
AcDbArc
 50
270.0
 51
309.9156164080031
  0
ARC
  5
1D9D
330
1F
100
AcDbEntity
  8
金属部分
 48
0.7
100
AcDbCircle
 10
118.8861510204837
 20
89.97335553311682
 30
0.0
 40
1.087499999999991
100
AcDbArc
 50
50.08438359199873
 51
129.9156164080007
  0
ARC
  5
1D9E
330
1F
100
AcDbEntity
  8
金属部分
 48
0.7
100
AcDbCircle
 10
119.7122866025769
 20
90.96085553311683
 30
0.0
 40
0.2
100
AcDbArc
 50
230.084383592
 51
270.0
  0
ARC
  5
1D9F
330
1F
100
AcDbEntity
  8
金属部分
 48
0.7
100
AcDbCircle
 10
118.0600154383906
 20
90.96085553311683
 30
0.0
 40
0.2
100
AcDbArc
 50
270.0
 51
309.9156164080031
  0
ARC
  5
1DA0
330
1F
100
AcDbEntity
  8
金属部分
 48
0.7
100
AcDbCircle
 10
121.8861510204837
 20
89.97335553311682
 30
0.0
 40
1.087499999999991
100
AcDbArc
 50
50.0843835919993
 51
129.9156164080007
  0
ARC
  5
1DA1
330
1F
100
AcDbEntity
  8
金属部分
 48
0.7
100
AcDbCircle
 10
122.7122866025769
 20
90.96085553311683
 30
0.0
 40
0.2
100
AcDbArc
 50
230.084383592
 51
270.0
  0
ARC
  5
1DA2
330
1F
100
AcDbEntity
  8
金属部分
 48
0.7
100
AcDbCircle
 10
121.0600154383906
 20
90.96085553311683
 30
0.0
 40
0.2
100
AcDbArc
 50
270.0
 51
309.915616408
  0
LINE
  5
1DBE
330
1F
100
AcDbEntity
  8
TOS_M1
  6
ACAD_ISO07W100
 48
0.5
100
AcDbLine
 10
95.33615102048371
 20
88.43949385630037
 30
0.0
 11
118.1361510204837
 21
88.43949385630037
 31
0.0
  0
MTEXT
  5
1DBF
330
1F
100
AcDbEntity
  8
TOS_M1
  6
Continuous
100
AcDbMText
 10
107.0593055632829
 20
88.05055524868068
 30
0.0
 40
2.0
 41
5.846859776000002
 46
2.0
 71
     1
 72
     5
  1
{23}
 73
     1
 44
1.0
1001
ACAD
1000
ACAD_MTEXT_DEFINED_HEIGHT_BEGIN
1070
    46
1040
2.0
1000
ACAD_MTEXT_DEFINED_HEIGHT_END
  0
LINE
  5
1DC4
102
{ACAD_REACTORS
330
1DC7
102
}
330
1F
100
AcDbEntity
  8
TOS_M1
  6
Continuous
100
AcDbLine
 10
117.6361510204837
 20
89.76085553311682
 30
0.0
 11
118.6361510204837
 21
89.76085553311682
 31
0.0
  0
LINE
  5
1DC5
102
{ACAD_REACTORS
330
1DC7
102
}
330
1F
100
AcDbEntity
  8
TOS_M1
  6
Continuous
100
AcDbLine
 10
118.1361510204837
 20
88.76085553311682
 30
0.0
 11
117.6361510204837
 21
89.76085553311682
 31
0.0
  0
LINE
  5
1DC6
102
{ACAD_REACTORS
330
1DC7
102
}
330
1F
100
AcDbEntity
  8
TOS_M1
  6
Continuous
100
AcDbLine
 10
118.1361510204837
 20
88.76085553311682
 30
0.0
 11
118.6361510204837
 21
89.76085553311682
 31
0.0
  0
HATCH
  5
1DC7
330
1F
100
AcDbEntity
  8
TOS_M1
  6
Continuous
100
AcDbHatch
 10
0.0
 20
0.0
 30
0.0
210
0.0
220
0.0
230
1.0
  2
SOLID
 70
     1
 71
     1
 91
        1
 92
        7
 72
     0
 73
     1
 93
        3
 10
118.1361510204837
 20
88.76085553311682
 10
118.6361510204837
 20
89.76085553311682
 10
117.6361510204837
 20
89.76085553311682
 97
        3
330
1DC6
330
1DC4
330
1DC5
 75
     0
 76
     1
 47
0.0
 98
        1
 10
118.2895033139846
 20
89.50654360418172
1001
ACAD
1010
0.0
1020
0.0
1030
0.0
  0
LINE
  5
1DCE
102
{ACAD_REACTORS
330
1DD1
102
}
330
1F
100
AcDbEntity
  8
TOS_M1
  6
Continuous
100
AcDbLine
 10
133.6359680513818
 20
89.76085553311681
 30
0.0
 11
134.6359680513818
 21
89.76085553311681
 31
0.0
  0
LINE
  5
1DCF
102
{ACAD_REACTORS
330
1DD1
102
}
330
1F
100
AcDbEntity
  8
TOS_M1
  6
Continuous
100
AcDbLine
 10
134.1359680513818
 20
88.76085553311681
 30
0.0
 11
133.6359680513818
 21
89.76085553311681
 31
0.0
  0
LINE
  5
1DD0
102
{ACAD_REACTORS
330
1DD1
102
}
330
1F
100
AcDbEntity
  8
TOS_M1
  6
Continuous
100
AcDbLine
 10
134.1359680513818
 20
88.76085553311681
 30
0.0
 11
134.6359680513818
 21
89.76085553311681
 31
0.0
  0
HATCH
  5
1DD1
330
1F
100
AcDbEntity
  8
TOS_M1
  6
Continuous
100
AcDbHatch
 10
0.0
 20
0.0
 30
0.0
210
0.0
220
0.0
230
1.0
  2
SOLID
 70
     1
 71
     1
 91
        1
 92
        7
 72
     0
 73
     1
 93
        3
 10
134.1359680513818
 20
88.76085553311681
 10
134.6359680513818
 20
89.76085553311681
 10
133.6359680513818
 20
89.76085553311681
 97
        3
330
1DD0
330
1DCE
330
1DCF
 75
     0
 76
     1
 47
0.0
 98
        1
 10
134.2893203448827
 20
89.5065436041817
1001
ACAD
1010
0.0
1020
0.0
1030
0.0
  0
DIMENSION
  5
1DD3
102
{ACAD_REACTORS
330
1DD5
102
}
102
{ACAD_XDICTIONARY
360
1DD4
102
}
330
1F
100
AcDbEntity
  8
寸法
100
AcDbDimension
280
     0
  2
*D103
 10
131.6778518814469
 20
92.7608880801818
 30
0.0
 11
131.6778518814469
 21
95.7608718066493
 31
0.0
 70
   160
 71
     5
 42
5.999967452935024
 73
     0
 74
     0
 75
     0
  3
ISO-25
100
AcDbAlignedDimension
 13
126.929373273553
 23
98.76085553311682
 33
0.0
 14
127.1304326757125
 24
92.7608880801818
 34
0.0
 50
90.0
100
AcDbRotatedDimension
  0
LINE
  5
1DE3
330
1F
100
AcDbEntity
  8
TOS_M1
  6
ACAD_ISO07W100
 48
0.5
100
AcDbLine
 10
95.33615102048374
 20
85.45238841097625
 30
0.0
 11
134.1359680513818
 21
85.45238841097625
 31
0.0
  0
MTEXT
  5
1DEA
330
1F
100
AcDbEntity
  8
TOS_M1
  6
Continuous
100
AcDbMText
 10
112.8172338605301
 20
85.45238841097624
 30
0.0
 40
2.0
 41
5.846859776000002
 46
2.0
 71
     1
 72
     5
  1
{39}
 73
     1
 44
1.0
1001
ACAD
1000
ACAD_MTEXT_DEFINED_HEIGHT_BEGIN
1070
    46
1040
2.0
1000
ACAD_MTEXT_DEFINED_HEIGHT_END
  0
DIMENSION
  5
1DEB
102
{ACAD_REACTORS
330
1DED
102
}
102
{ACAD_XDICTIONARY
360
1DEC
102
}
330
1F
100
AcDbEntity
  8
寸法
100
AcDbDimension
280
     0
  2
*D104
 10
96.7046171249605
 20
87.76085553311681
 30
0.0
 11
98.84602534349459
 21
89.10582441326272
 31
0.0
 70
   160
 71
     5
 42
3.0
 73
     0
 74
     1
 75
     1
  3
ISO-25
100
AcDbAlignedDimension
 13
95.33615102048373
 23
90.76085553311681
 33
0.0
 14
95.13615102048372
 24
87.76085553311681
 34
0.0
 50
90.0
100
AcDbRotatedDimension
  0
DIMENSION
  5
1DFB
102
{ACAD_REACTORS
330
1DFD
102
}
102
{ACAD_XDICTIONARY
360
1DFC
102
}
330
1F
100
AcDbEntity
  8
寸法
100
AcDbDimension
280
     0
  2
*D105
 10
95.33615102048373
 20
83.21840885077123
 30
0.0
 11
94.76453566351773
 21
80.64628207435214
 31
0.0
 70
   160
 71
     5
 42
1.200000000000003
 73
     0
 74
     0
 75
     0
  3
ISO-25
100
AcDbAlignedDimension
 13
94.13615102048372
 23
87.9608555331168
 33
0.0
 14
95.33615102048373
 24
87.9608555331168
 34
0.0
100
AcDbRotatedDimension
  0
DIMENSION
  5
1E0B
102
{ACAD_XDICTIONARY
360
1E0C
102
}
330
1F
100
AcDbEntity
  8
寸法
100
AcDbDimension
280
     0
  2
*D106
 10
151.6189151743126
 20
90.76085553311681
 30
0.0
 11
155.0267483803812
 21
91.15970097733586
 31
0.0
 70
   160
 71
     5
 42
0.7992682909810469
 73
     0
 74
     0
 75
     0
  3
ISO-25
100
AcDbAlignedDimension
 13
147.3853343167246
 23
91.56012382409786
 33
0.0
 14
147.3611510204837
 24
90.76085553311681
 34
0.0
 50
90.0
100
AcDbRotatedDimension
  0
DIMENSION
  5
1E1B
102
{ACAD_REACTORS
330
1E1D
102
}
102
{ACAD_XDICTIONARY
360
1E1C
102
}
330
1F
100
AcDbEntity
  8
寸法
100
AcDbDimension
280
     0
  2
*D107
 10
147.1361510204837
 20
109.3721698927886
 30
0.0
 11
120.6361510204837
 21
109.3721698927886
 31
0.0
 70
   160
 71
     5
 42
52.99999999999999
 73
     0
 74
     0
 75
     0
  3
ISO-25
100
AcDbAlignedDimension
 13
94.13615102048372
 23
98.56085553311682
 33
0.0
 14
147.1361510204837
 24
91.16085553311682
 34
0.0
100
AcDbRotatedDimension
  0
DIMENSION
  5
1E2B
102
{ACAD_XDICTIONARY
360
1E2C
102
}
330
1F
100
AcDbEntity
  8
寸法
100
AcDbDimension
280
     0
  2
*D108
 10
97.13615102048371
 20
102.4215811277616
 30
0.0
 11
95.63615102048374
 21
104.0342132164001
 31
0.0
 70
   160
 71
     5
 42
2.999999999999986
 73
     0
 74
     1
 75
     1
  3
ISO-25
100
AcDbAlignedDimension
 13
94.13615102048372
 23
99.18585553311682
 33
0.0
 14
97.13615102048371
 24
99.84940373419641
 34
0.0
100
AcDbRotatedDimension
  0
DIMENSION
  5
1E3B
330
1F
100
AcDbEntity
  8
寸法
100
AcDbDimension
280
     0
  2
*D109
 10
109.1361510204837
 20
102.4215811277616
 30
0.0
 11
103.1361510204837
 21
104.0465811277616
 31
0.0
 70
    32
 71
     5
 42
12.00000000000001
 73
     0
 74
     0
 75
     0
  3
ISO-25
100
AcDbAlignedDimension
 13
97.13615102048371
 23
101.3984585892167
 33
0.0
 14
109.1361510204837
 24
99.84940373419641
 34
0.0
100
AcDbRotatedDimension
  0
DIMENSION
  5
1E49
330
1F
100
AcDbEntity
  8
寸法
100
AcDbDimension
280
     0
  2
*D110
 10
112.1361510204838
 20
102.4215811277616
 30
0.0
 11
110.6361510204837
 21
104.0465811277616
 31
0.0
 70
    32
 71
     5
 42
3.000000000000043
 73
     0
 74
     1
 75
     1
  3
ISO-25
100
AcDbAlignedDimension
 13
109.1361510204837
 23
102.4215811277616
 33
0.0
 14
112.1361510204838
 24
99.84940373419641
 34
0.0
100
AcDbRotatedDimension
  0
DIMENSION
  5
1E65
330
1F
100
AcDbEntity
  8
寸法
100
AcDbDimension
280
     0
  2
*D112
 10
124.1361510204837
 20
102.4215811277616
 30
0.0
 11
118.1361510204838
 21
104.0465811277616
 31
0.0
 70
    32
 71
     5
 42
11.99999999999997
 73
     0
 74
     0
 75
     0
  3
ISO-25
100
AcDbAlignedDimension
 13
112.1361510204838
 23
102.4215811277616
 33
0.0
 14
124.1361510204837
 24
99.84940373419641
 34
0.0
100
AcDbRotatedDimension
  0
DIMENSION
  5
1E73
330
1F
100
AcDbEntity
  8
寸法
100
AcDbDimension
280
     0
  2
*D113
 10
127.1361510204838
 20
102.4215811277616
 30
0.0
 11
125.6361510204838
 21
104.0465811277616
 31
0.0
 70
    32
 71
     5
 42
3.000000000000028
 73
     0
 74
     1
 75
     1
  3
ISO-25
100
AcDbAlignedDimension
 13
124.1361510204837
 23
99.84940373419641
 33
0.0
 14
127.1361510204838
 24
99.84940373419641
 34
0.0
100
AcDbRotatedDimension
  0
DIMENSION
  5
1E81
330
1F
100
AcDbEntity
  8
寸法
100
AcDbDimension
280
     0
  2
*D114
 10
147.1361510204837
 20
102.4215811277616
 30
0.0
 11
137.1361510204837
 21
104.0465811277616
 31
0.0
 70
    32
 71
     5
 42
19.99999999999994
 73
     0
 74
     0
 75
     0
  3
ISO-25
100
AcDbAlignedDimension
 13
127.1361510204838
 23
102.4215811277616
 33
0.0
 14
147.1361510204837
 24
91.78585553311682
 34
0.0
100
AcDbRotatedDimension
  0
LINE
  5
1EE6
330
1F
100
AcDbEntity
  8
枠
  6
Continuous
100
AcDbLine
 10
238.5
 20
34.37291584484291
 30
0.0
 11
283.5
 21
34.37291584484291
 31
0.0
  0
LINE
  5
1EE7
330
1F
100
AcDbEntity
  8
枠
  6
Continuous
100
AcDbLine
 10
238.5
 20
44.38960476803794
 30
0.0
 11
283.5
 21
44.38960476803794
 31
0.0
  0
MTEXT
  5
1EE8
330
1F
100
AcDbEntity
  8
社名
100
AcDbMText
 10
238.5
 20
29.86191229983774
 30
0.0
 40
3.0
 41
46.0
 46
3.375
 71
     1
 72
     5
  1
{\pxqc;\fＭＳ Ｐゴシック|b0|i0|c0|p0;株式会社ＡＳＳＩＳＴ}
 73
     1
 44
1.0
1001
ACAD
1000
ACAD_MTEXT_DEFINED_HEIGHT_BEGIN
1070
    46
1040
3.375
1000
ACAD_MTEXT_DEFINED_HEIGHT_END
  0
MTEXT
  5
1EE9
330
1F
100
AcDbEntity
  8
文字
100
AcDbMText
 10
240.5774350305441
 20
43.08955921885172
 30
0.0
 40
2.5
 41
9.970036363636382
 46
2.8275
 71
     1
 72
     5
  1
{\fＭＳ Ｐゴシック|b0|i0|c0|p0;縮尺}
 73
     1
 44
1.0
1001
ACAD
1000
ACAD_MTEXT_DEFINED_HEIGHT_BEGIN
1070
    46
1040
2.8275
1000
ACAD_MTEXT_DEFINED_HEIGHT_END
  0
MTEXT
  5
1EEA
330
1F
100
AcDbEntity
  8
文字
100
AcDbMText
 10
253.7855836701089
 20
38.65844413562513
 30
0.0
 40
2.5
 41
28.36545556978234
 46
2.5
 71
     1
 72
     5
  1
{\fＭＳ Ｐゴシック|b0|i0|c0|p0;１：１ }
 73
     1
 44
1.0
1001
ACAD
1000
ACAD_MTEXT_DEFINED_HEIGHT_BEGIN
1070
    46
1040
2.5
1000
ACAD_MTEXT_DEFINED_HEIGHT_END
  0
LINE
  5
1EEB
330
1F
100
AcDbEntity
  8
枠
  6
Continuous
100
AcDbLine
 10
238.5
 20
54.38960476803794
 30
0.0
 11
283.5
 21
54.38960476803794
 31
0.0
  0
MTEXT
  5
1EEC
330
1F
100
AcDbEntity
  8
文字
100
AcDbMText
 10
240.5774350305441
 20
53.08955921885172
 30
0.0
 40
2.5
 41
9.970036363636382
 46
2.5
 71
     1
 72
     5
  1
{\fＭＳ Ｐゴシック|b0|i0|c0|p0;Date}
 73
     1
 44
1.0
1001
ACAD
1000
ACAD_MTEXT_DEFINED_HEIGHT_BEGIN
1070
    46
1040
2.5
1000
ACAD_MTEXT_DEFINED_HEIGHT_END
  0
MTEXT
  5
1EED
330
1F
100
AcDbEntity
  8
文字
100
AcDbMText
 10
248.6251641599999
 20
48.65844413562513
 30
0.0
 40
2.5
 41
31.83275012571448
 46
2.627860447667875
 71
     1
 72
     5
  1
{\fＭＳ Ｐゴシック|b0|i0|c0|p0;2020年11月4日}
 73
     1
 44
1.0
1001
ACAD
1000
ACAD_MTEXT_DEFINED_HEIGHT_BEGIN
1070
    46
1040
2.627860447667875
1000
ACAD_MTEXT_DEFINED_HEIGHT_END
  0
MTEXT
  5
1EEE
330
1F
100
AcDbEntity
  8
社名
100
AcDbMText
 10
238.5
 20
22.08027172995764
 30
0.0
 40
5.0
 41
45.0
 46
5.0
 71
     1
 72
     5
  1
{\pxqc;\fＭＳ Ｐゴシック|b0|i0|c0|p0;\T1.15;\W1.3;Ａｆｏｌａ}
 73
     1
 44
1.0
1001
ACAD
1000
ACAD_MTEXT_DEFINED_HEIGHT_BEGIN
1070
    46
1040
5.0
1000
ACAD_MTEXT_DEFINED_HEIGHT_END
  0
LINE
  5
1F0E
330
1F
100
AcDbEntity
  8
用紙範囲
  6
HIDDEN
100
AcDbLine
 10
294.5
 20
207.5
 30
0.0
 11
294.5
 21
2.5
 31
0.0
  0
LINE
  5
1F0F
330
1F
100
AcDbEntity
  8
用紙範囲
  6
HIDDEN
100
AcDbLine
 10
2.5
 20
2.5
 30
0.0
 11
294.5
 21
2.5
 31
0.0
  0
LINE
  5
1F2F
330
1F
100
AcDbEntity
  8
用紙範囲
  6
HIDDEN
100
AcDbLine
 10
2.5
 20
207.5
 30
0.0
 11
2.5
 21
2.500000000000028
 31
0.0
  0
LINE
  5
1F30
330
1F
100
AcDbEntity
  8
用紙範囲
  6
HIDDEN
100
AcDbLine
 10
2.5
 20
207.5
 30
0.0
 11
294.5
 21
207.5
 31
0.0
  0
ENDSEC
  0
SECTION
  2
OBJECTS
  0
DICTIONARY
  5
C
330
0
100
AcDbDictionary
281
     1
  3
ACAD_COLOR
350
F58
  3
ACAD_DETAILVIEWSTYLE
350
A4E
  3
ACAD_GROUP
350
D
  3
ACAD_IMAGE_VARS
350
96F
  3
ACAD_LAYOUT
350
1A
  3
ACAD_MATERIAL
350
A42
  3
ACAD_MLEADERSTYLE
350
A48
  3
ACAD_MLINESTYLE
350
17
  3
ACAD_PLOTSETTINGS
350
19
  3
ACAD_PLOTSTYLENAME
350
E
  3
ACAD_SCALELIST
350
935
  3
ACAD_SECTIONVIEWSTYLE
350
A4F
  3
ACAD_TABLESTYLE
350
A46
  3
ACAD_VISUALSTYLE
350
A29
  3
ACDB_RECOMPOSE_DATA
350
1F36
  3
AcDbVariableDictionary
350
3E1
  3
APPDATA
350
96E
  0
SUN
  5
A4A
330
934
100
AcDbSun
 90
        1
290
     0
 63
     7
421
 16777215
 40
1.0
291
     1
 91
  2455826
 92
 54000000
292
     0
 70
     2
 71
   256
280
     1
  0
DICTIONARY
  5
970
330
2
100
AcDbDictionary
280
     1
281
     1
  3
ACAD_LAYERSTATES
360
971
  3
ACLYDICTIONARY
360
D28
  0
DICTIONARY
  5
1A71
330
1A70
100
AcDbDictionary
280
     1
281
     1
  0
DICTIONARY
  5
1DD4
330
1DD3
100
AcDbDictionary
280
     1
281
     1
  3
ACAD_DIMASSOC
360
1DD5
  0
DICTIONARY
  5
1DEC
330
1DEB
100
AcDbDictionary
280
     1
281
     1
  3
ACAD_DIMASSOC
360
1DED
  0
DICTIONARY
  5
1DFC
330
1DFB
100
AcDbDictionary
280
     1
281
     1
  3
ACAD_DIMASSOC
360
1DFD
  0
DICTIONARY
  5
1E0C
330
1E0B
100
AcDbDictionary
280
     1
281
     1
  0
DICTIONARY
  5
1E1C
330
1E1B
100
AcDbDictionary
280
     1
281
     1
  3
ACAD_DIMASSOC
360
1E1D
  0
DICTIONARY
  5
1E2C
330
1E2B
100
AcDbDictionary
280
     1
281
     1
  0
DICTIONARY
  5
F58
102
{ACAD_REACTORS
330
C
102
}
330
C
100
AcDbDictionary
281
     1
  0
DICTIONARY
  5
A4E
102
{ACAD_REACTORS
330
C
102
}
330
C
100
AcDbDictionary
281
     1
  0
DICTIONARY
  5
D
102
{ACAD_REACTORS
330
C
102
}
330
C
100
AcDbDictionary
281
     1
  0
RASTERVARIABLES
  5
96F
102
{ACAD_REACTORS
330
C
102
}
330
C
100
AcDbRasterVariables
 90
        0
 70
     1
 71
     1
 72
     1
  0
DICTIONARY
  5
1A
102
{ACAD_REACTORS
330
C
102
}
330
C
100
AcDbDictionary
281
     1
  3
Model
350
22
  3
ﾚｲｱｳﾄ1
350
1E
  3
ﾚｲｱｳﾄ2
350
26
  0
DICTIONARY
  5
A42
102
{ACAD_REACTORS
330
C
102
}
330
C
100
AcDbDictionary
281
     1
  3
ByBlock
350
A44
  3
ByLayer
350
A43
  3
Global
350
A45
  0
DICTIONARY
  5
A48
102
{ACAD_REACTORS
330
C
102
}
330
C
100
AcDbDictionary
281
     1
  3
Standard
350
A49
  0
DICTIONARY
  5
17
102
{ACAD_REACTORS
330
C
102
}
330
C
100
AcDbDictionary
281
     1
  3
Standard
350
18
  0
DICTIONARY
  5
19
102
{ACAD_REACTORS
330
C
102
}
330
C
100
AcDbDictionary
281
     1
  0
ACDBDICTIONARYWDFLT
  5
E
102
{ACAD_REACTORS
330
C
102
}
330
C
100
AcDbDictionary
281
     1
  3
Normal
350
F
100
AcDbDictionaryWithDefault
340
F
  0
DICTIONARY
  5
935
102
{ACAD_REACTORS
330
C
102
}
330
C
100
AcDbDictionary
281
     1
  3
A0
350
936
  3
A1
350
937
  3
A2
350
938
  3
A3
350
939
  3
A4
350
93A
  3
A5
350
93B
  3
A6
350
93C
  3
A7
350
93D
  3
A8
350
93E
  3
A9
350
93F
  3
B0
350
940
  3
B1
350
941
  3
B2
350
942
  3
B3
350
943
  3
B4
350
944
  3
B5
350
945
  3
B6
350
946
  3
B7
350
947
  3
B8
350
948
  3
B9
350
949
  3
C0
350
94A
  3
C1
350
94B
  3
C2
350
94C
  3
C3
350
94D
  3
C4
350
94E
  3
C5
350
94F
  3
C6
350
950
  3
C7
350
951
  3
C8
350
952
  3
C9
350
953
  3
D0
350
954
  3
D1
350
955
  3
D2
350
956
  0
DICTIONARY
  5
A4F
102
{ACAD_REACTORS
330
C
102
}
330
C
100
AcDbDictionary
281
     1
  0
DICTIONARY
  5
A46
102
{ACAD_REACTORS
330
C
102
}
330
C
100
AcDbDictionary
281
     1
  3
Standard
350
A47
  0
DICTIONARY
  5
A29
102
{ACAD_REACTORS
330
C
102
}
330
C
100
AcDbDictionary
281
     1
  3
2dWireframe
350
A2E
  3
Basic
350
A31
  3
Brighten
350
A35
  3
ColorChange
350
A39
  3
Conceptual
350
A33
  3
Dim
350
A34
  3
EdgeColorOff
350
A3C
  3
Facepattern
350
A38
  3
Flat
350
A2A
  3
FlatWithEdges
350
A2B
  3
Gouraud
350
A2C
  3
GouraudWithEdges
350
A2D
  3
Hidden
350
A30
  3
JitterOff
350
A3A
  3
Linepattern
350
A37
  3
OverhangOff
350
A3B
  3
Realistic
350
A32
  3
Shaded
350
A41
  3
Shaded with edges
350
A40
  3
Shades of Gray
350
A3D
  3
Sketchy
350
A3E
  3
Thicken
350
A36
  3
Wireframe
350
A2F
  3
X-Ray
350
A3F
  0
XRECORD
  5
1F36
102
{ACAD_REACTORS
330
C
102
}
330
C
100
AcDbXrecord
280
     1
 90
        1
330
A47
  0
DICTIONARY
  5
3E1
102
{ACAD_REACTORS
330
C
102
}
330
C
100
AcDbDictionary
281
     1
  3
CANNOSCALE
350
1623
  3
CMLEADERSTYLE
350
A4C
  3
CTABLESTYLE
350
A4B
  3
MSLTSCALE
350
A4D
  3
SORTENTS
350
3E2
  0
DICTIONARY
  5
96E
102
{ACAD_REACTORS
330
C
102
}
330
C
100
AcDbDictionary
281
     1
  0
DICTIONARY
  5
971
102
{ACAD_REACTORS
330
970
102
}
330
970
100
AcDbDictionary
281
     1
  0
DICTIONARY
  5
D28
102
{ACAD_REACTORS
330
970
102
}
330
970
100
AcDbDictionary
281
     1
1001
ACAD
1000
<All
  0
DIMASSOC
  5
1DD5
102
{ACAD_REACTORS
330
1DD4
102
}
330
1DD4
100
AcDbDimAssoc
330
1DD3
 90
        1
 70
     0
 71
     1
  1
AcDbOsnapPointRef
 72
     1
331
1D84
 73
     0
 91
        0
 40
0.0
 10
0.0
 20
0.0
 30
0.0
 75
     0
  0
DIMASSOC
  5
1DED
102
{ACAD_REACTORS
330
1DEC
102
}
330
1DEC
100
AcDbDimAssoc
330
1DEB
 90
        3
 70
     0
 71
     1
  1
AcDbOsnapPointRef
 72
     1
331
1D75
 73
     0
 91
        0
 40
0.0
 10
0.0
 20
0.0
 30
0.0
 75
     0
  1
AcDbOsnapPointRef
 72
     1
331
1D62
 73
     0
 91
        0
 40
0.0
 10
0.0
 20
0.0
 30
0.0
 75
     0
  0
DIMASSOC
  5
1DFD
102
{ACAD_REACTORS
330
1DFC
102
}
330
1DFC
100
AcDbDimAssoc
330
1DFB
 90
        3
 70
     0
 71
     1
  1
AcDbOsnapPointRef
 72
    13
331
1D73
 73
     0
 91
        0
 40
0.0
 10
0.0
 20
0.0
 30
0.0
 75
     0
  1
AcDbOsnapPointRef
 72
     1
331
1D76
 73
     0
 91
        0
 40
0.0
 10
0.0
 20
0.0
 30
0.0
 75
     0
  0
DIMASSOC
  5
1E1D
102
{ACAD_REACTORS
330
1E1C
102
}
330
1E1C
100
AcDbDimAssoc
330
1E1B
 90
        3
 70
     0
 71
     1
  1
AcDbOsnapPointRef
 72
     1
331
1D73
 73
     0
 91
        0
 40
0.0
 10
0.0
 20
0.0
 30
0.0
 75
     0
  1
AcDbOsnapPointRef
 72
     5
331
1D86
 73
     0
 91
        0
 40
6.283185307179586
 10
0.0
 20
0.0
 30
0.0
 75
     0
  0
LAYOUT
  5
22
102
{ACAD_REACTORS
330
1A
102
}
330
1A
100
AcDbPlotSettings
  1

  2
RICOH IPSiO NX850 RPCS
  4
A4
  6

 40
5.873749732971191
 41
5.873747825622559
 42
5.873748779296875
 43
5.873748779296875
 44
209.9733276367188
 45
296.9259948730469
 46
5.272914562225367
 47
-123.615617334779
 48
0.0
 49
0.0
140
0.0
141
0.0
142
1.0
143
1.0
 70
 11940
 72
     1
 73
     1
 74
     0
  7

 75
     0
 76
     0
 77
     2
 78
   300
147
1.0
148
117.7048664688427
149
-11.16
100
AcDbLayout
  1
Model
 70
     1
 71
     0
 10
0.0
 20
0.0
 11
12.0
 21
9.0
 12
0.0
 22
0.0
 32
0.0
 14
2.5
 24
2.5
 34
0.0
 15
294.5
 25
207.5
 35
0.0
146
0.0
 13
0.0
 23
0.0
 33
0.0
 16
1.0
 26
0.0
 36
0.0
 17
0.0
 27
1.0
 37
0.0
 76
     0
330
1F
331
934
1001
PLOTTRANSPARENCY
1071
        0
  0
LAYOUT
  5
1E
102
{ACAD_REACTORS
330
1A
102
}
330
1A
100
AcDbPlotSettings
  1

  2
RICOH IPSiO NX850 RPCS
  4

  6

 40
0.0
 41
0.0
 42
0.0
 43
0.0
 44
0.0
 45
0.0
 46
0.0
 47
0.0
 48
0.0
 49
0.0
140
0.0
141
0.0
142
1.0
143
1.0
 70
   688
 72
     0
 73
     0
 74
     5
  7

 75
    16
 76
     0
 77
     2
 78
   300
147
1.0
148
0.0
149
0.0
100
AcDbLayout
  1
ﾚｲｱｳﾄ1
 70
     1
 71
     1
 10
0.0
 20
0.0
 11
420.0
 21
297.0
 12
0.0
 22
0.0
 32
0.0
 14
1.000000000000000E+20
 24
1.000000000000000E+20
 34
1.000000000000000E+20
 15
-1.000000000000000E+20
 25
-1.000000000000000E+20
 35
-1.000000000000000E+20
146
0.0
 13
0.0
 23
0.0
 33
0.0
 16
1.0
 26
0.0
 36
0.0
 17
0.0
 27
1.0
 37
0.0
 76
     0
330
1B
  0
LAYOUT
  5
26
102
{ACAD_REACTORS
330
1A
102
}
330
1A
100
AcDbPlotSettings
  1

  2
RICOH IPSiO NX850 RPCS
  4

  6

 40
0.0
 41
0.0
 42
0.0
 43
0.0
 44
0.0
 45
0.0
 46
0.0
 47
0.0
 48
0.0
 49
0.0
140
0.0
141
0.0
142
1.0
143
1.0
 70
   688
 72
     0
 73
     0
 74
     5
  7

 75
    16
 76
     0
 77
     2
 78
   300
147
1.0
148
0.0
149
0.0
100
AcDbLayout
  1
ﾚｲｱｳﾄ2
 70
     1
 71
     2
 10
0.0
 20
0.0
 11
12.0
 21
9.0
 12
0.0
 22
0.0
 32
0.0
 14
0.0
 24
0.0
 34
0.0
 15
0.0
 25
0.0
 35
0.0
146
0.0
 13
0.0
 23
0.0
 33
0.0
 16
1.0
 26
0.0
 36
0.0
 17
0.0
 27
1.0
 37
0.0
 76
     0
330
23
  0
MATERIAL
  5
A44
102
{ACAD_REACTORS
330
A42
102
}
330
A42
100
AcDbMaterial
  1
ByBlock
 72
     1
 94
      127
  0
MATERIAL
  5
A43
102
{ACAD_REACTORS
330
A42
102
}
330
A42
100
AcDbMaterial
  1
ByLayer
 72
     1
 94
      127
  0
MATERIAL
  5
A45
102
{ACAD_REACTORS
330
A42
102
}
330
A42
100
AcDbMaterial
  1
Global
 72
     1
 94
      127
  0
MLEADERSTYLE
  5
A49
102
{ACAD_REACTORS
330
A48
102
}
330
A48
100
AcDbMLeaderStyle
179
     2
170
     2
171
     1
172
     0
 90
        2
 40
0.0
 41
0.0
173
     1
 91
-1056964608
340
14
 92
       -2
290
     1
 42
2.0
291
     1
 43
8.0
  3
Standard
341
0
 44
4.0
300

342
11
174
     1
178
     6
175
     1
176
     0
 93
-1056964608
 45
4.0
292
     0
297
     0
 46
4.0
343
0
 94
-1056964608
 47
1.0
 49
1.0
140
1.0
293
     1
141
0.0
294
     1
177
     0
142
1.0
295
     0
296
     0
143
3.75
271
     0
272
     9
273
     9
  0
MLINESTYLE
  5
18
102
{ACAD_REACTORS
330
17
102
}
330
17
100
AcDbMlineStyle
  2
STANDARD
 70
     0
  3

 62
   256
 51
90.0
 52
90.0
 71
     2
 49
0.5
 62
   256
  6
BYLAYER
 49
-0.5
 62
   256
  6
BYLAYER
  0
ACDBPLACEHOLDER
  5
F
102
{ACAD_REACTORS
330
E
102
}
330
E
  0
SCALE
  5
936
102
{ACAD_REACTORS
330
935
102
}
330
935
100
AcDbScale
 70
     0
300
1:1
140
1.0
141
1.0
290
     1
  0
SCALE
  5
937
102
{ACAD_REACTORS
330
935
102
}
330
935
100
AcDbScale
 70
     0
300
1:2
140
1.0
141
2.0
290
     0
  0
SCALE
  5
938
102
{ACAD_REACTORS
330
935
102
}
330
935
100
AcDbScale
 70
     0
300
1:4
140
1.0
141
4.0
290
     0
  0
SCALE
  5
939
102
{ACAD_REACTORS
330
935
102
}
330
935
100
AcDbScale
 70
     0
300
1:5
140
1.0
141
5.0
290
     0
  0
SCALE
  5
93A
102
{ACAD_REACTORS
330
935
102
}
330
935
100
AcDbScale
 70
     0
300
1:8
140
1.0
141
8.0
290
     0
  0
SCALE
  5
93B
102
{ACAD_REACTORS
330
935
102
}
330
935
100
AcDbScale
 70
     0
300
1:10
140
1.0
141
10.0
290
     0
  0
SCALE
  5
93C
102
{ACAD_REACTORS
330
935
102
}
330
935
100
AcDbScale
 70
     0
300
1:16
140
1.0
141
16.0
290
     0
  0
SCALE
  5
93D
102
{ACAD_REACTORS
330
935
102
}
330
935
100
AcDbScale
 70
     0
300
1:20
140
1.0
141
20.0
290
     0
  0
SCALE
  5
93E
102
{ACAD_REACTORS
330
935
102
}
330
935
100
AcDbScale
 70
     0
300
1:30
140
1.0
141
30.0
290
     0
  0
SCALE
  5
93F
102
{ACAD_REACTORS
330
935
102
}
330
935
100
AcDbScale
 70
     0
300
1:40
140
1.0
141
40.0
290
     0
  0
SCALE
  5
940
102
{ACAD_REACTORS
330
935
102
}
330
935
100
AcDbScale
 70
     0
300
1:50
140
1.0
141
50.0
290
     0
  0
SCALE
  5
941
102
{ACAD_REACTORS
330
935
102
}
330
935
100
AcDbScale
 70
     0
300
1:100
140
1.0
141
100.0
290
     0
  0
SCALE
  5
942
102
{ACAD_REACTORS
330
935
102
}
330
935
100
AcDbScale
 70
     0
300
2:1
140
2.0
141
1.0
290
     0
  0
SCALE
  5
943
102
{ACAD_REACTORS
330
935
102
}
330
935
100
AcDbScale
 70
     0
300
4:1
140
4.0
141
1.0
290
     0
  0
SCALE
  5
944
102
{ACAD_REACTORS
330
935
102
}
330
935
100
AcDbScale
 70
     0
300
8:1
140
8.0
141
1.0
290
     0
  0
SCALE
  5
945
102
{ACAD_REACTORS
330
935
102
}
330
935
100
AcDbScale
 70
     0
300
10:1
140
10.0
141
1.0
290
     0
  0
SCALE
  5
946
102
{ACAD_REACTORS
330
935
102
}
330
935
100
AcDbScale
 70
     0
300
100:1
140
100.0
141
1.0
290
     0
  0
SCALE
  5
947
102
{ACAD_REACTORS
330
935
102
}
330
935
100
AcDbScale
 70
     0
300
1/128" = 1'-0"
140
0.0078125
141
12.0
290
     0
  0
SCALE
  5
948
102
{ACAD_REACTORS
330
935
102
}
330
935
100
AcDbScale
 70
     0
300
1/64" = 1'-0"
140
0.015625
141
12.0
290
     0
  0
SCALE
  5
949
102
{ACAD_REACTORS
330
935
102
}
330
935
100
AcDbScale
 70
     0
300
1/32" = 1'-0"
140
0.03125
141
12.0
290
     0
  0
SCALE
  5
94A
102
{ACAD_REACTORS
330
935
102
}
330
935
100
AcDbScale
 70
     0
300
1/16" = 1'-0"
140
0.0625
141
12.0
290
     0
  0
SCALE
  5
94B
102
{ACAD_REACTORS
330
935
102
}
330
935
100
AcDbScale
 70
     0
300
3/32" = 1'-0"
140
0.09375
141
12.0
290
     0
  0
SCALE
  5
94C
102
{ACAD_REACTORS
330
935
102
}
330
935
100
AcDbScale
 70
     0
300
1/8" = 1'-0"
140
0.125
141
12.0
290
     0
  0
SCALE
  5
94D
102
{ACAD_REACTORS
330
935
102
}
330
935
100
AcDbScale
 70
     0
300
3/16" = 1'-0"
140
0.1875
141
12.0
290
     0
  0
SCALE
  5
94E
102
{ACAD_REACTORS
330
935
102
}
330
935
100
AcDbScale
 70
     0
300
1/4" = 1'-0"
140
0.25
141
12.0
290
     0
  0
SCALE
  5
94F
102
{ACAD_REACTORS
330
935
102
}
330
935
100
AcDbScale
 70
     0
300
3/8" = 1'-0"
140
0.375
141
12.0
290
     0
  0
SCALE
  5
950
102
{ACAD_REACTORS
330
935
102
}
330
935
100
AcDbScale
 70
     0
300
1/2" = 1'-0"
140
0.5
141
12.0
290
     0
  0
SCALE
  5
951
102
{ACAD_REACTORS
330
935
102
}
330
935
100
AcDbScale
 70
     0
300
3/4" = 1'-0"
140
0.75
141
12.0
290
     0
  0
SCALE
  5
952
102
{ACAD_REACTORS
330
935
102
}
330
935
100
AcDbScale
 70
     0
300
1" = 1'-0"
140
1.0
141
12.0
290
     0
  0
SCALE
  5
953
102
{ACAD_REACTORS
330
935
102
}
330
935
100
AcDbScale
 70
     0
300
1-1/2" = 1'-0"
140
1.5
141
12.0
290
     0
  0
SCALE
  5
954
102
{ACAD_REACTORS
330
935
102
}
330
935
100
AcDbScale
 70
     0
300
3" = 1'-0"
140
3.0
141
12.0
290
     0
  0
SCALE
  5
955
102
{ACAD_REACTORS
330
935
102
}
330
935
100
AcDbScale
 70
     0
300
6" = 1'-0"
140
6.0
141
12.0
290
     0
  0
SCALE
  5
956
102
{ACAD_REACTORS
330
935
102
}
330
935
100
AcDbScale
 70
     0
300
1'-0" = 1'-0"
140
12.0
141
12.0
290
     0
  0
TABLESTYLE
  5
A47
102
{ACAD_REACTORS
330
A46
102
}
102
{ACAD_XDICTIONARY
360
1F34
102
}
330
A46
100
AcDbTableStyle
  3
Standard
 70
     0
 71
     0
 40
1.5
 41
1.5
280
     0
281
     0
  7
Standard
140
4.5
170
     2
 62
     0
 63
   257
283
     0
 90
        4
 91
        0
  1

274
    -2
284
     1
 64
     0
275
    -2
285
     1
 65
     0
276
    -2
286
     1
 66
     0
277
    -2
287
     1
 67
     0
278
    -2
288
     1
 68
     0
279
    -2
289
     1
 69
     0
  7
Standard
140
6.0
170
     5
 62
     0
 63
   257
283
     0
 90
        4
 91
        0
  1

274
    -2
284
     1
 64
     0
275
    -2
285
     1
 65
     0
276
    -2
286
     1
 66
     0
277
    -2
287
     1
 67
     0
278
    -2
288
     1
 68
     0
279
    -2
289
     1
 69
     0
  7
Standard
140
4.5
170
     5
 62
     0
 63
   257
283
     0
 90
        4
 91
        0
  1

274
    -2
284
     1
 64
     0
275
    -2
285
     1
 65
     0
276
    -2
286
     1
 66
     0
277
    -2
287
     1
 67
     0
278
    -2
288
     1
 68
     0
279
    -2
289
     1
 69
     0
  0
VISUALSTYLE
  5
A2E
102
{ACAD_REACTORS
330
A29
102
}
330
A29
100
AcDbVisualStyle
  2
2dWireframe
 70
     4
177
     2
291
     0
 71
     0
176
     1
 72
     2
176
     1
 73
     0
176
     1
 90
        0
176
     1
 40
0.6
176
     1
 41
30.0
176
     1
 62
     5
 63
     7
421
 16777215
176
     1
 74
     1
176
     1
 91
        4
176
     1
 64
     7
176
     1
 65
   257
176
     1
 75
     1
176
     1
175
     1
176
     1
 42
1.0
176
     1
 92
        0
176
     1
 66
   257
176
     1
 43
1.0
176
     1
 76
     1
176
     1
 77
     6
176
     1
 78
     2
176
     1
 67
     7
176
     1
 79
     5
176
     1
170
     0
176
     1
171
     0
176
     1
290
     0
176
     1
 93
        1
176
     1
 44
0.0
176
     1
173
     0
176
     1
  0
VISUALSTYLE
  5
A31
102
{ACAD_REACTORS
330
A29
102
}
330
A29
100
AcDbVisualStyle
  2
Basic
 70
     7
177
     2
291
     1
 71
     1
176
     1
 72
     0
176
     1
 73
     1
176
     1
 90
        0
176
     1
 40
0.6
176
     1
 41
30.0
176
     1
 62
     5
 63
     7
421
 16777215
176
     1
 74
     0
176
     1
 91
        4
176
     1
 64
     7
176
     1
 65
   257
176
     1
 75
     1
176
     1
175
     1
176
     1
 42
1.0
176
     1
 92
        8
176
     1
 66
     7
176
     1
 43
1.0
176
     1
 76
     1
176
     1
 77
     6
176
     1
 78
     2
176
     1
 67
     7
176
     1
 79
     5
176
     1
170
     0
176
     1
171
     0
176
     1
290
     0
176
     1
 93
        1
176
     1
 44
0.0
176
     1
173
     0
176
     1
  0
VISUALSTYLE
  5
A35
102
{ACAD_REACTORS
330
A29
102
}
330
A29
100
AcDbVisualStyle
  2
Brighten
 70
    12
177
     2
291
     1
 71
     2
176
     1
 72
     2
176
     1
 73
     0
176
     1
 90
        0
176
     1
 40
0.6
176
     1
 41
30.0
176
     1
 62
     5
 63
     7
421
 16777215
176
     1
 74
     1
176
     1
 91
        4
176
     1
 64
     7
176
     1
 65
   257
176
     1
 75
     1
176
     1
175
     1
176
     1
 42
1.0
176
     1
 92
        8
176
     1
 66
     7
176
     1
 43
1.0
176
     1
 76
     1
176
     1
 77
     6
176
     1
 78
     2
176
     1
 67
     7
176
     1
 79
     5
176
     1
170
     0
176
     1
171
     0
176
     1
290
     0
176
     1
 93
        1
176
     1
 44
50.0
176
     1
173
     0
176
     1
  0
VISUALSTYLE
  5
A39
102
{ACAD_REACTORS
330
A29
102
}
330
A29
100
AcDbVisualStyle
  2
ColorChange
 70
    16
177
     2
291
     1
 71
     2
176
     1
 72
     2
176
     1
 73
     3
176
     1
 90
        0
176
     1
 40
0.6
176
     1
 41
30.0
176
     1
 62
     5
 63
     8
421
  8421504
176
     1
 74
     1
176
     1
 91
        4
176
     1
 64
     7
176
     1
 65
   257
176
     1
 75
     1
176
     1
175
     1
176
     1
 42
1.0
176
     1
 92
        8
176
     1
 66
     8
424
  8421504
176
     1
 43
1.0
176
     1
 76
     1
176
     1
 77
     6
176
     1
 78
     2
176
     1
 67
     7
176
     1
 79
     5
176
     1
170
     0
176
     1
171
     0
176
     1
290
     0
176
     1
 93
        1
176
     1
 44
0.0
176
     1
173
     0
176
     1
  0
VISUALSTYLE
  5
A33
102
{ACAD_REACTORS
330
A29
102
}
330
A29
100
AcDbVisualStyle
  2
Conceptual
 70
     9
177
     2
291
     0
 71
     3
176
     1
 72
     2
176
     1
 73
     0
176
     1
 90
        0
176
     1
 40
0.6
176
     1
 41
30.0
176
     1
 62
     5
 63
     7
421
 16777215
176
     1
 74
     2
176
     1
 91
        2
176
     1
 64
     7
176
     1
 65
   257
176
     1
 75
     1
176
     1
175
     1
176
     1
 42
179.0
176
     1
 92
        8
176
     1
 66
     7
176
     1
 43
1.0
176
     1
 76
     1
176
     1
 77
     6
176
     1
 78
     2
176
     1
 67
     7
176
     1
 79
     3
176
     1
170
     0
176
     1
171
     0
176
     1
290
     0
176
     1
 93
        1
176
     1
 44
0.0
176
     1
173
     0
176
     1
  0
VISUALSTYLE
  5
A34
102
{ACAD_REACTORS
330
A29
102
}
330
A29
100
AcDbVisualStyle
  2
Dim
 70
    11
177
     2
291
     1
 71
     2
176
     1
 72
     2
176
     1
 73
     0
176
     1
 90
        0
176
     1
 40
0.6
176
     1
 41
30.0
176
     1
 62
     5
 63
     7
421
 16777215
176
     1
 74
     1
176
     1
 91
        4
176
     1
 64
     7
176
     1
 65
   257
176
     1
 75
     1
176
     1
175
     1
176
     1
 42
1.0
176
     1
 92
        8
176
     1
 66
     7
176
     1
 43
1.0
176
     1
 76
     1
176
     1
 77
     6
176
     1
 78
     2
176
     1
 67
     7
176
     1
 79
     5
176
     1
170
     0
176
     1
171
     0
176
     1
290
     0
176
     1
 93
        1
176
     1
 44
-50.0
176
     1
173
     0
176
     1
  0
VISUALSTYLE
  5
A3C
102
{ACAD_REACTORS
330
A29
102
}
330
A29
100
AcDbVisualStyle
  2
EdgeColorOff
 70
    22
177
     2
291
     1
 71
     2
176
     0
 72
     2
176
     0
 73
     0
176
     0
 90
        0
176
     0
 40
0.6
176
     0
 41
30.0
176
     0
 62
     5
 63
     7
421
 16777215
176
     0
 74
     1
176
     0
 91
        4
176
     0
 64
     7
176
     0
 65
   257
176
     0
 75
     1
176
     0
175
     1
176
     0
 42
1.0
176
     0
 92
        8
176
     2
 66
     7
176
     0
 43
1.0
176
     0
 76
     1
176
     0
 77
     6
176
     0
 78
     2
176
     0
 67
     7
176
     0
 79
     5
176
     0
170
     0
176
     0
171
     0
176
     0
290
     0
176
     0
 93
        1
176
     0
 44
0.0
176
     0
173
     0
176
     0
  0
VISUALSTYLE
  5
A38
102
{ACAD_REACTORS
330
A29
102
}
330
A29
100
AcDbVisualStyle
  2
Facepattern
 70
    15
177
     2
291
     1
 71
     2
176
     1
 72
     2
176
     1
 73
     0
176
     1
 90
        0
176
     1
 40
0.6
176
     1
 41
30.0
176
     1
 62
     5
 63
     7
421
 16777215
176
     1
 74
     1
176
     1
 91
        4
176
     1
 64
     7
176
     1
 65
   257
176
     1
 75
     1
176
     1
175
     1
176
     1
 42
1.0
176
     1
 92
        8
176
     1
 66
     7
176
     1
 43
1.0
176
     1
 76
     1
176
     1
 77
     6
176
     1
 78
     2
176
     1
 67
     7
176
     1
 79
     5
176
     1
170
     0
176
     1
171
     0
176
     1
290
     0
176
     1
 93
        1
176
     1
 44
0.0
176
     1
173
     0
176
     1
  0
VISUALSTYLE
  5
A2A
102
{ACAD_REACTORS
330
A29
102
}
330
A29
100
AcDbVisualStyle
  2
Flat
 70
     0
177
     2
291
     1
 71
     2
176
     1
 72
     1
176
     1
 73
     1
176
     1
 90
        2
176
     1
 40
0.6
176
     1
 41
30.0
176
     1
 62
     5
 63
     7
421
 16777215
176
     1
 74
     0
176
     1
 91
        0
176
     1
 64
     7
176
     1
 65
   257
176
     1
 75
     1
176
     1
175
     1
176
     1
 42
1.0
176
     1
 92
        8
176
     1
 66
     7
176
     1
 43
1.0
176
     1
 76
     1
176
     1
 77
     6
176
     1
 78
     2
176
     1
 67
     7
176
     1
 79
     5
176
     1
170
     0
176
     1
171
     0
176
     1
290
     0
176
     1
 93
       13
176
     1
 44
0.0
176
     1
173
     0
176
     1
  0
VISUALSTYLE
  5
A2B
102
{ACAD_REACTORS
330
A29
102
}
330
A29
100
AcDbVisualStyle
  2
FlatWithEdges
 70
     1
177
     2
291
     1
 71
     2
176
     1
 72
     1
176
     1
 73
     1
176
     1
 90
        2
176
     1
 40
0.6
176
     1
 41
30.0
176
     1
 62
     5
 63
     7
421
 16777215
176
     1
 74
     1
176
     1
 91
        0
176
     1
 64
     7
176
     1
 65
   257
176
     1
 75
     1
176
     1
175
     1
176
     1
 42
1.0
176
     1
 92
        0
176
     1
 66
   257
176
     1
 43
1.0
176
     1
 76
     1
176
     1
 77
     6
176
     1
 78
     2
176
     1
 67
     7
176
     1
 79
     5
176
     1
170
     0
176
     1
171
     0
176
     1
290
     0
176
     1
 93
       13
176
     1
 44
0.0
176
     1
173
     0
176
     1
  0
VISUALSTYLE
  5
A2C
102
{ACAD_REACTORS
330
A29
102
}
330
A29
100
AcDbVisualStyle
  2
Gouraud
 70
     2
177
     2
291
     1
 71
     2
176
     1
 72
     2
176
     1
 73
     1
176
     1
 90
        2
176
     1
 40
0.6
176
     1
 41
30.0
176
     1
 62
     5
 63
     7
421
 16777215
176
     1
 74
     0
176
     1
 91
        0
176
     1
 64
     7
176
     1
 65
   257
176
     1
 75
     1
176
     1
175
     1
176
     1
 42
1.0
176
     1
 92
        0
176
     1
 66
     7
176
     1
 43
1.0
176
     1
 76
     1
176
     1
 77
     6
176
     1
 78
     2
176
     1
 67
     7
176
     1
 79
     5
176
     1
170
     0
176
     1
171
     0
176
     1
290
     0
176
     1
 93
       13
176
     1
 44
0.0
176
     1
173
     0
176
     1
  0
VISUALSTYLE
  5
A2D
102
{ACAD_REACTORS
330
A29
102
}
330
A29
100
AcDbVisualStyle
  2
GouraudWithEdges
 70
     3
177
     2
291
     1
 71
     2
176
     1
 72
     2
176
     1
 73
     1
176
     1
 90
        2
176
     1
 40
0.6
176
     1
 41
30.0
176
     1
 62
     5
 63
     7
421
 16777215
176
     1
 74
     1
176
     1
 91
        0
176
     1
 64
     7
176
     1
 65
   257
176
     1
 75
     1
176
     1
175
     1
176
     1
 42
1.0
176
     1
 92
        0
176
     1
 66
   257
176
     1
 43
1.0
176
     1
 76
     1
176
     1
 77
     6
176
     1
 78
     2
176
     1
 67
     7
176
     1
 79
     5
176
     1
170
     0
176
     1
171
     0
176
     1
290
     0
176
     1
 93
       13
176
     1
 44
0.0
176
     1
173
     0
176
     1
  0
VISUALSTYLE
  5
A30
102
{ACAD_REACTORS
330
A29
102
}
330
A29
100
AcDbVisualStyle
  2
Hidden
 70
     6
177
     2
291
     0
 71
     1
176
     1
 72
     2
176
     1
 73
     2
176
     1
 90
        0
176
     1
 40
0.6
176
     1
 41
30.0
176
     1
 62
     5
 63
     7
421
 16777215
176
     1
 74
     2
176
     1
 91
        2
176
     1
 64
     7
176
     1
 65
   257
176
     1
 75
     2
176
     1
175
     1
176
     1
 42
40.0
176
     1
 92
        0
176
     1
 66
   257
176
     1
 43
1.0
176
     1
 76
     1
176
     1
 77
     6
176
     1
 78
     2
176
     1
 67
     7
176
     1
 79
     3
176
     1
170
     0
176
     1
171
     0
176
     1
290
     0
176
     1
 93
        1
176
     1
 44
0.0
176
     1
173
     0
176
     1
  0
VISUALSTYLE
  5
A3A
102
{ACAD_REACTORS
330
A29
102
}
330
A29
100
AcDbVisualStyle
  2
JitterOff
 70
    20
177
     2
291
     1
 71
     2
176
     0
 72
     2
176
     0
 73
     0
176
     0
 90
        0
176
     0
 40
0.6
176
     0
 41
30.0
176
     0
 62
     5
 63
     7
421
 16777215
176
     0
 74
     1
176
     0
 91
        4
176
     0
 64
     7
176
     0
 65
   257
176
     0
 75
     1
176
     0
175
     1
176
     0
 42
1.0
176
     0
 92
       10
176
     2
 66
     7
176
     0
 43
1.0
176
     0
 76
     1
176
     0
 77
     6
176
     0
 78
     2
176
     0
 67
     7
176
     0
 79
     5
176
     0
170
     0
176
     0
171
     0
176
     0
290
     0
176
     0
 93
        1
176
     0
 44
0.0
176
     0
173
     0
176
     0
  0
VISUALSTYLE
  5
A37
102
{ACAD_REACTORS
330
A29
102
}
330
A29
100
AcDbVisualStyle
  2
Linepattern
 70
    14
177
     2
291
     1
 71
     2
176
     1
 72
     2
176
     1
 73
     0
176
     1
 90
        0
176
     1
 40
0.6
176
     1
 41
30.0
176
     1
 62
     5
 63
     7
421
 16777215
176
     1
 74
     1
176
     1
 91
        4
176
     1
 64
     7
176
     1
 65
   257
176
     1
 75
     7
176
     1
175
     7
176
     1
 42
1.0
176
     1
 92
        8
176
     1
 66
     7
176
     1
 43
1.0
176
     1
 76
     1
176
     1
 77
     6
176
     1
 78
     2
176
     1
 67
     7
176
     1
 79
     5
176
     1
170
     0
176
     1
171
     0
176
     1
290
     0
176
     1
 93
        1
176
     1
 44
0.0
176
     1
173
     0
176
     1
  0
VISUALSTYLE
  5
A3B
102
{ACAD_REACTORS
330
A29
102
}
330
A29
100
AcDbVisualStyle
  2
OverhangOff
 70
    21
177
     2
291
     1
 71
     2
176
     0
 72
     2
176
     0
 73
     0
176
     0
 90
        0
176
     0
 40
0.6
176
     0
 41
30.0
176
     0
 62
     5
 63
     7
421
 16777215
176
     0
 74
     1
176
     0
 91
        4
176
     0
 64
     7
176
     0
 65
   257
176
     0
 75
     1
176
     0
175
     1
176
     0
 42
1.0
176
     0
 92
        9
176
     2
 66
     7
176
     0
 43
1.0
176
     0
 76
     1
176
     0
 77
     6
176
     0
 78
     2
176
     0
 67
     7
176
     0
 79
     5
176
     0
170
     0
176
     0
171
     0
176
     0
290
     0
176
     0
 93
        1
176
     0
 44
0.0
176
     0
173
     0
176
     0
  0
VISUALSTYLE
  5
A32
102
{ACAD_REACTORS
330
A29
102
}
330
A29
100
AcDbVisualStyle
  2
Realistic
 70
     8
177
     2
291
     0
 71
     2
176
     1
 72
     3
176
     1
 73
     0
176
     1
 90
        2
176
     1
 40
0.6
176
     1
 41
30.0
176
     1
 62
     5
 63
     7
421
 16777215
176
     1
 74
     0
176
     1
 91
        0
176
     1
 64
     7
176
     1
 65
   257
176
     1
 75
     1
176
     1
175
     1
176
     1
 42
1.0
176
     1
 92
        8
176
     1
 66
   257
176
     1
 43
1.0
176
     1
 76
     1
176
     1
 77
     6
176
     1
 78
     2
176
     1
 67
     7
176
     1
 79
     3
176
     1
170
     0
176
     1
171
     0
176
     1
290
     0
176
     1
 93
       13
176
     1
 44
0.0
176
     1
173
     0
176
     1
  0
VISUALSTYLE
  5
A41
102
{ACAD_REACTORS
330
A29
102
}
330
A29
100
AcDbVisualStyle
  2
Shaded
 70
    27
177
     2
291
     0
 71
     2
176
     1
 72
     2
176
     1
 73
     1
176
     1
 90
        2
176
     1
 40
0.6
176
     1
 41
30.0
176
     1
 62
     5
 63
     7
421
 16777215
176
     1
 74
     0
176
     1
 91
        4
176
     1
 64
     7
176
     1
 65
   257
176
     1
 75
     1
176
     1
175
     1
176
     1
 42
1.0
176
     1
 92
        8
176
     1
 66
   257
176
     1
 43
1.0
176
     1
 76
     1
176
     1
 77
     6
176
     1
 78
     2
176
     1
 67
     8
425
  7895160
176
     1
 79
     3
176
     1
170
     0
176
     1
171
     0
176
     1
290
     0
176
     1
 93
        5
176
     1
 44
0.0
176
     1
173
     0
176
     1
  0
VISUALSTYLE
  5
A40
102
{ACAD_REACTORS
330
A29
102
}
330
A29
100
AcDbVisualStyle
  2
Shaded with edges
 70
    26
177
     2
291
     0
 71
     2
176
     1
 72
     2
176
     1
 73
     1
176
     1
 90
        2
176
     1
 40
0.6
176
     1
 41
30.0
176
     1
 62
     5
 63
     7
421
 16777215
176
     1
 74
     1
176
     1
 91
       10
176
     1
 64
     7
176
     1
 65
   257
176
     1
 75
     2
176
     1
175
     1
176
     1
 42
1.0
176
     1
 92
        8
176
     1
 66
   257
176
     1
 43
1.0
176
     1
 76
     1
176
     1
 77
     6
176
     1
 78
     2
176
     1
 67
     7
176
     1
 79
     3
176
     1
170
     0
176
     1
171
     0
176
     1
290
     0
176
     1
 93
        5
176
     1
 44
0.0
176
     1
173
     0
176
     1
  0
VISUALSTYLE
  5
A3D
102
{ACAD_REACTORS
330
A29
102
}
330
A29
100
AcDbVisualStyle
  2
Shades of Gray
 70
    23
177
     2
291
     0
 71
     2
176
     1
 72
     2
176
     1
 73
     3
176
     1
 90
        0
176
     1
 40
0.6
176
     1
 41
30.0
176
     1
 62
     5
 63
     7
421
 16777215
176
     1
 74
     2
176
     1
 91
        2
176
     1
 64
     7
176
     1
 65
     7
176
     1
 75
     1
176
     1
175
     1
176
     1
 42
40.0
176
     1
 92
        8
176
     1
 66
     7
176
     1
 43
1.0
176
     1
 76
     1
176
     1
 77
     6
176
     1
 78
     2
176
     1
 67
     7
176
     1
 79
     3
176
     1
170
     0
176
     1
171
     0
176
     1
290
     0
176
     1
 93
        1
176
     1
 44
0.0
176
     1
173
     0
176
     1
  0
VISUALSTYLE
  5
A3E
102
{ACAD_REACTORS
330
A29
102
}
330
A29
100
AcDbVisualStyle
  2
Sketchy
 70
    24
177
     2
291
     0
 71
     1
176
     1
 72
     2
176
     1
 73
     2
176
     1
 90
        0
176
     1
 40
0.6
176
     1
 41
30.0
176
     1
 62
     5
 63
     7
421
 16777215
176
     1
 74
     2
176
     1
 91
        2
176
     1
 64
     7
176
     1
 65
     7
176
     1
 75
     1
176
     1
175
     1
176
     1
 42
40.0
176
     1
 92
       11
176
     1
 66
     7
176
     1
 43
1.0
176
     1
 76
     1
176
     1
 77
     6
176
     1
 78
     2
176
     1
 67
     7
176
     1
 79
     6
176
     1
170
     0
176
     1
171
     0
176
     1
290
     0
176
     1
 93
        1
176
     1
 44
0.0
176
     1
173
     0
176
     1
  0
VISUALSTYLE
  5
A36
102
{ACAD_REACTORS
330
A29
102
}
330
A29
100
AcDbVisualStyle
  2
Thicken
 70
    13
177
     2
291
     1
 71
     2
176
     1
 72
     2
176
     1
 73
     0
176
     1
 90
        0
176
     1
 40
0.6
176
     1
 41
30.0
176
     1
 62
     5
 63
     7
421
 16777215
176
     1
 74
     1
176
     1
 91
        4
176
     1
 64
     7
176
     1
 65
   257
176
     1
 75
     1
176
     1
175
     1
176
     1
 42
1.0
176
     1
 92
       12
176
     1
 66
     7
176
     1
 43
1.0
176
     1
 76
     1
176
     1
 77
     6
176
     1
 78
     2
176
     1
 67
     7
176
     1
 79
     5
176
     1
170
     0
176
     1
171
     0
176
     1
290
     0
176
     1
 93
        1
176
     1
 44
0.0
176
     1
173
     0
176
     1
  0
VISUALSTYLE
  5
A2F
102
{ACAD_REACTORS
330
A29
102
}
330
A29
100
AcDbVisualStyle
  2
Wireframe
 70
     5
177
     2
291
     0
 71
     0
176
     1
 72
     2
176
     1
 73
     0
176
     1
 90
        0
176
     1
 40
0.6
176
     1
 41
30.0
176
     1
 62
     5
 63
     7
421
 16777215
176
     1
 74
     1
176
     1
 91
        4
176
     1
 64
     7
176
     1
 65
   257
176
     1
 75
     1
176
     1
175
     1
176
     1
 42
1.0
176
     1
 92
        0
176
     1
 66
   257
176
     1
 43
1.0
176
     1
 76
     1
176
     1
 77
     6
176
     1
 78
     2
176
     1
 67
     7
176
     1
 79
     3
176
     1
170
     0
176
     1
171
     0
176
     1
290
     0
176
     1
 93
        1
176
     1
 44
0.0
176
     1
173
     0
176
     1
  0
VISUALSTYLE
  5
A3F
102
{ACAD_REACTORS
330
A29
102
}
330
A29
100
AcDbVisualStyle
  2
X-Ray
 70
    25
177
     2
291
     0
 71
     2
176
     1
 72
     2
176
     1
 73
     1
176
     1
 90
        1
176
     1
 40
0.5
176
     1
 41
30.0
176
     1
 62
     5
 63
     7
421
 16777215
176
     1
 74
     1
176
     1
 91
        0
176
     1
 64
     7
176
     1
 65
   257
176
     1
 75
     1
176
     1
175
     1
176
     1
 42
1.0
176
     1
 92
        8
176
     1
 66
     7
176
     1
 43
1.0
176
     1
 76
     1
176
     1
 77
     6
176
     1
 78
     2
176
     1
 67
     7
176
     1
 79
     3
176
     1
170
     0
176
     1
171
     0
176
     1
290
     0
176
     1
 93
       13
176
     1
 44
0.0
176
     1
173
     0
176
     1
  0
DICTIONARYVAR
  5
1623
102
{ACAD_REACTORS
330
3E1
102
}
330
3E1
100
DictionaryVariables
280
     0
  1
1:1
  0
DICTIONARYVAR
  5
A4C
102
{ACAD_REACTORS
330
3E1
102
}
330
3E1
100
DictionaryVariables
280
     0
  1
Standard
  0
DICTIONARYVAR
  5
A4B
102
{ACAD_REACTORS
330
3E1
102
}
330
3E1
100
DictionaryVariables
280
     0
  1
Standard
  0
DICTIONARYVAR
  5
A4D
102
{ACAD_REACTORS
330
3E1
102
}
330
3E1
100
DictionaryVariables
280
     0
  1
0
  0
DICTIONARYVAR
  5
3E2
102
{ACAD_REACTORS
330
3E1
102
}
330
3E1
100
DictionaryVariables
280
     0
  1
96
  0
DICTIONARY
  5
1F34
330
A47
100
AcDbDictionary
280
     1
281
     1
  3
ACAD_ROUNDTRIP_2008_TABLESTYLE_CELLSTYLEMAP
360
1F35
  0
CELLSTYLEMAP
  5
1F35
102
{ACAD_REACTORS
330
1F34
102
}
330
1F34
100
AcDbCellStyleMap
 90
        3
300
CELLSTYLE
  1
TABLEFORMAT_BEGIN
 90
        5
170
     1
 91
        0
 92
    32768
 62
   257
 93
        1
300
CONTENTFORMAT
  1
CONTENTFORMAT_BEGIN
 90
        0
 91
        0
 92
        4
 93
        0
300

 40
0.0
140
1.0
 94
        5
 62
     0
340
11
144
6.0
309
CONTENTFORMAT_END
171
     1
301
MARGIN
  1
CELLMARGIN_BEGIN
 40
1.5
 40
1.5
 40
1.5
 40
1.5
 40
1.5
 40
1.5
309
CELLMARGIN_END
 94
        6
 95
        1
302
GRIDFORMAT
  1
GRIDFORMAT_BEGIN
 90
        0
 91
        1
 62
     0
 92
       -2
340
14
 93
        0
 40
0.045
309
GRIDFORMAT_END
 95
        2
302
GRIDFORMAT
  1
GRIDFORMAT_BEGIN
 90
        0
 91
        1
 62
     0
 92
       -2
340
14
 93
        0
 40
0.045
309
GRIDFORMAT_END
 95
        4
302
GRIDFORMAT
  1
GRIDFORMAT_BEGIN
 90
        0
 91
        1
 62
     0
 92
       -2
340
14
 93
        0
 40
0.045
309
GRIDFORMAT_END
 95
        8
302
GRIDFORMAT
  1
GRIDFORMAT_BEGIN
 90
        0
 91
        1
 62
     0
 92
       -2
340
14
 93
        0
 40
0.045
309
GRIDFORMAT_END
 95
       16
302
GRIDFORMAT
  1
GRIDFORMAT_BEGIN
 90
        0
 91
        1
 62
     0
 92
       -2
340
14
 93
        0
 40
0.045
309
GRIDFORMAT_END
 95
       32
302
GRIDFORMAT
  1
GRIDFORMAT_BEGIN
 90
        0
 91
        1
 62
     0
 92
       -2
340
14
 93
        0
 40
0.045
309
GRIDFORMAT_END
309
TABLEFORMAT_END
  1
CELLSTYLE_BEGIN
 90
        1
 91
        1
300
_TITLE
309
CELLSTYLE_END
300
CELLSTYLE
  1
TABLEFORMAT_BEGIN
 90
        5
170
     1
 91
        0
 92
        0
 62
   257
 93
        1
300
CONTENTFORMAT
  1
CONTENTFORMAT_BEGIN
 90
        0
 91
        0
 92
        4
 93
        0
300

 40
0.0
140
1.0
 94
        5
 62
     0
340
11
144
4.5
309
CONTENTFORMAT_END
171
     1
301
MARGIN
  1
CELLMARGIN_BEGIN
 40
1.5
 40
1.5
 40
1.5
 40
1.5
 40
1.5
 40
1.5
309
CELLMARGIN_END
 94
        6
 95
        1
302
GRIDFORMAT
  1
GRIDFORMAT_BEGIN
 90
        0
 91
        1
 62
     0
 92
       -2
340
14
 93
        0
 40
0.045
309
GRIDFORMAT_END
 95
        2
302
GRIDFORMAT
  1
GRIDFORMAT_BEGIN
 90
        0
 91
        1
 62
     0
 92
       -2
340
14
 93
        0
 40
0.045
309
GRIDFORMAT_END
 95
        4
302
GRIDFORMAT
  1
GRIDFORMAT_BEGIN
 90
        0
 91
        1
 62
     0
 92
       -2
340
14
 93
        0
 40
0.045
309
GRIDFORMAT_END
 95
        8
302
GRIDFORMAT
  1
GRIDFORMAT_BEGIN
 90
        0
 91
        1
 62
     0
 92
       -2
340
14
 93
        0
 40
0.045
309
GRIDFORMAT_END
 95
       16
302
GRIDFORMAT
  1
GRIDFORMAT_BEGIN
 90
        0
 91
        1
 62
     0
 92
       -2
340
14
 93
        0
 40
0.045
309
GRIDFORMAT_END
 95
       32
302
GRIDFORMAT
  1
GRIDFORMAT_BEGIN
 90
        0
 91
        1
 62
     0
 92
       -2
340
14
 93
        0
 40
0.045
309
GRIDFORMAT_END
309
TABLEFORMAT_END
  1
CELLSTYLE_BEGIN
 90
        2
 91
        1
300
_HEADER
309
CELLSTYLE_END
300
CELLSTYLE
  1
TABLEFORMAT_BEGIN
 90
        5
170
     1
 91
        0
 92
        0
 62
   257
 93
        1
300
CONTENTFORMAT
  1
CONTENTFORMAT_BEGIN
 90
        0
 91
        0
 92
        4
 93
        0
300

 40
0.0
140
1.0
 94
        2
 62
     0
340
11
144
4.5
309
CONTENTFORMAT_END
171
     1
301
MARGIN
  1
CELLMARGIN_BEGIN
 40
1.5
 40
1.5
 40
1.5
 40
1.5
 40
1.5
 40
1.5
309
CELLMARGIN_END
 94
        6
 95
        1
302
GRIDFORMAT
  1
GRIDFORMAT_BEGIN
 90
        0
 91
        1
 62
     0
 92
       -2
340
14
 93
        0
 40
0.045
309
GRIDFORMAT_END
 95
        2
302
GRIDFORMAT
  1
GRIDFORMAT_BEGIN
 90
        0
 91
        1
 62
     0
 92
       -2
340
14
 93
        0
 40
0.045
309
GRIDFORMAT_END
 95
        4
302
GRIDFORMAT
  1
GRIDFORMAT_BEGIN
 90
        0
 91
        1
 62
     0
 92
       -2
340
14
 93
        0
 40
0.045
309
GRIDFORMAT_END
 95
        8
302
GRIDFORMAT
  1
GRIDFORMAT_BEGIN
 90
        0
 91
        1
 62
     0
 92
       -2
340
14
 93
        0
 40
0.045
309
GRIDFORMAT_END
 95
       16
302
GRIDFORMAT
  1
GRIDFORMAT_BEGIN
 90
        0
 91
        1
 62
     0
 92
       -2
340
14
 93
        0
 40
0.045
309
GRIDFORMAT_END
 95
       32
302
GRIDFORMAT
  1
GRIDFORMAT_BEGIN
 90
        0
 91
        1
 62
     0
 92
       -2
340
14
 93
        0
 40
0.045
309
GRIDFORMAT_END
309
TABLEFORMAT_END
  1
CELLSTYLE_BEGIN
 90
        3
 91
        2
300
_DATA
309
CELLSTYLE_END
  0
ENDSEC
  0
EOF
