  0
SECTION
  2
HEADER
  9
$ACADVER
  1
AC1024
  9
$ACADMAINTVER
 70
     6
  9
$DWGCODEPAGE
  3
ANSI_932
  9
$LASTSAVEDBY
  1
営業企画A
  9
$INSBASE
 10
0.0
 20
0.0
 30
0.0
  9
$EXTMIN
 10
0.0
 20
0.0
 30
0.0
  9
$EXTMAX
 10
292.0
 20
205.0
 30
0.0
  9
$LIMMIN
 10
0.0
 20
0.0
  9
$LIMMAX
 10
297.0
 20
210.0
  9
$ORTHOMODE
 70
     1
  9
$REGENMODE
 70
     1
  9
$FILLMODE
 70
     1
  9
$QTEXTMODE
 70
     0
  9
$MIRRTEXT
 70
     1
  9
$LTSCALE
 40
1.0
  9
$ATTMODE
 70
     1
  9
$TEXTSIZE
 40
2.5
  9
$TRACEWID
 40
1.0
  9
$TEXTSTYLE
  7
Standard
  9
$CLAYER
  8
寸法
  9
$CELTYPE
  6
Continuous
  9
$CECOLOR
 62
   256
  9
$CELTSCALE
 40
1.0
  9
$DISPSILH
 70
     0
  9
$DIMSCALE
 40
1.0
  9
$DIMASZ
 40
1.5
  9
$DIMEXO
 40
0.625
  9
$DIMDLI
 40
3.75
  9
$DIMRND
 40
0.0
  9
$DIMDLE
 40
0.0
  9
$DIMEXE
 40
1.25
  9
$DIMTP
 40
0.0
  9
$DIMTM
 40
0.0
  9
$DIMTXT
 40
2.0
  9
$DIMCEN
 40
2.5
  9
$DIMTSZ
 40
0.0
  9
$DIMTOL
 70
     0
  9
$DIMLIM
 70
     0
  9
$DIMTIH
 70
     1
  9
$DIMTOH
 70
     1
  9
$DIMSE1
 70
     0
  9
$DIMSE2
 70
     0
  9
$DIMTAD
 70
     1
  9
$DIMZIN
 70
     8
  9
$DIMBLK
  1

  9
$DIMASO
 70
     1
  9
$DIMSHO
 70
     1
  9
$DIMPOST
  1

  9
$DIMAPOST
  1

  9
$DIMALT
 70
     0
  9
$DIMALTD
 70
     3
  9
$DIMALTF
 40
0.03937007874016
  9
$DIMLFAC
 40
1.0
  9
$DIMTOFL
 70
     0
  9
$DIMTVP
 40
0.0
  9
$DIMTIX
 70
     0
  9
$DIMSOXD
 70
     0
  9
$DIMSAH
 70
     0
  9
$DIMBLK1
  1

  9
$DIMBLK2
  1

  9
$DIMSTYLE
  2
ISO-25
  9
$DIMCLRD
 70
     0
  9
$DIMCLRE
 70
     0
  9
$DIMCLRT
 70
     0
  9
$DIMTFAC
 40
1.0
  9
$DIMGAP
 40
0.625
  9
$DIMJUST
 70
     0
  9
$DIMSD1
 70
     0
  9
$DIMSD2
 70
     0
  9
$DIMTOLJ
 70
     0
  9
$DIMTZIN
 70
     8
  9
$DIMALTZ
 70
     0
  9
$DIMALTTZ
 70
     0
  9
$DIMUPT
 70
     1
  9
$DIMDEC
 70
     2
  9
$DIMTDEC
 70
     2
  9
$DIMALTU
 70
     2
  9
$DIMALTTD
 70
     3
  9
$DIMTXSTY
  7
Standard
  9
$DIMAUNIT
 70
     0
  9
$DIMADEC
 70
     0
  9
$DIMALTRND
 40
0.0
  9
$DIMAZIN
 70
     0
  9
$DIMDSEP
 70
    46
  9
$DIMATFIT
 70
     3
  9
$DIMFRAC
 70
     0
  9
$DIMLDRBLK
  1

  9
$DIMLUNIT
 70
     2
  9
$DIMLWD
 70
    -2
  9
$DIMLWE
 70
    -2
  9
$DIMTMOVE
 70
     2
  9
$DIMFXL
 40
1.0
  9
$DIMFXLON
 70
     0
  9
$DIMJOGANG
 40
0.7853981633974483
  9
$DIMTFILL
 70
     0
  9
$DIMTFILLCLR
 70
     0
  9
$DIMARCSYM
 70
     0
  9
$DIMLTYPE
  6

  9
$DIMLTEX1
  6

  9
$DIMLTEX2
  6

  9
$DIMTXTDIRECTION
 70
     0
  9
$LUNITS
 70
     2
  9
$LUPREC
 70
     4
  9
$SKETCHINC
 40
1.0
  9
$FILLETRAD
 40
1.0
  9
$AUNITS
 70
     0
  9
$AUPREC
 70
     0
  9
$MENU
  1
.
  9
$ELEVATION
 40
0.0
  9
$PELEVATION
 40
0.0
  9
$THICKNESS
 40
0.0
  9
$LIMCHECK
 70
     0
  9
$CHAMFERA
 40
10.0
  9
$CHAMFERB
 40
10.0
  9
$CHAMFERC
 40
20.0
  9
$CHAMFERD
 40
0.0
  9
$SKPOLY
 70
     0
  9
$TDCREATE
 40
2453866.557479954
  9
$TDUCREATE
 40
2453866.182479954
  9
$TDUPDATE
 40
2459762.616868287
  9
$TDUUPDATE
 40
2459762.241868287
  9
$TDINDWG
 40
0.8160821412
  9
$TDUSRTIMER
 40
0.0022024769
  9
$USRTIMER
 70
     1
  9
$ANGBASE
 50
0.0
  9
$ANGDIR
 70
     0
  9
$PDMODE
 70
     0
  9
$PDSIZE
 40
0.0
  9
$PLINEWID
 40
0.0
  9
$SPLFRAME
 70
     0
  9
$SPLINETYPE
 70
     6
  9
$SPLINESEGS
 70
     8
  9
$HANDSEED
  5
3AD3
  9
$SURFTAB1
 70
     6
  9
$SURFTAB2
 70
     6
  9
$SURFTYPE
 70
     6
  9
$SURFU
 70
     6
  9
$SURFV
 70
     6
  9
$UCSBASE
  2

  9
$UCSNAME
  2

  9
$UCSORG
 10
0.0
 20
0.0
 30
0.0
  9
$UCSXDIR
 10
1.0
 20
0.0
 30
0.0
  9
$UCSYDIR
 10
0.0
 20
1.0
 30
0.0
  9
$UCSORTHOREF
  2

  9
$UCSORTHOVIEW
 70
     0
  9
$UCSORGTOP
 10
0.0
 20
0.0
 30
0.0
  9
$UCSORGBOTTOM
 10
0.0
 20
0.0
 30
0.0
  9
$UCSORGLEFT
 10
0.0
 20
0.0
 30
0.0
  9
$UCSORGRIGHT
 10
0.0
 20
0.0
 30
0.0
  9
$UCSORGFRONT
 10
0.0
 20
0.0
 30
0.0
  9
$UCSORGBACK
 10
0.0
 20
0.0
 30
0.0
  9
$PUCSBASE
  2

  9
$PUCSNAME
  2

  9
$PUCSORG
 10
0.0
 20
0.0
 30
0.0
  9
$PUCSXDIR
 10
1.0
 20
0.0
 30
0.0
  9
$PUCSYDIR
 10
0.0
 20
1.0
 30
0.0
  9
$PUCSORTHOREF
  2

  9
$PUCSORTHOVIEW
 70
     0
  9
$PUCSORGTOP
 10
0.0
 20
0.0
 30
0.0
  9
$PUCSORGBOTTOM
 10
0.0
 20
0.0
 30
0.0
  9
$PUCSORGLEFT
 10
0.0
 20
0.0
 30
0.0
  9
$PUCSORGRIGHT
 10
0.0
 20
0.0
 30
0.0
  9
$PUCSORGFRONT
 10
0.0
 20
0.0
 30
0.0
  9
$PUCSORGBACK
 10
0.0
 20
0.0
 30
0.0
  9
$USERI1
 70
     0
  9
$USERI2
 70
     0
  9
$USERI3
 70
     0
  9
$USERI4
 70
     0
  9
$USERI5
 70
     0
  9
$USERR1
 40
0.0
  9
$USERR2
 40
0.0
  9
$USERR3
 40
0.0
  9
$USERR4
 40
0.0
  9
$USERR5
 40
0.0
  9
$WORLDVIEW
 70
     1
  9
$SHADEDGE
 70
     3
  9
$SHADEDIF
 70
    70
  9
$TILEMODE
 70
     1
  9
$MAXACTVP
 70
    64
  9
$PINSBASE
 10
0.0
 20
0.0
 30
0.0
  9
$PLIMCHECK
 70
     0
  9
$PEXTMIN
 10
1.000000000000000E+20
 20
1.000000000000000E+20
 30
1.000000000000000E+20
  9
$PEXTMAX
 10
-1.000000000000000E+20
 20
-1.000000000000000E+20
 30
-1.000000000000000E+20
  9
$PLIMMIN
 10
0.0
 20
0.0
  9
$PLIMMAX
 10
0.0
 20
0.0
  9
$UNITMODE
 70
     0
  9
$VISRETAIN
 70
     1
  9
$PLINEGEN
 70
     0
  9
$PSLTSCALE
 70
     1
  9
$TREEDEPTH
 70
  3020
  9
$CMLSTYLE
  2
Standard
  9
$CMLJUST
 70
     0
  9
$CMLSCALE
 40
20.0
  9
$PROXYGRAPHICS
 70
     1
  9
$MEASUREMENT
 70
     1
  9
$CELWEIGHT
370
    -1
  9
$ENDCAPS
280
     0
  9
$JOINSTYLE
280
     0
  9
$LWDISPLAY
290
     0
  9
$INSUNITS
 70
     4
  9
$HYPERLINKBASE
  1

  9
$STYLESHEET
  1

  9
$XEDIT
290
     1
  9
$CEPSNTYPE
380
     0
  9
$PSTYLEMODE
290
     1
  9
$FINGERPRINTGUID
  2
{49B20B3B-064E-400B-9469-2837C497CFA5}
  9
$VERSIONGUID
  2
{CCDC3A7D-9D77-4BF9-B421-98E64B28052D}
  9
$EXTNAMES
290
     1
  9
$PSVPSCALE
 40
0.0
  9
$OLESTARTUP
290
     0
  9
$SORTENTS
280
    96
  9
$INDEXCTL
280
     0
  9
$HIDETEXT
280
     1
  9
$XCLIPFRAME
280
     2
  9
$HALOGAP
280
     0
  9
$OBSCOLOR
 70
   257
  9
$OBSLTYPE
280
     0
  9
$INTERSECTIONDISPLAY
280
     0
  9
$INTERSECTIONCOLOR
 70
   257
  9
$DIMASSOC
280
     2
  9
$PROJECTNAME
  1

  9
$CAMERADISPLAY
290
     0
  9
$LENSLENGTH
 40
50.0
  9
$CAMERAHEIGHT
 40
0.0
  9
$STEPSPERSEC
 40
2.0
  9
$STEPSIZE
 40
6.0
  9
$3DDWFPREC
 40
2.0
  9
$PSOLWIDTH
 40
0.25
  9
$PSOLHEIGHT
 40
4.0
  9
$LOFTANG1
 40
1.570796326794897
  9
$LOFTANG2
 40
1.570796326794897
  9
$LOFTMAG1
 40
0.0
  9
$LOFTMAG2
 40
0.0
  9
$LOFTPARAM
 70
     7
  9
$LOFTNORMALS
280
     1
  9
$LATITUDE
 40
37.795
  9
$LONGITUDE
 40
-122.394
  9
$NORTHDIRECTION
 40
0.0
  9
$TIMEZONE
 70
 -8000
  9
$LIGHTGLYPHDISPLAY
280
     1
  9
$TILEMODELIGHTSYNCH
280
     1
  9
$SOLIDHIST
280
     0
  9
$SHOWHIST
280
     1
  9
$DWFFRAME
280
     2
  9
$DGNFRAME
280
     2
  9
$REALWORLDSCALE
290
     1
  9
$INTERFERECOLOR
 62
   256
  9
$CSHADOW
280
     0
  9
$SHADOWPLANELOCATION
 40
0.0
  0
ENDSEC
  0
SECTION
  2
CLASSES
  0
CLASS
  1
ACDBDICTIONARYWDFLT
  2
AcDbDictionaryWithDefault
  3
ObjectDBX Classes
 90
        0
 91
        3
280
     0
281
     0
  0
CLASS
  1
ACDBPLACEHOLDER
  2
AcDbPlaceHolder
  3
ObjectDBX Classes
 90
        0
 91
        1
280
     0
281
     0
  0
CLASS
  1
LAYOUT
  2
AcDbLayout
  3
ObjectDBX Classes
 90
        0
 91
        1
280
     0
281
     0
  0
CLASS
  1
DICTIONARYVAR
  2
AcDbDictionaryVar
  3
ObjectDBX Classes
 90
        0
 91
        3
280
     0
281
     0
  0
CLASS
  1
SCALE
  2
AcDbScale
  3
ObjectDBX Classes
 90
     1153
 91
        3
280
     0
281
     0
  0
CLASS
  1
MATERIAL
  2
AcDbMaterial
  3
ObjectDBX Classes
 90
     1153
 91
        3
280
     0
281
     0
  0
CLASS
  1
VISUALSTYLE
  2
AcDbVisualStyle
  3
ObjectDBX Classes
 90
     4095
 91
        3
280
     0
281
     0
  0
CLASS
  1
TABLESTYLE
  2
AcDbTableStyle
  3
ObjectDBX Classes
 90
     4095
 91
        3
280
     0
281
     0
  0
CLASS
  1
RASTERVARIABLES
  2
AcDbRasterVariables
  3
ISM
 90
        0
 91
        3
280
     0
281
     0
  0
CLASS
  1
DIMASSOC
  2
AcDbDimAssoc
  3
"AcDbDimAssoc|Product Desc:     AcDim ARX App For Dimension|Company:          Autodesk, Inc.|WEB Address:      www.autodesk.com"
 90
        0
 91
        3
280
     0
281
     0
  0
CLASS
  1
MLEADERSTYLE
  2
AcDbMLeaderStyle
  3
ACDB_MLEADERSTYLE_CLASS
 90
     4095
 91
        3
280
     0
281
     0
  0
CLASS
  1
SUN
  2
AcDbSun
  3
SCENEOE
 90
     1153
 91
        3
280
     0
281
     0
  0
CLASS
  1
CELLSTYLEMAP
  2
AcDbCellStyleMap
  3
ObjectDBX Classes
 90
     1152
 91
        3
280
     0
281
     0
  0
ENDSEC
  0
SECTION
  2
TABLES
  0
TABLE
  2
VPORT
  5
8
330
0
100
AcDbSymbolTable
 70
     1
  0
VPORT
  5
934
330
8
100
AcDbSymbolTableRecord
100
AcDbViewportTableRecord
  2
*Active
 70
     0
 10
0.0
 20
0.0
 11
1.0
 21
1.0
 12
146.0
 22
102.5
 13
0.0
 23
0.0
 14
10.0
 24
10.0
 15
10.0
 25
10.0
 16
0.0
 26
0.0
 36
1.0
 17
0.0
 27
0.0
 37
0.0
 40
209.1
 41
1.737931034482759
 42
50.0
 43
0.0
 44
0.0
 50
0.0
 51
0.0
 71
    16
 72
   100
 73
     1
 74
     3
 75
     0
 76
     0
 77
     0
 78
     0
281
     0
 65
     1
110
0.0
120
0.0
130
0.0
111
1.0
121
0.0
131
0.0
112
0.0
122
1.0
132
0.0
 79
     0
146
0.0
348
398B
 60
     3
 61
     5
292
     1
282
     1
141
0.0
142
0.0
 63
   256
361
39AE
  0
ENDTAB
  0
TABLE
  2
LTYPE
  5
5
330
0
100
AcDbSymbolTable
 70
     5
  0
LTYPE
  5
14
330
5
100
AcDbSymbolTableRecord
100
AcDbLinetypeTableRecord
  2
ByBlock
 70
     0
  3

 72
    65
 73
     0
 40
0.0
  0
LTYPE
  5
15
330
5
100
AcDbSymbolTableRecord
100
AcDbLinetypeTableRecord
  2
ByLayer
 70
     0
  3

 72
    65
 73
     0
 40
0.0
  0
LTYPE
  5
16
330
5
100
AcDbSymbolTableRecord
100
AcDbLinetypeTableRecord
  2
Continuous
 70
     0
  3
Solid line
 72
    65
 73
     0
 40
0.0
  0
LTYPE
  5
C6
330
5
100
AcDbSymbolTableRecord
100
AcDbLinetypeTableRecord
  2
ACAD_ISO02W100
 70
     0
  3
ISO dash __ __ __ __ __ __ __ __ __ __ __ __ __
 72
    65
 73
     2
 40
15.0
 49
12.0
 74
     0
 49
-3.0
 74
     0
  0
LTYPE
  5
63F
330
5
100
AcDbSymbolTableRecord
100
AcDbLinetypeTableRecord
  2
HIDDEN
 70
     0
  3
Hidden __ __ __ __ __ __ __ __ __ __ __ __ __ _
 72
    65
 73
     2
 40
4.5
 49
3.0
 74
     0
 49
-1.5
 74
     0
  0
LTYPE
  5
7A5
330
5
100
AcDbSymbolTableRecord
100
AcDbLinetypeTableRecord
  2
ACAD_ISO07W100
 70
     0
  3
ISO dot . . . . . . . . . . . . . . . . . . . .
 72
    65
 73
     2
 40
3.0
 49
0.0
 74
     0
 49
-3.0
 74
     0
  0
LTYPE
  5
A8D
330
5
100
AcDbSymbolTableRecord
100
AcDbLinetypeTableRecord
  2
CENTER2
 70
     0
  3
Center (.5x) ___ _ ___ _ ___ _ ___ _ ___ _ ___
 72
    65
 73
     4
 40
28.575
 49
19.05
 74
     0
 49
-3.175
 74
     0
 49
3.175
 74
     0
 49
-3.175
 74
     0
  0
ENDTAB
  0
TABLE
  2
LAYER
  5
2
102
{ACAD_XDICTIONARY
360
970
102
}
330
0
100
AcDbSymbolTable
 70
    18
  0
LAYER
  5
10
330
2
100
AcDbSymbolTableRecord
100
AcDbLayerTableRecord
  2
0
 70
     0
 62
     7
  6
Continuous
370
    -3
390
F
347
39A2
  0
LAYER
  5
110
330
2
100
AcDbSymbolTableRecord
100
AcDbLayerTableRecord
  2
Defpoints
 70
     0
 62
     7
  6
Continuous
290
     0
370
    -3
390
F
347
39A2
  0
LAYER
  5
4E7
330
2
100
AcDbSymbolTableRecord
100
AcDbLayerTableRecord
  2
100
 70
     0
 62
     7
  6
ACAD_ISO07W100
370
    -3
390
F
347
39A2
  0
LAYER
  5
68D
330
2
100
AcDbSymbolTableRecord
100
AcDbLayerTableRecord
  2
用紙範囲
 70
     0
 62
    10
  6
Continuous
370
    -3
390
F
347
39A2
  0
LAYER
  5
68E
330
2
100
AcDbSymbolTableRecord
100
AcDbLayerTableRecord
  2
枠
 70
     0
 62
   112
  6
Continuous
370
    -3
390
F
347
39A2
  0
LAYER
  5
68F
330
2
100
AcDbSymbolTableRecord
100
AcDbLayerTableRecord
  2
寸法
 70
     0
 62
    90
  6
Continuous
370
    -3
390
F
347
39A2
  0
LAYER
  5
690
330
2
100
AcDbSymbolTableRecord
100
AcDbLayerTableRecord
  2
金属部分
 70
     0
 62
   170
  6
Continuous
370
    -3
390
F
347
39A2
  0
LAYER
  5
691
330
2
100
AcDbSymbolTableRecord
100
AcDbLayerTableRecord
  2
品番
 70
     0
 62
   244
  6
Continuous
370
    -3
390
F
347
39A2
  0
LAYER
  5
786
330
2
100
AcDbSymbolTableRecord
100
AcDbLayerTableRecord
  2
文字
 70
     0
 62
    40
  6
Continuous
370
    -3
390
F
347
39A2
  0
LAYER
  5
790
330
2
100
AcDbSymbolTableRecord
100
AcDbLayerTableRecord
  2
社名
 70
     0
 62
     1
  6
Continuous
370
    -3
390
F
347
39A2
  0
LAYER
  5
880
330
2
100
AcDbSymbolTableRecord
100
AcDbLayerTableRecord
  2
軟質樹脂部分
 70
     0
 62
    30
  6
Continuous
370
    -3
390
F
347
39A2
  0
LAYER
  5
896
330
2
100
AcDbSymbolTableRecord
100
AcDbLayerTableRecord
  2
TOS_M1
 70
     0
 62
     7
  6
Continuous
370
    -3
390
F
347
39A2
  0
LAYER
  5
897
330
2
100
AcDbSymbolTableRecord
100
AcDbLayerTableRecord
  2
TOS_S1
 70
     0
 62
     4
  6
Continuous
370
    -3
390
F
347
39A2
  0
LAYER
  5
A57
330
2
100
AcDbSymbolTableRecord
100
AcDbLayerTableRecord
  2
補助
 70
     0
 62
     7
  6
HIDDEN
370
    -3
390
F
347
39A2
1001
AcAecLayerStandard
1000

1000

  0
LAYER
  5
A86
102
{ACAD_XDICTIONARY
360
A87
102
}
330
2
100
AcDbSymbolTableRecord
100
AcDbLayerTableRecord
  2
SCALE
 70
     0
 62
     3
  6
Continuous
370
    -3
390
F
347
39A2
  0
LAYER
  5
A8A
102
{ACAD_XDICTIONARY
360
A8B
102
}
330
2
100
AcDbSymbolTableRecord
100
AcDbLayerTableRecord
  2
Hojo
 70
     0
 62
   111
  6
Continuous
370
    -3
390
F
347
39A2
  0
LAYER
  5
2076
330
2
100
AcDbSymbolTableRecord
100
AcDbLayerTableRecord
  2
硬質樹脂部分
 70
     0
 62
   220
  6
Continuous
370
    -3
390
F
347
39A2
1001
AcAecLayerStandard
1000

1000

  0
LAYER
  5
34A4
330
2
100
AcDbSymbolTableRecord
100
AcDbLayerTableRecord
  2
両面テープ
 70
     0
 62
     7
  6
Continuous
370
    -3
390
F
347
39A2
1001
AcAecLayerStandard
1000

1000

  0
ENDTAB
  0
TABLE
  2
STYLE
  5
3
330
0
100
AcDbSymbolTable
 70
     2
  0
STYLE
  5
11
330
3
100
AcDbSymbolTableRecord
100
AcDbTextStyleTableRecord
  2
Standard
 70
     0
 40
0.0
 41
1.0
 50
0.0
 71
     0
 42
2.5
  3
txt.shx
  4
bigfont.shx
  0
STYLE
  5
C5
330
3
100
AcDbSymbolTableRecord
100
AcDbTextStyleTableRecord
  2

 70
     1
 40
0.0
 41
1.0
 50
0.0
 71
     0
 42
2.5
  3
ltypeshp.shx
  4

  0
ENDTAB
  0
TABLE
  2
VIEW
  5
6
330
0
100
AcDbSymbolTable
 70
     0
  0
ENDTAB
  0
TABLE
  2
UCS
  5
7
330
0
100
AcDbSymbolTable
 70
     0
  0
ENDTAB
  0
TABLE
  2
APPID
  5
9
330
0
100
AcDbSymbolTable
 70
     6
  0
APPID
  5
12
330
9
100
AcDbSymbolTableRecord
100
AcDbRegAppTableRecord
  2
ACAD
 70
     0
  0
APPID
  5
A58
330
9
100
AcDbSymbolTableRecord
100
AcDbRegAppTableRecord
  2
AcAecLayerStandard
 70
     0
  0
APPID
  5
A97
330
9
100
AcDbSymbolTableRecord
100
AcDbRegAppTableRecord
  2
ACAD_NAV_VCDISPLAY
 70
     0
  0
APPID
  5
A98
330
9
100
AcDbSymbolTableRecord
100
AcDbRegAppTableRecord
  2
ACAD_PSEXT
 70
     0
  0
APPID
  5
B15
330
9
100
AcDbSymbolTableRecord
100
AcDbRegAppTableRecord
  2
ACAD_DSTYLE_DIMRADIAL_EXTENSION
 70
     0
  0
APPID
  5
3A66
330
9
100
AcDbSymbolTableRecord
100
AcDbRegAppTableRecord
  2
PLOTTRANSPARENCY
 70
     0
  0
ENDTAB
  0
TABLE
  2
DIMSTYLE
  5
A
330
0
100
AcDbSymbolTable
 70
     4
100
AcDbDimStyleTable
  0
DIMSTYLE
105
27
102
{ACAD_REACTORS
330
2E4B
330
2E5B
330
2E6B
330
2E9B
330
383D
330
385C
330
386D
330
387D
330
3A48
330
3A94
330
3AAA
330
3AAC
102
}
330
A
100
AcDbSymbolTableRecord
100
AcDbDimStyleTableRecord
  2
ISO-25
 70
     0
 41
1.5
 42
0.625
 43
3.75
 44
1.25
 77
     1
 78
     8
140
2.0
141
2.5
143
0.03937007874016
147
0.625
171
     3
178
     0
271
     2
272
     2
274
     3
279
     2
283
     0
284
     8
288
     1
340
11
  0
DIMSTYLE
105
4E8
330
A
100
AcDbSymbolTableRecord
100
AcDbDimStyleTableRecord
  2
Standard
 70
     0
178
     0
340
11
  0
DIMSTYLE
105
14C6
330
A
100
AcDbSymbolTableRecord
100
AcDbDimStyleTableRecord
  2
ISO-1
 70
     0
 41
2.5
 42
0.625
 43
3.75
 44
1.25
 77
     1
 78
     8
140
5.0
141
0.0
143
0.03937007874016
144
0.5
147
0.625
171
     3
178
     0
271
     2
272
     2
274
     3
279
     2
283
     0
284
     8
288
     1
340
11
  0
DIMSTYLE
105
2BCC
330
A
100
AcDbSymbolTableRecord
100
AcDbDimStyleTableRecord
  2
ISO-2
 70
     0
 41
2.5
 42
0.625
 43
3.75
 44
1.25
 77
     1
 78
     8
140
5.0
141
0.0
143
0.03937007874016
144
0.2
147
0.625
171
     3
178
     0
271
     2
272
     2
274
     3
279
     2
283
     0
284
     8
288
     1
340
11
  0
ENDTAB
  0
TABLE
  2
BLOCK_RECORD
  5
1
330
0
100
AcDbSymbolTable
 70
    57
  0
BLOCK_RECORD
  5
1F
330
1
100
AcDbSymbolTableRecord
100
AcDbBlockTableRecord
  2
*Model_Space
340
22
 70
     0
280
     1
281
     0
  0
BLOCK_RECORD
  5
1B
330
1
100
AcDbSymbolTableRecord
100
AcDbBlockTableRecord
  2
*Paper_Space
340
1E
 70
     0
280
     1
281
     0
  0
BLOCK_RECORD
  5
23
330
1
100
AcDbSymbolTableRecord
100
AcDbBlockTableRecord
  2
*Paper_Space0
340
26
 70
     0
280
     1
281
     0
  0
BLOCK_RECORD
  5
A91
330
1
100
AcDbSymbolTableRecord
100
AcDbBlockTableRecord
  2
_OPEN
340
0
 70
     0
280
     1
281
     0
  0
BLOCK_RECORD
  5
2D6A
330
1
100
AcDbSymbolTableRecord
100
AcDbBlockTableRecord
  2
*D2
340
0
 70
     0
280
     1
281
     0
  0
BLOCK_RECORD
  5
2D7A
330
1
100
AcDbSymbolTableRecord
100
AcDbBlockTableRecord
  2
*D3
340
0
 70
     0
280
     1
281
     0
  0
BLOCK_RECORD
  5
2D8E
330
1
100
AcDbSymbolTableRecord
100
AcDbBlockTableRecord
  2
*D4
340
0
 70
     0
280
     1
281
     0
  0
BLOCK_RECORD
  5
2D9C
330
1
100
AcDbSymbolTableRecord
100
AcDbBlockTableRecord
  2
*D5
340
0
 70
     0
280
     1
281
     0
  0
BLOCK_RECORD
  5
2DAA
330
1
100
AcDbSymbolTableRecord
100
AcDbBlockTableRecord
  2
*D6
340
0
 70
     0
280
     1
281
     0
  0
BLOCK_RECORD
  5
2DB8
330
1
100
AcDbSymbolTableRecord
100
AcDbBlockTableRecord
  2
*D7
340
0
 70
     0
280
     1
281
     0
  0
BLOCK_RECORD
  5
2DC6
330
1
100
AcDbSymbolTableRecord
100
AcDbBlockTableRecord
  2
*D8
340
0
 70
     0
280
     1
281
     0
  0
BLOCK_RECORD
  5
2DD4
330
1
100
AcDbSymbolTableRecord
100
AcDbBlockTableRecord
  2
*D9
340
0
 70
     0
280
     1
281
     0
  0
BLOCK_RECORD
  5
2DE2
330
1
100
AcDbSymbolTableRecord
100
AcDbBlockTableRecord
  2
*D10
340
0
 70
     0
280
     1
281
     0
  0
BLOCK_RECORD
  5
2DF0
330
1
100
AcDbSymbolTableRecord
100
AcDbBlockTableRecord
  2
*D11
340
0
 70
     0
280
     1
281
     0
  0
BLOCK_RECORD
  5
2DFE
330
1
100
AcDbSymbolTableRecord
100
AcDbBlockTableRecord
  2
*D12
340
0
 70
     0
280
     1
281
     0
  0
BLOCK_RECORD
  5
2E0E
330
1
100
AcDbSymbolTableRecord
100
AcDbBlockTableRecord
  2
*D13
340
0
 70
     0
280
     1
281
     0
  0
BLOCK_RECORD
  5
2E4E
330
1
100
AcDbSymbolTableRecord
100
AcDbBlockTableRecord
  2
*D14
340
0
 70
     0
280
     1
281
     0
  0
BLOCK_RECORD
  5
2E5E
330
1
100
AcDbSymbolTableRecord
100
AcDbBlockTableRecord
  2
*D15
340
0
 70
     0
280
     1
281
     0
  0
BLOCK_RECORD
  5
2E6E
330
1
100
AcDbSymbolTableRecord
100
AcDbBlockTableRecord
  2
*D16
340
0
 70
     0
280
     1
281
     0
  0
BLOCK_RECORD
  5
2E7E
330
1
100
AcDbSymbolTableRecord
100
AcDbBlockTableRecord
  2
*D17
340
0
 70
     0
280
     1
281
     0
  0
BLOCK_RECORD
  5
2E9E
330
1
100
AcDbSymbolTableRecord
100
AcDbBlockTableRecord
  2
*D18
340
0
 70
     0
280
     1
281
     0
  0
BLOCK_RECORD
  5
2EAD
330
1
100
AcDbSymbolTableRecord
100
AcDbBlockTableRecord
  2
*D19
340
0
 70
     0
280
     1
281
     0
  0
BLOCK_RECORD
  5
2EBE
330
1
100
AcDbSymbolTableRecord
100
AcDbBlockTableRecord
  2
*D20
340
0
 70
     0
280
     1
281
     0
  0
BLOCK_RECORD
  5
2ECE
330
1
100
AcDbSymbolTableRecord
100
AcDbBlockTableRecord
  2
*D21
340
0
 70
     0
280
     1
281
     0
  0
BLOCK_RECORD
  5
2EDE
330
1
100
AcDbSymbolTableRecord
100
AcDbBlockTableRecord
  2
*D22
340
0
 70
     0
280
     1
281
     0
  0
BLOCK_RECORD
  5
2EEE
330
1
100
AcDbSymbolTableRecord
100
AcDbBlockTableRecord
  2
*D23
340
0
 70
     0
280
     1
281
     0
  0
BLOCK_RECORD
  5
2F1D
330
1
100
AcDbSymbolTableRecord
100
AcDbBlockTableRecord
  2
*D24
340
0
 70
     0
280
     1
281
     0
  0
BLOCK_RECORD
  5
3516
330
1
100
AcDbSymbolTableRecord
100
AcDbBlockTableRecord
  2
*D25
340
0
 70
     0
280
     1
281
     0
  0
BLOCK_RECORD
  5
3530
330
1
100
AcDbSymbolTableRecord
100
AcDbBlockTableRecord
  2
*D26
340
0
 70
     0
280
     1
281
     0
  0
BLOCK_RECORD
  5
354A
330
1
100
AcDbSymbolTableRecord
100
AcDbBlockTableRecord
  2
*D27
340
0
 70
     0
280
     1
281
     0
  0
BLOCK_RECORD
  5
3557
330
1
100
AcDbSymbolTableRecord
100
AcDbBlockTableRecord
  2
*D28
340
0
 70
     0
280
     1
281
     0
  0
BLOCK_RECORD
  5
3564
330
1
100
AcDbSymbolTableRecord
100
AcDbBlockTableRecord
  2
*D29
340
0
 70
     0
280
     1
281
     0
  0
BLOCK_RECORD
  5
3571
330
1
100
AcDbSymbolTableRecord
100
AcDbBlockTableRecord
  2
*D30
340
0
 70
     0
280
     1
281
     0
  0
BLOCK_RECORD
  5
36B6
330
1
100
AcDbSymbolTableRecord
100
AcDbBlockTableRecord
  2
*D31
340
0
 70
     0
280
     1
281
     0
  0
BLOCK_RECORD
  5
36C3
330
1
100
AcDbSymbolTableRecord
100
AcDbBlockTableRecord
  2
*D32
340
0
 70
     0
280
     1
281
     0
  0
BLOCK_RECORD
  5
36D0
330
1
100
AcDbSymbolTableRecord
100
AcDbBlockTableRecord
  2
*D33
340
0
 70
     0
280
     1
281
     0
  0
BLOCK_RECORD
  5
371A
330
1
100
AcDbSymbolTableRecord
100
AcDbBlockTableRecord
  2
*D34
340
0
 70
     0
280
     1
281
     0
  0
BLOCK_RECORD
  5
3773
330
1
100
AcDbSymbolTableRecord
100
AcDbBlockTableRecord
  2
*D35
340
0
 70
     0
280
     1
281
     0
  0
BLOCK_RECORD
  5
379C
330
1
100
AcDbSymbolTableRecord
100
AcDbBlockTableRecord
  2
*D36
340
0
 70
     0
280
     1
281
     0
  0
BLOCK_RECORD
  5
37EF
330
1
100
AcDbSymbolTableRecord
100
AcDbBlockTableRecord
  2
*D37
340
0
 70
     0
280
     1
281
     0
  0
BLOCK_RECORD
  5
381F
330
1
100
AcDbSymbolTableRecord
100
AcDbBlockTableRecord
  2
*D38
340
0
 70
     0
280
     1
281
     0
  0
BLOCK_RECORD
  5
382F
330
1
100
AcDbSymbolTableRecord
100
AcDbBlockTableRecord
  2
*D39
340
0
 70
     0
280
     1
281
     0
  0
BLOCK_RECORD
  5
3840
330
1
100
AcDbSymbolTableRecord
100
AcDbBlockTableRecord
  2
*D40
340
0
 70
     0
280
     1
281
     0
  0
BLOCK_RECORD
  5
385F
330
1
100
AcDbSymbolTableRecord
100
AcDbBlockTableRecord
  2
*D41
340
0
 70
     0
280
     1
281
     0
  0
BLOCK_RECORD
  5
3870
330
1
100
AcDbSymbolTableRecord
100
AcDbBlockTableRecord
  2
*D42
340
0
 70
     0
280
     1
281
     0
  0
BLOCK_RECORD
  5
3880
330
1
100
AcDbSymbolTableRecord
100
AcDbBlockTableRecord
  2
*D43
340
0
 70
     0
280
     1
281
     0
  0
BLOCK_RECORD
  5
38B7
330
1
100
AcDbSymbolTableRecord
100
AcDbBlockTableRecord
  2
*D44
340
0
 70
     0
280
     1
281
     0
  0
BLOCK_RECORD
  5
38C7
330
1
100
AcDbSymbolTableRecord
100
AcDbBlockTableRecord
  2
*D45
340
0
 70
     0
280
     1
281
     0
  0
BLOCK_RECORD
  5
38D8
330
1
100
AcDbSymbolTableRecord
100
AcDbBlockTableRecord
  2
*D46
340
0
 70
     0
280
     1
281
     0
  0
BLOCK_RECORD
  5
38E8
330
1
100
AcDbSymbolTableRecord
100
AcDbBlockTableRecord
  2
*D47
340
0
 70
     0
280
     1
281
     0
  0
BLOCK_RECORD
  5
3904
330
1
100
AcDbSymbolTableRecord
100
AcDbBlockTableRecord
  2
*D48
340
0
 70
     0
280
     1
281
     0
  0
BLOCK_RECORD
  5
391A
330
1
100
AcDbSymbolTableRecord
100
AcDbBlockTableRecord
  2
*D49
340
0
 70
     0
280
     1
281
     0
  0
BLOCK_RECORD
  5
3938
330
1
100
AcDbSymbolTableRecord
100
AcDbBlockTableRecord
  2
*D50
340
0
 70
     0
280
     1
281
     0
  0
BLOCK_RECORD
  5
3948
330
1
100
AcDbSymbolTableRecord
100
AcDbBlockTableRecord
  2
*D51
340
0
 70
     0
280
     1
281
     0
  0
BLOCK_RECORD
  5
3958
330
1
100
AcDbSymbolTableRecord
100
AcDbBlockTableRecord
  2
*D52
340
0
 70
     0
280
     1
281
     0
  0
BLOCK_RECORD
  5
3968
330
1
100
AcDbSymbolTableRecord
100
AcDbBlockTableRecord
  2
*D53
340
0
 70
     0
280
     1
281
     0
  0
BLOCK_RECORD
  5
39BF
330
1
100
AcDbSymbolTableRecord
100
AcDbBlockTableRecord
  2
*D54
340
0
 70
     0
280
     1
281
     0
  0
BLOCK_RECORD
  5
39DA
330
1
100
AcDbSymbolTableRecord
100
AcDbBlockTableRecord
  2
*D55
340
0
 70
     0
280
     1
281
     0
  0
BLOCK_RECORD
  5
3AAF
330
1
100
AcDbSymbolTableRecord
100
AcDbBlockTableRecord
  2
*D56
340
0
 70
     0
280
     1
281
     0
  0
ENDTAB
  0
ENDSEC
  0
SECTION
  2
BLOCKS
  0
BLOCK
  5
20
330
1F
100
AcDbEntity
  8
0
100
AcDbBlockBegin
  2
*Model_Space
 70
     0
 10
0.0
 20
0.0
 30
0.0
  3
*Model_Space
  1
*Model_Space
  0
ENDBLK
  5
21
330
1F
100
AcDbEntity
  8
0
100
AcDbBlockEnd
  0
BLOCK
  5
1C
330
1B
100
AcDbEntity
 67
     1
  8
0
100
AcDbBlockBegin
  2
*Paper_Space
 70
     0
 10
0.0
 20
0.0
 30
0.0
  3
*Paper_Space
  1
*Paper_Space
  0
ENDBLK
  5
1D
330
1B
100
AcDbEntity
 67
     1
  8
0
100
AcDbBlockEnd
  0
BLOCK
  5
24
330
23
100
AcDbEntity
  8
0
100
AcDbBlockBegin
  2
*Paper_Space0
 70
     0
 10
0.0
 20
0.0
 30
0.0
  3
*Paper_Space0
  1
*Paper_Space0
  0
ENDBLK
  5
25
330
23
100
AcDbEntity
  8
0
100
AcDbBlockEnd
  0
BLOCK
  5
A92
330
A91
100
AcDbEntity
  8
0
100
AcDbBlockBegin
  2
_OPEN
 70
     0
 10
0.0
 20
0.0
 30
0.0
  3
_OPEN
  1
_OPEN
  0
LINE
  5
A93
330
A91
100
AcDbEntity
  8
0
  6
ByBlock
 62
     0
100
AcDbLine
 10
-1.0
 20
0.1666666666666667
 30
0.0
 11
0.0
 21
0.0
 31
0.0
  0
LINE
  5
A94
330
A91
100
AcDbEntity
  8
0
  6
ByBlock
 62
     0
100
AcDbLine
 10
0.0
 20
0.0
 30
0.0
 11
-1.0
 21
-0.1666666666666667
 31
0.0
  0
LINE
  5
A95
330
A91
100
AcDbEntity
  8
0
  6
ByBlock
 62
     0
100
AcDbLine
 10
0.0
 20
0.0
 30
0.0
 11
-1.0
 21
0.0
 31
0.0
  0
ENDBLK
  5
A96
330
A91
100
AcDbEntity
  8
0
100
AcDbBlockEnd
  0
BLOCK
  5
2D6B
330
2D6A
100
AcDbEntity
  8
0
100
AcDbBlockBegin
  2
*D2
 70
     1
 10
0.0
 20
0.0
 30
0.0
  3
*D2
  1
*D269
  0
LINE
  5
2D6D
330
2D6A
100
AcDbEntity
  8
寸法
  6
Continuous
 62
     0
370
    -2
100
AcDbLine
 10
118.2513344569852
 20
135.0994429882005
 30
0.0
 11
106.4082212386542
 21
135.0994429882005
 31
0.0
  0
LINE
  5
2D6E
330
2D6A
100
AcDbEntity
  8
寸法
  6
Continuous
 62
     0
370
    -2
100
AcDbLine
 10
116.2513344569852
 20
133.5994429882005
 30
0.0
 11
106.4082212386542
 21
133.5994429882005
 31
0.0
  0
LINE
  5
2D6F
330
2D6A
100
AcDbEntity
  8
寸法
  6
Continuous
 62
     0
370
    -2
100
AcDbLine
 10
107.6582212386542
 20
136.5994429882005
 30
0.0
 11
107.6582212386542
 21
138.0994429882005
 31
0.0
  0
LINE
  5
2D70
330
2D6A
100
AcDbEntity
  8
寸法
  6
Continuous
 62
     0
370
    -2
100
AcDbLine
 10
107.6582212386542
 20
132.0994429882005
 30
0.0
 11
107.6582212386542
 21
130.5994429882005
 31
0.0
  0
SOLID
  5
2D71
330
2D6A
100
AcDbEntity
  8
寸法
 62
     0
100
AcDbTrace
 10
107.4082212386542
 20
136.5994429882005
 30
0.0
 11
107.9082212386542
 21
136.5994429882005
 31
0.0
 12
107.6582212386542
 22
135.0994429882005
 32
0.0
 13
107.6582212386542
 23
135.0994429882005
 33
0.0
  0
SOLID
  5
2D72
330
2D6A
100
AcDbEntity
  8
寸法
 62
     0
100
AcDbTrace
 10
107.9082212386542
 20
132.0994429882005
 30
0.0
 11
107.4082212386542
 21
132.0994429882005
 31
0.0
 12
107.6582212386542
 22
133.5994429882005
 32
0.0
 13
107.6582212386542
 23
133.5994429882005
 33
0.0
  0
MTEXT
  5
2D73
330
2D6A
100
AcDbEntity
  8
寸法
  6
Continuous
 62
     0
100
AcDbMText
 10
103.5136117771859
 20
135.1060617375448
 30
0.0
 40
2.0
 41
0.0
 46
0.0
 71
     5
 72
     1
  1
1.5
 73
     1
 44
1.0
  0
POINT
  5
2D74
330
2D6A
100
AcDbEntity
  8
Defpoints
 62
     0
100
AcDbPoint
 10
118.8763344569852
 20
135.0994429882005
 30
0.0
  0
POINT
  5
2D75
330
2D6A
100
AcDbEntity
  8
Defpoints
 62
     0
100
AcDbPoint
 10
116.8763344569852
 20
133.5994429882005
 30
0.0
  0
POINT
  5
2D76
330
2D6A
100
AcDbEntity
  8
Defpoints
 62
     0
100
AcDbPoint
 10
107.6582212386542
 20
133.5994429882005
 30
0.0
  0
ENDBLK
  5
2D6C
330
2D6A
100
AcDbEntity
  8
0
100
AcDbBlockEnd
  0
BLOCK
  5
2D7B
330
2D7A
100
AcDbEntity
  8
0
100
AcDbBlockBegin
  2
*D3
 70
     1
 10
0.0
 20
0.0
 30
0.0
  3
*D3
  1
*D270
  0
LINE
  5
2D7D
330
2D7A
100
AcDbEntity
  8
寸法
  6
Continuous
 62
     0
370
    -2
100
AcDbLine
 10
116.8763344569852
 20
134.2244429882005
 30
0.0
 11
116.8763344569852
 21
143.9142307601851
 31
0.0
  0
LINE
  5
2D7E
330
2D7A
100
AcDbEntity
  8
寸法
  6
Continuous
 62
     0
370
    -2
100
AcDbLine
 10
118.8763344569852
 20
134.5929519794256
 30
0.0
 11
118.8763344569852
 21
143.9142307601851
 31
0.0
  0
LINE
  5
2D7F
330
2D7A
100
AcDbEntity
  8
寸法
  6
Continuous
 62
     0
370
    -2
100
AcDbLine
 10
115.3763344569852
 20
142.6642307601851
 30
0.0
 11
113.8763344569852
 21
142.6642307601851
 31
0.0
  0
LINE
  5
2D80
330
2D7A
100
AcDbEntity
  8
寸法
  6
Continuous
 62
     0
370
    -2
100
AcDbLine
 10
120.3763344569852
 20
142.6642307601851
 30
0.0
 11
121.8763344569852
 21
142.6642307601851
 31
0.0
  0
SOLID
  5
2D81
330
2D7A
100
AcDbEntity
  8
寸法
 62
     0
100
AcDbTrace
 10
115.3763344569852
 20
142.4142307601851
 30
0.0
 11
115.3763344569852
 21
142.9142307601851
 31
0.0
 12
116.8763344569852
 22
142.6642307601851
 32
0.0
 13
116.8763344569852
 23
142.6642307601851
 33
0.0
  0
SOLID
  5
2D82
330
2D7A
100
AcDbEntity
  8
寸法
 62
     0
100
AcDbTrace
 10
120.3763344569852
 20
142.9142307601851
 30
0.0
 11
120.3763344569852
 21
142.4142307601851
 31
0.0
 12
118.8763344569852
 22
142.6642307601851
 32
0.0
 13
118.8763344569852
 23
142.6642307601851
 33
0.0
  0
MTEXT
  5
2D83
330
2D7A
100
AcDbEntity
  8
寸法
  6
Continuous
 62
     0
100
AcDbMText
 10
117.802029544126
 20
145.3779631456703
 30
0.0
 40
2.0
 41
0.0
 46
0.0
 71
     5
 72
     1
  1
2
 73
     1
 44
1.0
  0
POINT
  5
2D84
330
2D7A
100
AcDbEntity
  8
Defpoints
 62
     0
100
AcDbPoint
 10
116.8763344569852
 20
133.5994429882005
 30
0.0
  0
POINT
  5
2D85
330
2D7A
100
AcDbEntity
  8
Defpoints
 62
     0
100
AcDbPoint
 10
118.8763344569852
 20
133.9679519794256
 30
0.0
  0
POINT
  5
2D86
330
2D7A
100
AcDbEntity
  8
Defpoints
 62
     0
100
AcDbPoint
 10
118.8763344569852
 20
142.6642307601851
 30
0.0
  0
ENDBLK
  5
2D7C
330
2D7A
100
AcDbEntity
  8
0
100
AcDbBlockEnd
  0
BLOCK
  5
2D8F
330
2D8E
100
AcDbEntity
  8
0
100
AcDbBlockBegin
  2
*D4
 70
     1
 10
0.0
 20
0.0
 30
0.0
  3
*D4
  1
*D271
  0
LINE
  5
2D91
330
2D8E
100
AcDbEntity
  8
寸法
  6
Continuous
 62
     0
370
    -2
100
AcDbLine
 10
118.8763344569852
 20
134.5929519794256
 30
0.0
 11
118.8763344569852
 21
143.9142307601851
 31
0.0
  0
LINE
  5
2D92
330
2D8E
100
AcDbEntity
  8
寸法
  6
Continuous
 62
     0
370
    -2
100
AcDbLine
 10
121.8763344569852
 20
135.7244429882005
 30
0.0
 11
121.8763344569852
 21
143.9142307601851
 31
0.0
  0
LINE
  5
2D93
330
2D8E
100
AcDbEntity
  8
寸法
  6
Continuous
 62
     0
370
    -2
100
AcDbLine
 10
117.3763344569852
 20
142.6642307601851
 30
0.0
 11
115.8763344569852
 21
142.6642307601851
 31
0.0
  0
LINE
  5
2D94
330
2D8E
100
AcDbEntity
  8
寸法
  6
Continuous
 62
     0
370
    -2
100
AcDbLine
 10
123.3763344569852
 20
142.6642307601851
 30
0.0
 11
124.8763344569852
 21
142.6642307601851
 31
0.0
  0
SOLID
  5
2D95
330
2D8E
100
AcDbEntity
  8
寸法
 62
     0
100
AcDbTrace
 10
117.3763344569852
 20
142.4142307601851
 30
0.0
 11
117.3763344569852
 21
142.9142307601851
 31
0.0
 12
118.8763344569852
 22
142.6642307601851
 32
0.0
 13
118.8763344569852
 23
142.6642307601851
 33
0.0
  0
SOLID
  5
2D96
330
2D8E
100
AcDbEntity
  8
寸法
 62
     0
100
AcDbTrace
 10
123.3763344569852
 20
142.9142307601851
 30
0.0
 11
123.3763344569852
 21
142.4142307601851
 31
0.0
 12
121.8763344569852
 22
142.6642307601851
 32
0.0
 13
121.8763344569852
 23
142.6642307601851
 33
0.0
  0
MTEXT
  5
2D97
330
2D8E
100
AcDbEntity
  8
寸法
  6
Continuous
 62
     0
100
AcDbMText
 10
120.3763344569852
 20
145.3310895862847
 30
0.0
 40
2.0
 41
0.0
 46
0.0
 71
     5
 72
     1
  1
3
 73
     1
 44
1.0
  0
POINT
  5
2D98
330
2D8E
100
AcDbEntity
  8
Defpoints
 62
     0
100
AcDbPoint
 10
118.8763344569852
 20
133.9679519794256
 30
0.0
  0
POINT
  5
2D99
330
2D8E
100
AcDbEntity
  8
Defpoints
 62
     0
100
AcDbPoint
 10
121.8763344569852
 20
135.0994429882005
 30
0.0
  0
POINT
  5
2D9A
330
2D8E
100
AcDbEntity
  8
Defpoints
 62
     0
100
AcDbPoint
 10
121.8763344569852
 20
142.6642307601851
 30
0.0
  0
ENDBLK
  5
2D90
330
2D8E
100
AcDbEntity
  8
0
100
AcDbBlockEnd
  0
BLOCK
  5
2D9D
330
2D9C
100
AcDbEntity
  8
0
100
AcDbBlockBegin
  2
*D5
 70
     1
 10
0.0
 20
0.0
 30
0.0
  3
*D5
  1
*D272
  0
LINE
  5
2D9F
330
2D9C
100
AcDbEntity
  8
寸法
  6
Continuous
 62
     0
370
    -2
100
AcDbLine
 10
121.8763344569852
 20
135.7244429882005
 30
0.0
 11
121.8763344569852
 21
143.9142307601851
 31
0.0
  0
LINE
  5
2DA0
330
2D9C
100
AcDbEntity
  8
寸法
  6
Continuous
 62
     0
370
    -2
100
AcDbLine
 10
123.8763344569852
 20
135.7244429882005
 30
0.0
 11
123.8763344569852
 21
143.9142307601851
 31
0.0
  0
LINE
  5
2DA1
330
2D9C
100
AcDbEntity
  8
寸法
  6
Continuous
 62
     0
370
    -2
100
AcDbLine
 10
120.3763344569852
 20
142.6642307601851
 30
0.0
 11
118.8763344569852
 21
142.6642307601851
 31
0.0
  0
LINE
  5
2DA2
330
2D9C
100
AcDbEntity
  8
寸法
  6
Continuous
 62
     0
370
    -2
100
AcDbLine
 10
125.3763344569852
 20
142.6642307601851
 30
0.0
 11
126.8763344569852
 21
142.6642307601851
 31
0.0
  0
SOLID
  5
2DA3
330
2D9C
100
AcDbEntity
  8
寸法
 62
     0
100
AcDbTrace
 10
120.3763344569852
 20
142.4142307601851
 30
0.0
 11
120.3763344569852
 21
142.9142307601851
 31
0.0
 12
121.8763344569852
 22
142.6642307601851
 32
0.0
 13
121.8763344569852
 23
142.6642307601851
 33
0.0
  0
SOLID
  5
2DA4
330
2D9C
100
AcDbEntity
  8
寸法
 62
     0
100
AcDbTrace
 10
125.3763344569852
 20
142.9142307601851
 30
0.0
 11
125.3763344569852
 21
142.4142307601851
 31
0.0
 12
123.8763344569852
 22
142.6642307601851
 32
0.0
 13
123.8763344569852
 23
142.6642307601851
 33
0.0
  0
MTEXT
  5
2DA5
330
2D9C
100
AcDbEntity
  8
寸法
  6
Continuous
 62
     0
100
AcDbMText
 10
122.8763344569852
 20
145.4100345284079
 30
0.0
 40
2.0
 41
0.0
 46
0.0
 71
     5
 72
     1
  1
2
 73
     1
 44
1.0
  0
POINT
  5
2DA6
330
2D9C
100
AcDbEntity
  8
Defpoints
 62
     0
100
AcDbPoint
 10
121.8763344569852
 20
135.0994429882005
 30
0.0
  0
POINT
  5
2DA7
330
2D9C
100
AcDbEntity
  8
Defpoints
 62
     0
100
AcDbPoint
 10
123.8763344569852
 20
135.0994429882005
 30
0.0
  0
POINT
  5
2DA8
330
2D9C
100
AcDbEntity
  8
Defpoints
 62
     0
100
AcDbPoint
 10
123.8763344569852
 20
142.6642307601851
 30
0.0
  0
ENDBLK
  5
2D9E
330
2D9C
100
AcDbEntity
  8
0
100
AcDbBlockEnd
  0
BLOCK
  5
2DAB
330
2DAA
100
AcDbEntity
  8
0
100
AcDbBlockBegin
  2
*D6
 70
     1
 10
0.0
 20
0.0
 30
0.0
  3
*D6
  1
*D273
  0
LINE
  5
2DAD
330
2DAA
100
AcDbEntity
  8
寸法
  6
Continuous
 62
     0
370
    -2
100
AcDbLine
 10
123.8763344569852
 20
135.7244429882005
 30
0.0
 11
123.8763344569852
 21
143.9142307601851
 31
0.0
  0
LINE
  5
2DAE
330
2DAA
100
AcDbEntity
  8
寸法
  6
Continuous
 62
     0
370
    -2
100
AcDbLine
 10
126.8763344569852
 20
135.7244429882005
 30
0.0
 11
126.8763344569852
 21
143.9142307601851
 31
0.0
  0
LINE
  5
2DAF
330
2DAA
100
AcDbEntity
  8
寸法
  6
Continuous
 62
     0
370
    -2
100
AcDbLine
 10
122.3763344569852
 20
142.6642307601851
 30
0.0
 11
120.8763344569852
 21
142.6642307601851
 31
0.0
  0
LINE
  5
2DB0
330
2DAA
100
AcDbEntity
  8
寸法
  6
Continuous
 62
     0
370
    -2
100
AcDbLine
 10
128.3763344569852
 20
142.6642307601851
 30
0.0
 11
129.8763344569852
 21
142.6642307601851
 31
0.0
  0
SOLID
  5
2DB1
330
2DAA
100
AcDbEntity
  8
寸法
 62
     0
100
AcDbTrace
 10
122.3763344569852
 20
142.4142307601851
 30
0.0
 11
122.3763344569852
 21
142.9142307601851
 31
0.0
 12
123.8763344569852
 22
142.6642307601851
 32
0.0
 13
123.8763344569852
 23
142.6642307601851
 33
0.0
  0
SOLID
  5
2DB2
330
2DAA
100
AcDbEntity
  8
寸法
 62
     0
100
AcDbTrace
 10
128.3763344569852
 20
142.9142307601851
 30
0.0
 11
128.3763344569852
 21
142.4142307601851
 31
0.0
 12
126.8763344569852
 22
142.6642307601851
 32
0.0
 13
126.8763344569852
 23
142.6642307601851
 33
0.0
  0
MTEXT
  5
2DB3
330
2DAA
100
AcDbEntity
  8
寸法
  6
Continuous
 62
     0
100
AcDbMText
 10
125.3763344569852
 20
145.4100345284079
 30
0.0
 40
2.0
 41
0.0
 46
0.0
 71
     5
 72
     1
  1
3
 73
     1
 44
1.0
  0
POINT
  5
2DB4
330
2DAA
100
AcDbEntity
  8
Defpoints
 62
     0
100
AcDbPoint
 10
123.8763344569852
 20
135.0994429882005
 30
0.0
  0
POINT
  5
2DB5
330
2DAA
100
AcDbEntity
  8
Defpoints
 62
     0
100
AcDbPoint
 10
126.8763344569852
 20
135.0994429882005
 30
0.0
  0
POINT
  5
2DB6
330
2DAA
100
AcDbEntity
  8
Defpoints
 62
     0
100
AcDbPoint
 10
126.8763344569852
 20
142.6642307601851
 30
0.0
  0
ENDBLK
  5
2DAC
330
2DAA
100
AcDbEntity
  8
0
100
AcDbBlockEnd
  0
BLOCK
  5
2DB9
330
2DB8
100
AcDbEntity
  8
0
100
AcDbBlockBegin
  2
*D7
 70
     1
 10
0.0
 20
0.0
 30
0.0
  3
*D7
  1
*D274
  0
LINE
  5
2DBB
330
2DB8
100
AcDbEntity
  8
寸法
  6
Continuous
 62
     0
370
    -2
100
AcDbLine
 10
126.8763344569852
 20
135.7244429882005
 30
0.0
 11
126.8763344569852
 21
143.9142307601851
 31
0.0
  0
LINE
  5
2DBC
330
2DB8
100
AcDbEntity
  8
寸法
  6
Continuous
 62
     0
370
    -2
100
AcDbLine
 10
128.8763344569852
 20
135.7244429882005
 30
0.0
 11
128.8763344569852
 21
143.9142307601851
 31
0.0
  0
LINE
  5
2DBD
330
2DB8
100
AcDbEntity
  8
寸法
  6
Continuous
 62
     0
370
    -2
100
AcDbLine
 10
125.3763344569852
 20
142.6642307601851
 30
0.0
 11
123.8763344569852
 21
142.6642307601851
 31
0.0
  0
LINE
  5
2DBE
330
2DB8
100
AcDbEntity
  8
寸法
  6
Continuous
 62
     0
370
    -2
100
AcDbLine
 10
130.3763344569852
 20
142.6642307601851
 30
0.0
 11
131.8763344569852
 21
142.6642307601851
 31
0.0
  0
SOLID
  5
2DBF
330
2DB8
100
AcDbEntity
  8
寸法
 62
     0
100
AcDbTrace
 10
125.3763344569852
 20
142.4142307601851
 30
0.0
 11
125.3763344569852
 21
142.9142307601851
 31
0.0
 12
126.8763344569852
 22
142.6642307601851
 32
0.0
 13
126.8763344569852
 23
142.6642307601851
 33
0.0
  0
SOLID
  5
2DC0
330
2DB8
100
AcDbEntity
  8
寸法
 62
     0
100
AcDbTrace
 10
130.3763344569852
 20
142.9142307601851
 30
0.0
 11
130.3763344569852
 21
142.4142307601851
 31
0.0
 12
128.8763344569852
 22
142.6642307601851
 32
0.0
 13
128.8763344569852
 23
142.6642307601851
 33
0.0
  0
MTEXT
  5
2DC1
330
2DB8
100
AcDbEntity
  8
寸法
  6
Continuous
 62
     0
100
AcDbMText
 10
127.8763344569852
 20
145.4889794705311
 30
0.0
 40
2.0
 41
0.0
 46
0.0
 71
     5
 72
     1
  1
2
 73
     1
 44
1.0
  0
POINT
  5
2DC2
330
2DB8
100
AcDbEntity
  8
Defpoints
 62
     0
100
AcDbPoint
 10
126.8763344569852
 20
135.0994429882005
 30
0.0
  0
POINT
  5
2DC3
330
2DB8
100
AcDbEntity
  8
Defpoints
 62
     0
100
AcDbPoint
 10
128.8763344569852
 20
135.0994429882005
 30
0.0
  0
POINT
  5
2DC4
330
2DB8
100
AcDbEntity
  8
Defpoints
 62
     0
100
AcDbPoint
 10
128.8763344569852
 20
142.6642307601851
 30
0.0
  0
ENDBLK
  5
2DBA
330
2DB8
100
AcDbEntity
  8
0
100
AcDbBlockEnd
  0
BLOCK
  5
2DC7
330
2DC6
100
AcDbEntity
  8
0
100
AcDbBlockBegin
  2
*D8
 70
     1
 10
0.0
 20
0.0
 30
0.0
  3
*D8
  1
*D275
  0
LINE
  5
2DC9
330
2DC6
100
AcDbEntity
  8
寸法
  6
Continuous
 62
     0
370
    -2
100
AcDbLine
 10
128.8763344569852
 20
135.7244429882005
 30
0.0
 11
128.8763344569852
 21
143.9142307601851
 31
0.0
  0
LINE
  5
2DCA
330
2DC6
100
AcDbEntity
  8
寸法
  6
Continuous
 62
     0
370
    -2
100
AcDbLine
 10
131.8763344569852
 20
135.7244429882005
 30
0.0
 11
131.8763344569852
 21
143.9142307601851
 31
0.0
  0
LINE
  5
2DCB
330
2DC6
100
AcDbEntity
  8
寸法
  6
Continuous
 62
     0
370
    -2
100
AcDbLine
 10
127.3763344569852
 20
142.6642307601851
 30
0.0
 11
125.8763344569852
 21
142.6642307601851
 31
0.0
  0
LINE
  5
2DCC
330
2DC6
100
AcDbEntity
  8
寸法
  6
Continuous
 62
     0
370
    -2
100
AcDbLine
 10
133.3763344569852
 20
142.6642307601851
 30
0.0
 11
134.8763344569852
 21
142.6642307601851
 31
0.0
  0
SOLID
  5
2DCD
330
2DC6
100
AcDbEntity
  8
寸法
 62
     0
100
AcDbTrace
 10
127.3763344569852
 20
142.4142307601851
 30
0.0
 11
127.3763344569852
 21
142.9142307601851
 31
0.0
 12
128.8763344569852
 22
142.6642307601851
 32
0.0
 13
128.8763344569852
 23
142.6642307601851
 33
0.0
  0
SOLID
  5
2DCE
330
2DC6
100
AcDbEntity
  8
寸法
 62
     0
100
AcDbTrace
 10
133.3763344569852
 20
142.9142307601851
 30
0.0
 11
133.3763344569852
 21
142.4142307601851
 31
0.0
 12
131.8763344569852
 22
142.6642307601851
 32
0.0
 13
131.8763344569852
 23
142.6642307601851
 33
0.0
  0
MTEXT
  5
2DCF
330
2DC6
100
AcDbEntity
  8
寸法
  6
Continuous
 62
     0
100
AcDbMText
 10
130.3763344569852
 20
145.4889794705311
 30
0.0
 40
2.0
 41
0.0
 46
0.0
 71
     5
 72
     1
  1
3
 73
     1
 44
1.0
  0
POINT
  5
2DD0
330
2DC6
100
AcDbEntity
  8
Defpoints
 62
     0
100
AcDbPoint
 10
128.8763344569852
 20
135.0994429882005
 30
0.0
  0
POINT
  5
2DD1
330
2DC6
100
AcDbEntity
  8
Defpoints
 62
     0
100
AcDbPoint
 10
131.8763344569852
 20
135.0994429882005
 30
0.0
  0
POINT
  5
2DD2
330
2DC6
100
AcDbEntity
  8
Defpoints
 62
     0
100
AcDbPoint
 10
131.8763344569852
 20
142.6642307601851
 30
0.0
  0
ENDBLK
  5
2DC8
330
2DC6
100
AcDbEntity
  8
0
100
AcDbBlockEnd
  0
BLOCK
  5
2DD5
330
2DD4
100
AcDbEntity
  8
0
100
AcDbBlockBegin
  2
*D9
 70
     1
 10
0.0
 20
0.0
 30
0.0
  3
*D9
  1
*D276
  0
LINE
  5
2DD7
330
2DD4
100
AcDbEntity
  8
寸法
  6
Continuous
 62
     0
370
    -2
100
AcDbLine
 10
131.8763344569852
 20
135.7244429882005
 30
0.0
 11
131.8763344569852
 21
143.9142307601851
 31
0.0
  0
LINE
  5
2DD8
330
2DD4
100
AcDbEntity
  8
寸法
  6
Continuous
 62
     0
370
    -2
100
AcDbLine
 10
133.8763344569852
 20
135.7244429882005
 30
0.0
 11
133.8763344569852
 21
143.9142307601851
 31
0.0
  0
LINE
  5
2DD9
330
2DD4
100
AcDbEntity
  8
寸法
  6
Continuous
 62
     0
370
    -2
100
AcDbLine
 10
130.3763344569852
 20
142.6642307601851
 30
0.0
 11
128.8763344569852
 21
142.6642307601851
 31
0.0
  0
LINE
  5
2DDA
330
2DD4
100
AcDbEntity
  8
寸法
  6
Continuous
 62
     0
370
    -2
100
AcDbLine
 10
135.3763344569852
 20
142.6642307601851
 30
0.0
 11
136.8763344569852
 21
142.6642307601851
 31
0.0
  0
SOLID
  5
2DDB
330
2DD4
100
AcDbEntity
  8
寸法
 62
     0
100
AcDbTrace
 10
130.3763344569852
 20
142.4142307601851
 30
0.0
 11
130.3763344569852
 21
142.9142307601851
 31
0.0
 12
131.8763344569852
 22
142.6642307601851
 32
0.0
 13
131.8763344569852
 23
142.6642307601851
 33
0.0
  0
SOLID
  5
2DDC
330
2DD4
100
AcDbEntity
  8
寸法
 62
     0
100
AcDbTrace
 10
135.3763344569852
 20
142.9142307601851
 30
0.0
 11
135.3763344569852
 21
142.4142307601851
 31
0.0
 12
133.8763344569852
 22
142.6642307601851
 32
0.0
 13
133.8763344569852
 23
142.6642307601851
 33
0.0
  0
MTEXT
  5
2DDD
330
2DD4
100
AcDbEntity
  8
寸法
  6
Continuous
 62
     0
100
AcDbMText
 10
132.8763344569852
 20
145.4495069994695
 30
0.0
 40
2.0
 41
0.0
 46
0.0
 71
     5
 72
     1
  1
2
 73
     1
 44
1.0
  0
POINT
  5
2DDE
330
2DD4
100
AcDbEntity
  8
Defpoints
 62
     0
100
AcDbPoint
 10
131.8763344569852
 20
135.0994429882005
 30
0.0
  0
POINT
  5
2DDF
330
2DD4
100
AcDbEntity
  8
Defpoints
 62
     0
100
AcDbPoint
 10
133.8763344569852
 20
135.0994429882005
 30
0.0
  0
POINT
  5
2DE0
330
2DD4
100
AcDbEntity
  8
Defpoints
 62
     0
100
AcDbPoint
 10
133.8763344569852
 20
142.6642307601851
 30
0.0
  0
ENDBLK
  5
2DD6
330
2DD4
100
AcDbEntity
  8
0
100
AcDbBlockEnd
  0
BLOCK
  5
2DE3
330
2DE2
100
AcDbEntity
  8
0
100
AcDbBlockBegin
  2
*D10
 70
     1
 10
0.0
 20
0.0
 30
0.0
  3
*D10
  1
*D277
  0
LINE
  5
2DE5
330
2DE2
100
AcDbEntity
  8
寸法
  6
Continuous
 62
     0
370
    -2
100
AcDbLine
 10
133.8763344569852
 20
135.7244429882005
 30
0.0
 11
133.8763344569852
 21
143.9142307601851
 31
0.0
  0
LINE
  5
2DE6
330
2DE2
100
AcDbEntity
  8
寸法
  6
Continuous
 62
     0
370
    -2
100
AcDbLine
 10
136.8763344569852
 20
135.7244429882005
 30
0.0
 11
136.8763344569852
 21
143.9142307601851
 31
0.0
  0
LINE
  5
2DE7
330
2DE2
100
AcDbEntity
  8
寸法
  6
Continuous
 62
     0
370
    -2
100
AcDbLine
 10
132.3763344569852
 20
142.6642307601851
 30
0.0
 11
130.8763344569852
 21
142.6642307601851
 31
0.0
  0
LINE
  5
2DE8
330
2DE2
100
AcDbEntity
  8
寸法
  6
Continuous
 62
     0
370
    -2
100
AcDbLine
 10
138.3763344569852
 20
142.6642307601851
 30
0.0
 11
139.8763344569852
 21
142.6642307601851
 31
0.0
  0
SOLID
  5
2DE9
330
2DE2
100
AcDbEntity
  8
寸法
 62
     0
100
AcDbTrace
 10
132.3763344569852
 20
142.4142307601851
 30
0.0
 11
132.3763344569852
 21
142.9142307601851
 31
0.0
 12
133.8763344569852
 22
142.6642307601851
 32
0.0
 13
133.8763344569852
 23
142.6642307601851
 33
0.0
  0
SOLID
  5
2DEA
330
2DE2
100
AcDbEntity
  8
寸法
 62
     0
100
AcDbTrace
 10
138.3763344569852
 20
142.9142307601851
 30
0.0
 11
138.3763344569852
 21
142.4142307601851
 31
0.0
 12
136.8763344569852
 22
142.6642307601851
 32
0.0
 13
136.8763344569852
 23
142.6642307601851
 33
0.0
  0
MTEXT
  5
2DEB
330
2DE2
100
AcDbEntity
  8
寸法
  6
Continuous
 62
     0
100
AcDbMText
 10
135.3763344569852
 20
145.5284519415927
 30
0.0
 40
2.0
 41
0.0
 46
0.0
 71
     5
 72
     1
  1
3
 73
     1
 44
1.0
  0
POINT
  5
2DEC
330
2DE2
100
AcDbEntity
  8
Defpoints
 62
     0
100
AcDbPoint
 10
133.8763344569852
 20
135.0994429882005
 30
0.0
  0
POINT
  5
2DED
330
2DE2
100
AcDbEntity
  8
Defpoints
 62
     0
100
AcDbPoint
 10
136.8763344569852
 20
135.0994429882005
 30
0.0
  0
POINT
  5
2DEE
330
2DE2
100
AcDbEntity
  8
Defpoints
 62
     0
100
AcDbPoint
 10
136.8763344569852
 20
142.6642307601851
 30
0.0
  0
ENDBLK
  5
2DE4
330
2DE2
100
AcDbEntity
  8
0
100
AcDbBlockEnd
  0
BLOCK
  5
2DF1
330
2DF0
100
AcDbEntity
  8
0
100
AcDbBlockBegin
  2
*D11
 70
     1
 10
0.0
 20
0.0
 30
0.0
  3
*D11
  1
*D278
  0
LINE
  5
2DF3
330
2DF0
100
AcDbEntity
  8
寸法
  6
Continuous
 62
     0
370
    -2
100
AcDbLine
 10
136.8763344569852
 20
135.7244429882005
 30
0.0
 11
136.8763344569852
 21
143.9142307601851
 31
0.0
  0
LINE
  5
2DF4
330
2DF0
100
AcDbEntity
  8
寸法
  6
Continuous
 62
     0
370
    -2
100
AcDbLine
 10
138.8763344569852
 20
135.7244429882005
 30
0.0
 11
138.8763344569852
 21
143.9142307601851
 31
0.0
  0
LINE
  5
2DF5
330
2DF0
100
AcDbEntity
  8
寸法
  6
Continuous
 62
     0
370
    -2
100
AcDbLine
 10
135.3763344569852
 20
142.6642307601851
 30
0.0
 11
133.8763344569852
 21
142.6642307601851
 31
0.0
  0
LINE
  5
2DF6
330
2DF0
100
AcDbEntity
  8
寸法
  6
Continuous
 62
     0
370
    -2
100
AcDbLine
 10
140.3763344569852
 20
142.6642307601851
 30
0.0
 11
141.8763344569852
 21
142.6642307601851
 31
0.0
  0
SOLID
  5
2DF7
330
2DF0
100
AcDbEntity
  8
寸法
 62
     0
100
AcDbTrace
 10
135.3763344569852
 20
142.4142307601851
 30
0.0
 11
135.3763344569852
 21
142.9142307601851
 31
0.0
 12
136.8763344569852
 22
142.6642307601851
 32
0.0
 13
136.8763344569852
 23
142.6642307601851
 33
0.0
  0
SOLID
  5
2DF8
330
2DF0
100
AcDbEntity
  8
寸法
 62
     0
100
AcDbTrace
 10
140.3763344569852
 20
142.9142307601851
 30
0.0
 11
140.3763344569852
 21
142.4142307601851
 31
0.0
 12
138.8763344569852
 22
142.6642307601851
 32
0.0
 13
138.8763344569852
 23
142.6642307601851
 33
0.0
  0
MTEXT
  5
2DF9
330
2DF0
100
AcDbEntity
  8
寸法
  6
Continuous
 62
     0
100
AcDbMText
 10
137.8763344569852
 20
145.4889794705311
 30
0.0
 40
2.0
 41
0.0
 46
0.0
 71
     5
 72
     1
  1
2
 73
     1
 44
1.0
  0
POINT
  5
2DFA
330
2DF0
100
AcDbEntity
  8
Defpoints
 62
     0
100
AcDbPoint
 10
136.8763344569852
 20
135.0994429882005
 30
0.0
  0
POINT
  5
2DFB
330
2DF0
100
AcDbEntity
  8
Defpoints
 62
     0
100
AcDbPoint
 10
138.8763344569852
 20
135.0994429882005
 30
0.0
  0
POINT
  5
2DFC
330
2DF0
100
AcDbEntity
  8
Defpoints
 62
     0
100
AcDbPoint
 10
138.8763344569852
 20
142.6642307601851
 30
0.0
  0
ENDBLK
  5
2DF2
330
2DF0
100
AcDbEntity
  8
0
100
AcDbBlockEnd
  0
BLOCK
  5
2DFF
330
2DFE
100
AcDbEntity
  8
0
100
AcDbBlockBegin
  2
*D12
 70
     1
 10
0.0
 20
0.0
 30
0.0
  3
*D12
  1
*D279
  0
LINE
  5
2E01
330
2DFE
100
AcDbEntity
  8
寸法
  6
Continuous
 62
     0
370
    -2
100
AcDbLine
 10
138.8763344569852
 20
135.7244429882005
 30
0.0
 11
138.8763344569852
 21
143.9142307601851
 31
0.0
  0
LINE
  5
2E02
330
2DFE
100
AcDbEntity
  8
寸法
  6
Continuous
 62
     0
370
    -2
100
AcDbLine
 10
141.8763344569852
 20
135.7244429882005
 30
0.0
 11
141.8763344569852
 21
143.9142307601851
 31
0.0
  0
LINE
  5
2E03
330
2DFE
100
AcDbEntity
  8
寸法
  6
Continuous
 62
     0
370
    -2
100
AcDbLine
 10
137.3763344569852
 20
142.6642307601851
 30
0.0
 11
135.8763344569852
 21
142.6642307601851
 31
0.0
  0
LINE
  5
2E04
330
2DFE
100
AcDbEntity
  8
寸法
  6
Continuous
 62
     0
370
    -2
100
AcDbLine
 10
143.3763344569852
 20
142.6642307601851
 30
0.0
 11
144.8763344569852
 21
142.6642307601851
 31
0.0
  0
SOLID
  5
2E05
330
2DFE
100
AcDbEntity
  8
寸法
 62
     0
100
AcDbTrace
 10
137.3763344569852
 20
142.4142307601851
 30
0.0
 11
137.3763344569852
 21
142.9142307601851
 31
0.0
 12
138.8763344569852
 22
142.6642307601851
 32
0.0
 13
138.8763344569852
 23
142.6642307601851
 33
0.0
  0
SOLID
  5
2E06
330
2DFE
100
AcDbEntity
  8
寸法
 62
     0
100
AcDbTrace
 10
143.3763344569852
 20
142.9142307601851
 30
0.0
 11
143.3763344569852
 21
142.4142307601851
 31
0.0
 12
141.8763344569852
 22
142.6642307601851
 32
0.0
 13
141.8763344569852
 23
142.6642307601851
 33
0.0
  0
MTEXT
  5
2E07
330
2DFE
100
AcDbEntity
  8
寸法
  6
Continuous
 62
     0
100
AcDbMText
 10
140.3763344569852
 20
145.4889794705311
 30
0.0
 40
2.0
 41
0.0
 46
0.0
 71
     5
 72
     1
  1
3
 73
     1
 44
1.0
  0
POINT
  5
2E08
330
2DFE
100
AcDbEntity
  8
Defpoints
 62
     0
100
AcDbPoint
 10
138.8763344569852
 20
135.0994429882005
 30
0.0
  0
POINT
  5
2E09
330
2DFE
100
AcDbEntity
  8
Defpoints
 62
     0
100
AcDbPoint
 10
141.8763344569852
 20
135.0994429882005
 30
0.0
  0
POINT
  5
2E0A
330
2DFE
100
AcDbEntity
  8
Defpoints
 62
     0
100
AcDbPoint
 10
141.8763344569852
 20
142.6642307601851
 30
0.0
  0
ENDBLK
  5
2E00
330
2DFE
100
AcDbEntity
  8
0
100
AcDbBlockEnd
  0
BLOCK
  5
2E0F
330
2E0E
100
AcDbEntity
  8
0
100
AcDbBlockBegin
  2
*D13
 70
     1
 10
0.0
 20
0.0
 30
0.0
  3
*D13
  1
*D280
  0
LINE
  5
2E11
330
2E0E
100
AcDbEntity
  8
寸法
  6
Continuous
 62
     0
370
    -2
100
AcDbLine
 10
116.8763344569852
 20
134.2244429882005
 30
0.0
 11
116.8763344569852
 21
152.5852224891708
 31
0.0
  0
LINE
  5
2E12
330
2E0E
100
AcDbEntity
  8
寸法
  6
Continuous
 62
     0
370
    -2
100
AcDbLine
 10
141.8763344569852
 20
135.7244429882005
 30
0.0
 11
141.8763344569852
 21
152.5852224891708
 31
0.0
  0
LINE
  5
2E13
330
2E0E
100
AcDbEntity
  8
寸法
  6
Continuous
 62
     0
370
    -2
100
AcDbLine
 10
118.3763344569852
 20
151.3352224891708
 30
0.0
 11
125.7787561697192
 21
151.3352224891708
 31
0.0
  0
LINE
  5
2E14
330
2E0E
100
AcDbEntity
  8
寸法
  6
Continuous
 62
     0
370
    -2
100
AcDbLine
 10
140.3763344569852
 20
151.3352224891708
 30
0.0
 11
130.3620895030525
 21
151.3352224891708
 31
0.0
  0
SOLID
  5
2E15
330
2E0E
100
AcDbEntity
  8
寸法
 62
     0
100
AcDbTrace
 10
118.3763344569852
 20
151.5852224891708
 30
0.0
 11
118.3763344569852
 21
151.0852224891708
 31
0.0
 12
116.8763344569852
 22
151.3352224891708
 32
0.0
 13
116.8763344569852
 23
151.3352224891708
 33
0.0
  0
SOLID
  5
2E16
330
2E0E
100
AcDbEntity
  8
寸法
 62
     0
100
AcDbTrace
 10
140.3763344569852
 20
151.0852224891708
 30
0.0
 11
140.3763344569852
 21
151.5852224891708
 31
0.0
 12
141.8763344569852
 22
151.3352224891708
 32
0.0
 13
141.8763344569852
 23
151.3352224891708
 33
0.0
  0
MTEXT
  5
2E17
330
2E0E
100
AcDbEntity
  8
寸法
  6
Continuous
 62
     0
100
AcDbMText
 10
128.0704228363859
 20
151.3352224891708
 30
0.0
 40
2.0
 41
0.0
 46
0.0
 71
     5
 72
     1
  1
25
 73
     1
 44
1.0
  0
POINT
  5
2E18
330
2E0E
100
AcDbEntity
  8
Defpoints
 62
     0
100
AcDbPoint
 10
116.8763344569852
 20
133.5994429882005
 30
0.0
  0
POINT
  5
2E19
330
2E0E
100
AcDbEntity
  8
Defpoints
 62
     0
100
AcDbPoint
 10
141.8763344569852
 20
135.0994429882005
 30
0.0
  0
POINT
  5
2E1A
330
2E0E
100
AcDbEntity
  8
Defpoints
 62
     0
100
AcDbPoint
 10
141.8763344569852
 20
151.3352224891708
 30
0.0
  0
ENDBLK
  5
2E10
330
2E0E
100
AcDbEntity
  8
0
100
AcDbBlockEnd
  0
BLOCK
  5
2E4F
330
2E4E
100
AcDbEntity
  8
0
100
AcDbBlockBegin
  2
*D14
 70
     1
 10
0.0
 20
0.0
 30
0.0
  3
*D14
  1
*D284
  0
LINE
  5
2E51
330
2E4E
100
AcDbEntity
  8
寸法
  6
Continuous
 62
     0
370
    -2
100
AcDbLine
 10
113.2513344569852
 20
102.4258682835331
 30
0.0
 11
105.9711459862076
 21
102.4258682835331
 31
0.0
  0
LINE
  5
2E52
330
2E4E
100
AcDbEntity
  8
寸法
  6
Continuous
 62
     0
370
    -2
100
AcDbLine
 10
113.2513344569852
 20
93.42586828353313
 30
0.0
 11
105.9711459862076
 21
93.42586828353313
 31
0.0
  0
LINE
  5
2E53
330
2E4E
100
AcDbEntity
  8
寸法
  6
Continuous
 62
     0
370
    -2
100
AcDbLine
 10
107.2211459862076
 20
100.9258682835331
 30
0.0
 11
107.2211459862076
 21
99.55086828353313
 31
0.0
  0
LINE
  5
2E54
330
2E4E
100
AcDbEntity
  8
寸法
  6
Continuous
 62
     0
370
    -2
100
AcDbLine
 10
107.2211459862076
 20
94.92586828353313
 30
0.0
 11
107.2211459862076
 21
96.30086828353313
 31
0.0
  0
SOLID
  5
2E55
330
2E4E
100
AcDbEntity
  8
寸法
 62
     0
100
AcDbTrace
 10
107.4711459862076
 20
100.9258682835331
 30
0.0
 11
106.9711459862076
 21
100.9258682835331
 31
0.0
 12
107.2211459862076
 22
102.4258682835331
 32
0.0
 13
107.2211459862076
 23
102.4258682835331
 33
0.0
  0
SOLID
  5
2E56
330
2E4E
100
AcDbEntity
  8
寸法
 62
     0
100
AcDbTrace
 10
106.9711459862076
 20
94.92586828353313
 30
0.0
 11
107.4711459862076
 21
94.92586828353313
 31
0.0
 12
107.2211459862076
 22
93.42586828353313
 32
0.0
 13
107.2211459862076
 23
93.42586828353313
 33
0.0
  0
MTEXT
  5
2E57
330
2E4E
100
AcDbEntity
  8
寸法
  6
Continuous
 62
     0
100
AcDbMText
 10
107.2211459862076
 20
97.92586828353313
 30
0.0
 40
2.0
 41
0.0
 46
0.0
 71
     5
 72
     1
  1
9
 73
     1
 44
1.0
  0
POINT
  5
2E58
330
2E4E
100
AcDbEntity
  8
Defpoints
 62
     0
100
AcDbPoint
 10
113.8763344569852
 20
102.4258682835331
 30
0.0
  0
POINT
  5
2E59
330
2E4E
100
AcDbEntity
  8
Defpoints
 62
     0
100
AcDbPoint
 10
113.8763344569852
 20
93.42586828353313
 30
0.0
  0
POINT
  5
383C
330
2E4E
100
AcDbEntity
  8
Defpoints
 62
     0
100
AcDbPoint
 10
107.2211459862076
 20
93.42586828353313
 30
0.0
  0
ENDBLK
  5
2E50
330
2E4E
100
AcDbEntity
  8
0
100
AcDbBlockEnd
  0
BLOCK
  5
2E5F
330
2E5E
100
AcDbEntity
  8
0
100
AcDbBlockBegin
  2
*D15
 70
     1
 10
0.0
 20
0.0
 30
0.0
  3
*D15
  1
*D285
  0
LINE
  5
2E61
330
2E5E
100
AcDbEntity
  8
寸法
  6
Continuous
 62
     0
370
    -2
100
AcDbLine
 10
113.8763344569852
 20
103.0508682835331
 30
0.0
 11
113.8763344569852
 21
113.6758682835331
 31
0.0
  0
LINE
  5
2E62
330
2E5E
100
AcDbEntity
  8
寸法
  6
Continuous
 62
     0
370
    -2
100
AcDbLine
 10
141.8763344569852
 20
103.0508682835331
 30
0.0
 11
141.8763344569852
 21
113.6758682835331
 31
0.0
  0
LINE
  5
2E63
330
2E5E
100
AcDbEntity
  8
寸法
  6
Continuous
 62
     0
370
    -2
100
AcDbLine
 10
115.3763344569852
 20
112.4258682835331
 30
0.0
 11
124.9091333004702
 21
112.4258682835331
 31
0.0
  0
LINE
  5
2E64
330
2E5E
100
AcDbEntity
  8
寸法
  6
Continuous
 62
     0
370
    -2
100
AcDbLine
 10
140.3763344569852
 20
112.4258682835331
 30
0.0
 11
129.4924666338036
 21
112.4258682835331
 31
0.0
  0
SOLID
  5
2E65
330
2E5E
100
AcDbEntity
  8
寸法
 62
     0
100
AcDbTrace
 10
115.3763344569852
 20
112.6758682835331
 30
0.0
 11
115.3763344569852
 21
112.1758682835331
 31
0.0
 12
113.8763344569852
 22
112.4258682835331
 32
0.0
 13
113.8763344569852
 23
112.4258682835331
 33
0.0
  0
SOLID
  5
2E66
330
2E5E
100
AcDbEntity
  8
寸法
 62
     0
100
AcDbTrace
 10
140.3763344569852
 20
112.1758682835331
 30
0.0
 11
140.3763344569852
 21
112.6758682835331
 31
0.0
 12
141.8763344569852
 22
112.4258682835331
 32
0.0
 13
141.8763344569852
 23
112.4258682835331
 33
0.0
  0
MTEXT
  5
2E67
330
2E5E
100
AcDbEntity
  8
寸法
  6
Continuous
 62
     0
100
AcDbMText
 10
127.2007999671369
 20
112.4258682835331
 30
0.0
 40
2.0
 41
0.0
 46
0.0
 71
     5
 72
     1
  1
28
 73
     1
 44
1.0
  0
POINT
  5
2E68
330
2E5E
100
AcDbEntity
  8
Defpoints
 62
     0
100
AcDbPoint
 10
113.8763344569852
 20
102.4258682835331
 30
0.0
  0
POINT
  5
2E69
330
2E5E
100
AcDbEntity
  8
Defpoints
 62
     0
100
AcDbPoint
 10
141.8763344569852
 20
102.4258682835331
 30
0.0
  0
POINT
  5
2E6A
330
2E5E
100
AcDbEntity
  8
Defpoints
 62
     0
100
AcDbPoint
 10
141.8763344569852
 20
112.4258682835331
 30
0.0
  0
ENDBLK
  5
2E60
330
2E5E
100
AcDbEntity
  8
0
100
AcDbBlockEnd
  0
BLOCK
  5
2E6F
330
2E6E
100
AcDbEntity
  8
0
100
AcDbBlockBegin
  2
*D16
 70
     1
 10
0.0
 20
0.0
 30
0.0
  3
*D16
  1
*D286
  0
LINE
  5
2E71
330
2E6E
100
AcDbEntity
  8
寸法
  6
Continuous
 62
     0
370
    -2
100
AcDbLine
 10
115.0763344569852
 20
92.80086828353313
 30
0.0
 11
115.0763344569852
 21
87.17586828353313
 31
0.0
  0
LINE
  5
2E72
330
2E6E
100
AcDbEntity
  8
寸法
  6
Continuous
 62
     0
370
    -2
100
AcDbLine
 10
113.8763344569852
 20
92.80086828353313
 30
0.0
 11
113.8763344569852
 21
87.17586828353313
 31
0.0
  0
LINE
  5
2E73
330
2E6E
100
AcDbEntity
  8
寸法
  6
Continuous
 62
     0
370
    -2
100
AcDbLine
 10
116.5763344569852
 20
88.42586828353313
 30
0.0
 11
118.0763344569852
 21
88.42586828353313
 31
0.0
  0
LINE
  5
2E74
330
2E6E
100
AcDbEntity
  8
寸法
  6
Continuous
 62
     0
370
    -2
100
AcDbLine
 10
112.3763344569852
 20
88.42586828353313
 30
0.0
 11
110.8763344569852
 21
88.42586828353313
 31
0.0
  0
SOLID
  5
2E75
330
2E6E
100
AcDbEntity
  8
寸法
 62
     0
100
AcDbTrace
 10
116.5763344569852
 20
88.67586828353313
 30
0.0
 11
116.5763344569852
 21
88.17586828353313
 31
0.0
 12
115.0763344569852
 22
88.42586828353313
 32
0.0
 13
115.0763344569852
 23
88.42586828353313
 33
0.0
  0
SOLID
  5
2E76
330
2E6E
100
AcDbEntity
  8
寸法
 62
     0
100
AcDbTrace
 10
112.3763344569852
 20
88.17586828353313
 30
0.0
 11
112.3763344569852
 21
88.67586828353313
 31
0.0
 12
113.8763344569852
 22
88.42586828353313
 32
0.0
 13
113.8763344569852
 23
88.42586828353313
 33
0.0
  0
MTEXT
  5
2E77
330
2E6E
100
AcDbEntity
  8
寸法
  6
Continuous
 62
     0
100
AcDbMText
 10
114.5418551462086
 20
85.77762082353233
 30
0.0
 40
2.0
 41
0.0
 46
0.0
 71
     5
 72
     1
  1
1.2
 73
     1
 44
1.0
  0
POINT
  5
2E78
330
2E6E
100
AcDbEntity
  8
Defpoints
 62
     0
100
AcDbPoint
 10
115.0763344569852
 20
93.42586828353313
 30
0.0
  0
POINT
  5
2E79
330
2E6E
100
AcDbEntity
  8
Defpoints
 62
     0
100
AcDbPoint
 10
113.8763344569852
 20
93.42586828353313
 30
0.0
  0
POINT
  5
2E7A
330
2E6E
100
AcDbEntity
  8
Defpoints
 62
     0
100
AcDbPoint
 10
113.8763344569852
 20
88.42586828353313
 30
0.0
  0
ENDBLK
  5
2E70
330
2E6E
100
AcDbEntity
  8
0
100
AcDbBlockEnd
  0
BLOCK
  5
2E7F
330
2E7E
100
AcDbEntity
  8
0
100
AcDbBlockBegin
  2
*D17
 70
     1
 10
0.0
 20
0.0
 30
0.0
  3
*D17
  1
*D287
  0
LINE
  5
2E81
330
2E7E
100
AcDbEntity
  8
寸法
  6
Continuous
 62
     0
370
    -2
100
AcDbLine
 10
115.0763344569852
 20
95.46835582231486
 30
0.0
 11
115.0763344569852
 21
96.09335582231486
 31
0.0
  0
LINE
  5
2E82
330
2E7E
100
AcDbEntity
  8
寸法
  6
Continuous
 62
     0
370
    -2
100
AcDbLine
 10
141.8763344569852
 20
96.80086828353313
 30
0.0
 11
141.8763344569852
 21
93.59335582231486
 31
0.0
  0
LINE
  5
2E83
330
2E7E
100
AcDbEntity
  8
寸法
  6
Continuous
 62
     0
370
    -2
100
AcDbLine
 10
116.5763344569852
 20
94.84335582231486
 30
0.0
 11
124.7312573702887
 21
94.84335582231486
 31
0.0
  0
LINE
  5
2E84
330
2E7E
100
AcDbEntity
  8
寸法
  6
Continuous
 62
     0
370
    -2
100
AcDbLine
 10
140.3763344569852
 20
94.84335582231486
 30
0.0
 11
131.9812573702887
 21
94.84335582231486
 31
0.0
  0
SOLID
  5
2E85
330
2E7E
100
AcDbEntity
  8
寸法
 62
     0
100
AcDbTrace
 10
116.5763344569852
 20
95.09335582231486
 30
0.0
 11
116.5763344569852
 21
94.59335582231486
 31
0.0
 12
115.0763344569852
 22
94.84335582231486
 32
0.0
 13
115.0763344569852
 23
94.84335582231486
 33
0.0
  0
SOLID
  5
2E86
330
2E7E
100
AcDbEntity
  8
寸法
 62
     0
100
AcDbTrace
 10
140.3763344569852
 20
94.59335582231486
 30
0.0
 11
140.3763344569852
 21
95.09335582231486
 31
0.0
 12
141.8763344569852
 22
94.84335582231486
 32
0.0
 13
141.8763344569852
 23
94.84335582231486
 33
0.0
  0
MTEXT
  5
2E87
330
2E7E
100
AcDbEntity
  8
寸法
  6
Continuous
 62
     0
100
AcDbMText
 10
128.3562573702887
 20
94.84335582231486
 30
0.0
 40
2.0
 41
0.0
 46
0.0
 71
     5
 72
     1
  1
26.8
 73
     1
 44
1.0
  0
POINT
  5
2E88
330
2E7E
100
AcDbEntity
  8
Defpoints
 62
     0
100
AcDbPoint
 10
115.0763344569852
 20
94.84335582231486
 30
0.0
  0
POINT
  5
2E89
330
2E7E
100
AcDbEntity
  8
Defpoints
 62
     0
100
AcDbPoint
 10
141.8763344569852
 20
97.42586828353313
 30
0.0
  0
POINT
  5
2E8A
330
2E7E
100
AcDbEntity
  8
Defpoints
 62
     0
100
AcDbPoint
 10
141.8763344569852
 20
94.84335582231486
 30
0.0
  0
ENDBLK
  5
2E80
330
2E7E
100
AcDbEntity
  8
0
100
AcDbBlockEnd
  0
BLOCK
  5
2E9F
330
2E9E
100
AcDbEntity
  8
0
100
AcDbBlockBegin
  2
*D18
 70
     1
 10
0.0
 20
0.0
 30
0.0
  3
*D18
  1
*D289
  0
LINE
  5
2EA1
330
2E9E
100
AcDbEntity
  8
寸法
  6
Continuous
 62
     0
370
    -2
100
AcDbLine
 10
142.5013344569852
 20
102.4258682835331
 30
0.0
 11
148.1263344569852
 21
102.4258682835331
 31
0.0
  0
LINE
  5
2EA2
330
2E9E
100
AcDbEntity
  8
寸法
  6
Continuous
 62
     0
370
    -2
100
AcDbLine
 10
142.5013344569852
 20
98.92586828353313
 30
0.0
 11
148.1263344569852
 21
98.92586828353313
 31
0.0
  0
LINE
  5
2EA3
330
2E9E
100
AcDbEntity
  8
寸法
  6
Continuous
 62
     0
370
    -2
100
AcDbLine
 10
146.8763344569852
 20
103.9258682835331
 30
0.0
 11
146.8763344569852
 21
105.4258682835331
 31
0.0
  0
LINE
  5
2EA4
330
2E9E
100
AcDbEntity
  8
寸法
  6
Continuous
 62
     0
370
    -2
100
AcDbLine
 10
146.8763344569852
 20
97.42586828353313
 30
0.0
 11
146.8763344569852
 21
95.92586828353313
 31
0.0
  0
SOLID
  5
2EA5
330
2E9E
100
AcDbEntity
  8
寸法
 62
     0
100
AcDbTrace
 10
146.6263344569852
 20
103.9258682835331
 30
0.0
 11
147.1263344569852
 21
103.9258682835331
 31
0.0
 12
146.8763344569852
 22
102.4258682835331
 32
0.0
 13
146.8763344569852
 23
102.4258682835331
 33
0.0
  0
SOLID
  5
2EA6
330
2E9E
100
AcDbEntity
  8
寸法
 62
     0
100
AcDbTrace
 10
147.1263344569852
 20
97.42586828353313
 30
0.0
 11
146.6263344569852
 21
97.42586828353313
 31
0.0
 12
146.8763344569852
 22
98.92586828353313
 32
0.0
 13
146.8763344569852
 23
98.92586828353313
 33
0.0
  0
MTEXT
  5
2EA7
330
2E9E
100
AcDbEntity
  8
寸法
  6
Continuous
 62
     0
100
AcDbMText
 10
146.8763344569852
 20
100.6295325703616
 30
0.0
 40
2.0
 41
0.0
 46
0.0
 71
     5
 72
     1
  1
3.5
 73
     1
 44
1.0
  0
POINT
  5
2EA8
330
2E9E
100
AcDbEntity
  8
Defpoints
 62
     0
100
AcDbPoint
 10
141.8763344569852
 20
102.4258682835331
 30
0.0
  0
POINT
  5
2EA9
330
2E9E
100
AcDbEntity
  8
Defpoints
 62
     0
100
AcDbPoint
 10
141.8763344569852
 20
98.92586828353313
 30
0.0
  0
POINT
  5
385A
330
2E9E
100
AcDbEntity
  8
Defpoints
 62
     0
100
AcDbPoint
 10
146.8763344569852
 20
98.92586828353313
 30
0.0
  0
ENDBLK
  5
2EA0
330
2E9E
100
AcDbEntity
  8
0
100
AcDbBlockEnd
  0
BLOCK
  5
2EAE
330
2EAD
100
AcDbEntity
  8
0
100
AcDbBlockBegin
  2
*D19
 70
     1
 10
0.0
 20
0.0
 30
0.0
  3
*D19
  1
*D290
  0
LINE
  5
2EB0
330
2EAD
100
AcDbEntity
  8
寸法
  6
Continuous
 62
     0
370
    -2
100
AcDbLine
 10
113.2513344569852
 20
67.25414175545627
 30
0.0
 11
103.0748839988669
 21
67.25414175545627
 31
0.0
  0
LINE
  5
2EB1
330
2EAD
100
AcDbEntity
  8
寸法
  6
Continuous
 62
     0
370
    -2
100
AcDbLine
 10
113.2513344569852
 20
58.25414175545627
 30
0.0
 11
103.0748839988669
 21
58.25414175545627
 31
0.0
  0
LINE
  5
2EB2
330
2EAD
100
AcDbEntity
  8
寸法
  6
Continuous
 62
     0
370
    -2
100
AcDbLine
 10
104.3248839988669
 20
65.75414175545627
 30
0.0
 11
104.3248839988669
 21
64.37914175545627
 31
0.0
  0
LINE
  5
2EB3
330
2EAD
100
AcDbEntity
  8
寸法
  6
Continuous
 62
     0
370
    -2
100
AcDbLine
 10
104.3248839988669
 20
59.75414175545627
 30
0.0
 11
104.3248839988669
 21
61.12914175545627
 31
0.0
  0
SOLID
  5
2EB4
330
2EAD
100
AcDbEntity
  8
寸法
 62
     0
100
AcDbTrace
 10
104.5748839988669
 20
65.75414175545627
 30
0.0
 11
104.0748839988669
 21
65.75414175545627
 31
0.0
 12
104.3248839988669
 22
67.25414175545627
 32
0.0
 13
104.3248839988669
 23
67.25414175545627
 33
0.0
  0
SOLID
  5
2EB5
330
2EAD
100
AcDbEntity
  8
寸法
 62
     0
100
AcDbTrace
 10
104.0748839988669
 20
59.75414175545627
 30
0.0
 11
104.5748839988669
 21
59.75414175545627
 31
0.0
 12
104.3248839988669
 22
58.25414175545627
 32
0.0
 13
104.3248839988669
 23
58.25414175545627
 33
0.0
  0
MTEXT
  5
2EB6
330
2EAD
100
AcDbEntity
  8
寸法
  6
Continuous
 62
     0
100
AcDbMText
 10
104.3248839988669
 20
62.75414175545627
 30
0.0
 40
2.0
 41
0.0
 46
0.0
 71
     5
 72
     1
  1
9
 73
     1
 44
1.0
  0
POINT
  5
2EB7
330
2EAD
100
AcDbEntity
  8
Defpoints
 62
     0
100
AcDbPoint
 10
113.8763344569852
 20
67.25414175545627
 30
0.0
  0
POINT
  5
2EB8
330
2EAD
100
AcDbEntity
  8
Defpoints
 62
     0
100
AcDbPoint
 10
113.8763344569852
 20
58.25414175545627
 30
0.0
  0
POINT
  5
2EBA
330
2EAD
100
AcDbEntity
  8
Defpoints
 62
     0
100
AcDbPoint
 10
104.3248839988669
 20
58.25414175545627
 30
0.0
  0
ENDBLK
  5
2EAF
330
2EAD
100
AcDbEntity
  8
0
100
AcDbBlockEnd
  0
BLOCK
  5
2EBF
330
2EBE
100
AcDbEntity
  8
0
100
AcDbBlockBegin
  2
*D20
 70
     1
 10
0.0
 20
0.0
 30
0.0
  3
*D20
  1
*D291
  0
LINE
  5
2EC1
330
2EBE
100
AcDbEntity
  8
寸法
  6
Continuous
 62
     0
370
    -2
100
AcDbLine
 10
113.8763344569852
 20
67.87914175545627
 30
0.0
 11
113.8763344569852
 21
72.0050376229644
 31
0.0
  0
LINE
  5
2EC2
330
2EBE
100
AcDbEntity
  8
寸法
  6
Continuous
 62
     0
370
    -2
100
AcDbLine
 10
116.8763344569852
 20
67.87914175545627
 30
0.0
 11
116.8763344569852
 21
72.0050376229644
 31
0.0
  0
LINE
  5
2EC3
330
2EBE
100
AcDbEntity
  8
寸法
  6
Continuous
 62
     0
370
    -2
100
AcDbLine
 10
112.3763344569852
 20
70.7550376229644
 30
0.0
 11
110.8763344569852
 21
70.7550376229644
 31
0.0
  0
LINE
  5
2EC4
330
2EBE
100
AcDbEntity
  8
寸法
  6
Continuous
 62
     0
370
    -2
100
AcDbLine
 10
118.3763344569852
 20
70.7550376229644
 30
0.0
 11
119.8763344569852
 21
70.7550376229644
 31
0.0
  0
SOLID
  5
2EC5
330
2EBE
100
AcDbEntity
  8
寸法
 62
     0
100
AcDbTrace
 10
112.3763344569852
 20
70.5050376229644
 30
0.0
 11
112.3763344569852
 21
71.0050376229644
 31
0.0
 12
113.8763344569852
 22
70.7550376229644
 32
0.0
 13
113.8763344569852
 23
70.7550376229644
 33
0.0
  0
SOLID
  5
2EC6
330
2EBE
100
AcDbEntity
  8
寸法
 62
     0
100
AcDbTrace
 10
118.3763344569852
 20
71.0050376229644
 30
0.0
 11
118.3763344569852
 21
70.5050376229644
 31
0.0
 12
116.8763344569852
 22
70.7550376229644
 32
0.0
 13
116.8763344569852
 23
70.7550376229644
 33
0.0
  0
MTEXT
  5
2EC7
330
2EBE
100
AcDbEntity
  8
寸法
  6
Continuous
 62
     0
100
AcDbMText
 10
115.4328645263273
 20
72.1427416837239
 30
0.0
 40
2.0
 41
0.0
 46
0.0
 71
     5
 72
     1
  1
3
 73
     1
 44
1.0
  0
POINT
  5
2EC8
330
2EBE
100
AcDbEntity
  8
Defpoints
 62
     0
100
AcDbPoint
 10
113.8763344569852
 20
67.25414175545627
 30
0.0
  0
POINT
  5
2EC9
330
2EBE
100
AcDbEntity
  8
Defpoints
 62
     0
100
AcDbPoint
 10
116.8763344569852
 20
67.25414175545627
 30
0.0
  0
POINT
  5
2ECA
330
2EBE
100
AcDbEntity
  8
Defpoints
 62
     0
100
AcDbPoint
 10
116.8763344569852
 20
70.7550376229644
 30
0.0
  0
ENDBLK
  5
2EC0
330
2EBE
100
AcDbEntity
  8
0
100
AcDbBlockEnd
  0
BLOCK
  5
2ECF
330
2ECE
100
AcDbEntity
  8
0
100
AcDbBlockBegin
  2
*D21
 70
     1
 10
0.0
 20
0.0
 30
0.0
  3
*D21
  1
*D292
  0
LINE
  5
2ED1
330
2ECE
100
AcDbEntity
  8
寸法
  6
Continuous
 62
     0
370
    -2
100
AcDbLine
 10
113.8763344569852
 20
57.62914175545627
 30
0.0
 11
113.8763344569852
 21
52.91834318068859
 31
0.0
  0
LINE
  5
2ED2
330
2ECE
100
AcDbEntity
  8
寸法
  6
Continuous
 62
     0
370
    -2
100
AcDbLine
 10
115.0763344569852
 20
57.62914175545627
 30
0.0
 11
115.0763344569852
 21
52.91834318068859
 31
0.0
  0
LINE
  5
2ED3
330
2ECE
100
AcDbEntity
  8
寸法
  6
Continuous
 62
     0
370
    -2
100
AcDbLine
 10
112.3763344569852
 20
54.16834318068859
 30
0.0
 11
110.8763344569852
 21
54.16834318068859
 31
0.0
  0
LINE
  5
2ED4
330
2ECE
100
AcDbEntity
  8
寸法
  6
Continuous
 62
     0
370
    -2
100
AcDbLine
 10
116.5763344569852
 20
54.16834318068859
 30
0.0
 11
118.0763344569852
 21
54.16834318068859
 31
0.0
  0
SOLID
  5
2ED5
330
2ECE
100
AcDbEntity
  8
寸法
 62
     0
100
AcDbTrace
 10
112.3763344569852
 20
53.91834318068859
 30
0.0
 11
112.3763344569852
 21
54.41834318068859
 31
0.0
 12
113.8763344569852
 22
54.16834318068859
 32
0.0
 13
113.8763344569852
 23
54.16834318068859
 33
0.0
  0
SOLID
  5
2ED6
330
2ECE
100
AcDbEntity
  8
寸法
 62
     0
100
AcDbTrace
 10
116.5763344569852
 20
54.41834318068859
 30
0.0
 11
116.5763344569852
 21
53.91834318068859
 31
0.0
 12
115.0763344569852
 22
54.16834318068859
 32
0.0
 13
115.0763344569852
 23
54.16834318068859
 33
0.0
  0
MTEXT
  5
2ED7
330
2ECE
100
AcDbEntity
  8
寸法
  6
Continuous
 62
     0
100
AcDbMText
 10
114.5655494883526
 20
51.95754460592092
 30
0.0
 40
2.0
 41
0.0
 46
0.0
 71
     5
 72
     1
  1
1.2
 73
     1
 44
1.0
  0
POINT
  5
2ED8
330
2ECE
100
AcDbEntity
  8
Defpoints
 62
     0
100
AcDbPoint
 10
113.8763344569852
 20
58.25414175545627
 30
0.0
  0
POINT
  5
2ED9
330
2ECE
100
AcDbEntity
  8
Defpoints
 62
     0
100
AcDbPoint
 10
115.0763344569852
 20
58.25414175545627
 30
0.0
  0
POINT
  5
2EDA
330
2ECE
100
AcDbEntity
  8
Defpoints
 62
     0
100
AcDbPoint
 10
115.0763344569852
 20
54.16834318068859
 30
0.0
  0
ENDBLK
  5
2ED0
330
2ECE
100
AcDbEntity
  8
0
100
AcDbBlockEnd
  0
BLOCK
  5
2EDF
330
2EDE
100
AcDbEntity
  8
0
100
AcDbBlockBegin
  2
*D22
 70
     1
 10
0.0
 20
0.0
 30
0.0
  3
*D22
  1
*D293
  0
LINE
  5
2EE1
330
2EDE
100
AcDbEntity
  8
寸法
  6
Continuous
 62
     0
370
    -2
100
AcDbLine
 10
113.2513344569852
 20
62.25414175545627
 30
0.0
 11
109.8711384905019
 21
62.25414175545627
 31
0.0
  0
LINE
  5
2EE2
330
2EDE
100
AcDbEntity
  8
寸法
  6
Continuous
 62
     0
370
    -2
100
AcDbLine
 10
113.2513344569852
 20
58.25414175545627
 30
0.0
 11
109.8711384905019
 21
58.25414175545627
 31
0.0
  0
LINE
  5
2EE3
330
2EDE
100
AcDbEntity
  8
寸法
  6
Continuous
 62
     0
370
    -2
100
AcDbLine
 10
111.1211384905019
 20
63.75414175545627
 30
0.0
 11
111.1211384905019
 21
65.25414175545627
 31
0.0
  0
LINE
  5
2EE4
330
2EDE
100
AcDbEntity
  8
寸法
  6
Continuous
 62
     0
370
    -2
100
AcDbLine
 10
111.1211384905019
 20
56.75414175545627
 30
0.0
 11
111.1211384905019
 21
55.25414175545627
 31
0.0
  0
SOLID
  5
2EE5
330
2EDE
100
AcDbEntity
  8
寸法
 62
     0
100
AcDbTrace
 10
110.8711384905019
 20
63.75414175545627
 30
0.0
 11
111.3711384905019
 21
63.75414175545627
 31
0.0
 12
111.1211384905019
 22
62.25414175545627
 32
0.0
 13
111.1211384905019
 23
62.25414175545627
 33
0.0
  0
SOLID
  5
2EE6
330
2EDE
100
AcDbEntity
  8
寸法
 62
     0
100
AcDbTrace
 10
111.3711384905019
 20
56.75414175545627
 30
0.0
 11
110.8711384905019
 21
56.75414175545627
 31
0.0
 12
111.1211384905019
 22
58.25414175545627
 32
0.0
 13
111.1211384905019
 23
58.25414175545627
 33
0.0
  0
MTEXT
  5
2EE7
330
2EDE
100
AcDbEntity
  8
寸法
  6
Continuous
 62
     0
100
AcDbMText
 10
108.2728049786966
 20
59.69922156525114
 30
0.0
 40
2.0
 41
0.0
 46
0.0
 71
     5
 72
     1
  1
4
 73
     1
 44
1.0
  0
POINT
  5
2EE8
330
2EDE
100
AcDbEntity
  8
Defpoints
 62
     0
100
AcDbPoint
 10
113.8763344569852
 20
62.25414175545627
 30
0.0
  0
POINT
  5
2EE9
330
2EDE
100
AcDbEntity
  8
Defpoints
 62
     0
100
AcDbPoint
 10
113.8763344569852
 20
58.25414175545627
 30
0.0
  0
POINT
  5
2EEA
330
2EDE
100
AcDbEntity
  8
Defpoints
 62
     0
100
AcDbPoint
 10
111.1211384905019
 20
58.25414175545627
 30
0.0
  0
ENDBLK
  5
2EE0
330
2EDE
100
AcDbEntity
  8
0
100
AcDbBlockEnd
  0
BLOCK
  5
2EEF
330
2EEE
100
AcDbEntity
  8
0
100
AcDbBlockBegin
  2
*D23
 70
     1
 10
0.0
 20
0.0
 30
0.0
  3
*D23
  1
*D294
  0
LINE
  5
2EF1
330
2EEE
100
AcDbEntity
  8
寸法
  6
Continuous
 62
     0
370
    -2
100
AcDbLine
 10
113.2513344569852
 20
62.25414175545627
 30
0.0
 11
109.8711384905019
 21
62.25414175545627
 31
0.0
  0
LINE
  5
2EF2
330
2EEE
100
AcDbEntity
  8
寸法
  6
Continuous
 62
     0
370
    -2
100
AcDbLine
 10
113.2513344569852
 20
67.25414175545627
 30
0.0
 11
109.8711384905019
 21
67.25414175545627
 31
0.0
  0
LINE
  5
2EF3
330
2EEE
100
AcDbEntity
  8
寸法
  6
Continuous
 62
     0
370
    -2
100
AcDbLine
 10
111.1211384905019
 20
63.75414175545627
 30
0.0
 11
111.1211384905019
 21
65.75414175545627
 31
0.0
  0
SOLID
  5
2EF4
330
2EEE
100
AcDbEntity
  8
寸法
 62
     0
100
AcDbTrace
 10
110.8711384905019
 20
63.75414175545627
 30
0.0
 11
111.3711384905019
 21
63.75414175545627
 31
0.0
 12
111.1211384905019
 22
62.25414175545627
 32
0.0
 13
111.1211384905019
 23
62.25414175545627
 33
0.0
  0
SOLID
  5
2EF5
330
2EEE
100
AcDbEntity
  8
寸法
 62
     0
100
AcDbTrace
 10
111.3711384905019
 20
65.75414175545627
 30
0.0
 11
110.8711384905019
 21
65.75414175545627
 31
0.0
 12
111.1211384905019
 22
67.25414175545627
 32
0.0
 13
111.1211384905019
 23
67.25414175545627
 33
0.0
  0
MTEXT
  5
2EF6
330
2EEE
100
AcDbEntity
  8
寸法
  6
Continuous
 62
     0
100
AcDbMText
 10
108.2001756319433
 20
64.31720370126769
 30
0.0
 40
2.0
 41
0.0
 46
0.0
 71
     5
 72
     1
  1
5
 73
     1
 44
1.0
  0
POINT
  5
2EF7
330
2EEE
100
AcDbEntity
  8
Defpoints
 62
     0
100
AcDbPoint
 10
113.8763344569852
 20
62.25414175545627
 30
0.0
  0
POINT
  5
2EF8
330
2EEE
100
AcDbEntity
  8
Defpoints
 62
     0
100
AcDbPoint
 10
113.8763344569852
 20
67.25414175545627
 30
0.0
  0
POINT
  5
2EF9
330
2EEE
100
AcDbEntity
  8
Defpoints
 62
     0
100
AcDbPoint
 10
111.1211384905019
 20
67.25414175545627
 30
0.0
  0
ENDBLK
  5
2EF0
330
2EEE
100
AcDbEntity
  8
0
100
AcDbBlockEnd
  0
BLOCK
  5
2F1E
330
2F1D
100
AcDbEntity
  8
0
100
AcDbBlockBegin
  2
*D24
 70
     1
 10
0.0
 20
0.0
 30
0.0
  3
*D24
  1
*D297
  0
LINE
  5
2F20
330
2F1D
100
AcDbEntity
  8
寸法
  6
Continuous
 62
     0
370
    -2
100
AcDbLine
 10
117.5013344569852
 20
67.25414175545627
 30
0.0
 11
124.5374672251996
 21
67.25414175545627
 31
0.0
  0
LINE
  5
2F21
330
2F1D
100
AcDbEntity
  8
寸法
  6
Continuous
 62
     0
370
    -2
100
AcDbLine
 10
117.5013344569852
 20
63.75414175545627
 30
0.0
 11
124.5374672251996
 21
63.75414175545627
 31
0.0
  0
LINE
  5
2F22
330
2F1D
100
AcDbEntity
  8
寸法
  6
Continuous
 62
     0
370
    -2
100
AcDbLine
 10
123.2874672251996
 20
68.75414175545627
 30
0.0
 11
123.2874672251996
 21
70.25414175545627
 31
0.0
  0
LINE
  5
2F23
330
2F1D
100
AcDbEntity
  8
寸法
  6
Continuous
 62
     0
370
    -2
100
AcDbLine
 10
123.2874672251996
 20
62.25414175545627
 30
0.0
 11
123.2874672251996
 21
60.75414175545627
 31
0.0
  0
SOLID
  5
2F24
330
2F1D
100
AcDbEntity
  8
寸法
 62
     0
100
AcDbTrace
 10
123.0374672251996
 20
68.75414175545627
 30
0.0
 11
123.5374672251996
 21
68.75414175545627
 31
0.0
 12
123.2874672251996
 22
67.25414175545627
 32
0.0
 13
123.2874672251996
 23
67.25414175545627
 33
0.0
  0
SOLID
  5
2F25
330
2F1D
100
AcDbEntity
  8
寸法
 62
     0
100
AcDbTrace
 10
123.5374672251996
 20
62.25414175545627
 30
0.0
 11
123.0374672251996
 21
62.25414175545627
 31
0.0
 12
123.2874672251996
 22
63.75414175545627
 32
0.0
 13
123.2874672251996
 23
63.75414175545627
 33
0.0
  0
MTEXT
  5
2F26
330
2F1D
100
AcDbEntity
  8
寸法
  6
Continuous
 62
     0
100
AcDbMText
 10
126.1552782454145
 20
65.58696603177678
 30
0.0
 40
2.0
 41
0.0
 46
0.0
 71
     5
 72
     1
  1
3.5
 73
     1
 44
1.0
  0
POINT
  5
2F27
330
2F1D
100
AcDbEntity
  8
Defpoints
 62
     0
100
AcDbPoint
 10
116.8763344569852
 20
67.25414175545627
 30
0.0
  0
POINT
  5
2F28
330
2F1D
100
AcDbEntity
  8
Defpoints
 62
     0
100
AcDbPoint
 10
116.8763344569852
 20
63.75414175545627
 30
0.0
  0
POINT
  5
2F29
330
2F1D
100
AcDbEntity
  8
Defpoints
 62
     0
100
AcDbPoint
 10
123.2874672251996
 20
63.75414175545627
 30
0.0
  0
ENDBLK
  5
2F1F
330
2F1D
100
AcDbEntity
  8
0
100
AcDbBlockEnd
  0
BLOCK
  5
3517
330
3516
100
AcDbEntity
  8
0
100
AcDbBlockBegin
  2
*D25
 70
     1
 10
0.0
 20
0.0
 30
0.0
  3
*D25
  1
*D366
  0
LINE
  5
3519
330
3516
100
AcDbEntity
  8
寸法
  6
Continuous
 62
     0
370
    -2
100
AcDbLine
 10
116.8763344569852
 20
131.1744429882005
 30
0.0
 11
116.8763344569852
 21
125.0407126689291
 31
0.0
  0
LINE
  5
351A
330
3516
100
AcDbEntity
  8
寸法
  6
Continuous
 62
     0
370
    -2
100
AcDbLine
 10
140.7930011236519
 20
131.1744429882005
 30
0.0
 11
140.7930011236519
 21
125.0407126689291
 31
0.0
  0
LINE
  5
351B
330
3516
100
AcDbEntity
  8
寸法
  6
Continuous
 62
     0
370
    -2
100
AcDbLine
 10
118.3763344569852
 20
126.2907126689291
 30
0.0
 11
122.3379595047989
 21
126.2907126689291
 31
0.0
  0
LINE
  5
351C
330
3516
100
AcDbEntity
  8
寸法
  6
Continuous
 62
     0
370
    -2
100
AcDbLine
 10
139.2930011236519
 20
126.2907126689291
 30
0.0
 11
131.5879595047989
 21
126.2907126689291
 31
0.0
  0
SOLID
  5
351D
330
3516
100
AcDbEntity
  8
寸法
 62
     0
100
AcDbTrace
 10
118.3763344569852
 20
126.5407126689291
 30
0.0
 11
118.3763344569852
 21
126.0407126689291
 31
0.0
 12
116.8763344569852
 22
126.2907126689291
 32
0.0
 13
116.8763344569852
 23
126.2907126689291
 33
0.0
  0
SOLID
  5
351E
330
3516
100
AcDbEntity
  8
寸法
 62
     0
100
AcDbTrace
 10
139.2930011236519
 20
126.0407126689291
 30
0.0
 11
139.2930011236519
 21
126.5407126689291
 31
0.0
 12
140.7930011236519
 22
126.2907126689291
 32
0.0
 13
140.7930011236519
 23
126.2907126689291
 33
0.0
  0
MTEXT
  5
351F
330
3516
100
AcDbEntity
  8
寸法
  6
Continuous
 62
     0
100
AcDbMText
 10
126.9629595047989
 20
126.2907126689291
 30
0.0
 40
2.0
 41
0.0
 46
0.0
 71
     5
 72
     1
  1
23.92
 73
     1
 44
1.0
  0
POINT
  5
3520
330
3516
100
AcDbEntity
  8
Defpoints
 62
     0
100
AcDbPoint
 10
116.8763344569852
 20
131.7994429882005
 30
0.0
  0
POINT
  5
3521
330
3516
100
AcDbEntity
  8
Defpoints
 62
     0
100
AcDbPoint
 10
140.7930011236519
 20
131.7994429882005
 30
0.0
  0
POINT
  5
3522
330
3516
100
AcDbEntity
  8
Defpoints
 62
     0
100
AcDbPoint
 10
140.7930011236519
 20
126.2907126689291
 30
0.0
  0
ENDBLK
  5
3518
330
3516
100
AcDbEntity
  8
0
100
AcDbBlockEnd
  0
BLOCK
  5
3531
330
3530
100
AcDbEntity
  8
0
100
AcDbBlockBegin
  2
*D26
 70
     1
 10
0.0
 20
0.0
 30
0.0
  3
*D26
  1
*D368
  0
LINE
  5
3533
330
3530
100
AcDbEntity
  8
寸法
  6
Continuous
 62
     0
370
    -2
100
AcDbLine
 10
115.7513344569852
 20
131.7994429882005
 30
0.0
 11
106.4082212386542
 21
131.7994429882005
 31
0.0
  0
LINE
  5
3534
330
3530
100
AcDbEntity
  8
寸法
  6
Continuous
 62
     0
370
    -2
100
AcDbLine
 10
116.2513344569852
 20
133.5994429882005
 30
0.0
 11
106.4082212386542
 21
133.5994429882005
 31
0.0
  0
LINE
  5
3535
330
3530
100
AcDbEntity
  8
寸法
  6
Continuous
 62
     0
370
    -2
100
AcDbLine
 10
107.6582212386542
 20
130.2994429882005
 30
0.0
 11
107.6582212386542
 21
128.7994429882005
 31
0.0
  0
LINE
  5
3536
330
3530
100
AcDbEntity
  8
寸法
  6
Continuous
 62
     0
370
    -2
100
AcDbLine
 10
107.6582212386542
 20
135.0994429882005
 30
0.0
 11
107.6582212386542
 21
136.5994429882005
 31
0.0
  0
SOLID
  5
3537
330
3530
100
AcDbEntity
  8
寸法
 62
     0
100
AcDbTrace
 10
107.9082212386542
 20
130.2994429882005
 30
0.0
 11
107.4082212386542
 21
130.2994429882005
 31
0.0
 12
107.6582212386542
 22
131.7994429882005
 32
0.0
 13
107.6582212386542
 23
131.7994429882005
 33
0.0
  0
SOLID
  5
3538
330
3530
100
AcDbEntity
  8
寸法
 62
     0
100
AcDbTrace
 10
107.4082212386542
 20
135.0994429882005
 30
0.0
 11
107.9082212386542
 21
135.0994429882005
 31
0.0
 12
107.6582212386542
 22
133.5994429882005
 32
0.0
 13
107.6582212386542
 23
133.5994429882005
 33
0.0
  0
MTEXT
  5
3539
330
3530
100
AcDbEntity
  8
寸法
  6
Continuous
 62
     0
100
AcDbMText
 10
103.6715016614323
 20
131.9729009936625
 30
0.0
 40
2.0
 41
0.0
 46
0.0
 71
     5
 72
     1
  1
1.8
 73
     1
 44
1.0
  0
POINT
  5
353A
330
3530
100
AcDbEntity
  8
Defpoints
 62
     0
100
AcDbPoint
 10
116.3763344569852
 20
131.7994429882005
 30
0.0
  0
POINT
  5
353B
330
3530
100
AcDbEntity
  8
Defpoints
 62
     0
100
AcDbPoint
 10
116.8763344569852
 20
133.5994429882005
 30
0.0
  0
POINT
  5
353C
330
3530
100
AcDbEntity
  8
Defpoints
 62
     0
100
AcDbPoint
 10
107.6582212386542
 20
133.5994429882005
 30
0.0
  0
ENDBLK
  5
3532
330
3530
100
AcDbEntity
  8
0
100
AcDbBlockEnd
  0
BLOCK
  5
354B
330
354A
100
AcDbEntity
  8
0
100
AcDbBlockBegin
  2
*D27
 70
     1
 10
0.0
 20
0.0
 30
0.0
  3
*D27
  1
*D370
  0
LINE
  5
354D
330
354A
100
AcDbEntity
  8
寸法
  6
Continuous
 62
     0
370
    -2
100
AcDbLine
 10
140.7930011236519
 20
131.1744429882005
 30
0.0
 11
140.7930011236519
 21
125.0407126689291
 31
0.0
  0
LINE
  5
354E
330
354A
100
AcDbEntity
  8
寸法
  6
Continuous
 62
     0
370
    -2
100
AcDbLine
 10
141.8763344569852
 20
134.4744429882005
 30
0.0
 11
141.8763344569852
 21
125.0407126689291
 31
0.0
  0
LINE
  5
354F
330
354A
100
AcDbEntity
  8
寸法
  6
Continuous
 62
     0
370
    -2
100
AcDbLine
 10
139.2930011236519
 20
126.2907126689291
 30
0.0
 11
137.7930011236519
 21
126.2907126689291
 31
0.0
  0
LINE
  5
3550
330
354A
100
AcDbEntity
  8
寸法
  6
Continuous
 62
     0
370
    -2
100
AcDbLine
 10
143.3763344569852
 20
126.2907126689291
 30
0.0
 11
144.8763344569852
 21
126.2907126689291
 31
0.0
  0
SOLID
  5
3551
330
354A
100
AcDbEntity
  8
寸法
 62
     0
100
AcDbTrace
 10
139.2930011236519
 20
126.0407126689291
 30
0.0
 11
139.2930011236519
 21
126.5407126689291
 31
0.0
 12
140.7930011236519
 22
126.2907126689291
 32
0.0
 13
140.7930011236519
 23
126.2907126689291
 33
0.0
  0
SOLID
  5
3552
330
354A
100
AcDbEntity
  8
寸法
 62
     0
100
AcDbTrace
 10
143.3763344569852
 20
126.5407126689291
 30
0.0
 11
143.3763344569852
 21
126.0407126689291
 31
0.0
 12
141.8763344569852
 22
126.2907126689291
 32
0.0
 13
141.8763344569852
 23
126.2907126689291
 33
0.0
  0
MTEXT
  5
3553
330
354A
100
AcDbEntity
  8
寸法
  6
Continuous
 62
     0
100
AcDbMText
 10
147.6512754782594
 20
125.9955072845495
 30
0.0
 40
2.0
 41
0.0
 46
0.0
 71
     5
 72
     1
  1
1.08
 73
     1
 44
1.0
  0
POINT
  5
3554
330
354A
100
AcDbEntity
  8
Defpoints
 62
     0
100
AcDbPoint
 10
140.7930011236519
 20
131.7994429882005
 30
0.0
  0
POINT
  5
3555
330
354A
100
AcDbEntity
  8
Defpoints
 62
     0
100
AcDbPoint
 10
141.8763344569852
 20
135.0994429882005
 30
0.0
  0
POINT
  5
3556
330
354A
100
AcDbEntity
  8
Defpoints
 62
     0
100
AcDbPoint
 10
141.8763344569852
 20
126.2907126689291
 30
0.0
  0
ENDBLK
  5
354C
330
354A
100
AcDbEntity
  8
0
100
AcDbBlockEnd
  0
BLOCK
  5
3558
330
3557
100
AcDbEntity
  8
0
100
AcDbBlockBegin
  2
*D28
 70
     1
 10
0.0
 20
0.0
 30
0.0
  3
*D28
  1
*D371
  0
LINE
  5
355A
330
3557
100
AcDbEntity
  8
寸法
  6
Continuous
 62
     0
370
    -2
100
AcDbLine
 10
142.5013344569852
 20
132.8994429882005
 30
0.0
 11
147.5278403503796
 21
132.8994429882005
 31
0.0
  0
LINE
  5
355B
330
3557
100
AcDbEntity
  8
寸法
  6
Continuous
 62
     0
370
    -2
100
AcDbLine
 10
141.4180011236519
 20
131.7994429882005
 30
0.0
 11
147.5278403503796
 21
131.7994429882005
 31
0.0
  0
LINE
  5
355C
330
3557
100
AcDbEntity
  8
寸法
  6
Continuous
 62
     0
370
    -2
100
AcDbLine
 10
146.2778403503796
 20
134.3994429882005
 30
0.0
 11
146.2778403503796
 21
135.8994429882005
 31
0.0
  0
LINE
  5
355D
330
3557
100
AcDbEntity
  8
寸法
  6
Continuous
 62
     0
370
    -2
100
AcDbLine
 10
146.2778403503796
 20
130.2994429882005
 30
0.0
 11
146.2778403503796
 21
128.7994429882005
 31
0.0
  0
SOLID
  5
355E
330
3557
100
AcDbEntity
  8
寸法
 62
     0
100
AcDbTrace
 10
146.0278403503796
 20
134.3994429882005
 30
0.0
 11
146.5278403503796
 21
134.3994429882005
 31
0.0
 12
146.2778403503796
 22
132.8994429882005
 32
0.0
 13
146.2778403503796
 23
132.8994429882005
 33
0.0
  0
SOLID
  5
355F
330
3557
100
AcDbEntity
  8
寸法
 62
     0
100
AcDbTrace
 10
146.5278403503796
 20
130.2994429882005
 30
0.0
 11
146.0278403503796
 21
130.2994429882005
 31
0.0
 12
146.2778403503796
 22
131.7994429882005
 32
0.0
 13
146.2778403503796
 23
131.7994429882005
 33
0.0
  0
MTEXT
  5
3560
330
3557
100
AcDbEntity
  8
寸法
  6
Continuous
 62
     0
100
AcDbMText
 10
148.9062885253064
 20
129.9979382022346
 30
0.0
 40
2.0
 41
0.0
 46
0.0
 71
     5
 72
     1
  1
1.1
 73
     1
 44
1.0
  0
POINT
  5
3561
330
3557
100
AcDbEntity
  8
Defpoints
 62
     0
100
AcDbPoint
 10
141.8763344569852
 20
132.8994429882005
 30
0.0
  0
POINT
  5
3562
330
3557
100
AcDbEntity
  8
Defpoints
 62
     0
100
AcDbPoint
 10
140.7930011236519
 20
131.7994429882005
 30
0.0
  0
POINT
  5
3563
330
3557
100
AcDbEntity
  8
Defpoints
 62
     0
100
AcDbPoint
 10
146.2778403503796
 20
131.7994429882005
 30
0.0
  0
ENDBLK
  5
3559
330
3557
100
AcDbEntity
  8
0
100
AcDbBlockEnd
  0
BLOCK
  5
3565
330
3564
100
AcDbEntity
  8
0
100
AcDbBlockBegin
  2
*D29
 70
     1
 10
0.0
 20
0.0
 30
0.0
  3
*D29
  1
*D372
  0
LINE
  5
3567
330
3564
100
AcDbEntity
  8
寸法
  6
Continuous
 62
     0
370
    -2
100
AcDbLine
 10
142.5013344569852
 20
135.0994429882005
 30
0.0
 11
147.5278403503796
 21
135.0994429882005
 31
0.0
  0
LINE
  5
3568
330
3564
100
AcDbEntity
  8
寸法
  6
Continuous
 62
     0
370
    -2
100
AcDbLine
 10
142.5013344569852
 20
132.8994429882005
 30
0.0
 11
147.5278403503796
 21
132.8994429882005
 31
0.0
  0
LINE
  5
3569
330
3564
100
AcDbEntity
  8
寸法
  6
Continuous
 62
     0
370
    -2
100
AcDbLine
 10
146.2778403503796
 20
136.5994429882005
 30
0.0
 11
146.2778403503796
 21
138.0994429882005
 31
0.0
  0
LINE
  5
356A
330
3564
100
AcDbEntity
  8
寸法
  6
Continuous
 62
     0
370
    -2
100
AcDbLine
 10
146.2778403503796
 20
131.3994429882005
 30
0.0
 11
146.2778403503796
 21
129.8994429882005
 31
0.0
  0
SOLID
  5
356B
330
3564
100
AcDbEntity
  8
寸法
 62
     0
100
AcDbTrace
 10
146.0278403503796
 20
136.5994429882005
 30
0.0
 11
146.5278403503796
 21
136.5994429882005
 31
0.0
 12
146.2778403503796
 22
135.0994429882005
 32
0.0
 13
146.2778403503796
 23
135.0994429882005
 33
0.0
  0
SOLID
  5
356C
330
3564
100
AcDbEntity
  8
寸法
 62
     0
100
AcDbTrace
 10
146.5278403503796
 20
131.3994429882005
 30
0.0
 11
146.0278403503796
 21
131.3994429882005
 31
0.0
 12
146.2778403503796
 22
132.8994429882005
 32
0.0
 13
146.2778403503796
 23
132.8994429882005
 33
0.0
  0
MTEXT
  5
356D
330
3564
100
AcDbEntity
  8
寸法
  6
Continuous
 62
     0
100
AcDbMText
 10
148.2895311649688
 20
136.7822691659477
 30
0.0
 40
2.0
 41
0.0
 46
0.0
 71
     5
 72
     1
  1
2.2
 73
     1
 44
1.0
  0
POINT
  5
356E
330
3564
100
AcDbEntity
  8
Defpoints
 62
     0
100
AcDbPoint
 10
141.8763344569852
 20
135.0994429882005
 30
0.0
  0
POINT
  5
356F
330
3564
100
AcDbEntity
  8
Defpoints
 62
     0
100
AcDbPoint
 10
141.8763344569852
 20
132.8994429882005
 30
0.0
  0
POINT
  5
3570
330
3564
100
AcDbEntity
  8
Defpoints
 62
     0
100
AcDbPoint
 10
146.2778403503796
 20
132.8994429882005
 30
0.0
  0
ENDBLK
  5
3566
330
3564
100
AcDbEntity
  8
0
100
AcDbBlockEnd
  0
BLOCK
  5
3572
330
3571
100
AcDbEntity
  8
0
100
AcDbBlockBegin
  2
*D30
 70
     1
 10
0.0
 20
0.0
 30
0.0
  3
*D30
  1
*D373
  0
LINE
  5
3574
330
3571
100
AcDbEntity
  8
寸法
  6
Continuous
 62
     0
370
    -2
100
AcDbLine
 10
142.5013344569852
 20
135.0994429882005
 30
0.0
 11
156.4431666752365
 21
135.0994429882005
 31
0.0
  0
LINE
  5
3575
330
3571
100
AcDbEntity
  8
寸法
  6
Continuous
 62
     0
370
    -2
100
AcDbLine
 10
139.0013344569852
 20
131.5994429882005
 30
0.0
 11
156.4431666752365
 21
131.5994429882005
 31
0.0
  0
LINE
  5
3576
330
3571
100
AcDbEntity
  8
寸法
  6
Continuous
 62
     0
370
    -2
100
AcDbLine
 10
155.1931666752365
 20
136.5994429882005
 30
0.0
 11
155.1931666752365
 21
138.0994429882005
 31
0.0
  0
LINE
  5
3577
330
3571
100
AcDbEntity
  8
寸法
  6
Continuous
 62
     0
370
    -2
100
AcDbLine
 10
155.1931666752365
 20
130.0994429882005
 30
0.0
 11
155.1931666752365
 21
128.5994429882005
 31
0.0
  0
SOLID
  5
3578
330
3571
100
AcDbEntity
  8
寸法
 62
     0
100
AcDbTrace
 10
154.9431666752365
 20
136.5994429882005
 30
0.0
 11
155.4431666752365
 21
136.5994429882005
 31
0.0
 12
155.1931666752365
 22
135.0994429882005
 32
0.0
 13
155.1931666752365
 23
135.0994429882005
 33
0.0
  0
SOLID
  5
3579
330
3571
100
AcDbEntity
  8
寸法
 62
     0
100
AcDbTrace
 10
155.4431666752365
 20
130.0994429882005
 30
0.0
 11
154.9431666752365
 21
130.0994429882005
 31
0.0
 12
155.1931666752365
 22
131.5994429882005
 32
0.0
 13
155.1931666752365
 23
131.5994429882005
 33
0.0
  0
MTEXT
  5
357A
330
3571
100
AcDbEntity
  8
寸法
  6
Continuous
 62
     0
100
AcDbMText
 10
155.1931666752365
 20
133.1398372556853
 30
0.0
 40
2.0
 41
0.0
 46
0.0
 71
     5
 72
     1
  1
3.5
 73
     1
 44
1.0
  0
POINT
  5
357B
330
3571
100
AcDbEntity
  8
Defpoints
 62
     0
100
AcDbPoint
 10
141.8763344569852
 20
135.0994429882005
 30
0.0
  0
POINT
  5
357C
330
3571
100
AcDbEntity
  8
Defpoints
 62
     0
100
AcDbPoint
 10
138.3763344569852
 20
131.5994429882005
 30
0.0
  0
POINT
  5
357D
330
3571
100
AcDbEntity
  8
Defpoints
 62
     0
100
AcDbPoint
 10
155.1931666752365
 20
131.5994429882005
 30
0.0
  0
ENDBLK
  5
3573
330
3571
100
AcDbEntity
  8
0
100
AcDbBlockEnd
  0
BLOCK
  5
36B7
330
36B6
100
AcDbEntity
  8
0
100
AcDbBlockBegin
  2
*D31
 70
     1
 10
0.0
 20
0.0
 30
0.0
  3
*D31
  1
*D389
  0
LINE
  5
36B9
330
36B6
100
AcDbEntity
  8
寸法
  6
Continuous
 62
     0
370
    -2
100
AcDbLine
 10
140.3763344569852
 20
65.87914175545627
 30
0.0
 11
140.3763344569852
 21
71.01655601532953
 31
0.0
  0
LINE
  5
36BA
330
36B6
100
AcDbEntity
  8
寸法
  6
Continuous
 62
     0
370
    -2
100
AcDbLine
 10
141.8763344569852
 20
65.87914175545627
 30
0.0
 11
141.8763344569852
 21
71.01655601532953
 31
0.0
  0
LINE
  5
36BB
330
36B6
100
AcDbEntity
  8
寸法
  6
Continuous
 62
     0
370
    -2
100
AcDbLine
 10
138.8763344569852
 20
69.76655601532953
 30
0.0
 11
137.3763344569852
 21
69.76655601532953
 31
0.0
  0
LINE
  5
36BC
330
36B6
100
AcDbEntity
  8
寸法
  6
Continuous
 62
     0
370
    -2
100
AcDbLine
 10
143.3763344569852
 20
69.76655601532953
 30
0.0
 11
144.8763344569852
 21
69.76655601532953
 31
0.0
  0
SOLID
  5
36BD
330
36B6
100
AcDbEntity
  8
寸法
 62
     0
100
AcDbTrace
 10
138.8763344569852
 20
69.51655601532953
 30
0.0
 11
138.8763344569852
 21
70.01655601532953
 31
0.0
 12
140.3763344569852
 22
69.76655601532953
 32
0.0
 13
140.3763344569852
 23
69.76655601532953
 33
0.0
  0
SOLID
  5
36BE
330
36B6
100
AcDbEntity
  8
寸法
 62
     0
100
AcDbTrace
 10
143.3763344569852
 20
70.01655601532953
 30
0.0
 11
143.3763344569852
 21
69.51655601532953
 31
0.0
 12
141.8763344569852
 22
69.76655601532953
 32
0.0
 13
141.8763344569852
 23
69.76655601532953
 33
0.0
  0
MTEXT
  5
36BF
330
36B6
100
AcDbEntity
  8
寸法
  6
Continuous
 62
     0
100
AcDbMText
 10
141.2239293443622
 20
71.63597224480706
 30
0.0
 40
2.0
 41
0.0
 46
0.0
 71
     5
 72
     1
  1
1.5
 73
     1
 44
1.0
  0
POINT
  5
36C0
330
36B6
100
AcDbEntity
  8
Defpoints
 62
     0
100
AcDbPoint
 10
140.3763344569852
 20
65.25414175545627
 30
0.0
  0
POINT
  5
36C1
330
36B6
100
AcDbEntity
  8
Defpoints
 62
     0
100
AcDbPoint
 10
141.8763344569852
 20
65.25414175545627
 30
0.0
  0
POINT
  5
36C2
330
36B6
100
AcDbEntity
  8
Defpoints
 62
     0
100
AcDbPoint
 10
141.8763344569852
 20
69.76655601532953
 30
0.0
  0
ENDBLK
  5
36B8
330
36B6
100
AcDbEntity
  8
0
100
AcDbBlockEnd
  0
BLOCK
  5
36C4
330
36C3
100
AcDbEntity
  8
0
100
AcDbBlockBegin
  2
*D32
 70
     1
 10
0.0
 20
0.0
 30
0.0
  3
*D32
  1
*D390
  0
LINE
  5
36C6
330
36C3
100
AcDbEntity
  8
寸法
 62
     0
370
    -2
100
AcDbLine
 10
139.7513344569852
 20
64.95414175545628
 30
0.0
 11
129.7185775712922
 21
64.95414175545628
 31
0.0
  0
LINE
  5
36C7
330
36C3
100
AcDbEntity
  8
寸法
 62
     0
370
    -2
100
AcDbLine
 10
139.7513344569852
 20
63.75414175545627
 30
0.0
 11
129.7185775712922
 21
63.75414175545627
 31
0.0
  0
LINE
  5
36C8
330
36C3
100
AcDbEntity
  8
寸法
 62
     0
370
    -2
100
AcDbLine
 10
130.9685775712922
 20
66.45414175545628
 30
0.0
 11
130.9685775712922
 21
67.95414175545628
 31
0.0
  0
LINE
  5
36C9
330
36C3
100
AcDbEntity
  8
寸法
 62
     0
370
    -2
100
AcDbLine
 10
130.9685775712922
 20
62.25414175545627
 30
0.0
 11
130.9685775712922
 21
60.75414175545627
 31
0.0
  0
SOLID
  5
36CA
330
36C3
100
AcDbEntity
  8
寸法
 62
     0
100
AcDbTrace
 10
130.7185775712922
 20
66.45414175545628
 30
0.0
 11
131.2185775712922
 21
66.45414175545628
 31
0.0
 12
130.9685775712922
 22
64.95414175545628
 32
0.0
 13
130.9685775712922
 23
64.95414175545628
 33
0.0
  0
SOLID
  5
36CB
330
36C3
100
AcDbEntity
  8
寸法
 62
     0
100
AcDbTrace
 10
131.2185775712922
 20
62.25414175545627
 30
0.0
 11
130.7185775712922
 21
62.25414175545627
 31
0.0
 12
130.9685775712922
 22
63.75414175545627
 32
0.0
 13
130.9685775712922
 23
63.75414175545627
 33
0.0
  0
MTEXT
  5
36CC
330
36C3
100
AcDbEntity
  8
寸法
  6
Continuous
 62
     0
100
AcDbMText
 10
130.4281115415779
 20
69.66550648941181
 30
0.0
 40
2.0
 41
0.0
 46
0.0
 71
     5
 72
     1
  1
1.2
 73
     1
 44
1.0
  0
POINT
  5
36CD
330
36C3
100
AcDbEntity
  8
Defpoints
 62
     0
100
AcDbPoint
 10
140.3763344569852
 20
64.95414175545628
 30
0.0
  0
POINT
  5
36CE
330
36C3
100
AcDbEntity
  8
Defpoints
 62
     0
100
AcDbPoint
 10
140.3763344569852
 20
63.75414175545627
 30
0.0
  0
POINT
  5
36CF
330
36C3
100
AcDbEntity
  8
Defpoints
 62
     0
100
AcDbPoint
 10
130.9685775712922
 20
63.75414175545627
 30
0.0
  0
ENDBLK
  5
36C5
330
36C3
100
AcDbEntity
  8
0
100
AcDbBlockEnd
  0
BLOCK
  5
36D1
330
36D0
100
AcDbEntity
  8
0
100
AcDbBlockBegin
  2
*D33
 70
     1
 10
0.0
 20
0.0
 30
0.0
  3
*D33
  1
*D391
  0
LINE
  5
36D3
330
36D0
100
AcDbEntity
  8
寸法
  6
Continuous
 62
     0
370
    -2
100
AcDbLine
 10
142.5013344569852
 20
64.95414175545628
 30
0.0
 11
148.0820593806648
 21
64.95414175545628
 31
0.0
  0
LINE
  5
36D4
330
36D0
100
AcDbEntity
  8
寸法
  6
Continuous
 62
     0
370
    -2
100
AcDbLine
 10
142.5013344569852
 20
63.75414175545627
 30
0.0
 11
148.0820593806648
 21
63.75414175545627
 31
0.0
  0
LINE
  5
36D5
330
36D0
100
AcDbEntity
  8
寸法
  6
Continuous
 62
     0
370
    -2
100
AcDbLine
 10
146.8320593806648
 20
66.45414175545628
 30
0.0
 11
146.8320593806648
 21
67.95414175545628
 31
0.0
  0
LINE
  5
36D6
330
36D0
100
AcDbEntity
  8
寸法
  6
Continuous
 62
     0
370
    -2
100
AcDbLine
 10
146.8320593806648
 20
62.25414175545627
 30
0.0
 11
146.8320593806648
 21
60.75414175545627
 31
0.0
  0
SOLID
  5
36D7
330
36D0
100
AcDbEntity
  8
寸法
 62
     0
100
AcDbTrace
 10
146.5820593806648
 20
66.45414175545628
 30
0.0
 11
147.0820593806648
 21
66.45414175545628
 31
0.0
 12
146.8320593806648
 22
64.95414175545628
 32
0.0
 13
146.8320593806648
 23
64.95414175545628
 33
0.0
  0
SOLID
  5
36D8
330
36D0
100
AcDbEntity
  8
寸法
 62
     0
100
AcDbTrace
 10
147.0820593806648
 20
62.25414175545627
 30
0.0
 11
146.5820593806648
 21
62.25414175545627
 31
0.0
 12
146.8320593806648
 22
63.75414175545627
 32
0.0
 13
146.8320593806648
 23
63.75414175545627
 33
0.0
  0
MTEXT
  5
36D9
330
36D0
100
AcDbEntity
  8
寸法
  6
Continuous
 62
     0
100
AcDbMText
 10
150.7299658979981
 20
64.97573128064218
 30
0.0
 40
2.0
 41
0.0
 46
0.0
 71
     5
 72
     1
  1
1.2
 73
     1
 44
1.0
  0
POINT
  5
36DA
330
36D0
100
AcDbEntity
  8
Defpoints
 62
     0
100
AcDbPoint
 10
141.8763344569852
 20
64.95414175545628
 30
0.0
  0
POINT
  5
36DB
330
36D0
100
AcDbEntity
  8
Defpoints
 62
     0
100
AcDbPoint
 10
141.8763344569852
 20
63.75414175545627
 30
0.0
  0
POINT
  5
36DC
330
36D0
100
AcDbEntity
  8
Defpoints
 62
     0
100
AcDbPoint
 10
146.8320593806648
 20
63.75414175545627
 30
0.0
  0
ENDBLK
  5
36D2
330
36D0
100
AcDbEntity
  8
0
100
AcDbBlockEnd
  0
BLOCK
  5
371B
330
371A
100
AcDbEntity
  8
0
100
AcDbBlockBegin
  2
*D34
 70
     1
 10
0.0
 20
0.0
 30
0.0
  3
*D34
  1
*D393
  0
LINE
  5
371D
330
371A
100
AcDbEntity
  8
寸法
  6
Continuous
 62
     0
370
    -2
100
AcDbLine
 10
139.1626389456385
 20
101.4814353269914
 30
0.0
 11
143.2696515968616
 21
109.4509955906746
 31
0.0
  0
LINE
  5
371E
330
371A
100
AcDbEntity
  8
寸法
  6
Continuous
 62
     0
370
    -2
100
AcDbLine
 10
140.5209722789719
 20
100.7814353269914
 30
0.0
 11
144.627984930195
 21
108.7509955906746
 31
0.0
  0
LINE
  5
371F
330
371A
100
AcDbEntity
  8
寸法
  6
Continuous
 62
     0
370
    -2
100
AcDbLine
 10
141.3636817152551
 20
109.0269922765261
 30
0.0
 11
140.0303208109553
 21
109.7141230492941
 31
0.0
  0
LINE
  5
3720
330
371A
100
AcDbEntity
  8
寸法
  6
Continuous
 62
     0
370
    -2
100
AcDbLine
 10
145.3887368571882
 20
106.9527307309901
 30
0.0
 11
146.722097761488
 21
106.2655999582221
 31
0.0
  0
SOLID
  5
3721
330
371A
100
AcDbEntity
  8
寸法
 62
     0
100
AcDbTrace
 10
141.2491599197938
 20
108.8047654591428
 30
0.0
 11
141.4782035107164
 21
109.2492190939094
 31
0.0
 12
142.6970426195549
 22
108.3398615037581
 32
0.0
 13
142.6970426195549
 23
108.3398615037581
 33
0.0
  0
SOLID
  5
3722
330
371A
100
AcDbEntity
  8
寸法
 62
     0
100
AcDbTrace
 10
145.5032586526495
 20
107.1749575483734
 30
0.0
 11
145.2742150617268
 21
106.7305039136068
 31
0.0
 12
144.0553759528883
 22
107.6398615037581
 32
0.0
 13
144.0553759528883
 23
107.6398615037581
 33
0.0
  0
MTEXT
  5
3723
330
371A
100
AcDbEntity
  8
寸法
  6
Continuous
 62
     0
100
AcDbMText
 10
149.0373480981437
 20
105.0724648154056
 30
0.0
 40
2.0
 41
0.0
 46
0.0
 71
     5
 72
     1
  1
1.53
 73
     1
 44
1.0
  0
POINT
  5
3724
330
371A
100
AcDbEntity
  8
Defpoints
 62
     0
100
AcDbPoint
 10
138.8763344569852
 20
100.9258682835331
 30
0.0
  0
POINT
  5
3725
330
371A
100
AcDbEntity
  8
Defpoints
 62
     0
100
AcDbPoint
 10
140.2346677903186
 20
100.2258682835331
 30
0.0
  0
POINT
  5
3726
330
371A
100
AcDbEntity
  8
Defpoints
 62
     0
100
AcDbPoint
 10
144.0553759528883
 20
107.6398615037581
 30
0.0
  0
ENDBLK
  5
371C
330
371A
100
AcDbEntity
  8
0
100
AcDbBlockEnd
  0
BLOCK
  5
3774
330
3773
100
AcDbEntity
  8
0
100
AcDbBlockBegin
  2
*D35
 70
     1
 10
0.0
 20
0.0
 30
0.0
  3
*D35
  1
*D398
  0
LINE
  5
3776
330
3773
100
AcDbEntity
  8
寸法
  6
Continuous
 62
     0
370
    -2
100
AcDbLine
 10
140.3763344569852
 20
63.12914175545627
 30
0.0
 11
140.3763344569852
 21
56.3806031463011
 31
0.0
  0
LINE
  5
3777
330
3773
100
AcDbEntity
  8
寸法
  6
Continuous
 62
     0
370
    -2
100
AcDbLine
 10
140.8763344569852
 20
63.12914175545627
 30
0.0
 11
140.8763344569852
 21
56.3806031463011
 31
0.0
  0
LINE
  5
3778
330
3773
100
AcDbEntity
  8
寸法
  6
Continuous
 62
     0
370
    -2
100
AcDbLine
 10
138.8763344569852
 20
57.6306031463011
 30
0.0
 11
137.3763344569852
 21
57.6306031463011
 31
0.0
  0
LINE
  5
3779
330
3773
100
AcDbEntity
  8
寸法
  6
Continuous
 62
     0
370
    -2
100
AcDbLine
 10
142.3763344569852
 20
57.6306031463011
 30
0.0
 11
143.8763344569852
 21
57.6306031463011
 31
0.0
  0
SOLID
  5
377A
330
3773
100
AcDbEntity
  8
寸法
 62
     0
100
AcDbTrace
 10
138.8763344569852
 20
57.3806031463011
 30
0.0
 11
138.8763344569852
 21
57.8806031463011
 31
0.0
 12
140.3763344569852
 22
57.6306031463011
 32
0.0
 13
140.3763344569852
 23
57.6306031463011
 33
0.0
  0
SOLID
  5
377B
330
3773
100
AcDbEntity
  8
寸法
 62
     0
100
AcDbTrace
 10
142.3763344569852
 20
57.8806031463011
 30
0.0
 11
142.3763344569852
 21
57.3806031463011
 31
0.0
 12
140.8763344569852
 22
57.6306031463011
 32
0.0
 13
140.8763344569852
 23
57.6306031463011
 33
0.0
  0
MTEXT
  5
377C
330
3773
100
AcDbEntity
  8
寸法
  6
Continuous
 62
     0
100
AcDbMText
 10
140.6874065087501
 20
54.62093144324153
 30
0.0
 40
2.0
 41
0.0
 46
0.0
 71
     5
 72
     1
  1
0.5
 73
     1
 44
1.0
  0
POINT
  5
377D
330
3773
100
AcDbEntity
  8
Defpoints
 62
     0
100
AcDbPoint
 10
140.3763344569852
 20
63.75414175545627
 30
0.0
  0
POINT
  5
377E
330
3773
100
AcDbEntity
  8
Defpoints
 62
     0
100
AcDbPoint
 10
140.8763344569852
 20
63.75414175545627
 30
0.0
  0
POINT
  5
377F
330
3773
100
AcDbEntity
  8
Defpoints
 62
     0
100
AcDbPoint
 10
140.8763344569852
 20
57.6306031463011
 30
0.0
  0
ENDBLK
  5
3775
330
3773
100
AcDbEntity
  8
0
100
AcDbBlockEnd
  0
BLOCK
  5
379D
330
379C
100
AcDbEntity
  8
0
100
AcDbBlockBegin
  2
*D36
 70
     1
 10
0.0
 20
0.0
 30
0.0
  3
*D36
  1
*D399
  0
LINE
  5
379F
330
379C
100
AcDbEntity
  8
寸法
  6
Continuous
 62
     0
370
    -2
100
AcDbLine
 10
116.2513344569852
 20
132.7994429882005
 30
0.0
 11
112.5720311778079
 21
132.7994429882005
 31
0.0
  0
LINE
  5
37A0
330
379C
100
AcDbEntity
  8
寸法
  6
Continuous
 62
     0
370
    -2
100
AcDbLine
 10
116.2513344569852
 20
131.7994429882005
 30
0.0
 11
112.5720311778079
 21
131.7994429882005
 31
0.0
  0
LINE
  5
37A1
330
379C
100
AcDbEntity
  8
寸法
  6
Continuous
 62
     0
370
    -2
100
AcDbLine
 10
113.8220311778079
 20
134.2994429882005
 30
0.0
 11
113.8220311778079
 21
135.7994429882005
 31
0.0
  0
LINE
  5
37A2
330
379C
100
AcDbEntity
  8
寸法
  6
Continuous
 62
     0
370
    -2
100
AcDbLine
 10
113.8220311778079
 20
130.2994429882005
 30
0.0
 11
113.8220311778079
 21
128.7994429882005
 31
0.0
  0
SOLID
  5
37A3
330
379C
100
AcDbEntity
  8
寸法
 62
     0
100
AcDbTrace
 10
113.5720311778079
 20
134.2994429882005
 30
0.0
 11
114.0720311778079
 21
134.2994429882005
 31
0.0
 12
113.8220311778079
 22
132.7994429882005
 32
0.0
 13
113.8220311778079
 23
132.7994429882005
 33
0.0
  0
SOLID
  5
37A4
330
379C
100
AcDbEntity
  8
寸法
 62
     0
100
AcDbTrace
 10
114.0720311778079
 20
130.2994429882005
 30
0.0
 11
113.5720311778079
 21
130.2994429882005
 31
0.0
 12
113.8220311778079
 22
131.7994429882005
 32
0.0
 13
113.8220311778079
 23
131.7994429882005
 33
0.0
  0
MTEXT
  5
37A5
330
379C
100
AcDbEntity
  8
寸法
  6
Continuous
 62
     0
100
AcDbMText
 10
113.8220311778079
 20
126.4088957442684
 30
0.0
 40
2.0
 41
0.0
 46
0.0
 71
     5
 72
     1
  1
1
 73
     1
 44
1.0
  0
POINT
  5
37A6
330
379C
100
AcDbEntity
  8
Defpoints
 62
     0
100
AcDbPoint
 10
116.8763344569852
 20
132.7994429882005
 30
0.0
  0
POINT
  5
37A7
330
379C
100
AcDbEntity
  8
Defpoints
 62
     0
100
AcDbPoint
 10
116.8763344569852
 20
131.7994429882005
 30
0.0
  0
POINT
  5
37A8
330
379C
100
AcDbEntity
  8
Defpoints
 62
     0
100
AcDbPoint
 10
113.8220311778079
 20
131.7994429882005
 30
0.0
  0
ENDBLK
  5
379E
330
379C
100
AcDbEntity
  8
0
100
AcDbBlockEnd
  0
BLOCK
  5
37F0
330
37EF
100
AcDbEntity
  8
0
100
AcDbBlockBegin
  2
*D37
 70
     1
 10
0.0
 20
0.0
 30
0.0
  3
*D37
  1
*D402
  0
LINE
  5
37F2
330
37EF
100
AcDbEntity
  8
寸法
  6
Continuous
 62
     0
370
    -2
100
AcDbLine
 10
129.6263344569852
 20
131.1744429882005
 30
0.0
 11
129.6263344569852
 21
128.2878248195042
 31
0.0
  0
LINE
  5
37F3
330
37EF
100
AcDbEntity
  8
寸法
  6
Continuous
 62
     0
370
    -2
100
AcDbLine
 10
131.1263344569852
 20
131.1744429882005
 30
0.0
 11
131.1263344569852
 21
128.2878248195042
 31
0.0
  0
LINE
  5
37F4
330
37EF
100
AcDbEntity
  8
寸法
  6
Continuous
 62
     0
370
    -2
100
AcDbLine
 10
128.1263344569852
 20
129.5378248195042
 30
0.0
 11
126.6263344569852
 21
129.5378248195042
 31
0.0
  0
LINE
  5
37F5
330
37EF
100
AcDbEntity
  8
寸法
  6
Continuous
 62
     0
370
    -2
100
AcDbLine
 10
132.6263344569852
 20
129.5378248195042
 30
0.0
 11
134.1263344569852
 21
129.5378248195042
 31
0.0
  0
SOLID
  5
37F6
330
37EF
100
AcDbEntity
  8
寸法
 62
     0
100
AcDbTrace
 10
128.1263344569852
 20
129.2878248195042
 30
0.0
 11
128.1263344569852
 21
129.7878248195042
 31
0.0
 12
129.6263344569852
 22
129.5378248195042
 32
0.0
 13
129.6263344569852
 23
129.5378248195042
 33
0.0
  0
SOLID
  5
37F7
330
37EF
100
AcDbEntity
  8
寸法
 62
     0
100
AcDbTrace
 10
132.6263344569852
 20
129.7878248195042
 30
0.0
 11
132.6263344569852
 21
129.2878248195042
 31
0.0
 12
131.1263344569852
 22
129.5378248195042
 32
0.0
 13
131.1263344569852
 23
129.5378248195042
 33
0.0
  0
MTEXT
  5
37F8
330
37EF
100
AcDbEntity
  8
寸法
  6
Continuous
 62
     0
100
AcDbMText
 10
136.40281529839
 20
129.5378248195042
 30
0.0
 40
2.0
 41
0.0
 46
0.0
 71
     5
 72
     1
  1
1.5
 73
     1
 44
1.0
  0
POINT
  5
37F9
330
37EF
100
AcDbEntity
  8
Defpoints
 62
     0
100
AcDbPoint
 10
129.6263344569852
 20
131.7994429882005
 30
0.0
  0
POINT
  5
37FA
330
37EF
100
AcDbEntity
  8
Defpoints
 62
     0
100
AcDbPoint
 10
131.1263344569852
 20
131.7994429882005
 30
0.0
  0
POINT
  5
37FB
330
37EF
100
AcDbEntity
  8
Defpoints
 62
     0
100
AcDbPoint
 10
131.1263344569852
 20
129.5378248195042
 30
0.0
  0
ENDBLK
  5
37F1
330
37EF
100
AcDbEntity
  8
0
100
AcDbBlockEnd
  0
BLOCK
  5
3820
330
381F
100
AcDbEntity
  8
0
100
AcDbBlockBegin
  2
*D38
 70
     1
 10
0.0
 20
0.0
 30
0.0
  3
*D38
  1
*D405
  0
LINE
  5
3822
330
381F
100
AcDbEntity
  8
寸法
  6
Continuous
 62
     0
370
    -2
100
AcDbLine
 10
113.2513344569852
 20
100.9258682835331
 30
0.0
 11
107.8426171885715
 21
100.9258682835331
 31
0.0
  0
LINE
  5
3823
330
381F
100
AcDbEntity
  8
寸法
  6
Continuous
 62
     0
370
    -2
100
AcDbLine
 10
113.2513344569852
 20
97.42586828353313
 30
0.0
 11
107.8426171885715
 21
97.42586828353313
 31
0.0
  0
LINE
  5
3824
330
381F
100
AcDbEntity
  8
寸法
  6
Continuous
 62
     0
370
    -2
100
AcDbLine
 10
109.0926171885715
 20
102.4258682835331
 30
0.0
 11
109.0926171885715
 21
103.9258682835331
 31
0.0
  0
LINE
  5
3825
330
381F
100
AcDbEntity
  8
寸法
  6
Continuous
 62
     0
370
    -2
100
AcDbLine
 10
109.0926171885715
 20
95.92586828353313
 30
0.0
 11
109.0926171885715
 21
94.42586828353313
 31
0.0
  0
SOLID
  5
3826
330
381F
100
AcDbEntity
  8
寸法
 62
     0
100
AcDbTrace
 10
108.8426171885715
 20
102.4258682835331
 30
0.0
 11
109.3426171885715
 21
102.4258682835331
 31
0.0
 12
109.0926171885715
 22
100.9258682835331
 32
0.0
 13
109.0926171885715
 23
100.9258682835331
 33
0.0
  0
SOLID
  5
3827
330
381F
100
AcDbEntity
  8
寸法
 62
     0
100
AcDbTrace
 10
109.3426171885715
 20
95.92586828353313
 30
0.0
 11
108.8426171885715
 21
95.92586828353313
 31
0.0
 12
109.0926171885715
 22
97.42586828353313
 32
0.0
 13
109.0926171885715
 23
97.42586828353313
 33
0.0
  0
MTEXT
  5
3828
330
381F
100
AcDbEntity
  8
寸法
  6
Continuous
 62
     0
100
AcDbMText
 10
107.4957857371429
 20
98.87467785142847
 30
0.0
 40
2.0
 41
0.0
 46
0.0
 71
     5
 72
     1
  1
3.5
 73
     1
 44
1.0
  0
POINT
  5
3829
330
381F
100
AcDbEntity
  8
Defpoints
 62
     0
100
AcDbPoint
 10
113.8763344569852
 20
100.9258682835331
 30
0.0
  0
POINT
  5
382A
330
381F
100
AcDbEntity
  8
Defpoints
 62
     0
100
AcDbPoint
 10
113.8763344569852
 20
97.42586828353313
 30
0.0
  0
POINT
  5
382B
330
381F
100
AcDbEntity
  8
Defpoints
 62
     0
100
AcDbPoint
 10
109.0926171885715
 20
97.42586828353313
 30
0.0
  0
ENDBLK
  5
3821
330
381F
100
AcDbEntity
  8
0
100
AcDbBlockEnd
  0
BLOCK
  5
3830
330
382F
100
AcDbEntity
  8
0
100
AcDbBlockBegin
  2
*D39
 70
     1
 10
0.0
 20
0.0
 30
0.0
  3
*D39
  1
*D406
  0
LINE
  5
3832
330
382F
100
AcDbEntity
  8
寸法
  6
Continuous
 62
     0
370
    -2
100
AcDbLine
 10
113.2513344569852
 20
102.4258682835331
 30
0.0
 11
107.8426171885715
 21
102.4258682835331
 31
0.0
  0
LINE
  5
3833
330
382F
100
AcDbEntity
  8
寸法
  6
Continuous
 62
     0
370
    -2
100
AcDbLine
 10
113.2513344569852
 20
100.9258682835331
 30
0.0
 11
107.8426171885715
 21
100.9258682835331
 31
0.0
  0
LINE
  5
3834
330
382F
100
AcDbEntity
  8
寸法
  6
Continuous
 62
     0
370
    -2
100
AcDbLine
 10
109.0926171885715
 20
103.9258682835331
 30
0.0
 11
109.0926171885715
 21
105.4258682835331
 31
0.0
  0
LINE
  5
3835
330
382F
100
AcDbEntity
  8
寸法
  6
Continuous
 62
     0
370
    -2
100
AcDbLine
 10
109.0926171885715
 20
99.4258682835331
 30
0.0
 11
109.0926171885715
 21
97.9258682835331
 31
0.0
  0
SOLID
  5
3836
330
382F
100
AcDbEntity
  8
寸法
 62
     0
100
AcDbTrace
 10
108.8426171885715
 20
103.9258682835331
 30
0.0
 11
109.3426171885715
 21
103.9258682835331
 31
0.0
 12
109.0926171885715
 22
102.4258682835331
 32
0.0
 13
109.0926171885715
 23
102.4258682835331
 33
0.0
  0
SOLID
  5
3837
330
382F
100
AcDbEntity
  8
寸法
 62
     0
100
AcDbTrace
 10
109.3426171885715
 20
99.4258682835331
 30
0.0
 11
108.8426171885715
 21
99.4258682835331
 31
0.0
 12
109.0926171885715
 22
100.9258682835331
 32
0.0
 13
109.0926171885715
 23
100.9258682835331
 33
0.0
  0
MTEXT
  5
3838
330
382F
100
AcDbEntity
  8
寸法
  6
Continuous
 62
     0
100
AcDbMText
 10
105.8908407831802
 20
100.8481362547029
 30
0.0
 40
2.0
 41
0.0
 46
0.0
 71
     5
 72
     1
  1
1.5
 73
     1
 44
1.0
  0
POINT
  5
3839
330
382F
100
AcDbEntity
  8
Defpoints
 62
     0
100
AcDbPoint
 10
113.8763344569852
 20
102.4258682835331
 30
0.0
  0
POINT
  5
383A
330
382F
100
AcDbEntity
  8
Defpoints
 62
     0
100
AcDbPoint
 10
113.8763344569852
 20
100.9258682835331
 30
0.0
  0
POINT
  5
383B
330
382F
100
AcDbEntity
  8
Defpoints
 62
     0
100
AcDbPoint
 10
109.0926171885715
 20
100.9258682835331
 30
0.0
  0
ENDBLK
  5
3831
330
382F
100
AcDbEntity
  8
0
100
AcDbBlockEnd
  0
BLOCK
  5
3841
330
3840
100
AcDbEntity
  8
0
100
AcDbBlockBegin
  2
*D40
 70
     1
 10
0.0
 20
0.0
 30
0.0
  3
*D40
  1
*D407
  0
LINE
  5
3843
330
3840
100
AcDbEntity
  8
寸法
  6
Continuous
 62
     0
370
    -2
100
AcDbLine
 10
113.8763344569852
 20
103.0508682835331
 30
0.0
 11
113.8763344569852
 21
108.6758682835331
 31
0.0
  0
LINE
  5
3844
330
3840
100
AcDbEntity
  8
寸法
  6
Continuous
 62
     0
370
    -2
100
AcDbLine
 10
116.8763344569852
 20
103.0508682835331
 30
0.0
 11
116.8763344569852
 21
108.6758682835331
 31
0.0
  0
LINE
  5
3845
330
3840
100
AcDbEntity
  8
寸法
  6
Continuous
 62
     0
370
    -2
100
AcDbLine
 10
112.3763344569852
 20
107.4258682835331
 30
0.0
 11
110.8763344569852
 21
107.4258682835331
 31
0.0
  0
LINE
  5
3846
330
3840
100
AcDbEntity
  8
寸法
  6
Continuous
 62
     0
370
    -2
100
AcDbLine
 10
118.3763344569852
 20
107.4258682835331
 30
0.0
 11
119.8763344569852
 21
107.4258682835331
 31
0.0
  0
SOLID
  5
3847
330
3840
100
AcDbEntity
  8
寸法
 62
     0
100
AcDbTrace
 10
112.3763344569852
 20
107.1758682835331
 30
0.0
 11
112.3763344569852
 21
107.6758682835331
 31
0.0
 12
113.8763344569852
 22
107.4258682835331
 32
0.0
 13
113.8763344569852
 23
107.4258682835331
 33
0.0
  0
SOLID
  5
3848
330
3840
100
AcDbEntity
  8
寸法
 62
     0
100
AcDbTrace
 10
118.3763344569852
 20
107.6758682835331
 30
0.0
 11
118.3763344569852
 21
107.1758682835331
 31
0.0
 12
116.8763344569852
 22
107.4258682835331
 32
0.0
 13
116.8763344569852
 23
107.4258682835331
 33
0.0
  0
MTEXT
  5
3849
330
3840
100
AcDbEntity
  8
寸法
  6
Continuous
 62
     0
100
AcDbMText
 10
115.2342766171429
 20
107.4258682835331
 30
0.0
 40
2.0
 41
0.0
 46
0.0
 71
     5
 72
     1
  1
3
 73
     1
 44
1.0
  0
POINT
  5
384A
330
3840
100
AcDbEntity
  8
Defpoints
 62
     0
100
AcDbPoint
 10
113.8763344569852
 20
102.4258682835331
 30
0.0
  0
POINT
  5
384B
330
3840
100
AcDbEntity
  8
Defpoints
 62
     0
100
AcDbPoint
 10
116.8763344569852
 20
102.4258682835331
 30
0.0
  0
POINT
  5
384C
330
3840
100
AcDbEntity
  8
Defpoints
 62
     0
100
AcDbPoint
 10
116.8763344569852
 20
107.4258682835331
 30
0.0
  0
ENDBLK
  5
3842
330
3840
100
AcDbEntity
  8
0
100
AcDbBlockEnd
  0
BLOCK
  5
3860
330
385F
100
AcDbEntity
  8
0
100
AcDbBlockBegin
  2
*D41
 70
     1
 10
0.0
 20
0.0
 30
0.0
  3
*D41
  1
*D408
  0
LINE
  5
3862
330
385F
100
AcDbEntity
  8
寸法
  6
Continuous
 62
     0
370
    -2
100
AcDbLine
 10
141.8763344569852
 20
103.0508682835331
 30
0.0
 11
141.8763344569852
 21
113.6758682835331
 31
0.0
  0
LINE
  5
3863
330
385F
100
AcDbEntity
  8
寸法
  6
Continuous
 62
     0
370
    -2
100
AcDbLine
 10
161.8763344569852
 20
98.45086828353304
 30
0.0
 11
161.8763344569852
 21
113.6758682835331
 31
0.0
  0
LINE
  5
3864
330
385F
100
AcDbEntity
  8
寸法
  6
Continuous
 62
     0
370
    -2
100
AcDbLine
 10
143.3763344569852
 20
112.4258682835331
 30
0.0
 11
149.7513344569852
 21
112.4258682835331
 31
0.0
  0
LINE
  5
3865
330
385F
100
AcDbEntity
  8
寸法
  6
Continuous
 62
     0
370
    -2
100
AcDbLine
 10
160.3763344569852
 20
112.4258682835331
 30
0.0
 11
154.0013344569852
 21
112.4258682835331
 31
0.0
  0
SOLID
  5
3866
330
385F
100
AcDbEntity
  8
寸法
 62
     0
100
AcDbTrace
 10
143.3763344569852
 20
112.6758682835331
 30
0.0
 11
143.3763344569852
 21
112.1758682835331
 31
0.0
 12
141.8763344569852
 22
112.4258682835331
 32
0.0
 13
141.8763344569852
 23
112.4258682835331
 33
0.0
  0
SOLID
  5
3867
330
385F
100
AcDbEntity
  8
寸法
 62
     0
100
AcDbTrace
 10
160.3763344569852
 20
112.1758682835331
 30
0.0
 11
160.3763344569852
 21
112.6758682835331
 31
0.0
 12
161.8763344569852
 22
112.4258682835331
 32
0.0
 13
161.8763344569852
 23
112.4258682835331
 33
0.0
  0
MTEXT
  5
3868
330
385F
100
AcDbEntity
  8
寸法
  6
Continuous
 62
     0
100
AcDbMText
 10
151.8763344569852
 20
112.4258682835331
 30
0.0
 40
2.0
 41
0.0
 46
0.0
 71
     5
 72
     1
  1
20
 73
     1
 44
1.0
  0
POINT
  5
3869
330
385F
100
AcDbEntity
  8
Defpoints
 62
     0
100
AcDbPoint
 10
141.8763344569852
 20
102.4258682835331
 30
0.0
  0
POINT
  5
386A
330
385F
100
AcDbEntity
  8
Defpoints
 62
     0
100
AcDbPoint
 10
161.8763344569852
 20
97.82586828353304
 30
0.0
  0
POINT
  5
38F6
330
385F
100
AcDbEntity
  8
Defpoints
 62
     0
100
AcDbPoint
 10
161.8763344569852
 20
112.4258682835331
 30
0.0
  0
ENDBLK
  5
3861
330
385F
100
AcDbEntity
  8
0
100
AcDbBlockEnd
  0
BLOCK
  5
3871
330
3870
100
AcDbEntity
  8
0
100
AcDbBlockBegin
  2
*D42
 70
     1
 10
0.0
 20
0.0
 30
0.0
  3
*D42
  1
*D409
  0
LINE
  5
3873
330
3870
100
AcDbEntity
  8
寸法
  6
Continuous
 62
     0
370
    -2
100
AcDbLine
 10
161.8763344569852
 20
98.45086828353304
 30
0.0
 11
161.8763344569852
 21
118.6758682835331
 31
0.0
  0
LINE
  5
3874
330
3870
100
AcDbEntity
  8
寸法
  6
Continuous
 62
     0
370
    -2
100
AcDbLine
 10
113.8763344569852
 20
103.6758682835331
 30
0.0
 11
113.8763344569852
 21
118.6758682835331
 31
0.0
  0
LINE
  5
3875
330
3870
100
AcDbEntity
  8
寸法
  6
Continuous
 62
     0
370
    -2
100
AcDbLine
 10
160.3763344569852
 20
117.4258682835331
 30
0.0
 11
140.1680011236519
 21
117.4258682835331
 31
0.0
  0
LINE
  5
3876
330
3870
100
AcDbEntity
  8
寸法
  6
Continuous
 62
     0
370
    -2
100
AcDbLine
 10
115.3763344569852
 20
117.4258682835331
 30
0.0
 11
135.5846677903185
 21
117.4258682835331
 31
0.0
  0
SOLID
  5
3877
330
3870
100
AcDbEntity
  8
寸法
 62
     0
100
AcDbTrace
 10
160.3763344569852
 20
117.1758682835331
 30
0.0
 11
160.3763344569852
 21
117.6758682835331
 31
0.0
 12
161.8763344569852
 22
117.4258682835331
 32
0.0
 13
161.8763344569852
 23
117.4258682835331
 33
0.0
  0
SOLID
  5
3878
330
3870
100
AcDbEntity
  8
寸法
 62
     0
100
AcDbTrace
 10
115.3763344569852
 20
117.6758682835331
 30
0.0
 11
115.3763344569852
 21
117.1758682835331
 31
0.0
 12
113.8763344569852
 22
117.4258682835331
 32
0.0
 13
113.8763344569852
 23
117.4258682835331
 33
0.0
  0
MTEXT
  5
3879
330
3870
100
AcDbEntity
  8
寸法
  6
Continuous
 62
     0
100
AcDbMText
 10
137.8763344569852
 20
117.4258682835331
 30
0.0
 40
2.0
 41
0.0
 46
0.0
 71
     5
 72
     1
  1
48
 73
     1
 44
1.0
  0
POINT
  5
387A
330
3870
100
AcDbEntity
  8
Defpoints
 62
     0
100
AcDbPoint
 10
161.8763344569852
 20
97.82586828353304
 30
0.0
  0
POINT
  5
387B
330
3870
100
AcDbEntity
  8
Defpoints
 62
     0
100
AcDbPoint
 10
113.8763344569852
 20
103.0508682835331
 30
0.0
  0
POINT
  5
38F5
330
3870
100
AcDbEntity
  8
Defpoints
 62
     0
100
AcDbPoint
 10
113.8763344569852
 20
117.4258682835331
 30
0.0
  0
ENDBLK
  5
3872
330
3870
100
AcDbEntity
  8
0
100
AcDbBlockEnd
  0
BLOCK
  5
3881
330
3880
100
AcDbEntity
  8
0
100
AcDbBlockBegin
  2
*D43
 70
     1
 10
0.0
 20
0.0
 30
0.0
  3
*D43
  1
*D410
  0
LINE
  5
3883
330
3880
100
AcDbEntity
  8
寸法
  6
Continuous
 62
     0
370
    -2
100
AcDbLine
 10
162.1013344569854
 20
98.22586828353315
 30
0.0
 11
167.7263344569852
 21
98.22586828353315
 31
0.0
  0
LINE
  5
3884
330
3880
100
AcDbEntity
  8
寸法
  6
Continuous
 62
     0
370
    -2
100
AcDbLine
 10
162.1013344569852
 20
97.42586828353313
 30
0.0
 11
167.7263344569852
 21
97.42586828353313
 31
0.0
  0
LINE
  5
3885
330
3880
100
AcDbEntity
  8
寸法
  6
Continuous
 62
     0
370
    -2
100
AcDbLine
 10
166.4763344569852
 20
99.72586828353315
 30
0.0
 11
166.4763344569852
 21
101.2258682835331
 31
0.0
  0
LINE
  5
3886
330
3880
100
AcDbEntity
  8
寸法
  6
Continuous
 62
     0
370
    -2
100
AcDbLine
 10
166.4763344569852
 20
95.92586828353313
 30
0.0
 11
166.4763344569852
 21
94.42586828353313
 31
0.0
  0
SOLID
  5
3887
330
3880
100
AcDbEntity
  8
寸法
 62
     0
100
AcDbTrace
 10
166.2263344569852
 20
99.72586828353315
 30
0.0
 11
166.7263344569852
 21
99.72586828353315
 31
0.0
 12
166.4763344569852
 22
98.22586828353315
 32
0.0
 13
166.4763344569852
 23
98.22586828353315
 33
0.0
  0
SOLID
  5
3888
330
3880
100
AcDbEntity
  8
寸法
 62
     0
100
AcDbTrace
 10
166.7263344569852
 20
95.92586828353313
 30
0.0
 11
166.2263344569852
 21
95.92586828353313
 31
0.0
 12
166.4763344569852
 22
97.42586828353313
 32
0.0
 13
166.4763344569852
 23
97.42586828353313
 33
0.0
  0
MTEXT
  5
3889
330
3880
100
AcDbEntity
  8
寸法
  6
Continuous
 62
     0
100
AcDbMText
 10
170.3992152206087
 20
97.73488212268835
 30
0.0
 40
2.0
 41
0.0
 46
0.0
 71
     5
 72
     1
  1
0.8
 73
     1
 44
1.0
  0
POINT
  5
388A
330
3880
100
AcDbEntity
  8
Defpoints
 62
     0
100
AcDbPoint
 10
161.4763344569854
 20
98.22586828353315
 30
0.0
  0
POINT
  5
388B
330
3880
100
AcDbEntity
  8
Defpoints
 62
     0
100
AcDbPoint
 10
161.4763344569852
 20
97.42586828353313
 30
0.0
  0
POINT
  5
388C
330
3880
100
AcDbEntity
  8
Defpoints
 62
     0
100
AcDbPoint
 10
166.4763344569852
 20
97.42586828353313
 30
0.0
  0
ENDBLK
  5
3882
330
3880
100
AcDbEntity
  8
0
100
AcDbBlockEnd
  0
BLOCK
  5
38B8
330
38B7
100
AcDbEntity
  8
0
100
AcDbBlockBegin
  2
*D44
 70
     1
 10
0.0
 20
0.0
 30
0.0
  3
*D44
  1
*D412
  0
LINE
  5
38BA
330
38B7
100
AcDbEntity
  8
寸法
  6
Continuous
 62
     0
370
    -2
100
AcDbLine
 10
113.8763344569852
 20
67.87914175545627
 30
0.0
 11
113.8763344569852
 21
76.24524447528506
 31
0.0
  0
LINE
  5
38BB
330
38B7
100
AcDbEntity
  8
寸法
  6
Continuous
 62
     0
370
    -2
100
AcDbLine
 10
141.8763344569852
 20
65.57914175545628
 30
0.0
 11
141.8763344569852
 21
76.24524447528506
 31
0.0
  0
LINE
  5
38BC
330
38B7
100
AcDbEntity
  8
寸法
  6
Continuous
 62
     0
370
    -2
100
AcDbLine
 10
115.3763344569852
 20
74.99524447528506
 30
0.0
 11
124.9198824505033
 21
74.99524447528506
 31
0.0
  0
LINE
  5
38BD
330
38B7
100
AcDbEntity
  8
寸法
  6
Continuous
 62
     0
370
    -2
100
AcDbLine
 10
140.3763344569852
 20
74.99524447528506
 30
0.0
 11
129.5032157838367
 21
74.99524447528506
 31
0.0
  0
SOLID
  5
38BE
330
38B7
100
AcDbEntity
  8
寸法
 62
     0
100
AcDbTrace
 10
115.3763344569852
 20
75.24524447528506
 30
0.0
 11
115.3763344569852
 21
74.74524447528506
 31
0.0
 12
113.8763344569852
 22
74.99524447528506
 32
0.0
 13
113.8763344569852
 23
74.99524447528506
 33
0.0
  0
SOLID
  5
38BF
330
38B7
100
AcDbEntity
  8
寸法
 62
     0
100
AcDbTrace
 10
140.3763344569852
 20
74.74524447528506
 30
0.0
 11
140.3763344569852
 21
75.24524447528506
 31
0.0
 12
141.8763344569852
 22
74.99524447528506
 32
0.0
 13
141.8763344569852
 23
74.99524447528506
 33
0.0
  0
MTEXT
  5
38C0
330
38B7
100
AcDbEntity
  8
寸法
  6
Continuous
 62
     0
100
AcDbMText
 10
127.21154911717
 20
74.99524447528506
 30
0.0
 40
2.0
 41
0.0
 46
0.0
 71
     5
 72
     1
  1
28
 73
     1
 44
1.0
  0
POINT
  5
38C1
330
38B7
100
AcDbEntity
  8
Defpoints
 62
     0
100
AcDbPoint
 10
113.8763344569852
 20
67.25414175545627
 30
0.0
  0
POINT
  5
38C2
330
38B7
100
AcDbEntity
  8
Defpoints
 62
     0
100
AcDbPoint
 10
141.8763344569852
 20
64.95414175545628
 30
0.0
  0
POINT
  5
38C3
330
38B7
100
AcDbEntity
  8
Defpoints
 62
     0
100
AcDbPoint
 10
141.8763344569852
 20
74.99524447528506
 30
0.0
  0
ENDBLK
  5
38B9
330
38B7
100
AcDbEntity
  8
0
100
AcDbBlockEnd
  0
BLOCK
  5
38C8
330
38C7
100
AcDbEntity
  8
0
100
AcDbBlockBegin
  2
*D45
 70
     1
 10
0.0
 20
0.0
 30
0.0
  3
*D45
  1
*D413
  0
LINE
  5
38CA
330
38C7
100
AcDbEntity
  8
寸法
  6
Continuous
 62
     0
370
    -2
100
AcDbLine
 10
141.8763344569852
 20
66.20414175545628
 30
0.0
 11
141.8763344569852
 21
76.24524447528506
 31
0.0
  0
LINE
  5
38CB
330
38C7
100
AcDbEntity
  8
寸法
  6
Continuous
 62
     0
370
    -2
100
AcDbLine
 10
161.8763344569852
 20
63.27914175545618
 30
0.0
 11
161.8763344569852
 21
76.24524447528506
 31
0.0
  0
LINE
  5
38CC
330
38C7
100
AcDbEntity
  8
寸法
  6
Continuous
 62
     0
370
    -2
100
AcDbLine
 10
143.3763344569852
 20
74.99524447528506
 30
0.0
 11
149.7513344569852
 21
74.99524447528506
 31
0.0
  0
LINE
  5
38CD
330
38C7
100
AcDbEntity
  8
寸法
  6
Continuous
 62
     0
370
    -2
100
AcDbLine
 10
160.3763344569852
 20
74.99524447528506
 30
0.0
 11
154.0013344569852
 21
74.99524447528506
 31
0.0
  0
SOLID
  5
38CE
330
38C7
100
AcDbEntity
  8
寸法
 62
     0
100
AcDbTrace
 10
143.3763344569852
 20
75.24524447528506
 30
0.0
 11
143.3763344569852
 21
74.74524447528506
 31
0.0
 12
141.8763344569852
 22
74.99524447528506
 32
0.0
 13
141.8763344569852
 23
74.99524447528506
 33
0.0
  0
SOLID
  5
38CF
330
38C7
100
AcDbEntity
  8
寸法
 62
     0
100
AcDbTrace
 10
160.3763344569852
 20
74.74524447528506
 30
0.0
 11
160.3763344569852
 21
75.24524447528506
 31
0.0
 12
161.8763344569852
 22
74.99524447528506
 32
0.0
 13
161.8763344569852
 23
74.99524447528506
 33
0.0
  0
MTEXT
  5
38D0
330
38C7
100
AcDbEntity
  8
寸法
  6
Continuous
 62
     0
100
AcDbMText
 10
151.8763344569852
 20
74.99524447528506
 30
0.0
 40
2.0
 41
0.0
 46
0.0
 71
     5
 72
     1
  1
20
 73
     1
 44
1.0
  0
POINT
  5
38D1
330
38C7
100
AcDbEntity
  8
Defpoints
 62
     0
100
AcDbPoint
 10
141.8763344569852
 20
65.57914175545628
 30
0.0
  0
POINT
  5
38D2
330
38C7
100
AcDbEntity
  8
Defpoints
 62
     0
100
AcDbPoint
 10
161.8763344569852
 20
62.65414175545618
 30
0.0
  0
POINT
  5
3912
330
38C7
100
AcDbEntity
  8
Defpoints
 62
     0
100
AcDbPoint
 10
161.8763344569852
 20
74.99524447528506
 30
0.0
  0
ENDBLK
  5
38C9
330
38C7
100
AcDbEntity
  8
0
100
AcDbBlockEnd
  0
BLOCK
  5
38D9
330
38D8
100
AcDbEntity
  8
0
100
AcDbBlockBegin
  2
*D46
 70
     1
 10
0.0
 20
0.0
 30
0.0
  3
*D46
  1
*D414
  0
LINE
  5
38DB
330
38D8
100
AcDbEntity
  8
寸法
  6
Continuous
 62
     0
370
    -2
100
AcDbLine
 10
113.8763344569852
 20
67.87914175545627
 30
0.0
 11
113.8763344569852
 21
80.33126198752136
 31
0.0
  0
LINE
  5
38DC
330
38D8
100
AcDbEntity
  8
寸法
  6
Continuous
 62
     0
370
    -2
100
AcDbLine
 10
161.8763344569852
 20
63.27914175545618
 30
0.0
 11
161.8763344569852
 21
80.33126198752136
 31
0.0
  0
LINE
  5
38DD
330
38D8
100
AcDbEntity
  8
寸法
  6
Continuous
 62
     0
370
    -2
100
AcDbLine
 10
115.3763344569852
 20
79.08126198752136
 30
0.0
 11
135.5846677903186
 21
79.08126198752136
 31
0.0
  0
LINE
  5
38DE
330
38D8
100
AcDbEntity
  8
寸法
  6
Continuous
 62
     0
370
    -2
100
AcDbLine
 10
160.3763344569852
 20
79.08126198752136
 30
0.0
 11
140.1680011236519
 21
79.08126198752136
 31
0.0
  0
SOLID
  5
38DF
330
38D8
100
AcDbEntity
  8
寸法
 62
     0
100
AcDbTrace
 10
115.3763344569852
 20
79.33126198752136
 30
0.0
 11
115.3763344569852
 21
78.83126198752136
 31
0.0
 12
113.8763344569852
 22
79.08126198752136
 32
0.0
 13
113.8763344569852
 23
79.08126198752136
 33
0.0
  0
SOLID
  5
38E0
330
38D8
100
AcDbEntity
  8
寸法
 62
     0
100
AcDbTrace
 10
160.3763344569852
 20
78.83126198752136
 30
0.0
 11
160.3763344569852
 21
79.33126198752136
 31
0.0
 12
161.8763344569852
 22
79.08126198752136
 32
0.0
 13
161.8763344569852
 23
79.08126198752136
 33
0.0
  0
MTEXT
  5
38E1
330
38D8
100
AcDbEntity
  8
寸法
  6
Continuous
 62
     0
100
AcDbMText
 10
137.8763344569852
 20
79.08126198752136
 30
0.0
 40
2.0
 41
0.0
 46
0.0
 71
     5
 72
     1
  1
48
 73
     1
 44
1.0
  0
POINT
  5
38E2
330
38D8
100
AcDbEntity
  8
Defpoints
 62
     0
100
AcDbPoint
 10
113.8763344569852
 20
67.25414175545627
 30
0.0
  0
POINT
  5
38E3
330
38D8
100
AcDbEntity
  8
Defpoints
 62
     0
100
AcDbPoint
 10
161.8763344569852
 20
62.65414175545618
 30
0.0
  0
POINT
  5
3911
330
38D8
100
AcDbEntity
  8
Defpoints
 62
     0
100
AcDbPoint
 10
161.8763344569852
 20
79.08126198752136
 30
0.0
  0
ENDBLK
  5
38DA
330
38D8
100
AcDbEntity
  8
0
100
AcDbBlockEnd
  0
BLOCK
  5
38E9
330
38E8
100
AcDbEntity
  8
0
100
AcDbBlockBegin
  2
*D47
 70
     1
 10
0.0
 20
0.0
 30
0.0
  3
*D47
  1
*D415
  0
LINE
  5
38EB
330
38E8
100
AcDbEntity
  8
寸法
  6
Continuous
 62
     0
370
    -2
100
AcDbLine
 10
162.1013344569854
 20
63.05414175545628
 30
0.0
 11
170.4781442901658
 21
63.05414175545628
 31
0.0
  0
LINE
  5
38EC
330
38E8
100
AcDbEntity
  8
寸法
  6
Continuous
 62
     0
370
    -2
100
AcDbLine
 10
162.1013344569852
 20
62.25414175545628
 30
0.0
 11
170.4781442901658
 21
62.25414175545628
 31
0.0
  0
LINE
  5
38ED
330
38E8
100
AcDbEntity
  8
寸法
  6
Continuous
 62
     0
370
    -2
100
AcDbLine
 10
169.2281442901658
 20
64.55414175545627
 30
0.0
 11
169.2281442901658
 21
66.05414175545627
 31
0.0
  0
LINE
  5
38EE
330
38E8
100
AcDbEntity
  8
寸法
  6
Continuous
 62
     0
370
    -2
100
AcDbLine
 10
169.2281442901658
 20
60.75414175545628
 30
0.0
 11
169.2281442901658
 21
59.25414175545628
 31
0.0
  0
SOLID
  5
38EF
330
38E8
100
AcDbEntity
  8
寸法
 62
     0
100
AcDbTrace
 10
168.9781442901658
 20
64.55414175545627
 30
0.0
 11
169.4781442901658
 21
64.55414175545627
 31
0.0
 12
169.2281442901658
 22
63.05414175545628
 32
0.0
 13
169.2281442901658
 23
63.05414175545628
 33
0.0
  0
SOLID
  5
38F0
330
38E8
100
AcDbEntity
  8
寸法
 62
     0
100
AcDbTrace
 10
169.4781442901658
 20
60.75414175545628
 30
0.0
 11
168.9781442901658
 21
60.75414175545628
 31
0.0
 12
169.2281442901658
 22
62.25414175545628
 32
0.0
 13
169.2281442901658
 23
62.25414175545628
 33
0.0
  0
MTEXT
  5
38F1
330
38E8
100
AcDbEntity
  8
寸法
  6
Continuous
 62
     0
100
AcDbMText
 10
173.0057831222333
 20
62.50590792844962
 30
0.0
 40
2.0
 41
0.0
 46
0.0
 71
     5
 72
     1
  1
0.8
 73
     1
 44
1.0
  0
POINT
  5
38F2
330
38E8
100
AcDbEntity
  8
Defpoints
 62
     0
100
AcDbPoint
 10
161.4763344569854
 20
63.05414175545628
 30
0.0
  0
POINT
  5
38F3
330
38E8
100
AcDbEntity
  8
Defpoints
 62
     0
100
AcDbPoint
 10
161.4763344569852
 20
62.25414175545628
 30
0.0
  0
POINT
  5
38F4
330
38E8
100
AcDbEntity
  8
Defpoints
 62
     0
100
AcDbPoint
 10
169.2281442901658
 20
62.25414175545628
 30
0.0
  0
ENDBLK
  5
38EA
330
38E8
100
AcDbEntity
  8
0
100
AcDbBlockEnd
  0
BLOCK
  5
3905
330
3904
100
AcDbEntity
  8
0
100
AcDbBlockBegin
  2
*D48
 70
     1
 10
0.0
 20
0.0
 30
0.0
  3
*D48
  1
*D416
  0
LINE
  5
3907
330
3904
100
AcDbEntity
  8
TOS_M1
  6
Continuous
 62
     0
370
    -2
100
AcDbLine
 10
151.8763344569852
 20
94.80086828353313
 30
0.0
 11
151.8763344569852
 21
93.65683573517333
 31
0.0
  0
LINE
  5
3908
330
3904
100
AcDbEntity
  8
TOS_M1
  6
Continuous
 62
     0
370
    -2
100
AcDbLine
 10
161.8763344569852
 20
97.20086828353304
 30
0.0
 11
161.8763344569852
 21
93.65683573517333
 31
0.0
  0
LINE
  5
3909
330
3904
100
AcDbEntity
  8
TOS_M1
  6
Continuous
 62
     0
370
    -2
100
AcDbLine
 10
153.3763344569852
 20
94.90683573517333
 30
0.0
 11
155.1121622011198
 21
94.90683573517333
 31
0.0
  0
LINE
  5
390A
330
3904
100
AcDbEntity
  8
TOS_M1
  6
Continuous
 62
     0
370
    -2
100
AcDbLine
 10
160.3763344569852
 20
94.90683573517333
 30
0.0
 11
158.6954955344531
 21
94.90683573517333
 31
0.0
  0
SOLID
  5
390B
330
3904
100
AcDbEntity
  8
TOS_M1
 62
     0
100
AcDbTrace
 10
153.3763344569852
 20
95.15683573517333
 30
0.0
 11
153.3763344569852
 21
94.65683573517333
 31
0.0
 12
151.8763344569852
 22
94.90683573517333
 32
0.0
 13
151.8763344569852
 23
94.90683573517333
 33
0.0
  0
SOLID
  5
390C
330
3904
100
AcDbEntity
  8
TOS_M1
 62
     0
100
AcDbTrace
 10
160.3763344569852
 20
94.65683573517333
 30
0.0
 11
160.3763344569852
 21
95.15683573517333
 31
0.0
 12
161.8763344569852
 22
94.90683573517333
 32
0.0
 13
161.8763344569852
 23
94.90683573517333
 33
0.0
  0
MTEXT
  5
390D
330
3904
100
AcDbEntity
  8
TOS_M1
  6
Continuous
 62
     0
100
AcDbMText
 10
156.9038288677865
 20
94.90683573517333
 30
0.0
 40
2.0
 41
0.0
 46
0.0
 71
     5
 72
     1
  1
10
 73
     1
 44
1.0
  0
POINT
  5
390E
330
3904
100
AcDbEntity
  8
Defpoints
 62
     0
100
AcDbPoint
 10
151.8763344569852
 20
95.42586828353313
 30
0.0
  0
POINT
  5
390F
330
3904
100
AcDbEntity
  8
Defpoints
 62
     0
100
AcDbPoint
 10
161.8763344569852
 20
97.82586828353304
 30
0.0
  0
POINT
  5
3910
330
3904
100
AcDbEntity
  8
Defpoints
 62
     0
100
AcDbPoint
 10
161.8763344569852
 20
94.90683573517333
 30
0.0
  0
ENDBLK
  5
3906
330
3904
100
AcDbEntity
  8
0
100
AcDbBlockEnd
  0
BLOCK
  5
391B
330
391A
100
AcDbEntity
  8
0
100
AcDbBlockBegin
  2
*D49
 70
     1
 10
0.0
 20
0.0
 30
0.0
  3
*D49
  1
*D417
  0
LINE
  5
391D
330
391A
100
AcDbEntity
  8
TOS_M1
  6
Continuous
 62
     0
370
    -2
100
AcDbLine
 10
151.8763344569852
 20
59.62914175545627
 30
0.0
 11
151.8763344569852
 21
58.48510920709647
 31
0.0
  0
LINE
  5
391E
330
391A
100
AcDbEntity
  8
TOS_M1
  6
Continuous
 62
     0
370
    -2
100
AcDbLine
 10
161.8763344569852
 20
62.02914175545618
 30
0.0
 11
161.8763344569852
 21
58.48510920709647
 31
0.0
  0
LINE
  5
391F
330
391A
100
AcDbEntity
  8
TOS_M1
  6
Continuous
 62
     0
370
    -2
100
AcDbLine
 10
153.3763344569852
 20
59.73510920709647
 30
0.0
 11
155.1121622011198
 21
59.73510920709647
 31
0.0
  0
LINE
  5
3920
330
391A
100
AcDbEntity
  8
TOS_M1
  6
Continuous
 62
     0
370
    -2
100
AcDbLine
 10
160.3763344569852
 20
59.73510920709647
 30
0.0
 11
158.6954955344531
 21
59.73510920709647
 31
0.0
  0
SOLID
  5
3921
330
391A
100
AcDbEntity
  8
TOS_M1
 62
     0
100
AcDbTrace
 10
153.3763344569852
 20
59.98510920709647
 30
0.0
 11
153.3763344569852
 21
59.48510920709647
 31
0.0
 12
151.8763344569852
 22
59.73510920709647
 32
0.0
 13
151.8763344569852
 23
59.73510920709647
 33
0.0
  0
SOLID
  5
3922
330
391A
100
AcDbEntity
  8
TOS_M1
 62
     0
100
AcDbTrace
 10
160.3763344569852
 20
59.48510920709647
 30
0.0
 11
160.3763344569852
 21
59.98510920709647
 31
0.0
 12
161.8763344569852
 22
59.73510920709647
 32
0.0
 13
161.8763344569852
 23
59.73510920709647
 33
0.0
  0
MTEXT
  5
3923
330
391A
100
AcDbEntity
  8
TOS_M1
  6
Continuous
 62
     0
100
AcDbMText
 10
156.9038288677865
 20
59.73510920709647
 30
0.0
 40
2.0
 41
0.0
 46
0.0
 71
     5
 72
     1
  1
10
 73
     1
 44
1.0
  0
POINT
  5
3924
330
391A
100
AcDbEntity
  8
Defpoints
 62
     0
100
AcDbPoint
 10
151.8763344569852
 20
60.25414175545627
 30
0.0
  0
POINT
  5
3925
330
391A
100
AcDbEntity
  8
Defpoints
 62
     0
100
AcDbPoint
 10
161.8763344569852
 20
62.65414175545618
 30
0.0
  0
POINT
  5
3926
330
391A
100
AcDbEntity
  8
Defpoints
 62
     0
100
AcDbPoint
 10
161.8763344569852
 20
59.73510920709647
 30
0.0
  0
ENDBLK
  5
391C
330
391A
100
AcDbEntity
  8
0
100
AcDbBlockEnd
  0
BLOCK
  5
3939
330
3938
100
AcDbEntity
  8
0
100
AcDbBlockBegin
  2
*D50
 70
     1
 10
0.0
 20
0.0
 30
0.0
  3
*D50
  1
*D418
  0
LINE
  5
393B
330
3938
100
AcDbEntity
  8
寸法
  6
Continuous
 62
     0
370
    -2
100
AcDbLine
 10
140.3763344569852
 20
65.57914175545628
 30
0.0
 11
140.3763344569852
 21
69.016962569289
 31
0.0
  0
LINE
  5
393C
330
3938
100
AcDbEntity
  8
寸法
  6
Continuous
 62
     0
370
    -2
100
AcDbLine
 10
140.6763344569852
 20
65.57914175545628
 30
0.0
 11
140.6763344569852
 21
69.016962569289
 31
0.0
  0
LINE
  5
393D
330
3938
100
AcDbEntity
  8
寸法
  6
Continuous
 62
     0
370
    -2
100
AcDbLine
 10
138.8763344569852
 20
67.766962569289
 30
0.0
 11
137.3763344569852
 21
67.766962569289
 31
0.0
  0
LINE
  5
393E
330
3938
100
AcDbEntity
  8
寸法
  6
Continuous
 62
     0
370
    -2
100
AcDbLine
 10
142.1763344569852
 20
67.766962569289
 30
0.0
 11
143.6763344569852
 21
67.766962569289
 31
0.0
  0
SOLID
  5
393F
330
3938
100
AcDbEntity
  8
寸法
 62
     0
100
AcDbTrace
 10
138.8763344569852
 20
67.516962569289
 30
0.0
 11
138.8763344569852
 21
68.016962569289
 31
0.0
 12
140.3763344569852
 22
67.766962569289
 32
0.0
 13
140.3763344569852
 23
67.766962569289
 33
0.0
  0
SOLID
  5
3940
330
3938
100
AcDbEntity
  8
寸法
 62
     0
100
AcDbTrace
 10
142.1763344569852
 20
68.016962569289
 30
0.0
 11
142.1763344569852
 21
67.516962569289
 31
0.0
 12
140.6763344569852
 22
67.766962569289
 32
0.0
 13
140.6763344569852
 23
67.766962569289
 33
0.0
  0
MTEXT
  5
3941
330
3938
100
AcDbEntity
  8
寸法
  6
Continuous
 62
     0
100
AcDbMText
 10
135.3493004085037
 20
67.81727504332785
 30
0.0
 40
2.0
 41
0.0
 46
0.0
 71
     5
 72
     1
  1
0.3
 73
     1
 44
1.0
  0
POINT
  5
3942
330
3938
100
AcDbEntity
  8
Defpoints
 62
     0
100
AcDbPoint
 10
140.3763344569852
 20
64.95414175545628
 30
0.0
  0
POINT
  5
3943
330
3938
100
AcDbEntity
  8
Defpoints
 62
     0
100
AcDbPoint
 10
140.6763344569852
 20
64.95414175545628
 30
0.0
  0
POINT
  5
3944
330
3938
100
AcDbEntity
  8
Defpoints
 62
     0
100
AcDbPoint
 10
140.6763344569852
 20
67.766962569289
 30
0.0
  0
ENDBLK
  5
393A
330
3938
100
AcDbEntity
  8
0
100
AcDbBlockEnd
  0
BLOCK
  5
3949
330
3948
100
AcDbEntity
  8
0
100
AcDbBlockBegin
  2
*D51
 70
     1
 10
0.0
 20
0.0
 30
0.0
  3
*D51
  1
*D419
  0
LINE
  5
394B
330
3948
100
AcDbEntity
  8
寸法
  6
Continuous
 62
     0
370
    -2
100
AcDbLine
 10
140.4763344569852
 20
64.0891417554563
 30
0.0
 11
140.4763344569852
 21
59.30623111501296
 31
0.0
  0
LINE
  5
394C
330
3948
100
AcDbEntity
  8
寸法
  6
Continuous
 62
     0
370
    -2
100
AcDbLine
 10
140.3763344569852
 20
64.32914175545628
 30
0.0
 11
140.3763344569852
 21
59.30623111501296
 31
0.0
  0
LINE
  5
394D
330
3948
100
AcDbEntity
  8
寸法
  6
Continuous
 62
     0
370
    -2
100
AcDbLine
 10
141.9763344569852
 20
60.55623111501296
 30
0.0
 11
143.4763344569852
 21
60.55623111501296
 31
0.0
  0
LINE
  5
394E
330
3948
100
AcDbEntity
  8
寸法
  6
Continuous
 62
     0
370
    -2
100
AcDbLine
 10
138.8763344569852
 20
60.55623111501296
 30
0.0
 11
137.3763344569852
 21
60.55623111501296
 31
0.0
  0
SOLID
  5
394F
330
3948
100
AcDbEntity
  8
寸法
 62
     0
100
AcDbTrace
 10
141.9763344569852
 20
60.80623111501296
 30
0.0
 11
141.9763344569852
 21
60.30623111501296
 31
0.0
 12
140.4763344569852
 22
60.55623111501296
 32
0.0
 13
140.4763344569852
 23
60.55623111501296
 33
0.0
  0
SOLID
  5
3950
330
3948
100
AcDbEntity
  8
寸法
 62
     0
100
AcDbTrace
 10
138.8763344569852
 20
60.30623111501296
 30
0.0
 11
138.8763344569852
 21
60.80623111501296
 31
0.0
 12
140.3763344569852
 22
60.55623111501296
 32
0.0
 13
140.3763344569852
 23
60.55623111501296
 33
0.0
  0
MTEXT
  5
3951
330
3948
100
AcDbEntity
  8
寸法
  6
Continuous
 62
     0
100
AcDbMText
 10
135.2595908522936
 20
60.55623111501296
 30
0.0
 40
2.0
 41
0.0
 46
0.0
 71
     5
 72
     1
  1
0.1
 73
     1
 44
1.0
  0
POINT
  5
3952
330
3948
100
AcDbEntity
  8
Defpoints
 62
     0
100
AcDbPoint
 10
140.4763344569852
 20
64.7141417554563
 30
0.0
  0
POINT
  5
3953
330
3948
100
AcDbEntity
  8
Defpoints
 62
     0
100
AcDbPoint
 10
140.3763344569852
 20
64.95414175545628
 30
0.0
  0
POINT
  5
3954
330
3948
100
AcDbEntity
  8
Defpoints
 62
     0
100
AcDbPoint
 10
140.3763344569852
 20
60.55623111501296
 30
0.0
  0
ENDBLK
  5
394A
330
3948
100
AcDbEntity
  8
0
100
AcDbBlockEnd
  0
BLOCK
  5
3959
330
3958
100
AcDbEntity
  8
0
100
AcDbBlockBegin
  2
*D52
 70
     1
 10
0.0
 20
0.0
 30
0.0
  3
*D52
  1
*D420
  0
LINE
  5
395B
330
3958
100
AcDbEntity
  8
寸法
  6
Continuous
 62
     0
370
    -2
100
AcDbLine
 10
117.5013344569852
 20
67.25414175545627
 30
0.0
 11
122.2985621304705
 21
67.25414175545627
 31
0.0
  0
LINE
  5
395C
330
3958
100
AcDbEntity
  8
寸法
  6
Continuous
 62
     0
370
    -2
100
AcDbLine
 10
117.5013344569852
 20
65.50414175545627
 30
0.0
 11
122.2985621304705
 21
65.50414175545627
 31
0.0
  0
LINE
  5
395D
330
3958
100
AcDbEntity
  8
寸法
  6
Continuous
 62
     0
370
    -2
100
AcDbLine
 10
121.0485621304705
 20
68.75414175545627
 30
0.0
 11
121.0485621304705
 21
70.25414175545627
 31
0.0
  0
LINE
  5
395E
330
3958
100
AcDbEntity
  8
寸法
  6
Continuous
 62
     0
370
    -2
100
AcDbLine
 10
121.0485621304705
 20
64.00414175545627
 30
0.0
 11
121.0485621304705
 21
62.50414175545627
 31
0.0
  0
SOLID
  5
395F
330
3958
100
AcDbEntity
  8
寸法
 62
     0
100
AcDbTrace
 10
120.7985621304705
 20
68.75414175545627
 30
0.0
 11
121.2985621304705
 21
68.75414175545627
 31
0.0
 12
121.0485621304705
 22
67.25414175545627
 32
0.0
 13
121.0485621304705
 23
67.25414175545627
 33
0.0
  0
SOLID
  5
3960
330
3958
100
AcDbEntity
  8
寸法
 62
     0
100
AcDbTrace
 10
121.2985621304705
 20
64.00414175545627
 30
0.0
 11
120.7985621304705
 21
64.00414175545627
 31
0.0
 12
121.0485621304705
 22
65.50414175545627
 32
0.0
 13
121.0485621304705
 23
65.50414175545627
 33
0.0
  0
MTEXT
  5
3961
330
3958
100
AcDbEntity
  8
寸法
  6
Continuous
 62
     0
100
AcDbMText
 10
121.0485621304705
 20
70.98212034464856
 30
0.0
 40
2.0
 41
0.0
 46
0.0
 71
     5
 72
     1
  1
1.75
 73
     1
 44
1.0
  0
POINT
  5
3962
330
3958
100
AcDbEntity
  8
Defpoints
 62
     0
100
AcDbPoint
 10
116.8763344569852
 20
67.25414175545627
 30
0.0
  0
POINT
  5
3963
330
3958
100
AcDbEntity
  8
Defpoints
 62
     0
100
AcDbPoint
 10
116.8763344569852
 20
65.50414175545627
 30
0.0
  0
POINT
  5
3964
330
3958
100
AcDbEntity
  8
Defpoints
 62
     0
100
AcDbPoint
 10
121.0485621304705
 20
65.50414175545627
 30
0.0
  0
ENDBLK
  5
395A
330
3958
100
AcDbEntity
  8
0
100
AcDbBlockEnd
  0
BLOCK
  5
3969
330
3968
100
AcDbEntity
  8
0
100
AcDbBlockBegin
  2
*D53
 70
     1
 10
0.0
 20
0.0
 30
0.0
  3
*D53
  1
*D421
  0
LINE
  5
396B
330
3968
100
AcDbEntity
  8
寸法
  6
Continuous
 62
     0
370
    -2
100
AcDbLine
 10
116.8763344569852
 20
64.87914175545627
 30
0.0
 11
116.8763344569852
 21
60.03107447756742
 31
0.0
  0
LINE
  5
396C
330
3968
100
AcDbEntity
  8
寸法
  6
Continuous
 62
     0
370
    -2
100
AcDbLine
 10
116.6763344569852
 20
63.12914175545627
 30
0.0
 11
116.6763344569852
 21
60.03107447756742
 31
0.0
  0
LINE
  5
396D
330
3968
100
AcDbEntity
  8
寸法
  6
Continuous
 62
     0
370
    -2
100
AcDbLine
 10
118.3763344569852
 20
61.28107447756742
 30
0.0
 11
119.8763344569852
 21
61.28107447756742
 31
0.0
  0
LINE
  5
396E
330
3968
100
AcDbEntity
  8
寸法
  6
Continuous
 62
     0
370
    -2
100
AcDbLine
 10
115.1763344569852
 20
61.28107447756742
 30
0.0
 11
113.6763344569852
 21
61.28107447756742
 31
0.0
  0
SOLID
  5
396F
330
3968
100
AcDbEntity
  8
寸法
 62
     0
100
AcDbTrace
 10
118.3763344569852
 20
61.53107447756742
 30
0.0
 11
118.3763344569852
 21
61.03107447756742
 31
0.0
 12
116.8763344569852
 22
61.28107447756742
 32
0.0
 13
116.8763344569852
 23
61.28107447756742
 33
0.0
  0
SOLID
  5
3970
330
3968
100
AcDbEntity
  8
寸法
 62
     0
100
AcDbTrace
 10
115.1763344569852
 20
61.03107447756742
 30
0.0
 11
115.1763344569852
 21
61.53107447756742
 31
0.0
 12
116.6763344569852
 22
61.28107447756742
 32
0.0
 13
116.6763344569852
 23
61.28107447756742
 33
0.0
  0
MTEXT
  5
3971
330
3968
100
AcDbEntity
  8
寸法
  6
Continuous
 62
     0
100
AcDbMText
 10
117.2432390818031
 20
59.14279433091598
 30
0.0
 40
2.0
 41
0.0
 46
0.0
 71
     5
 72
     1
  1
0.2
 73
     1
 44
1.0
  0
POINT
  5
3972
330
3968
100
AcDbEntity
  8
Defpoints
 62
     0
100
AcDbPoint
 10
116.8763344569852
 20
65.50414175545627
 30
0.0
  0
POINT
  5
3973
330
3968
100
AcDbEntity
  8
Defpoints
 62
     0
100
AcDbPoint
 10
116.6763344569852
 20
63.75414175545627
 30
0.0
  0
POINT
  5
3974
330
3968
100
AcDbEntity
  8
Defpoints
 62
     0
100
AcDbPoint
 10
116.6763344569852
 20
61.28107447756742
 30
0.0
  0
ENDBLK
  5
396A
330
3968
100
AcDbEntity
  8
0
100
AcDbBlockEnd
  0
BLOCK
  5
39C0
330
39BF
100
AcDbEntity
  8
0
100
AcDbBlockBegin
  2
*D54
 70
     1
 10
0.0
 20
0.0
 30
0.0
  3
*D54
  1

  0
LINE
  5
39C1
330
39BF
100
AcDbEntity
  8
寸法
  6
Continuous
 62
     0
370
    -2
100
AcDbLine
 10
27.425
 20
12.05807942136178
 30
0.0
 11
31.5950059879254
 21
12.05807942136178
 31
0.0
  0
LINE
  5
39C2
330
39BF
100
AcDbEntity
  8
寸法
  6
Continuous
 62
     0
370
    -2
100
AcDbLine
 10
27.28500000000001
 20
8.558079421361882
 30
0.0
 11
31.5950059879254
 21
8.558079421361882
 31
0.0
  0
LINE
  5
39C3
330
39BF
100
AcDbEntity
  8
寸法
  6
Continuous
 62
     0
370
    -2
100
AcDbLine
 10
30.3450059879254
 20
13.55807942136178
 30
0.0
 11
30.3450059879254
 21
15.05807942136178
 31
0.0
  0
LINE
  5
39C4
330
39BF
100
AcDbEntity
  8
寸法
  6
Continuous
 62
     0
370
    -2
100
AcDbLine
 10
30.3450059879254
 20
7.058079421361882
 30
0.0
 11
30.3450059879254
 21
5.558079421361882
 31
0.0
  0
SOLID
  5
39C5
330
39BF
100
AcDbEntity
  8
寸法
 62
     0
100
AcDbTrace
 10
30.0950059879254
 20
13.55807942136178
 30
0.0
 11
30.5950059879254
 21
13.55807942136178
 31
0.0
 12
30.3450059879254
 22
12.05807942136178
 32
0.0
 13
30.3450059879254
 23
12.05807942136178
 33
0.0
  0
SOLID
  5
39C6
330
39BF
100
AcDbEntity
  8
寸法
 62
     0
100
AcDbTrace
 10
30.5950059879254
 20
7.058079421361882
 30
0.0
 11
30.0950059879254
 21
7.058079421361882
 31
0.0
 12
30.3450059879254
 22
8.558079421361882
 32
0.0
 13
30.3450059879254
 23
8.558079421361882
 33
0.0
  0
MTEXT
  5
39C7
330
39BF
100
AcDbEntity
  8
寸法
  6
Continuous
 62
     0
100
AcDbMText
 10
33.38438625966891
 20
10.21825343239148
 30
0.0
 40
2.0
 41
0.0
 46
0.0
 71
     5
 72
     1
  1
3.5
 73
     1
 44
1.0
  0
POINT
  5
39C8
330
39BF
100
AcDbEntity
  8
Defpoints
 62
     0
100
AcDbPoint
 10
26.8
 20
12.05807942136178
 30
0.0
  0
POINT
  5
39C9
330
39BF
100
AcDbEntity
  8
Defpoints
 62
     0
100
AcDbPoint
 10
26.66000000000001
 20
8.558079421361882
 30
0.0
  0
POINT
  5
39CA
330
39BF
100
AcDbEntity
  8
Defpoints
 62
     0
100
AcDbPoint
 10
30.3450059879254
 20
8.558079421361882
 30
0.0
  0
ENDBLK
  5
39CB
330
39BF
100
AcDbEntity
  8
0
100
AcDbBlockEnd
  0
BLOCK
  5
39DB
330
39DA
100
AcDbEntity
  8
0
100
AcDbBlockBegin
  2
*D55
 70
     1
 10
0.0
 20
0.0
 30
0.0
  3
*D55
  1

  0
LINE
  5
39DD
330
39DA
100
AcDbEntity
  8
寸法
  6
Continuous
 62
     0
370
    -2
100
AcDbLine
 10
154.3807774309097
 20
88.86039302283305
 30
0.0
 11
158.5507834188351
 21
88.86039302283305
 31
0.0
  0
LINE
  5
39DE
330
39DA
100
AcDbEntity
  8
寸法
  6
Continuous
 62
     0
370
    -2
100
AcDbLine
 10
154.2407774309097
 20
85.36039302283315
 30
0.0
 11
158.5507834188351
 21
85.36039302283315
 31
0.0
  0
LINE
  5
39DF
330
39DA
100
AcDbEntity
  8
寸法
  6
Continuous
 62
     0
370
    -2
100
AcDbLine
 10
157.3007834188351
 20
90.36039302283305
 30
0.0
 11
157.3007834188351
 21
91.86039302283305
 31
0.0
  0
LINE
  5
39E0
330
39DA
100
AcDbEntity
  8
寸法
  6
Continuous
 62
     0
370
    -2
100
AcDbLine
 10
157.3007834188351
 20
83.86039302283315
 30
0.0
 11
157.3007834188351
 21
82.36039302283315
 31
0.0
  0
SOLID
  5
39E1
330
39DA
100
AcDbEntity
  8
寸法
 62
     0
100
AcDbTrace
 10
157.0507834188351
 20
90.36039302283305
 30
0.0
 11
157.5507834188351
 21
90.36039302283305
 31
0.0
 12
157.3007834188351
 22
88.86039302283305
 32
0.0
 13
157.3007834188351
 23
88.86039302283305
 33
0.0
  0
SOLID
  5
39E2
330
39DA
100
AcDbEntity
  8
寸法
 62
     0
100
AcDbTrace
 10
157.5507834188351
 20
83.86039302283315
 30
0.0
 11
157.0507834188351
 21
83.86039302283315
 31
0.0
 12
157.3007834188351
 22
85.36039302283315
 32
0.0
 13
157.3007834188351
 23
85.36039302283315
 33
0.0
  0
MTEXT
  5
39E3
330
39DA
100
AcDbEntity
  8
寸法
  6
Continuous
 62
     0
100
AcDbMText
 10
160.3401636905786
 20
87.02056703386275
 30
0.0
 40
2.0
 41
0.0
 46
0.0
 71
     5
 72
     1
  1
3.5
 73
     1
 44
1.0
  0
POINT
  5
39E4
330
39DA
100
AcDbEntity
  8
Defpoints
 62
     0
100
AcDbPoint
 10
153.7557774309097
 20
88.86039302283305
 30
0.0
  0
POINT
  5
39E5
330
39DA
100
AcDbEntity
  8
Defpoints
 62
     0
100
AcDbPoint
 10
153.6157774309097
 20
85.36039302283315
 30
0.0
  0
POINT
  5
39E6
330
39DA
100
AcDbEntity
  8
Defpoints
 62
     0
100
AcDbPoint
 10
157.3007834188351
 20
85.36039302283315
 30
0.0
  0
ENDBLK
  5
39DC
330
39DA
100
AcDbEntity
  8
0
100
AcDbBlockEnd
  0
BLOCK
  5
3AB0
330
3AAF
100
AcDbEntity
  8
0
100
AcDbBlockBegin
  2
*D56
 70
     1
 10
0.0
 20
0.0
 30
0.0
  3
*D56
  1

  0
LINE
  5
3AB2
330
3AAF
100
AcDbEntity
  8
寸法
  6
Continuous
 62
     0
370
    -2
100
AcDbLine
 10
113.2513344569852
 20
93.42586828353313
 30
0.0
 11
110.0629564392834
 21
93.42586828353313
 31
0.0
  0
LINE
  5
3AB3
330
3AAF
100
AcDbEntity
  8
寸法
  6
Continuous
 62
     0
370
    -2
100
AcDbLine
 10
114.4513344569852
 20
97.42586828353313
 30
0.0
 11
110.0629564392834
 21
97.42586828353313
 31
0.0
  0
LINE
  5
3AB4
330
3AAF
100
AcDbEntity
  8
寸法
  6
Continuous
 62
     0
370
    -2
100
AcDbLine
 10
111.3129564392834
 20
91.92586828353313
 30
0.0
 11
111.3129564392834
 21
90.42586828353313
 31
0.0
  0
LINE
  5
3AB5
330
3AAF
100
AcDbEntity
  8
寸法
  6
Continuous
 62
     0
370
    -2
100
AcDbLine
 10
111.3129564392834
 20
98.92586828353313
 30
0.0
 11
111.3129564392834
 21
100.4258682835331
 31
0.0
  0
SOLID
  5
3AB6
330
3AAF
100
AcDbEntity
  8
寸法
 62
     0
100
AcDbTrace
 10
111.5629564392834
 20
91.92586828353313
 30
0.0
 11
111.0629564392834
 21
91.92586828353313
 31
0.0
 12
111.3129564392834
 22
93.42586828353313
 32
0.0
 13
111.3129564392834
 23
93.42586828353313
 33
0.0
  0
SOLID
  5
3AB7
330
3AAF
100
AcDbEntity
  8
寸法
 62
     0
100
AcDbTrace
 10
111.0629564392834
 20
98.92586828353313
 30
0.0
 11
111.5629564392834
 21
98.92586828353313
 31
0.0
 12
111.3129564392834
 22
97.42586828353313
 32
0.0
 13
111.3129564392834
 23
97.42586828353313
 33
0.0
  0
MTEXT
  5
3AB8
330
3AAF
100
AcDbEntity
  8
寸法
  6
Continuous
 62
     0
100
AcDbMText
 10
111.3129564392834
 20
95.35721811733615
 30
0.0
 40
2.0
 41
0.0
 46
0.0
 71
     5
 72
     1
  1
4
 73
     1
 44
1.0
  0
POINT
  5
3AB9
330
3AAF
100
AcDbEntity
  8
Defpoints
 62
     0
100
AcDbPoint
 10
113.8763344569852
 20
93.42586828353313
 30
0.0
  0
POINT
  5
3ABA
330
3AAF
100
AcDbEntity
  8
Defpoints
 62
     0
100
AcDbPoint
 10
115.0763344569852
 20
97.42586828353313
 30
0.0
  0
POINT
  5
3ABB
330
3AAF
100
AcDbEntity
  8
Defpoints
 62
     0
100
AcDbPoint
 10
111.3129564392834
 20
97.42586828353313
 30
0.0
  0
ENDBLK
  5
3AB1
330
3AAF
100
AcDbEntity
  8
0
100
AcDbBlockEnd
  0
ENDSEC
  0
SECTION
  2
ENTITIES
  0
LINE
  5
664
330
1F
100
AcDbEntity
  8
用紙範囲
  6
HIDDEN
100
AcDbLine
 10
0.0
 20
205.0
 30
0.0
 11
0.0
 21
0.0
 31
0.0
  0
LINE
  5
665
330
1F
100
AcDbEntity
  8
用紙範囲
  6
HIDDEN
100
AcDbLine
 10
292.0
 20
205.0
 30
0.0
 11
292.0
 21
0.0
 31
0.0
  0
LINE
  5
666
330
1F
100
AcDbEntity
  8
用紙範囲
  6
HIDDEN
100
AcDbLine
 10
0.0
 20
205.0
 30
0.0
 11
292.0
 21
205.0
 31
0.0
  0
LINE
  5
667
330
1F
100
AcDbEntity
  8
用紙範囲
  6
HIDDEN
100
AcDbLine
 10
0.0
 20
0.0
 30
0.0
 11
292.0
 21
0.0
 31
0.0
  0
LINE
  5
668
330
1F
100
AcDbEntity
  8
枠
  6
Continuous
100
AcDbLine
 10
11.00000000000003
 20
193.5
 30
0.0
 11
281.0
 21
193.5
 31
0.0
  0
LINE
  5
669
330
1F
100
AcDbEntity
  8
枠
  6
Continuous
100
AcDbLine
 10
11.00000000000003
 20
11.5
 30
0.0
 11
281.0
 21
11.5
 31
0.0
  0
LINE
  5
66A
330
1F
100
AcDbEntity
  8
枠
  6
Continuous
100
AcDbLine
 10
11.00000000000003
 20
193.5
 30
0.0
 11
11.00000000000003
 21
11.5
 31
0.0
  0
LINE
  5
66B
330
1F
100
AcDbEntity
  8
枠
  6
Continuous
100
AcDbLine
 10
281.0
 20
193.5
 30
0.0
 11
281.0
 21
11.5
 31
0.0
  0
LINE
  5
673
330
1F
100
AcDbEntity
  8
枠
  6
Continuous
100
AcDbLine
 10
10.00000000000003
 20
194.5
 30
0.0
 11
282.0
 21
194.5
 31
0.0
  0
LINE
  5
674
330
1F
100
AcDbEntity
  8
枠
  6
Continuous
100
AcDbLine
 10
10.00000000000003
 20
194.5
 30
0.0
 11
10.00000000000003
 21
10.5
 31
0.0
  0
LINE
  5
675
330
1F
100
AcDbEntity
  8
枠
  6
Continuous
100
AcDbLine
 10
10.00000000000003
 20
10.5
 30
0.0
 11
282.0
 21
10.5
 31
0.0
  0
LINE
  5
676
330
1F
100
AcDbEntity
  8
枠
  6
Continuous
100
AcDbLine
 10
282.0
 20
194.5
 30
0.0
 11
282.0
 21
10.5
 31
0.0
  0
LINE
  5
677
330
1F
100
AcDbEntity
  8
枠
  6
Continuous
100
AcDbLine
 10
236.0
 20
193.5
 30
0.0
 11
236.0
 21
11.5
 31
0.0
  0
LINE
  5
678
330
1F
100
AcDbEntity
  8
枠
  6
Continuous
100
AcDbLine
 10
236.0
 20
171.3660465293556
 30
0.0
 11
281.0
 21
171.3660465293556
 31
0.0
  0
LINE
  5
679
330
1F
100
AcDbEntity
  8
枠
  6
Continuous
100
AcDbLine
 10
236.0
 20
149.2320930587111
 30
0.0
 11
281.0
 21
149.2320930587111
 31
0.0
  0
LINE
  5
67A
330
1F
100
AcDbEntity
  8
枠
  6
Continuous
100
AcDbLine
 10
236.0
 20
31.87291584484291
 30
0.0
 11
281.0
 21
31.87291584484291
 31
0.0
  0
LINE
  5
67B
330
1F
100
AcDbEntity
  8
枠
  6
Continuous
100
AcDbLine
 10
236.0
 20
41.88960476803794
 30
0.0
 11
281.0
 21
41.88960476803794
 31
0.0
  0
LINE
  5
67D
330
1F
100
AcDbEntity
  8
枠
  6
Continuous
100
AcDbLine
 10
235.0
 20
193.5
 30
0.0
 11
235.0
 21
11.5
 31
0.0
  0
MTEXT
  5
A15
330
1F
100
AcDbEntity
  8
文字
100
AcDbMText
 10
238.0774350305441
 20
192.0038694137743
 30
0.0
 40
2.5
 41
19.50744578598591
 46
2.8275
 71
     1
 72
     5
  1
{\fＭＳ Ｐゴシック|b0|i0|c0|p0;名称}
 73
     1
 44
1.0
1001
ACAD
1000
ACAD_MTEXT_DEFINED_HEIGHT_BEGIN
1070
    46
1040
2.8275
1000
ACAD_MTEXT_DEFINED_HEIGHT_END
  0
MTEXT
  5
A17
330
1F
100
AcDbEntity
  8
文字
100
AcDbMText
 10
236.0
 20
183.859332666015
 30
0.0
 40
2.5
 41
45.0
 46
6.964166666666667
 71
     1
 72
     5
  1
\fＭＳ Ｐゴシック|b0|i0|c0|p0;Ｐｒｅｖｉｏ T\P塩ビタイル用}
 73
     1
 44
1.0
1001
ACAD
1000
ACAD_MTEXT_DEFINED_HEIGHT_BEGIN
1070
    46
1040
6.964166666666667
1000
ACAD_MTEXT_DEFINED_HEIGHT_END
  0
MTEXT
  5
A18
330
1F
100
AcDbEntity
  8
文字
100
AcDbMText
 10
238.0774350305441
 20
169.6766048811238
 30
0.0
 40
2.5
 41
12.9189203585147
 46
2.84
 71
     1
 72
     5
  1
{\fＭＳ Ｐゴシック|b0|i0|c0|p0;品番}
 73
     1
 44
1.0
1001
ACAD
1000
ACAD_MTEXT_DEFINED_HEIGHT_BEGIN
1070
    46
1040
2.84
1000
ACAD_MTEXT_DEFINED_HEIGHT_END
  0
MTEXT
  5
A1C
330
1F
100
AcDbEntity
  8
文字
100
AcDbMText
 10
238.0774350305441
 20
148.0690084662711
 30
0.0
 40
2.5
 41
9.970036363636382
 46
2.8125
 71
     1
 72
     5
  1
{\fＭＳ Ｐゴシック|b0|i0|c0|p0;仕様}
 73
     1
 44
1.0
1001
ACAD
1000
ACAD_MTEXT_DEFINED_HEIGHT_BEGIN
1070
    46
1040
2.8125
1000
ACAD_MTEXT_DEFINED_HEIGHT_END
  0
MTEXT
  5
A1D
330
1F
100
AcDbEntity
  8
文字
100
AcDbMText
 10
245.3794334940524
 20
138.8428917133901
 30
0.0
 40
2.0
 41
31.03349346991041
 46
2.33
 71
     1
 72
     5
  1
{\fＭＳ Ｐゴシック|b0|i0|c0|p0;材質：アルミ製}
 73
     1
 44
1.0
1001
ACAD
1000
ACAD_MTEXT_DEFINED_HEIGHT_BEGIN
1070
    46
1040
2.33
1000
ACAD_MTEXT_DEFINED_HEIGHT_END
  0
MTEXT
  5
A1E
330
1F
100
AcDbEntity
  8
文字
100
AcDbMText
 10
245.3794334940524
 20
130.5090576528301
 30
0.0
 40
2.0
 41
31.03349346991044
 46
2.181818181818182
 71
     1
 72
     5
  1
{\fＭＳ Ｐゴシック|b0|i0|c0|p0;仕上：2色}
 73
     1
 44
1.0
1001
ACAD
1000
ACAD_MTEXT_DEFINED_HEIGHT_BEGIN
1070
    46
1040
2.181818181818182
1000
ACAD_MTEXT_DEFINED_HEIGHT_END
  0
MTEXT
  5
A22
330
1F
100
AcDbEntity
  8
社名
100
AcDbMText
 10
236.0
 20
27.36191229983774
 30
0.0
 40
3.0
 41
46.0
 46
3.375
 71
     1
 72
     5
  1
\fＭＳ Ｐゴシック|b0|i0|c0|p0;株式会社ＡＳＳＩＳＴ}
 73
     1
 44
1.0
1001
ACAD
1000
ACAD_MTEXT_DEFINED_HEIGHT_BEGIN
1070
    46
1040
3.375
1000
ACAD_MTEXT_DEFINED_HEIGHT_END
  0
MTEXT
  5
A24
330
1F
100
AcDbEntity
  8
文字
100
AcDbMText
 10
238.0774350305441
 20
40.58955921885172
 30
0.0
 40
2.5
 41
9.970036363636382
 46
2.8275
 71
     1
 72
     5
  1
{\fＭＳ Ｐゴシック|b0|i0|c0|p0;縮尺}
 73
     1
 44
1.0
1001
ACAD
1000
ACAD_MTEXT_DEFINED_HEIGHT_BEGIN
1070
    46
1040
2.8275
1000
ACAD_MTEXT_DEFINED_HEIGHT_END
  0
MTEXT
  5
A25
330
1F
100
AcDbEntity
  8
文字
100
AcDbMText
 10
251.2855836701089
 20
36.15844413562513
 30
0.0
 40
2.5
 41
28.36545556978234
 46
2.5
 71
     1
 72
     5
  1
{\fＭＳ Ｐゴシック|b0|i0|c0|p0;１：１ }
 73
     1
 44
1.0
1001
ACAD
1000
ACAD_MTEXT_DEFINED_HEIGHT_BEGIN
1070
    46
1040
2.5
1000
ACAD_MTEXT_DEFINED_HEIGHT_END
  0
MTEXT
  5
DF8
330
1F
100
AcDbEntity
  8
文字
100
AcDbMText
 10
253.810188672227
 20
134.80617212146
 30
0.0
 40
2.0
 41
31.03349346991041
 46
2.228
 71
     1
 72
     5
  1
{\fＭＳ Ｐゴシック|b0|i0|c0|p0;（A6063S-T5)}
 73
     1
 44
1.0
1001
ACAD
1000
ACAD_MTEXT_DEFINED_HEIGHT_BEGIN
1070
    46
1040
2.228
1000
ACAD_MTEXT_DEFINED_HEIGHT_END
  0
MTEXT
  5
13F5
330
1F
100
AcDbEntity
  8
文字
100
AcDbMText
 10
239.5379477351412
 20
143.0699637133901
 30
0.0
 40
2.0
 41
31.03349346991041
 46
2.25
 71
     1
 72
     5
  1
{\fＭＳ Ｐゴシック|b0|i0|c0|p0;ベース部分}
 73
     1
 44
1.0
1001
ACAD
1000
ACAD_MTEXT_DEFINED_HEIGHT_BEGIN
1070
    46
1040
2.25
1000
ACAD_MTEXT_DEFINED_HEIGHT_END
  0
MTEXT
  5
27D9
330
1F
100
AcDbEntity
  8
文字
100
AcDbMText
 10
245.3794334940524
 20
112.914944154723
 30
0.0
 40
2.0
 41
31.03349346991044
 46
2.170470176316118
 71
     1
 72
     5
  1
{\fＭＳ Ｐゴシック|b0|i0|c0|p0;材質：軟硬同時成型PVC}
 73
     1
 44
1.0
1001
ACAD
1000
ACAD_MTEXT_DEFINED_HEIGHT_BEGIN
1070
    46
1040
2.170470176316118
1000
ACAD_MTEXT_DEFINED_HEIGHT_END
  0
MTEXT
  5
27DB
330
1F
100
AcDbEntity
  8
文字
100
AcDbMText
 10
239.5379477351412
 20
117.3378919594126
 30
0.0
 40
2.0
 41
31.03349346991041
 46
2.25
 71
     1
 72
     5
  1
{\fＭＳ Ｐゴシック|b0|i0|c0|p0;タイヤ部分}
 73
     1
 44
1.0
1001
ACAD
1000
ACAD_MTEXT_DEFINED_HEIGHT_BEGIN
1070
    46
1040
2.25
1000
ACAD_MTEXT_DEFINED_HEIGHT_END
  0
MTEXT
  5
27DC
330
1F
100
AcDbEntity
  8
文字
100
AcDbMText
 10
243.6094939751414
 20
107.9650013328301
 30
0.0
 40
2.0
 41
31.03349346991041
 46
2.182
 71
     1
 72
     5
  1
{\fＭＳ Ｐゴシック|b0|i0|c0|p0;カラー：３色}
 73
     1
 44
1.0
1001
ACAD
1000
ACAD_MTEXT_DEFINED_HEIGHT_BEGIN
1070
    46
1040
2.182
1000
ACAD_MTEXT_DEFINED_HEIGHT_END
  0
MTEXT
  5
27DD
330
1F
100
AcDbEntity
  8
文字
100
AcDbMText
 10
254.0
 20
103.7379293328301
 30
0.0
 40
2.0
 41
31.03349346991041
 46
9.725204243257888
 71
     1
 72
     5
  1
{\fＭＳ Ｐゴシック|b0|i0|c0|p0;BL　ブラック\PCH　チャコール\PAS　アッシュ}
 73
     1
 44
1.0
1001
ACAD
1000
ACAD_MTEXT_DEFINED_HEIGHT_BEGIN
1070
    46
1040
9.725204243257888
1000
ACAD_MTEXT_DEFINED_HEIGHT_END
  0
LINE
  5
27E4
330
1F
100
AcDbEntity
  8
枠
  6
Continuous
100
AcDbLine
 10
236.0
 20
51.88960476803794
 30
0.0
 11
281.0
 21
51.88960476803794
 31
0.0
  0
MTEXT
  5
27E5
330
1F
100
AcDbEntity
  8
文字
100
AcDbMText
 10
238.0774350305441
 20
50.58955921885172
 30
0.0
 40
2.5
 41
9.970036363636382
 46
2.5
 71
     1
 72
     5
  1
{\fＭＳ Ｐゴシック|b0|i0|c0|p0;Date}
 73
     1
 44
1.0
1001
ACAD
1000
ACAD_MTEXT_DEFINED_HEIGHT_BEGIN
1070
    46
1040
2.5
1000
ACAD_MTEXT_DEFINED_HEIGHT_END
  0
MTEXT
  5
27E6
330
1F
100
AcDbEntity
  8
文字
100
AcDbMText
 10
246.1251641599999
 20
46.15844413562513
 30
0.0
 40
2.5
 41
32.59247095787819
 46
2.627860447667875
 71
     1
 72
     5
  1
{\fＭＳ Ｐゴシック|b0|i0|c0|p0;2022年6月24日}
 73
     1
 44
1.0
1001
ACAD
1000
ACAD_MTEXT_DEFINED_HEIGHT_BEGIN
1070
    46
1040
2.627860447667875
1000
ACAD_MTEXT_DEFINED_HEIGHT_END
  0
MTEXT
  5
2C03
330
1F
100
AcDbEntity
  8
文字
100
AcDbMText
 10
236.0
 20
160.4307612374436
 30
0.0
 40
2.5
 41
45.0
 46
2.5
 71
     1
 72
     5
  1
\fＭＳ Ｐゴシック|b0|i0|c0|p0;ＰVT３１１　}
 73
     1
 44
1.0
1001
ACAD
1000
ACAD_MTEXT_DEFINED_HEIGHT_BEGIN
1070
    46
1040
2.5
1000
ACAD_MTEXT_DEFINED_HEIGHT_END
  0
MTEXT
  5
2C09
330
1F
100
AcDbEntity
  8
社名
100
AcDbMText
 10
236.0
 20
19.58027172995764
 30
0.0
 40
5.0
 41
45.0
 46
5.0
 71
     1
 72
     5
  1
{\fＭＳ Ｐゴシック|b0|i0|c0|p0;\T1.15;\W1.3;AFOLA}
 73
     1
 44
1.0
1001
ACAD
1000
ACAD_MTEXT_DEFINED_HEIGHT_BEGIN
1070
    46
1040
5.0
1000
ACAD_MTEXT_DEFINED_HEIGHT_END
  0
LINE
  5
2CF5
330
1F
100
AcDbEntity
  8
金属部分
  6
Continuous
100
AcDbLine
 10
113.8763344569852
 20
93.42586828353313
 30
0.0
 11
113.8763344569852
 21
102.4258682835331
 31
0.0
  0
LINE
  5
2CF6
330
1F
100
AcDbEntity
  8
金属部分
  6
Continuous
100
AcDbLine
 10
113.8763344569852
 20
102.4258682835331
 30
0.0
 11
116.8763344569852
 21
102.4258682835331
 31
0.0
  0
LINE
  5
2CF8
330
1F
100
AcDbEntity
  8
金属部分
  6
Continuous
100
AcDbLine
 10
113.8763344569852
 20
93.42586828353313
 30
0.0
 11
115.0763344569852
 21
93.42586828353313
 31
0.0
  0
LINE
  5
2CF9
102
{ACAD_REACTORS
330
3AAE
102
}
330
1F
100
AcDbEntity
  8
金属部分
  6
Continuous
100
AcDbLine
 10
115.0763344569852
 20
93.42586828353313
 30
0.0
 11
115.0763344569852
 21
97.42586828353313
 31
0.0
  0
LINE
  5
2CFE
330
1F
100
AcDbEntity
  8
金属部分
  6
Continuous
100
AcDbLine
 10
116.8763344569852
 20
100.4258682835331
 30
0.0
 11
116.8763344569852
 21
100.9258682835331
 31
0.0
  0
LINE
  5
2CFF
330
1F
100
AcDbEntity
  8
金属部分
  6
Continuous
100
AcDbLine
 10
115.0763344569852
 20
97.42586828353313
 30
0.0
 11
117.8763344569852
 21
97.42586828353313
 31
0.0
  0
ARC
  5
2D00
330
1F
100
AcDbEntity
  8
金属部分
100
AcDbCircle
 10
127.6263344569852
 20
96.63875097644602
 30
0.0
 40
1.087222909580392
100
AcDbArc
 50
46.38327232989832
 51
133.6167276701049
  0
ARC
  5
2D01
330
1F
100
AcDbEntity
  8
金属部分
100
AcDbCircle
 10
118.6263344569852
 20
96.63875097644579
 30
0.0
 40
1.087222909580392
100
AcDbArc
 50
46.38327232989937
 51
133.6167276701038
  0
LWPOLYLINE
  5
2D02
330
1F
100
AcDbEntity
  8
金属部分
100
AcDbPolyline
 90
        2
 70
     0
 43
0.0
 10
123.8763344569852
 20
97.42586828353329
 10
122.3763344569852
 20
97.42586828353323
  0
LWPOLYLINE
  5
2D03
330
1F
100
AcDbEntity
  8
金属部分
100
AcDbPolyline
 90
        2
 70
     0
 43
0.0
 10
120.8763344569852
 20
97.42586828353318
 10
119.3763344569852
 20
97.42586828353318
  0
ARC
  5
2D04
330
1F
100
AcDbEntity
  8
金属部分
100
AcDbCircle
 10
121.6263344569852
 20
96.63875097644585
 30
0.0
 40
1.087222909580392
100
AcDbArc
 50
46.38327232989937
 51
133.6167276701049
  0
ARC
  5
2D05
330
1F
100
AcDbEntity
  8
金属部分
100
AcDbCircle
 10
124.6263344569852
 20
96.63875097644596
 30
0.0
 40
1.087222909580392
100
AcDbArc
 50
46.38327232989937
 51
133.6167276701049
  0
LWPOLYLINE
  5
2D06
330
1F
100
AcDbEntity
  8
金属部分
100
AcDbPolyline
 90
        2
 70
     0
 43
0.0
 10
126.8763344569852
 20
97.42586828353335
 10
125.3763344569852
 20
97.42586828353329
  0
ARC
  5
2D07
330
1F
100
AcDbEntity
  8
金属部分
100
AcDbCircle
 10
130.6263344569852
 20
96.63875097644608
 30
0.0
 40
1.087222909580392
100
AcDbArc
 50
46.38327232989725
 51
133.6167276701027
  0
LWPOLYLINE
  5
2D08
330
1F
100
AcDbEntity
  8
金属部分
100
AcDbPolyline
 90
        2
 70
     0
 43
0.0
 10
129.8763344569851
 20
97.4258682835334
 10
128.3763344569852
 20
97.4258682835334
  0
LWPOLYLINE
  5
2D09
330
1F
100
AcDbEntity
  8
金属部分
100
AcDbPolyline
 90
        2
 70
     0
 43
0.0
 10
132.8763344569851
 20
97.42586828353352
 10
131.3763344569852
 20
97.4258682835334
  0
LINE
  5
2D0A
330
1F
100
AcDbEntity
  8
金属部分
  6
Continuous
100
AcDbLine
 10
132.8763344569851
 20
97.42586828353352
 30
0.0
 11
132.8763344569851
 21
97.72586828353352
 31
0.0
  0
LINE
  5
2D0B
330
1F
100
AcDbEntity
  8
金属部分
  6
Continuous
100
AcDbLine
 10
132.8763344569851
 20
97.72586828353352
 30
0.0
 11
134.8763344569851
 21
97.72586828353352
 31
0.0
  0
LINE
  5
2D0C
330
1F
100
AcDbEntity
  8
金属部分
  6
Continuous
100
AcDbLine
 10
134.8763344569851
 20
97.72586828353352
 30
0.0
 11
134.8763344569851
 21
97.42586828353352
 31
0.0
  0
LWPOLYLINE
  5
2D0D
330
1F
100
AcDbEntity
  8
金属部分
100
AcDbPolyline
 90
        2
 70
     0
 43
0.0
 10
136.3763344569851
 20
97.42586828353357
 10
134.8763344569851
 20
97.42586828353352
  0
ARC
  5
2D0E
330
1F
100
AcDbEntity
  8
金属部分
100
AcDbCircle
 10
137.1263344569852
 20
96.63875097644625
 30
0.0
 40
1.087222909580392
100
AcDbArc
 50
46.38327232990098
 51
133.6167276701065
  0
LWPOLYLINE
  5
2D0F
330
1F
100
AcDbEntity
  8
金属部分
100
AcDbPolyline
 90
        2
 70
     0
 43
0.0
 10
141.8763344569852
 20
97.42586828353313
 10
137.8763344569851
 20
97.42586828353363
  0
LINE
  5
2D13
330
1F
100
AcDbEntity
  8
金属部分
  6
Continuous
100
AcDbLine
 10
116.6763344569852
 20
98.92586828353313
 30
0.0
 11
140.8763344569852
 21
98.92586828353313
 31
0.0
  0
LINE
  5
2D14
330
1F
100
AcDbEntity
  8
軟質樹脂部分
  6
Continuous
100
AcDbLine
 10
116.8763344569852
 20
100.9258682835331
 30
0.0
 11
118.8763344569852
 21
100.9258682835331
 31
0.0
  0
LINE
  5
2D15
330
1F
100
AcDbEntity
  8
軟質樹脂部分
  6
Continuous
100
AcDbLine
 10
118.8763344569852
 20
100.9258682835331
 30
0.0
 11
118.8763344569852
 21
102.4258682835331
 31
0.0
  0
LINE
  5
2D16
330
1F
100
AcDbEntity
  8
軟質樹脂部分
  6
Continuous
100
AcDbLine
 10
118.8763344569852
 20
102.4258682835331
 30
0.0
 11
121.8763344569852
 21
102.4258682835331
 31
0.0
  0
LINE
  5
2D17
330
1F
100
AcDbEntity
  8
軟質樹脂部分
  6
Continuous
100
AcDbLine
 10
121.8763344569852
 20
102.4258682835331
 30
0.0
 11
121.8763344569852
 21
100.9258682835331
 31
0.0
  0
LINE
  5
2D18
330
1F
100
AcDbEntity
  8
軟質樹脂部分
  6
Continuous
100
AcDbLine
 10
121.8763344569852
 20
100.9258682835331
 30
0.0
 11
123.8763344569852
 21
100.9258682835331
 31
0.0
  0
LINE
  5
2D19
330
1F
100
AcDbEntity
  8
軟質樹脂部分
  6
Continuous
100
AcDbLine
 10
123.8763344569852
 20
100.9258682835331
 30
0.0
 11
123.8763344569852
 21
102.4258682835331
 31
0.0
  0
LINE
  5
2D1A
330
1F
100
AcDbEntity
  8
軟質樹脂部分
  6
Continuous
100
AcDbLine
 10
123.8763344569852
 20
102.4258682835331
 30
0.0
 11
126.8763344569852
 21
102.4258682835331
 31
0.0
  0
LINE
  5
2D1B
330
1F
100
AcDbEntity
  8
軟質樹脂部分
  6
Continuous
100
AcDbLine
 10
126.8763344569852
 20
102.4258682835331
 30
0.0
 11
126.8763344569852
 21
100.9258682835331
 31
0.0
  0
LINE
  5
2D1C
330
1F
100
AcDbEntity
  8
軟質樹脂部分
  6
Continuous
100
AcDbLine
 10
126.8763344569852
 20
100.9258682835331
 30
0.0
 11
128.8763344569852
 21
100.9258682835331
 31
0.0
  0
LINE
  5
2D1D
330
1F
100
AcDbEntity
  8
軟質樹脂部分
  6
Continuous
100
AcDbLine
 10
128.8763344569852
 20
100.9258682835331
 30
0.0
 11
128.8763344569852
 21
102.4258682835331
 31
0.0
  0
LINE
  5
2D1E
330
1F
100
AcDbEntity
  8
軟質樹脂部分
  6
Continuous
100
AcDbLine
 10
128.8763344569852
 20
102.4258682835331
 30
0.0
 11
131.8763344569852
 21
102.4258682835331
 31
0.0
  0
LINE
  5
2D1F
330
1F
100
AcDbEntity
  8
軟質樹脂部分
  6
Continuous
100
AcDbLine
 10
131.8763344569852
 20
102.4258682835331
 30
0.0
 11
131.8763344569852
 21
100.9258682835331
 31
0.0
  0
LINE
  5
2D20
330
1F
100
AcDbEntity
  8
軟質樹脂部分
  6
Continuous
100
AcDbLine
 10
131.8763344569852
 20
100.9258682835331
 30
0.0
 11
133.8763344569852
 21
100.9258682835331
 31
0.0
  0
LINE
  5
2D21
330
1F
100
AcDbEntity
  8
軟質樹脂部分
  6
Continuous
100
AcDbLine
 10
133.8763344569852
 20
100.9258682835331
 30
0.0
 11
133.8763344569852
 21
102.4258682835331
 31
0.0
  0
LINE
  5
2D22
330
1F
100
AcDbEntity
  8
軟質樹脂部分
  6
Continuous
100
AcDbLine
 10
133.8763344569852
 20
102.4258682835331
 30
0.0
 11
136.8763344569852
 21
102.4258682835331
 31
0.0
  0
LINE
  5
2D23
330
1F
100
AcDbEntity
  8
軟質樹脂部分
  6
Continuous
100
AcDbLine
 10
136.8763344569852
 20
102.4258682835331
 30
0.0
 11
136.8763344569852
 21
100.9258682835331
 31
0.0
  0
LINE
  5
2D24
330
1F
100
AcDbEntity
  8
軟質樹脂部分
  6
Continuous
100
AcDbLine
 10
136.8763344569852
 20
100.9258682835331
 30
0.0
 11
138.8763344569852
 21
100.9258682835331
 31
0.0
  0
LINE
  5
2D25
330
1F
100
AcDbEntity
  8
軟質樹脂部分
  6
Continuous
100
AcDbLine
 10
138.8763344569852
 20
100.9258682835331
 30
0.0
 11
138.8763344569852
 21
102.4258682835331
 31
0.0
  0
LINE
  5
2D26
330
1F
100
AcDbEntity
  8
軟質樹脂部分
  6
Continuous
100
AcDbLine
 10
138.8763344569852
 20
102.4258682835331
 30
0.0
 11
141.8763344569852
 21
102.4258682835331
 31
0.0
  0
LINE
  5
2D2A
330
1F
100
AcDbEntity
  8
硬質樹脂部分
  6
Continuous
100
AcDbLine
 10
116.8763344569852
 20
100.9258682835331
 30
0.0
 11
116.8763344569852
 21
100.1258682835331
 31
0.0
  0
DIMENSION
  5
2E4B
330
1F
100
AcDbEntity
  8
寸法
  6
Continuous
100
AcDbDimension
280
     0
  2
*D14
 10
107.2211459862076
 20
93.42586828353313
 30
0.0
 11
107.2211459862076
 21
97.92586828353313
 31
0.0
 70
   160
 71
     5
 42
8.999999999999972
 73
     0
 74
     0
 75
     0
  3
ISO-25
100
AcDbAlignedDimension
 13
113.8763344569852
 23
102.4258682835331
 33
0.0
 14
113.8763344569852
 24
93.42586828353313
 34
0.0
 50
90.0
100
AcDbRotatedDimension
  0
DIMENSION
  5
2E5B
330
1F
100
AcDbEntity
  8
寸法
  6
Continuous
100
AcDbDimension
280
     0
  2
*D15
 10
141.8763344569852
 20
112.4258682835331
 30
0.0
 11
127.2007999671369
 21
112.4258682835331
 31
0.0
 70
   160
 71
     5
 42
28.0
 73
     0
 74
     0
 75
     0
  3
ISO-25
100
AcDbAlignedDimension
 13
113.8763344569852
 23
102.4258682835331
 33
0.0
 14
141.8763344569852
 24
102.4258682835331
 34
0.0
100
AcDbRotatedDimension
  0
DIMENSION
  5
2E6B
330
1F
100
AcDbEntity
  8
寸法
  6
Continuous
100
AcDbDimension
280
     0
  2
*D16
 10
113.8763344569852
 20
88.42586828353313
 30
0.0
 11
114.5418551462086
 21
85.77762082353233
 31
0.0
 70
   160
 71
     5
 42
1.199999999999989
 73
     0
 74
     0
 75
     0
  3
ISO-25
100
AcDbAlignedDimension
 13
115.0763344569852
 23
93.42586828353313
 33
0.0
 14
113.8763344569852
 24
93.42586828353313
 34
0.0
100
AcDbRotatedDimension
  0
DIMENSION
  5
2E9B
330
1F
100
AcDbEntity
  8
寸法
  6
Continuous
100
AcDbDimension
280
     0
  2
*D18
 10
146.8763344569852
 20
98.92586828353313
 30
0.0
 11
146.8763344569852
 21
100.6295325703616
 31
0.0
 70
   160
 71
     5
 42
3.499999999999972
 73
     0
 74
     0
 75
     0
  3
ISO-25
100
AcDbAlignedDimension
 13
141.8763344569852
 23
102.4258682835331
 33
0.0
 14
141.8763344569852
 24
98.92586828353313
 34
0.0
 50
90.0
100
AcDbRotatedDimension
  0
LINE
  5
3644
330
1F
100
AcDbEntity
  8
硬質樹脂部分
  6
Continuous
100
AcDbLine
 10
140.7930011236519
 20
99.12586828353314
 30
0.0
 11
116.8763344569852
 21
99.12586828353314
 31
0.0
  0
LINE
  5
3645
102
{ACAD_REACTORS
330
3646
102
}
330
1F
100
AcDbEntity
  8
両面テープ
  6
Continuous
100
AcDbLine
 10
118.3763344569852
 20
99.12586828353314
 30
0.0
 11
138.3763344569852
 21
99.12586828353314
 31
0.0
  0
HATCH
  5
3646
330
1F
100
AcDbEntity
  8
両面テープ
  6
Continuous
100
AcDbHatch
 10
0.0
 20
0.0
 30
0.0
210
0.0
220
0.0
230
1.0
  2
ANSI31
 70
     0
 71
     1
 91
        1
 92
        7
 72
     0
 73
     1
 93
        4
 10
138.3763344569852
 20
98.92586828353315
 10
138.3763344569852
 20
99.12586828353314
 10
118.3763344569852
 20
99.12586828353314
 10
118.3763344569852
 20
98.92586828353315
 97
        4
330
3649
330
3645
330
3647
330
3648
 75
     0
 76
     1
 52
0.0
 41
0.25
 77
     0
 78
     1
 53
45.0
 43
5.68704874269946
 44
-32.67357470466736
 45
-0.561266007566822
 46
0.5612660075668221
 79
     0
 47
0.0
 98
        1
 10
127.264080312348
 20
99.03021655494923
1001
ACAD
1010
0.0
1020
0.0
1030
0.0
  0
LINE
  5
3647
102
{ACAD_REACTORS
330
3646
102
}
330
1F
100
AcDbEntity
  8
両面テープ
  6
Continuous
100
AcDbLine
 10
118.3763344569852
 20
99.12586828353314
 30
0.0
 11
118.3763344569852
 21
98.92586828353315
 31
0.0
  0
LINE
  5
3648
102
{ACAD_REACTORS
330
3646
102
}
330
1F
100
AcDbEntity
  8
両面テープ
  6
Continuous
100
AcDbLine
 10
118.3763344569852
 20
98.92586828353315
 30
0.0
 11
138.3763344569852
 21
98.92586828353315
 31
0.0
  0
LINE
  5
3649
102
{ACAD_REACTORS
330
3646
102
}
330
1F
100
AcDbEntity
  8
両面テープ
  6
Continuous
100
AcDbLine
 10
138.3763344569852
 20
98.92586828353315
 30
0.0
 11
138.3763344569852
 21
99.12586828353314
 31
0.0
  0
LINE
  5
364A
330
1F
100
AcDbEntity
  8
硬質樹脂部分
  6
Continuous
100
AcDbLine
 10
140.7930011236519
 20
99.12586828353314
 30
0.0
 11
140.2854253660762
 21
100.1258682835331
 31
0.0
  0
LINE
  5
364B
330
1F
100
AcDbEntity
  8
軟質樹脂部分
  6
Continuous
100
AcDbLine
 10
140.2346677903186
 20
100.2258682835331
 30
0.0
 11
141.8763344569852
 21
100.2258682835331
 31
0.0
  0
LINE
  5
364C
330
1F
100
AcDbEntity
  8
軟質樹脂部分
  6
Continuous
100
AcDbLine
 10
141.8763344569852
 20
100.2258682835331
 30
0.0
 11
141.8763344569852
 21
102.4258682835331
 31
0.0
  0
DIMENSION
  5
383D
330
1F
100
AcDbEntity
  8
寸法
  6
Continuous
100
AcDbDimension
280
     0
  2
*D40
 10
116.8763344569852
 20
107.4258682835331
 30
0.0
 11
115.2342766171429
 21
107.4258682835331
 31
0.0
 70
   160
 71
     5
 42
3.0
 73
     0
 74
     0
 75
     0
  3
ISO-25
100
AcDbAlignedDimension
 13
113.8763344569852
 23
102.4258682835331
 33
0.0
 14
116.8763344569852
 24
102.4258682835331
 34
0.0
100
AcDbRotatedDimension
  0
LINE
  5
3855
330
1F
100
AcDbEntity
  8
金属部分
  6
Continuous
100
AcDbLine
 10
141.8763344569852
 20
97.42586828353313
 30
0.0
 11
161.4763344569852
 21
97.42586828353313
 31
0.0
  0
ARC
  5
3857
330
1F
100
AcDbEntity
  8
金属部分
  6
Continuous
100
AcDbCircle
 10
161.4763344569852
 20
97.82586828353314
 30
0.0
 40
0.4
100
AcDbArc
 50
270.0
 51
89.99999999997151
  0
LINE
  5
3859
330
1F
100
AcDbEntity
  8
金属部分
  6
Continuous
100
AcDbLine
 10
141.8763344569852
 20
98.92586828353313
 30
0.0
 11
161.4763344569854
 21
98.22586828353315
 31
0.0
  0
DIMENSION
  5
385C
330
1F
100
AcDbEntity
  8
寸法
  6
Continuous
100
AcDbDimension
280
     0
  2
*D41
 10
161.8763344569852
 20
112.4258682835331
 30
0.0
 11
151.8763344569852
 21
112.4258682835331
 31
0.0
 70
   160
 71
     5
 42
20.0
 73
     0
 74
     0
 75
     0
  3
ISO-25
100
AcDbAlignedDimension
 13
141.8763344569852
 23
102.4258682835331
 33
0.0
 14
161.8763344569852
 24
97.82586828353304
 34
0.0
100
AcDbRotatedDimension
  0
DIMENSION
  5
386D
330
1F
100
AcDbEntity
  8
寸法
  6
Continuous
100
AcDbDimension
280
     0
  2
*D42
 10
113.8763344569852
 20
117.4258682835331
 30
0.0
 11
137.8763344569852
 21
117.4258682835331
 31
0.0
 70
   160
 71
     5
 42
48.0
 73
     0
 74
     0
 75
     0
  3
ISO-25
100
AcDbAlignedDimension
 13
161.8763344569852
 23
97.82586828353304
 33
0.0
 14
113.8763344569852
 24
103.0508682835331
 34
0.0
100
AcDbRotatedDimension
  0
DIMENSION
  5
387D
330
1F
100
AcDbEntity
  8
寸法
  6
Continuous
100
AcDbDimension
280
     0
  2
*D43
 10
166.4763344569852
 20
97.42586828353313
 30
0.0
 11
170.3992152206087
 21
97.73488212268835
 31
0.0
 70
   160
 71
     5
 42
0.8000000000000114
 73
     0
 74
     0
 75
     0
  3
ISO-25
100
AcDbAlignedDimension
 13
161.4763344569854
 23
98.22586828353315
 33
0.0
 14
161.4763344569852
 24
97.42586828353313
 34
0.0
 50
90.0
100
AcDbRotatedDimension
  0
LINE
  5
38FC
102
{ACAD_REACTORS
330
3900
102
}
330
1F
100
AcDbEntity
  8
TOS_M1
  6
Continuous
100
AcDbLine
 10
151.3763344569852
 20
96.42586828353313
 30
0.0
 11
152.3763344569852
 21
96.42586828353313
 31
0.0
  0
LINE
  5
38FE
102
{ACAD_REACTORS
330
3900
102
}
330
1F
100
AcDbEntity
  8
TOS_M1
  6
Continuous
100
AcDbLine
 10
151.8763344569852
 20
95.42586828353313
 30
0.0
 11
151.3763344569852
 21
96.42586828353313
 31
0.0
  0
LINE
  5
38FF
102
{ACAD_REACTORS
330
3900
102
}
330
1F
100
AcDbEntity
  8
TOS_M1
  6
Continuous
100
AcDbLine
 10
151.8763344569852
 20
95.42586828353313
 30
0.0
 11
152.3763344569852
 21
96.42586828353313
 31
0.0
  0
HATCH
  5
3900
330
1F
100
AcDbEntity
  8
TOS_M1
  6
Continuous
100
AcDbHatch
 10
0.0
 20
0.0
 30
0.0
210
0.0
220
0.0
230
1.0
  2
SOLID
 70
     1
 71
     1
 91
        1
 92
        7
 72
     0
 73
     1
 93
        3
 10
151.8763344569852
 20
95.42586828353313
 10
152.3763344569852
 20
96.42586828353313
 10
151.3763344569852
 20
96.42586828353313
 97
        3
330
38FF
330
38FC
330
38FE
 75
     0
 76
     1
 47
0.0
 98
        1
 10
151.9098126946895
 20
96.07730513121331
1001
ACAD
1010
0.0
1020
0.0
1030
0.0
  0
LINE
  5
3975
330
1F
100
AcDbEntity
  8
金属部分
  6
Continuous
100
AcDbLine
 10
116.8763344569852
 20
102.4258682835331
 30
0.0
 11
116.8763344569852
 21
100.6758682835331
 31
0.0
  0
LINE
  5
3976
330
1F
100
AcDbEntity
  8
金属部分
  6
Continuous
100
AcDbLine
 10
116.6763344569852
 20
98.92586828353313
 30
0.0
 11
116.8763344569852
 21
100.6758682835331
 31
0.0
  0
LINE
  5
3977
330
1F
100
AcDbEntity
  8
金属部分
  6
Continuous
100
AcDbLine
 10
140.8763344569852
 20
98.92586828353313
 30
0.0
 11
140.4763344569852
 21
99.88586828353316
 31
0.0
  0
LINE
  5
3978
330
1F
100
AcDbEntity
  8
金属部分
  6
Continuous
100
AcDbLine
 10
140.6763344569852
 20
100.1258682835331
 30
0.0
 11
140.4763344569852
 21
99.88586828353316
 31
0.0
  0
LINE
  5
3979
330
1F
100
AcDbEntity
  8
金属部分
  6
Continuous
100
AcDbLine
 10
141.8763344569852
 20
100.1258682835331
 30
0.0
 11
140.6763344569852
 21
100.1258682835331
 31
0.0
  0
LINE
  5
397A
330
1F
100
AcDbEntity
  8
金属部分
  6
Continuous
100
AcDbLine
 10
141.8763344569852
 20
98.92586828353313
 30
0.0
 11
141.8763344569852
 21
100.1258682835331
 31
0.0
  0
LINE
  5
39D8
330
1F
100
AcDbEntity
  8
TOS_M1
  6
ACAD_ISO07W100
 48
0.5
100
AcDbLine
 10
151.8763344569852
 20
93.42586828353313
 30
0.0
 11
115.0763344569852
 21
93.42586828353313
 31
0.0
  0
MTEXT
  5
3A17
330
1F
100
AcDbEntity
  8
TOS_M1
  6
Continuous
100
AcDbMText
 10
130.4195838921777
 20
94.77853091547561
 30
0.0
 40
2.5
 41
5.011594093714308
 46
2.5
 71
     1
 72
     5
  1
{37}
 73
     1
 44
1.0
1001
ACAD
1000
ACAD_MTEXT_DEFINED_HEIGHT_BEGIN
1070
    46
1040
2.5
1000
ACAD_MTEXT_DEFINED_HEIGHT_END
  0
MTEXT
  5
3A2B
330
1F
100
AcDbEntity
  8
文字
100
AcDbMText
 10
254.0
 20
126.8619577776552
 30
0.0
 40
2.0
 41
31.03349346991038
 46
6.212319203034471
 71
     1
 72
     5
  1
{\fＭＳ Ｐゴシック|b0|i0|c0|p0;シルバー\Pアルマイトブラック}
 73
     1
 44
1.0
1001
ACAD
1000
ACAD_MTEXT_DEFINED_HEIGHT_BEGIN
1070
    46
1040
6.212319203034471
1000
ACAD_MTEXT_DEFINED_HEIGHT_END
  0
LEADER
  5
3A48
330
1F
100
AcDbEntity
  8
TOS_M1
  6
Continuous
100
AcDbLeader
  3
ISO-25
 76
     2
 10
120.4844006637594
 20
100.7288181327448
 30
0.0
 10
106.7083966173421
 20
107.8968183316506
 30
0.0
  0
MTEXT
  5
3A49
330
1F
100
AcDbEntity
  8
文字
  6
Continuous
100
AcDbMText
 10
102.1115551382801
 20
109.2038358618412
 30
0.0
 40
1.5
 41
5.489140507004223
 46
1.704545454545455
 71
     1
 72
     5
  1
{\fＭＳ Ｐゴシック|b0|i0|c0|p0;軟質}
 73
     1
 44
1.0
1001
ACAD
1000
ACAD_MTEXT_DEFINED_HEIGHT_BEGIN
1070
    46
1040
1.704545454545455
1000
ACAD_MTEXT_DEFINED_HEIGHT_END
  0
LINE
  5
3A4A
330
1F
100
AcDbEntity
  8
硬質樹脂部分
  6
Continuous
100
AcDbLine
 10
116.8763344569852
 20
99.12586828353314
 30
0.0
 11
116.8763344569852
 21
100.1258682835331
 31
0.0
  0
LINE
  5
3A4B
330
1F
100
AcDbEntity
  8
硬質樹脂部分
  6
Continuous
100
AcDbLine
 10
116.8763344569852
 20
100.1258682835331
 30
0.0
 11
140.2854253660762
 21
100.1258682835331
 31
0.0
  0
LINE
  5
3A4C
330
1F
100
AcDbEntity
  8
軟質樹脂部分
  6
Continuous
100
AcDbLine
 10
140.2854253660762
 20
100.1258682835331
 30
0.0
 11
140.2346677903186
 21
100.2258682835331
 31
0.0
  0
LEADER
  5
3A94
330
1F
100
AcDbEntity
  8
TOS_M1
  6
Continuous
100
AcDbLeader
  3
ISO-25
 76
     2
 10
121.0230919297462
 20
99.65693393392212
 30
0.0
 10
109.2252455529903
 20
88.82469318934342
 30
0.0
  0
MTEXT
  5
3A95
330
1F
100
AcDbEntity
  8
文字
  6
Continuous
100
AcDbMText
 10
104.6080610664834
 20
89.70935284089937
 30
0.0
 40
1.5
 41
5.489140507004223
 46
1.704545454545455
 71
     1
 72
     5
  1
{\fＭＳ Ｐゴシック|b0|i0|c0|p0;\C6;硬質}
 73
     1
 44
1.0
1001
ACAD
1000
ACAD_MTEXT_DEFINED_HEIGHT_BEGIN
1070
    46
1040
1.704545454545455
1000
ACAD_MTEXT_DEFINED_HEIGHT_END
  0
LEADER
  5
3AAA
330
1F
100
AcDbEntity
  8
TOS_M1
  6
Continuous
100
AcDbLeader
  3
ISO-25
 76
     2
 10
135.858792955856
 20
99.03447320985207
 30
0.0
 10
142.9987514542772
 20
88.20223246527335
 30
0.0
  0
MTEXT
  5
3AAB
330
1F
100
AcDbEntity
  8
文字
  6
Continuous
100
AcDbMText
 10
143.6277929198331
 20
89.0868921168293
 30
0.0
 40
1.5
 41
10.56014951186933
 46
1.551136363636364
 71
     1
 72
     5
  1
{\fＭＳ Ｐゴシック|b0|i0|c0|p0;\C7;両面テープ}
 73
     1
 44
1.0
1001
ACAD
1000
ACAD_MTEXT_DEFINED_HEIGHT_BEGIN
1070
    46
1040
1.551136363636364
1000
ACAD_MTEXT_DEFINED_HEIGHT_END
  0
DIMENSION
  5
3AAC
102
{ACAD_REACTORS
330
3AAE
102
}
102
{ACAD_XDICTIONARY
360
3AAD
102
}
330
1F
100
AcDbEntity
  8
寸法
  6
Continuous
100
AcDbDimension
280
     0
  2
*D56
 10
111.3129564392834
 20
97.42586828353313
 30
0.0
 11
111.3129564392834
 21
95.35721811733615
 31
0.0
 70
   160
 71
     5
 42
4.0
 73
     0
 74
     0
 75
     0
  3
ISO-25
100
AcDbAlignedDimension
 13
113.8763344569852
 23
93.42586828353313
 33
0.0
 14
115.0763344569852
 24
97.42586828353313
 34
0.0
 50
90.0
100
AcDbRotatedDimension
  0
ENDSEC
  0
SECTION
  2
OBJECTS
  0
DICTIONARY
  5
C
330
0
100
AcDbDictionary
281
     1
  3
ACAD_DETAILVIEWSTYLE
350
A4E
  3
ACAD_GROUP
350
D
  3
ACAD_IMAGE_VARS
350
96F
  3
ACAD_LAYOUT
350
1A
  3
ACAD_MATERIAL
350
399F
  3
ACAD_MLEADERSTYLE
350
39A5
  3
ACAD_MLINESTYLE
350
17
  3
ACAD_PLOTSETTINGS
350
19
  3
ACAD_PLOTSTYLENAME
350
E
  3
ACAD_SCALELIST
350
935
  3
ACAD_SECTIONVIEWSTYLE
350
A4F
  3
ACAD_TABLESTYLE
350
39A3
  3
ACAD_VISUALSTYLE
350
3986
  3
ACDB_RECOMPOSE_DATA
350
3AD2
  3
AcDbVariableDictionary
350
3E1
  3
APPDATA
350
96E
  3
DimOffsetDictionary
350
14C9
  0
SUN
  5
39AE
330
934
100
AcDbSun
 90
        1
290
     0
 63
     7
421
 16777215
 40
1.0
291
     1
 91
  2455826
 92
 54000000
292
     0
 70
     2
 71
   256
280
     1
  0
DICTIONARY
  5
970
330
2
100
AcDbDictionary
280
     1
281
     1
  3
ACAD_LAYERSTATES
360
971
  3
ACLYDICTIONARY
360
34A5
  0
DICTIONARY
  5
A87
330
A86
100
AcDbDictionary
280
     1
281
     1
  3
ADSK_XREC_LAYER_RECONCILED
360
A88
  0
DICTIONARY
  5
A8B
330
A8A
100
AcDbDictionary
280
     1
281
     1
  3
ADSK_XREC_LAYER_RECONCILED
360
A8C
  0
DICTIONARY
  5
3AAD
330
3AAC
100
AcDbDictionary
280
     1
281
     1
  3
ACAD_DIMASSOC
360
3AAE
  0
DICTIONARY
  5
A4E
102
{ACAD_REACTORS
330
C
102
}
330
C
100
AcDbDictionary
281
     1
  0
DICTIONARY
  5
D
102
{ACAD_REACTORS
330
C
102
}
330
C
100
AcDbDictionary
281
     1
  0
RASTERVARIABLES
  5
96F
102
{ACAD_REACTORS
330
C
102
}
330
C
100
AcDbRasterVariables
 90
        0
 70
     1
 71
     1
 72
     1
  0
DICTIONARY
  5
1A
102
{ACAD_REACTORS
330
C
102
}
330
C
100
AcDbDictionary
281
     1
  3
Model
350
22
  3
ﾚｲｱｳﾄ1
350
1E
  3
ﾚｲｱｳﾄ2
350
26
  0
DICTIONARY
  5
399F
102
{ACAD_REACTORS
330
C
102
}
330
C
100
AcDbDictionary
281
     1
  3
ByBlock
350
39A1
  3
ByLayer
350
39A0
  3
Global
350
39A2
  0
DICTIONARY
  5
39A5
102
{ACAD_REACTORS
330
C
102
}
330
C
100
AcDbDictionary
281
     1
  3
Standard
350
39A6
  0
DICTIONARY
  5
17
102
{ACAD_REACTORS
330
C
102
}
330
C
100
AcDbDictionary
281
     1
  3
Standard
350
18
  0
DICTIONARY
  5
19
102
{ACAD_REACTORS
330
C
102
}
330
C
100
AcDbDictionary
281
     1
  0
ACDBDICTIONARYWDFLT
  5
E
102
{ACAD_REACTORS
330
C
102
}
330
C
100
AcDbDictionary
281
     1
  3
Normal
350
F
100
AcDbDictionaryWithDefault
340
F
  0
DICTIONARY
  5
935
102
{ACAD_REACTORS
330
C
102
}
330
C
100
AcDbDictionary
281
     1
  3
A0
350
936
  3
A1
350
937
  3
A2
350
938
  3
A3
350
939
  3
A4
350
93A
  3
A5
350
93B
  3
A6
350
93C
  3
A7
350
93D
  3
A8
350
93E
  3
A9
350
93F
  3
B0
350
940
  3
B1
350
941
  3
B2
350
942
  3
B3
350
943
  3
B4
350
944
  3
B5
350
945
  3
B6
350
946
  3
B7
350
947
  3
B8
350
948
  3
B9
350
949
  3
C0
350
94A
  3
C1
350
94B
  3
C2
350
94C
  3
C3
350
94D
  3
C4
350
94E
  3
C5
350
94F
  3
C6
350
950
  3
C7
350
951
  3
C8
350
952
  3
C9
350
953
  3
D0
350
954
  3
D1
350
955
  3
D2
350
956
  0
DICTIONARY
  5
A4F
102
{ACAD_REACTORS
330
C
102
}
330
C
100
AcDbDictionary
281
     1
  0
DICTIONARY
  5
39A3
102
{ACAD_REACTORS
330
C
102
}
330
C
100
AcDbDictionary
281
     1
  3
Standard
350
39A4
  0
DICTIONARY
  5
3986
102
{ACAD_REACTORS
330
C
102
}
330
C
100
AcDbDictionary
281
     1
  3
2dWireframe
350
398B
  3
Basic
350
398E
  3
Brighten
350
3992
  3
ColorChange
350
3996
  3
Conceptual
350
3990
  3
Dim
350
3991
  3
EdgeColorOff
350
3999
  3
Facepattern
350
3995
  3
Flat
350
3987
  3
FlatWithEdges
350
3988
  3
Gouraud
350
3989
  3
GouraudWithEdges
350
398A
  3
Hidden
350
398D
  3
JitterOff
350
3997
  3
Linepattern
350
3994
  3
OverhangOff
350
3998
  3
Realistic
350
398F
  3
Shaded
350
399E
  3
Shaded with edges
350
399D
  3
Shades of Gray
350
399A
  3
Sketchy
350
399B
  3
Thicken
350
3993
  3
Wireframe
350
398C
  3
X-Ray
350
399C
  0
XRECORD
  5
3AD2
102
{ACAD_REACTORS
330
C
102
}
330
C
100
AcDbXrecord
280
     1
 90
        1
330
39A4
  0
DICTIONARY
  5
3E1
102
{ACAD_REACTORS
330
C
102
}
330
C
100
AcDbDictionary
281
     1
  3
CANNOSCALE
350
39A7
  3
CMLEADERSTYLE
350
39A9
  3
CTABLESTYLE
350
39A8
  3
HPTRANSPARENCY
350
14C8
  3
MSLTSCALE
350
39AA
  3
SORTENTS
350
3E2
  0
DICTIONARY
  5
96E
102
{ACAD_REACTORS
330
C
102
}
330
C
100
AcDbDictionary
281
     1
  0
DICTIONARY
  5
14C9
102
{ACAD_REACTORS
330
C
102
}
330
C
100
AcDbDictionary
281
     1
  3
DIMRAILANGLE
350
2D8B
  3
DIMRAILFIRSTOFFSET
350
2D89
  3
DIMRAILOFFSET
350
2D8A
  3
DIMRAILSENABLED
350
2D8C
  0
DICTIONARY
  5
971
102
{ACAD_REACTORS
330
970
102
}
330
970
100
AcDbDictionary
281
     1
  0
DICTIONARY
  5
34A5
102
{ACAD_REACTORS
330
970
102
}
330
970
100
AcDbDictionary
281
     1
1001
ACAD
1000
<All
  0
XRECORD
  5
A88
102
{ACAD_REACTORS
330
A87
102
}
330
A87
100
AcDbXrecord
280
     1
290
     1
  0
XRECORD
  5
A8C
102
{ACAD_REACTORS
330
A8B
102
}
330
A8B
100
AcDbXrecord
280
     1
290
     1
  0
DIMASSOC
  5
3AAE
102
{ACAD_REACTORS
330
3AAD
102
}
330
3AAD
100
AcDbDimAssoc
330
3AAC
 90
        2
 70
     0
 71
     1
  1
AcDbOsnapPointRef
 72
     1
331
2CF9
 73
     0
 91
        0
 40
0.0
 10
0.0
 20
0.0
 30
0.0
 75
     0
  0
LAYOUT
  5
22
102
{ACAD_REACTORS
330
1A
102
}
330
1A
100
AcDbPlotSettings
  1

  2
RICOH IPSiO NX850 RPCS
  4
A4
  6

 40
5.873749732971191
 41
5.873747825622559
 42
5.873748779296875
 43
5.873748779296875
 44
209.9733276367188
 45
296.9259948730469
 46
56.21
 47
68.71
 48
0.0
 49
0.0
140
0.0
141
0.0
142
1.0
143
1.0
 70
 11940
 72
     1
 73
     1
 74
     0
  7

 75
     0
 76
     0
 77
     2
 78
   300
147
1.0
148
-86.56519164515282
149
-171.1912652483589
100
AcDbLayout
  1
Model
 70
     1
 71
     0
 10
0.0
 20
0.0
 11
12.0
 21
9.0
 12
0.0
 22
0.0
 32
0.0
 14
0.0
 24
0.0
 34
0.0
 15
292.0
 25
205.0
 35
0.0
146
0.0
 13
0.0
 23
0.0
 33
0.0
 16
1.0
 26
0.0
 36
0.0
 17
0.0
 27
1.0
 37
0.0
 76
     0
330
1F
331
934
  0
LAYOUT
  5
1E
102
{ACAD_REACTORS
330
1A
102
}
330
1A
100
AcDbPlotSettings
  1

  2
RICOH IPSiO NX850 RPCS
  4

  6

 40
0.0
 41
0.0
 42
0.0
 43
0.0
 44
0.0
 45
0.0
 46
0.0
 47
0.0
 48
0.0
 49
0.0
140
0.0
141
0.0
142
1.0
143
1.0
 70
   688
 72
     0
 73
     0
 74
     5
  7

 75
    16
 76
     0
 77
     2
 78
   300
147
1.0
148
0.0
149
0.0
100
AcDbLayout
  1
ﾚｲｱｳﾄ1
 70
     1
 71
     1
 10
0.0
 20
0.0
 11
420.0
 21
297.0
 12
0.0
 22
0.0
 32
0.0
 14
1.000000000000000E+20
 24
1.000000000000000E+20
 34
1.000000000000000E+20
 15
-1.000000000000000E+20
 25
-1.000000000000000E+20
 35
-1.000000000000000E+20
146
0.0
 13
0.0
 23
0.0
 33
0.0
 16
1.0
 26
0.0
 36
0.0
 17
0.0
 27
1.0
 37
0.0
 76
     0
330
1B
  0
LAYOUT
  5
26
102
{ACAD_REACTORS
330
1A
102
}
330
1A
100
AcDbPlotSettings
  1

  2
RICOH IPSiO NX850 RPCS
  4

  6

 40
0.0
 41
0.0
 42
0.0
 43
0.0
 44
0.0
 45
0.0
 46
0.0
 47
0.0
 48
0.0
 49
0.0
140
0.0
141
0.0
142
1.0
143
1.0
 70
   688
 72
     0
 73
     0
 74
     5
  7

 75
    16
 76
     0
 77
     2
 78
   300
147
1.0
148
0.0
149
0.0
100
AcDbLayout
  1
ﾚｲｱｳﾄ2
 70
     1
 71
     2
 10
0.0
 20
0.0
 11
12.0
 21
9.0
 12
0.0
 22
0.0
 32
0.0
 14
0.0
 24
0.0
 34
0.0
 15
0.0
 25
0.0
 35
0.0
146
0.0
 13
0.0
 23
0.0
 33
0.0
 16
1.0
 26
0.0
 36
0.0
 17
0.0
 27
1.0
 37
0.0
 76
     0
330
23
  0
MATERIAL
  5
39A1
102
{ACAD_REACTORS
330
399F
102
}
330
399F
100
AcDbMaterial
  1
ByBlock
 72
     1
 94
      127
  0
MATERIAL
  5
39A0
102
{ACAD_REACTORS
330
399F
102
}
330
399F
100
AcDbMaterial
  1
ByLayer
 72
     1
 94
      127
  0
MATERIAL
  5
39A2
102
{ACAD_REACTORS
330
399F
102
}
330
399F
100
AcDbMaterial
  1
Global
 72
     1
 94
      127
  0
MLEADERSTYLE
  5
39A6
102
{ACAD_REACTORS
330
39A5
102
}
330
39A5
100
AcDbMLeaderStyle
179
     2
170
     2
171
     1
172
     0
 90
        2
 40
0.0
 41
0.0
173
     1
 91
-1056964608
340
14
 92
       -2
290
     1
 42
2.0
291
     1
 43
8.0
  3
Standard
341
0
 44
4.0
300

342
11
174
     1
178
     1
175
     1
176
     0
 93
-1056964608
 45
4.0
292
     0
297
     0
 46
4.0
343
0
 94
-1056964608
 47
1.0
 49
1.0
140
1.0
293
     1
141
0.0
294
     1
177
     0
142
1.0
295
     0
296
     0
143
3.75
271
     0
272
     9
273
     9
  0
MLINESTYLE
  5
18
102
{ACAD_REACTORS
330
17
102
}
330
17
100
AcDbMlineStyle
  2
STANDARD
 70
     0
  3

 62
   256
 51
90.0
 52
90.0
 71
     2
 49
0.5
 62
   256
  6
BYLAYER
 49
-0.5
 62
   256
  6
BYLAYER
  0
ACDBPLACEHOLDER
  5
F
102
{ACAD_REACTORS
330
E
102
}
330
E
  0
SCALE
  5
936
102
{ACAD_REACTORS
330
935
102
}
330
935
100
AcDbScale
 70
     0
300
1:1
140
1.0
141
1.0
290
     1
  0
SCALE
  5
937
102
{ACAD_REACTORS
330
935
102
}
330
935
100
AcDbScale
 70
     0
300
1:2
140
1.0
141
2.0
290
     0
  0
SCALE
  5
938
102
{ACAD_REACTORS
330
935
102
}
330
935
100
AcDbScale
 70
     0
300
1:4
140
1.0
141
4.0
290
     0
  0
SCALE
  5
939
102
{ACAD_REACTORS
330
935
102
}
330
935
100
AcDbScale
 70
     0
300
1:5
140
1.0
141
5.0
290
     0
  0
SCALE
  5
93A
102
{ACAD_REACTORS
330
935
102
}
330
935
100
AcDbScale
 70
     0
300
1:8
140
1.0
141
8.0
290
     0
  0
SCALE
  5
93B
102
{ACAD_REACTORS
330
935
102
}
330
935
100
AcDbScale
 70
     0
300
1:10
140
1.0
141
10.0
290
     0
  0
SCALE
  5
93C
102
{ACAD_REACTORS
330
935
102
}
330
935
100
AcDbScale
 70
     0
300
1:16
140
1.0
141
16.0
290
     0
  0
SCALE
  5
93D
102
{ACAD_REACTORS
330
935
102
}
330
935
100
AcDbScale
 70
     0
300
1:20
140
1.0
141
20.0
290
     0
  0
SCALE
  5
93E
102
{ACAD_REACTORS
330
935
102
}
330
935
100
AcDbScale
 70
     0
300
1:30
140
1.0
141
30.0
290
     0
  0
SCALE
  5
93F
102
{ACAD_REACTORS
330
935
102
}
330
935
100
AcDbScale
 70
     0
300
1:40
140
1.0
141
40.0
290
     0
  0
SCALE
  5
940
102
{ACAD_REACTORS
330
935
102
}
330
935
100
AcDbScale
 70
     0
300
1:50
140
1.0
141
50.0
290
     0
  0
SCALE
  5
941
102
{ACAD_REACTORS
330
935
102
}
330
935
100
AcDbScale
 70
     0
300
1:100
140
1.0
141
100.0
290
     0
  0
SCALE
  5
942
102
{ACAD_REACTORS
330
935
102
}
330
935
100
AcDbScale
 70
     0
300
2:1
140
2.0
141
1.0
290
     0
  0
SCALE
  5
943
102
{ACAD_REACTORS
330
935
102
}
330
935
100
AcDbScale
 70
     0
300
4:1
140
4.0
141
1.0
290
     0
  0
SCALE
  5
944
102
{ACAD_REACTORS
330
935
102
}
330
935
100
AcDbScale
 70
     0
300
8:1
140
8.0
141
1.0
290
     0
  0
SCALE
  5
945
102
{ACAD_REACTORS
330
935
102
}
330
935
100
AcDbScale
 70
     0
300
10:1
140
10.0
141
1.0
290
     0
  0
SCALE
  5
946
102
{ACAD_REACTORS
330
935
102
}
330
935
100
AcDbScale
 70
     0
300
100:1
140
100.0
141
1.0
290
     0
  0
SCALE
  5
947
102
{ACAD_REACTORS
330
935
102
}
330
935
100
AcDbScale
 70
     0
300
1/128" = 1'-0"
140
0.0078125
141
12.0
290
     0
  0
SCALE
  5
948
102
{ACAD_REACTORS
330
935
102
}
330
935
100
AcDbScale
 70
     0
300
1/64" = 1'-0"
140
0.015625
141
12.0
290
     0
  0
SCALE
  5
949
102
{ACAD_REACTORS
330
935
102
}
330
935
100
AcDbScale
 70
     0
300
1/32" = 1'-0"
140
0.03125
141
12.0
290
     0
  0
SCALE
  5
94A
102
{ACAD_REACTORS
330
935
102
}
330
935
100
AcDbScale
 70
     0
300
1/16" = 1'-0"
140
0.0625
141
12.0
290
     0
  0
SCALE
  5
94B
102
{ACAD_REACTORS
330
935
102
}
330
935
100
AcDbScale
 70
     0
300
3/32" = 1'-0"
140
0.09375
141
12.0
290
     0
  0
SCALE
  5
94C
102
{ACAD_REACTORS
330
935
102
}
330
935
100
AcDbScale
 70
     0
300
1/8" = 1'-0"
140
0.125
141
12.0
290
     0
  0
SCALE
  5
94D
102
{ACAD_REACTORS
330
935
102
}
330
935
100
AcDbScale
 70
     0
300
3/16" = 1'-0"
140
0.1875
141
12.0
290
     0
  0
SCALE
  5
94E
102
{ACAD_REACTORS
330
935
102
}
330
935
100
AcDbScale
 70
     0
300
1/4" = 1'-0"
140
0.25
141
12.0
290
     0
  0
SCALE
  5
94F
102
{ACAD_REACTORS
330
935
102
}
330
935
100
AcDbScale
 70
     0
300
3/8" = 1'-0"
140
0.375
141
12.0
290
     0
  0
SCALE
  5
950
102
{ACAD_REACTORS
330
935
102
}
330
935
100
AcDbScale
 70
     0
300
1/2" = 1'-0"
140
0.5
141
12.0
290
     0
  0
SCALE
  5
951
102
{ACAD_REACTORS
330
935
102
}
330
935
100
AcDbScale
 70
     0
300
3/4" = 1'-0"
140
0.75
141
12.0
290
     0
  0
SCALE
  5
952
102
{ACAD_REACTORS
330
935
102
}
330
935
100
AcDbScale
 70
     0
300
1" = 1'-0"
140
1.0
141
12.0
290
     0
  0
SCALE
  5
953
102
{ACAD_REACTORS
330
935
102
}
330
935
100
AcDbScale
 70
     0
300
1-1/2" = 1'-0"
140
1.5
141
12.0
290
     0
  0
SCALE
  5
954
102
{ACAD_REACTORS
330
935
102
}
330
935
100
AcDbScale
 70
     0
300
3" = 1'-0"
140
3.0
141
12.0
290
     0
  0
SCALE
  5
955
102
{ACAD_REACTORS
330
935
102
}
330
935
100
AcDbScale
 70
     0
300
6" = 1'-0"
140
6.0
141
12.0
290
     0
  0
SCALE
  5
956
102
{ACAD_REACTORS
330
935
102
}
330
935
100
AcDbScale
 70
     0
300
1'-0" = 1'-0"
140
12.0
141
12.0
290
     0
  0
TABLESTYLE
  5
39A4
102
{ACAD_REACTORS
330
39A3
102
}
102
{ACAD_XDICTIONARY
360
3AD0
102
}
330
39A3
100
AcDbTableStyle
  3
Standard
 70
     0
 71
     0
 40
0.06
 41
0.06
280
     0
281
     0
  7
Standard
140
4.5
170
     2
 62
     0
 63
   257
283
     0
 90
        4
 91
        0
  1

274
    -2
284
     1
 64
     0
275
    -2
285
     1
 65
     0
276
    -2
286
     1
 66
     0
277
    -2
287
     1
 67
     0
278
    -2
288
     1
 68
     0
279
    -2
289
     1
 69
     0
  7
Standard
140
6.0
170
     5
 62
     0
 63
   257
283
     0
 90
        4
 91
        0
  1

274
    -2
284
     1
 64
     0
275
    -2
285
     1
 65
     0
276
    -2
286
     1
 66
     0
277
    -2
287
     1
 67
     0
278
    -2
288
     1
 68
     0
279
    -2
289
     1
 69
     0
  7
Standard
140
4.5
170
     5
 62
     0
 63
   257
283
     0
 90
        4
 91
        0
  1

274
    -2
284
     1
 64
     0
275
    -2
285
     1
 65
     0
276
    -2
286
     1
 66
     0
277
    -2
287
     1
 67
     0
278
    -2
288
     1
 68
     0
279
    -2
289
     1
 69
     0
  0
VISUALSTYLE
  5
398B
102
{ACAD_REACTORS
330
3986
102
}
330
3986
100
AcDbVisualStyle
  2
2dWireframe
 70
     4
177
     2
291
     0
 71
     0
176
     1
 72
     2
176
     1
 73
     0
176
     1
 90
        0
176
     1
 40
0.6
176
     1
 41
30.0
176
     1
 62
     5
 63
     7
421
 16777215
176
     1
 74
     1
176
     1
 91
        4
176
     1
 64
     7
176
     1
 65
   257
176
     1
 75
     1
176
     1
175
     1
176
     1
 42
1.0
176
     1
 92
        0
176
     1
 66
   257
176
     1
 43
1.0
176
     1
 76
     1
176
     1
 77
     6
176
     1
 78
     2
176
     1
 67
     7
176
     1
 79
     5
176
     1
170
     0
176
     1
171
     0
176
     1
290
     0
176
     1
 93
        1
176
     1
 44
0.0
176
     1
173
     0
176
     1
  0
VISUALSTYLE
  5
398E
102
{ACAD_REACTORS
330
3986
102
}
330
3986
100
AcDbVisualStyle
  2
Basic
 70
     7
177
     2
291
     1
 71
     1
176
     1
 72
     0
176
     1
 73
     1
176
     1
 90
        0
176
     1
 40
0.6
176
     1
 41
30.0
176
     1
 62
     5
 63
     7
421
 16777215
176
     1
 74
     0
176
     1
 91
        4
176
     1
 64
     7
176
     1
 65
   257
176
     1
 75
     1
176
     1
175
     1
176
     1
 42
1.0
176
     1
 92
        8
176
     1
 66
     7
176
     1
 43
1.0
176
     1
 76
     1
176
     1
 77
     6
176
     1
 78
     2
176
     1
 67
     7
176
     1
 79
     5
176
     1
170
     0
176
     1
171
     0
176
     1
290
     0
176
     1
 93
        1
176
     1
 44
0.0
176
     1
173
     0
176
     1
  0
VISUALSTYLE
  5
3992
102
{ACAD_REACTORS
330
3986
102
}
330
3986
100
AcDbVisualStyle
  2
Brighten
 70
    12
177
     2
291
     1
 71
     2
176
     1
 72
     2
176
     1
 73
     0
176
     1
 90
        0
176
     1
 40
0.6
176
     1
 41
30.0
176
     1
 62
     5
 63
     7
421
 16777215
176
     1
 74
     1
176
     1
 91
        4
176
     1
 64
     7
176
     1
 65
   257
176
     1
 75
     1
176
     1
175
     1
176
     1
 42
1.0
176
     1
 92
        8
176
     1
 66
     7
176
     1
 43
1.0
176
     1
 76
     1
176
     1
 77
     6
176
     1
 78
     2
176
     1
 67
     7
176
     1
 79
     5
176
     1
170
     0
176
     1
171
     0
176
     1
290
     0
176
     1
 93
        1
176
     1
 44
50.0
176
     1
173
     0
176
     1
  0
VISUALSTYLE
  5
3996
102
{ACAD_REACTORS
330
3986
102
}
330
3986
100
AcDbVisualStyle
  2
ColorChange
 70
    16
177
     2
291
     1
 71
     2
176
     1
 72
     2
176
     1
 73
     3
176
     1
 90
        0
176
     1
 40
0.6
176
     1
 41
30.0
176
     1
 62
     5
 63
     8
421
  8421504
176
     1
 74
     1
176
     1
 91
        4
176
     1
 64
     7
176
     1
 65
   257
176
     1
 75
     1
176
     1
175
     1
176
     1
 42
1.0
176
     1
 92
        8
176
     1
 66
     8
424
  8421504
176
     1
 43
1.0
176
     1
 76
     1
176
     1
 77
     6
176
     1
 78
     2
176
     1
 67
     7
176
     1
 79
     5
176
     1
170
     0
176
     1
171
     0
176
     1
290
     0
176
     1
 93
        1
176
     1
 44
0.0
176
     1
173
     0
176
     1
  0
VISUALSTYLE
  5
3990
102
{ACAD_REACTORS
330
3986
102
}
330
3986
100
AcDbVisualStyle
  2
Conceptual
 70
     9
177
     2
291
     0
 71
     3
176
     1
 72
     2
176
     1
 73
     0
176
     1
 90
        0
176
     1
 40
0.6
176
     1
 41
30.0
176
     1
 62
     5
 63
     7
421
 16777215
176
     1
 74
     2
176
     1
 91
        2
176
     1
 64
     7
176
     1
 65
   257
176
     1
 75
     1
176
     1
175
     1
176
     1
 42
179.0
176
     1
 92
        8
176
     1
 66
     7
176
     1
 43
1.0
176
     1
 76
     1
176
     1
 77
     6
176
     1
 78
     2
176
     1
 67
     7
176
     1
 79
     3
176
     1
170
     0
176
     1
171
     0
176
     1
290
     0
176
     1
 93
        1
176
     1
 44
0.0
176
     1
173
     0
176
     1
  0
VISUALSTYLE
  5
3991
102
{ACAD_REACTORS
330
3986
102
}
330
3986
100
AcDbVisualStyle
  2
Dim
 70
    11
177
     2
291
     1
 71
     2
176
     1
 72
     2
176
     1
 73
     0
176
     1
 90
        0
176
     1
 40
0.6
176
     1
 41
30.0
176
     1
 62
     5
 63
     7
421
 16777215
176
     1
 74
     1
176
     1
 91
        4
176
     1
 64
     7
176
     1
 65
   257
176
     1
 75
     1
176
     1
175
     1
176
     1
 42
1.0
176
     1
 92
        8
176
     1
 66
     7
176
     1
 43
1.0
176
     1
 76
     1
176
     1
 77
     6
176
     1
 78
     2
176
     1
 67
     7
176
     1
 79
     5
176
     1
170
     0
176
     1
171
     0
176
     1
290
     0
176
     1
 93
        1
176
     1
 44
-50.0
176
     1
173
     0
176
     1
  0
VISUALSTYLE
  5
3999
102
{ACAD_REACTORS
330
3986
102
}
330
3986
100
AcDbVisualStyle
  2
EdgeColorOff
 70
    22
177
     2
291
     1
 71
     2
176
     0
 72
     2
176
     0
 73
     0
176
     0
 90
        0
176
     0
 40
0.6
176
     0
 41
30.0
176
     0
 62
     5
 63
     7
421
 16777215
176
     0
 74
     1
176
     0
 91
        4
176
     0
 64
     7
176
     0
 65
   257
176
     0
 75
     1
176
     0
175
     1
176
     0
 42
1.0
176
     0
 92
        8
176
     2
 66
     7
176
     0
 43
1.0
176
     0
 76
     1
176
     0
 77
     6
176
     0
 78
     2
176
     0
 67
     7
176
     0
 79
     5
176
     0
170
     0
176
     0
171
     0
176
     0
290
     0
176
     0
 93
        1
176
     0
 44
0.0
176
     0
173
     0
176
     0
  0
VISUALSTYLE
  5
3995
102
{ACAD_REACTORS
330
3986
102
}
330
3986
100
AcDbVisualStyle
  2
Facepattern
 70
    15
177
     2
291
     1
 71
     2
176
     1
 72
     2
176
     1
 73
     0
176
     1
 90
        0
176
     1
 40
0.6
176
     1
 41
30.0
176
     1
 62
     5
 63
     7
421
 16777215
176
     1
 74
     1
176
     1
 91
        4
176
     1
 64
     7
176
     1
 65
   257
176
     1
 75
     1
176
     1
175
     1
176
     1
 42
1.0
176
     1
 92
        8
176
     1
 66
     7
176
     1
 43
1.0
176
     1
 76
     1
176
     1
 77
     6
176
     1
 78
     2
176
     1
 67
     7
176
     1
 79
     5
176
     1
170
     0
176
     1
171
     0
176
     1
290
     0
176
     1
 93
        1
176
     1
 44
0.0
176
     1
173
     0
176
     1
  0
VISUALSTYLE
  5
3987
102
{ACAD_REACTORS
330
3986
102
}
330
3986
100
AcDbVisualStyle
  2
Flat
 70
     0
177
     2
291
     1
 71
     2
176
     1
 72
     1
176
     1
 73
     1
176
     1
 90
        2
176
     1
 40
0.6
176
     1
 41
30.0
176
     1
 62
     5
 63
     7
421
 16777215
176
     1
 74
     0
176
     1
 91
        0
176
     1
 64
     7
176
     1
 65
   257
176
     1
 75
     1
176
     1
175
     1
176
     1
 42
1.0
176
     1
 92
        8
176
     1
 66
     7
176
     1
 43
1.0
176
     1
 76
     1
176
     1
 77
     6
176
     1
 78
     2
176
     1
 67
     7
176
     1
 79
     5
176
     1
170
     0
176
     1
171
     0
176
     1
290
     0
176
     1
 93
       13
176
     1
 44
0.0
176
     1
173
     0
176
     1
  0
VISUALSTYLE
  5
3988
102
{ACAD_REACTORS
330
3986
102
}
330
3986
100
AcDbVisualStyle
  2
FlatWithEdges
 70
     1
177
     2
291
     1
 71
     2
176
     1
 72
     1
176
     1
 73
     1
176
     1
 90
        2
176
     1
 40
0.6
176
     1
 41
30.0
176
     1
 62
     5
 63
     7
421
 16777215
176
     1
 74
     1
176
     1
 91
        0
176
     1
 64
     7
176
     1
 65
   257
176
     1
 75
     1
176
     1
175
     1
176
     1
 42
1.0
176
     1
 92
        0
176
     1
 66
   257
176
     1
 43
1.0
176
     1
 76
     1
176
     1
 77
     6
176
     1
 78
     2
176
     1
 67
     7
176
     1
 79
     5
176
     1
170
     0
176
     1
171
     0
176
     1
290
     0
176
     1
 93
       13
176
     1
 44
0.0
176
     1
173
     0
176
     1
  0
VISUALSTYLE
  5
3989
102
{ACAD_REACTORS
330
3986
102
}
330
3986
100
AcDbVisualStyle
  2
Gouraud
 70
     2
177
     2
291
     1
 71
     2
176
     1
 72
     2
176
     1
 73
     1
176
     1
 90
        2
176
     1
 40
0.6
176
     1
 41
30.0
176
     1
 62
     5
 63
     7
421
 16777215
176
     1
 74
     0
176
     1
 91
        0
176
     1
 64
     7
176
     1
 65
   257
176
     1
 75
     1
176
     1
175
     1
176
     1
 42
1.0
176
     1
 92
        0
176
     1
 66
     7
176
     1
 43
1.0
176
     1
 76
     1
176
     1
 77
     6
176
     1
 78
     2
176
     1
 67
     7
176
     1
 79
     5
176
     1
170
     0
176
     1
171
     0
176
     1
290
     0
176
     1
 93
       13
176
     1
 44
0.0
176
     1
173
     0
176
     1
  0
VISUALSTYLE
  5
398A
102
{ACAD_REACTORS
330
3986
102
}
330
3986
100
AcDbVisualStyle
  2
GouraudWithEdges
 70
     3
177
     2
291
     1
 71
     2
176
     1
 72
     2
176
     1
 73
     1
176
     1
 90
        2
176
     1
 40
0.6
176
     1
 41
30.0
176
     1
 62
     5
 63
     7
421
 16777215
176
     1
 74
     1
176
     1
 91
        0
176
     1
 64
     7
176
     1
 65
   257
176
     1
 75
     1
176
     1
175
     1
176
     1
 42
1.0
176
     1
 92
        0
176
     1
 66
   257
176
     1
 43
1.0
176
     1
 76
     1
176
     1
 77
     6
176
     1
 78
     2
176
     1
 67
     7
176
     1
 79
     5
176
     1
170
     0
176
     1
171
     0
176
     1
290
     0
176
     1
 93
       13
176
     1
 44
0.0
176
     1
173
     0
176
     1
  0
VISUALSTYLE
  5
398D
102
{ACAD_REACTORS
330
3986
102
}
330
3986
100
AcDbVisualStyle
  2
Hidden
 70
     6
177
     2
291
     0
 71
     1
176
     1
 72
     2
176
     1
 73
     2
176
     1
 90
        0
176
     1
 40
0.6
176
     1
 41
30.0
176
     1
 62
     5
 63
     7
421
 16777215
176
     1
 74
     2
176
     1
 91
        2
176
     1
 64
     7
176
     1
 65
   257
176
     1
 75
     2
176
     1
175
     1
176
     1
 42
40.0
176
     1
 92
        0
176
     1
 66
   257
176
     1
 43
1.0
176
     1
 76
     1
176
     1
 77
     6
176
     1
 78
     2
176
     1
 67
     7
176
     1
 79
     3
176
     1
170
     0
176
     1
171
     0
176
     1
290
     0
176
     1
 93
        1
176
     1
 44
0.0
176
     1
173
     0
176
     1
  0
VISUALSTYLE
  5
3997
102
{ACAD_REACTORS
330
3986
102
}
330
3986
100
AcDbVisualStyle
  2
JitterOff
 70
    20
177
     2
291
     1
 71
     2
176
     0
 72
     2
176
     0
 73
     0
176
     0
 90
        0
176
     0
 40
0.6
176
     0
 41
30.0
176
     0
 62
     5
 63
     7
421
 16777215
176
     0
 74
     1
176
     0
 91
        4
176
     0
 64
     7
176
     0
 65
   257
176
     0
 75
     1
176
     0
175
     1
176
     0
 42
1.0
176
     0
 92
       10
176
     2
 66
     7
176
     0
 43
1.0
176
     0
 76
     1
176
     0
 77
     6
176
     0
 78
     2
176
     0
 67
     7
176
     0
 79
     5
176
     0
170
     0
176
     0
171
     0
176
     0
290
     0
176
     0
 93
        1
176
     0
 44
0.0
176
     0
173
     0
176
     0
  0
VISUALSTYLE
  5
3994
102
{ACAD_REACTORS
330
3986
102
}
330
3986
100
AcDbVisualStyle
  2
Linepattern
 70
    14
177
     2
291
     1
 71
     2
176
     1
 72
     2
176
     1
 73
     0
176
     1
 90
        0
176
     1
 40
0.6
176
     1
 41
30.0
176
     1
 62
     5
 63
     7
421
 16777215
176
     1
 74
     1
176
     1
 91
        4
176
     1
 64
     7
176
     1
 65
   257
176
     1
 75
     7
176
     1
175
     7
176
     1
 42
1.0
176
     1
 92
        8
176
     1
 66
     7
176
     1
 43
1.0
176
     1
 76
     1
176
     1
 77
     6
176
     1
 78
     2
176
     1
 67
     7
176
     1
 79
     5
176
     1
170
     0
176
     1
171
     0
176
     1
290
     0
176
     1
 93
        1
176
     1
 44
0.0
176
     1
173
     0
176
     1
  0
VISUALSTYLE
  5
3998
102
{ACAD_REACTORS
330
3986
102
}
330
3986
100
AcDbVisualStyle
  2
OverhangOff
 70
    21
177
     2
291
     1
 71
     2
176
     0
 72
     2
176
     0
 73
     0
176
     0
 90
        0
176
     0
 40
0.6
176
     0
 41
30.0
176
     0
 62
     5
 63
     7
421
 16777215
176
     0
 74
     1
176
     0
 91
        4
176
     0
 64
     7
176
     0
 65
   257
176
     0
 75
     1
176
     0
175
     1
176
     0
 42
1.0
176
     0
 92
        9
176
     2
 66
     7
176
     0
 43
1.0
176
     0
 76
     1
176
     0
 77
     6
176
     0
 78
     2
176
     0
 67
     7
176
     0
 79
     5
176
     0
170
     0
176
     0
171
     0
176
     0
290
     0
176
     0
 93
        1
176
     0
 44
0.0
176
     0
173
     0
176
     0
  0
VISUALSTYLE
  5
398F
102
{ACAD_REACTORS
330
3986
102
}
330
3986
100
AcDbVisualStyle
  2
Realistic
 70
     8
177
     2
291
     0
 71
     2
176
     1
 72
     3
176
     1
 73
     0
176
     1
 90
        2
176
     1
 40
0.6
176
     1
 41
30.0
176
     1
 62
     5
 63
     7
421
 16777215
176
     1
 74
     0
176
     1
 91
        0
176
     1
 64
     7
176
     1
 65
   257
176
     1
 75
     1
176
     1
175
     1
176
     1
 42
1.0
176
     1
 92
        8
176
     1
 66
   257
176
     1
 43
1.0
176
     1
 76
     1
176
     1
 77
     6
176
     1
 78
     2
176
     1
 67
     7
176
     1
 79
     3
176
     1
170
     0
176
     1
171
     0
176
     1
290
     0
176
     1
 93
       13
176
     1
 44
0.0
176
     1
173
     0
176
     1
  0
VISUALSTYLE
  5
399E
102
{ACAD_REACTORS
330
3986
102
}
330
3986
100
AcDbVisualStyle
  2
Shaded
 70
    27
177
     2
291
     0
 71
     2
176
     1
 72
     2
176
     1
 73
     1
176
     1
 90
        2
176
     1
 40
0.6
176
     1
 41
30.0
176
     1
 62
     5
 63
     7
421
 16777215
176
     1
 74
     0
176
     1
 91
        4
176
     1
 64
     7
176
     1
 65
   257
176
     1
 75
     1
176
     1
175
     1
176
     1
 42
1.0
176
     1
 92
        8
176
     1
 66
   257
176
     1
 43
1.0
176
     1
 76
     1
176
     1
 77
     6
176
     1
 78
     2
176
     1
 67
     8
425
  7895160
176
     1
 79
     3
176
     1
170
     0
176
     1
171
     0
176
     1
290
     0
176
     1
 93
        5
176
     1
 44
0.0
176
     1
173
     0
176
     1
  0
VISUALSTYLE
  5
399D
102
{ACAD_REACTORS
330
3986
102
}
330
3986
100
AcDbVisualStyle
  2
Shaded with edges
 70
    26
177
     2
291
     0
 71
     2
176
     1
 72
     2
176
     1
 73
     1
176
     1
 90
        2
176
     1
 40
0.6
176
     1
 41
30.0
176
     1
 62
     5
 63
     7
421
 16777215
176
     1
 74
     1
176
     1
 91
       10
176
     1
 64
     7
176
     1
 65
   257
176
     1
 75
     2
176
     1
175
     1
176
     1
 42
1.0
176
     1
 92
        8
176
     1
 66
   257
176
     1
 43
1.0
176
     1
 76
     1
176
     1
 77
     6
176
     1
 78
     2
176
     1
 67
     7
176
     1
 79
     3
176
     1
170
     0
176
     1
171
     0
176
     1
290
     0
176
     1
 93
        5
176
     1
 44
0.0
176
     1
173
     0
176
     1
  0
VISUALSTYLE
  5
399A
102
{ACAD_REACTORS
330
3986
102
}
330
3986
100
AcDbVisualStyle
  2
Shades of Gray
 70
    23
177
     2
291
     0
 71
     2
176
     1
 72
     2
176
     1
 73
     3
176
     1
 90
        0
176
     1
 40
0.6
176
     1
 41
30.0
176
     1
 62
     5
 63
     7
421
 16777215
176
     1
 74
     2
176
     1
 91
        2
176
     1
 64
     7
176
     1
 65
     7
176
     1
 75
     1
176
     1
175
     1
176
     1
 42
40.0
176
     1
 92
        8
176
     1
 66
     7
176
     1
 43
1.0
176
     1
 76
     1
176
     1
 77
     6
176
     1
 78
     2
176
     1
 67
     7
176
     1
 79
     3
176
     1
170
     0
176
     1
171
     0
176
     1
290
     0
176
     1
 93
        1
176
     1
 44
0.0
176
     1
173
     0
176
     1
  0
VISUALSTYLE
  5
399B
102
{ACAD_REACTORS
330
3986
102
}
330
3986
100
AcDbVisualStyle
  2
Sketchy
 70
    24
177
     2
291
     0
 71
     1
176
     1
 72
     2
176
     1
 73
     2
176
     1
 90
        0
176
     1
 40
0.6
176
     1
 41
30.0
176
     1
 62
     5
 63
     7
421
 16777215
176
     1
 74
     2
176
     1
 91
        2
176
     1
 64
     7
176
     1
 65
     7
176
     1
 75
     1
176
     1
175
     1
176
     1
 42
40.0
176
     1
 92
       11
176
     1
 66
     7
176
     1
 43
1.0
176
     1
 76
     1
176
     1
 77
     6
176
     1
 78
     2
176
     1
 67
     7
176
     1
 79
     6
176
     1
170
     0
176
     1
171
     0
176
     1
290
     0
176
     1
 93
        1
176
     1
 44
0.0
176
     1
173
     0
176
     1
  0
VISUALSTYLE
  5
3993
102
{ACAD_REACTORS
330
3986
102
}
330
3986
100
AcDbVisualStyle
  2
Thicken
 70
    13
177
     2
291
     1
 71
     2
176
     1
 72
     2
176
     1
 73
     0
176
     1
 90
        0
176
     1
 40
0.6
176
     1
 41
30.0
176
     1
 62
     5
 63
     7
421
 16777215
176
     1
 74
     1
176
     1
 91
        4
176
     1
 64
     7
176
     1
 65
   257
176
     1
 75
     1
176
     1
175
     1
176
     1
 42
1.0
176
     1
 92
       12
176
     1
 66
     7
176
     1
 43
1.0
176
     1
 76
     1
176
     1
 77
     6
176
     1
 78
     2
176
     1
 67
     7
176
     1
 79
     5
176
     1
170
     0
176
     1
171
     0
176
     1
290
     0
176
     1
 93
        1
176
     1
 44
0.0
176
     1
173
     0
176
     1
  0
VISUALSTYLE
  5
398C
102
{ACAD_REACTORS
330
3986
102
}
330
3986
100
AcDbVisualStyle
  2
Wireframe
 70
     5
177
     2
291
     0
 71
     0
176
     1
 72
     2
176
     1
 73
     0
176
     1
 90
        0
176
     1
 40
0.6
176
     1
 41
30.0
176
     1
 62
     5
 63
     7
421
 16777215
176
     1
 74
     1
176
     1
 91
        4
176
     1
 64
     7
176
     1
 65
   257
176
     1
 75
     1
176
     1
175
     1
176
     1
 42
1.0
176
     1
 92
        0
176
     1
 66
   257
176
     1
 43
1.0
176
     1
 76
     1
176
     1
 77
     6
176
     1
 78
     2
176
     1
 67
     7
176
     1
 79
     3
176
     1
170
     0
176
     1
171
     0
176
     1
290
     0
176
     1
 93
        1
176
     1
 44
0.0
176
     1
173
     0
176
     1
  0
VISUALSTYLE
  5
399C
102
{ACAD_REACTORS
330
3986
102
}
330
3986
100
AcDbVisualStyle
  2
X-Ray
 70
    25
177
     2
291
     0
 71
     2
176
     1
 72
     2
176
     1
 73
     1
176
     1
 90
        1
176
     1
 40
0.5
176
     1
 41
30.0
176
     1
 62
     5
 63
     7
421
 16777215
176
     1
 74
     1
176
     1
 91
        0
176
     1
 64
     7
176
     1
 65
   257
176
     1
 75
     1
176
     1
175
     1
176
     1
 42
1.0
176
     1
 92
        8
176
     1
 66
     7
176
     1
 43
1.0
176
     1
 76
     1
176
     1
 77
     6
176
     1
 78
     2
176
     1
 67
     7
176
     1
 79
     3
176
     1
170
     0
176
     1
171
     0
176
     1
290
     0
176
     1
 93
       13
176
     1
 44
0.0
176
     1
173
     0
176
     1
  0
DICTIONARYVAR
  5
39A7
102
{ACAD_REACTORS
330
3E1
102
}
330
3E1
100
DictionaryVariables
280
     0
  1
1:1
  0
DICTIONARYVAR
  5
39A9
102
{ACAD_REACTORS
330
3E1
102
}
330
3E1
100
DictionaryVariables
280
     0
  1
Standard
  0
DICTIONARYVAR
  5
39A8
102
{ACAD_REACTORS
330
3E1
102
}
330
3E1
100
DictionaryVariables
280
     0
  1
Standard
  0
DICTIONARYVAR
  5
14C8
102
{ACAD_REACTORS
330
3E1
102
}
330
3E1
100
DictionaryVariables
280
     0
  1
ByLayer
  0
DICTIONARYVAR
  5
39AA
102
{ACAD_REACTORS
330
3E1
102
}
330
3E1
100
DictionaryVariables
280
     0
  1
0
  0
DICTIONARYVAR
  5
3E2
102
{ACAD_REACTORS
330
3E1
102
}
330
3E1
100
DictionaryVariables
280
     0
  1
96
  0
DICTIONARYVAR
  5
2D8B
102
{ACAD_REACTORS
330
14C9
102
}
330
14C9
100
DictionaryVariables
280
     0
  1
0.261799
  0
DICTIONARYVAR
  5
2D89
102
{ACAD_REACTORS
330
14C9
102
}
330
14C9
100
DictionaryVariables
280
     0
  1
10.000000
  0
DICTIONARYVAR
  5
2D8A
102
{ACAD_REACTORS
330
14C9
102
}
330
14C9
100
DictionaryVariables
280
     0
  1
6.000000
  0
DICTIONARYVAR
  5
2D8C
102
{ACAD_REACTORS
330
14C9
102
}
330
14C9
100
DictionaryVariables
280
     0
  1
0
  0
DICTIONARY
  5
3AD0
330
39A4
100
AcDbDictionary
280
     1
281
     1
  3
ACAD_ROUNDTRIP_2008_TABLESTYLE_CELLSTYLEMAP
360
3AD1
  0
CELLSTYLEMAP
  5
3AD1
102
{ACAD_REACTORS
330
3AD0
102
}
330
3AD0
100
AcDbCellStyleMap
 90
        3
300
CELLSTYLE
  1
TABLEFORMAT_BEGIN
 90
        5
170
     1
 91
        0
 92
    32768
 62
   257
 93
        1
300
CONTENTFORMAT
  1
CONTENTFORMAT_BEGIN
 90
        0
 91
        0
 92
        4
 93
        0
300

 40
0.0
140
1.0
 94
        5
 62
     0
340
11
144
6.0
309
CONTENTFORMAT_END
171
     1
301
MARGIN
  1
CELLMARGIN_BEGIN
 40
1.5
 40
1.5
 40
1.5
 40
1.5
 40
1.5
 40
1.5
309
CELLMARGIN_END
 94
        6
 95
        1
302
GRIDFORMAT
  1
GRIDFORMAT_BEGIN
 90
        0
 91
        1
 62
     0
 92
       -2
340
14
 93
        0
 40
0.045
309
GRIDFORMAT_END
 95
        2
302
GRIDFORMAT
  1
GRIDFORMAT_BEGIN
 90
        0
 91
        1
 62
     0
 92
       -2
340
14
 93
        0
 40
0.045
309
GRIDFORMAT_END
 95
        4
302
GRIDFORMAT
  1
GRIDFORMAT_BEGIN
 90
        0
 91
        1
 62
     0
 92
       -2
340
14
 93
        0
 40
0.045
309
GRIDFORMAT_END
 95
        8
302
GRIDFORMAT
  1
GRIDFORMAT_BEGIN
 90
        0
 91
        1
 62
     0
 92
       -2
340
14
 93
        0
 40
0.045
309
GRIDFORMAT_END
 95
       16
302
GRIDFORMAT
  1
GRIDFORMAT_BEGIN
 90
        0
 91
        1
 62
     0
 92
       -2
340
14
 93
        0
 40
0.045
309
GRIDFORMAT_END
 95
       32
302
GRIDFORMAT
  1
GRIDFORMAT_BEGIN
 90
        0
 91
        1
 62
     0
 92
       -2
340
14
 93
        0
 40
0.045
309
GRIDFORMAT_END
309
TABLEFORMAT_END
  1
CELLSTYLE_BEGIN
 90
        1
 91
        1
300
_TITLE
309
CELLSTYLE_END
300
CELLSTYLE
  1
TABLEFORMAT_BEGIN
 90
        5
170
     1
 91
        0
 92
        0
 62
   257
 93
        1
300
CONTENTFORMAT
  1
CONTENTFORMAT_BEGIN
 90
        0
 91
        0
 92
        4
 93
        0
300

 40
0.0
140
1.0
 94
        5
 62
     0
340
11
144
4.5
309
CONTENTFORMAT_END
171
     1
301
MARGIN
  1
CELLMARGIN_BEGIN
 40
1.5
 40
1.5
 40
1.5
 40
1.5
 40
1.5
 40
1.5
309
CELLMARGIN_END
 94
        6
 95
        1
302
GRIDFORMAT
  1
GRIDFORMAT_BEGIN
 90
        0
 91
        1
 62
     0
 92
       -2
340
14
 93
        0
 40
0.045
309
GRIDFORMAT_END
 95
        2
302
GRIDFORMAT
  1
GRIDFORMAT_BEGIN
 90
        0
 91
        1
 62
     0
 92
       -2
340
14
 93
        0
 40
0.045
309
GRIDFORMAT_END
 95
        4
302
GRIDFORMAT
  1
GRIDFORMAT_BEGIN
 90
        0
 91
        1
 62
     0
 92
       -2
340
14
 93
        0
 40
0.045
309
GRIDFORMAT_END
 95
        8
302
GRIDFORMAT
  1
GRIDFORMAT_BEGIN
 90
        0
 91
        1
 62
     0
 92
       -2
340
14
 93
        0
 40
0.045
309
GRIDFORMAT_END
 95
       16
302
GRIDFORMAT
  1
GRIDFORMAT_BEGIN
 90
        0
 91
        1
 62
     0
 92
       -2
340
14
 93
        0
 40
0.045
309
GRIDFORMAT_END
 95
       32
302
GRIDFORMAT
  1
GRIDFORMAT_BEGIN
 90
        0
 91
        1
 62
     0
 92
       -2
340
14
 93
        0
 40
0.045
309
GRIDFORMAT_END
309
TABLEFORMAT_END
  1
CELLSTYLE_BEGIN
 90
        2
 91
        1
300
_HEADER
309
CELLSTYLE_END
300
CELLSTYLE
  1
TABLEFORMAT_BEGIN
 90
        5
170
     1
 91
        0
 92
        0
 62
   257
 93
        1
300
CONTENTFORMAT
  1
CONTENTFORMAT_BEGIN
 90
        0
 91
        0
 92
        4
 93
        0
300

 40
0.0
140
1.0
 94
        2
 62
     0
340
11
144
4.5
309
CONTENTFORMAT_END
171
     1
301
MARGIN
  1
CELLMARGIN_BEGIN
 40
1.5
 40
1.5
 40
1.5
 40
1.5
 40
1.5
 40
1.5
309
CELLMARGIN_END
 94
        6
 95
        1
302
GRIDFORMAT
  1
GRIDFORMAT_BEGIN
 90
        0
 91
        1
 62
     0
 92
       -2
340
14
 93
        0
 40
0.045
309
GRIDFORMAT_END
 95
        2
302
GRIDFORMAT
  1
GRIDFORMAT_BEGIN
 90
        0
 91
        1
 62
     0
 92
       -2
340
14
 93
        0
 40
0.045
309
GRIDFORMAT_END
 95
        4
302
GRIDFORMAT
  1
GRIDFORMAT_BEGIN
 90
        0
 91
        1
 62
     0
 92
       -2
340
14
 93
        0
 40
0.045
309
GRIDFORMAT_END
 95
        8
302
GRIDFORMAT
  1
GRIDFORMAT_BEGIN
 90
        0
 91
        1
 62
     0
 92
       -2
340
14
 93
        0
 40
0.045
309
GRIDFORMAT_END
 95
       16
302
GRIDFORMAT
  1
GRIDFORMAT_BEGIN
 90
        0
 91
        1
 62
     0
 92
       -2
340
14
 93
        0
 40
0.045
309
GRIDFORMAT_END
 95
       32
302
GRIDFORMAT
  1
GRIDFORMAT_BEGIN
 90
        0
 91
        1
 62
     0
 92
       -2
340
14
 93
        0
 40
0.045
309
GRIDFORMAT_END
309
TABLEFORMAT_END
  1
CELLSTYLE_BEGIN
 90
        3
 91
        2
300
_DATA
309
CELLSTYLE_END
  0
ENDSEC
  0
EOF
