  0
SECTION
  2
HEADER
  9
$ACADVER
  1
AC1024
  9
$ACADMAINTVER
 70
     6
  9
$DWGCODEPAGE
  3
ANSI_932
  9
$LASTSAVEDBY
  1
営業企画A
  9
$INSBASE
 10
0.0
 20
0.0
 30
0.0
  9
$EXTMIN
 10
0.0
 20
0.0
 30
0.0
  9
$EXTMAX
 10
292.0
 20
205.0
 30
0.0
  9
$LIMMIN
 10
0.0
 20
0.0
  9
$LIMMAX
 10
297.0
 20
210.0
  9
$ORTHOMODE
 70
     1
  9
$REGENMODE
 70
     1
  9
$FILLMODE
 70
     1
  9
$QTEXTMODE
 70
     0
  9
$MIRRTEXT
 70
     1
  9
$LTSCALE
 40
1.0
  9
$ATTMODE
 70
     1
  9
$TEXTSIZE
 40
2.5
  9
$TRACEWID
 40
1.0
  9
$TEXTSTYLE
  7
Standard
  9
$CLAYER
  8
硬質樹脂部分
  9
$CELTYPE
  6
Continuous
  9
$CECOLOR
 62
   256
  9
$CELTSCALE
 40
1.0
  9
$DISPSILH
 70
     0
  9
$DIMSCALE
 40
1.0
  9
$DIMASZ
 40
1.5
  9
$DIMEXO
 40
0.625
  9
$DIMDLI
 40
3.75
  9
$DIMRND
 40
0.0
  9
$DIMDLE
 40
0.0
  9
$DIMEXE
 40
1.25
  9
$DIMTP
 40
0.0
  9
$DIMTM
 40
0.0
  9
$DIMTXT
 40
2.0
  9
$DIMCEN
 40
2.5
  9
$DIMTSZ
 40
0.0
  9
$DIMTOL
 70
     0
  9
$DIMLIM
 70
     0
  9
$DIMTIH
 70
     1
  9
$DIMTOH
 70
     1
  9
$DIMSE1
 70
     0
  9
$DIMSE2
 70
     0
  9
$DIMTAD
 70
     1
  9
$DIMZIN
 70
     8
  9
$DIMBLK
  1

  9
$DIMASO
 70
     1
  9
$DIMSHO
 70
     1
  9
$DIMPOST
  1

  9
$DIMAPOST
  1

  9
$DIMALT
 70
     0
  9
$DIMALTD
 70
     3
  9
$DIMALTF
 40
0.03937007874016
  9
$DIMLFAC
 40
1.0
  9
$DIMTOFL
 70
     0
  9
$DIMTVP
 40
0.0
  9
$DIMTIX
 70
     0
  9
$DIMSOXD
 70
     0
  9
$DIMSAH
 70
     0
  9
$DIMBLK1
  1

  9
$DIMBLK2
  1

  9
$DIMSTYLE
  2
ISO-25
  9
$DIMCLRD
 70
     0
  9
$DIMCLRE
 70
     0
  9
$DIMCLRT
 70
     0
  9
$DIMTFAC
 40
1.0
  9
$DIMGAP
 40
0.625
  9
$DIMJUST
 70
     0
  9
$DIMSD1
 70
     0
  9
$DIMSD2
 70
     0
  9
$DIMTOLJ
 70
     0
  9
$DIMTZIN
 70
     8
  9
$DIMALTZ
 70
     0
  9
$DIMALTTZ
 70
     0
  9
$DIMUPT
 70
     1
  9
$DIMDEC
 70
     2
  9
$DIMTDEC
 70
     2
  9
$DIMALTU
 70
     2
  9
$DIMALTTD
 70
     3
  9
$DIMTXSTY
  7
Standard
  9
$DIMAUNIT
 70
     0
  9
$DIMADEC
 70
     0
  9
$DIMALTRND
 40
0.0
  9
$DIMAZIN
 70
     0
  9
$DIMDSEP
 70
    46
  9
$DIMATFIT
 70
     3
  9
$DIMFRAC
 70
     0
  9
$DIMLDRBLK
  1

  9
$DIMLUNIT
 70
     2
  9
$DIMLWD
 70
    -2
  9
$DIMLWE
 70
    -2
  9
$DIMTMOVE
 70
     2
  9
$DIMFXL
 40
1.0
  9
$DIMFXLON
 70
     0
  9
$DIMJOGANG
 40
0.7853981633974483
  9
$DIMTFILL
 70
     0
  9
$DIMTFILLCLR
 70
     0
  9
$DIMARCSYM
 70
     0
  9
$DIMLTYPE
  6

  9
$DIMLTEX1
  6

  9
$DIMLTEX2
  6

  9
$DIMTXTDIRECTION
 70
     0
  9
$LUNITS
 70
     2
  9
$LUPREC
 70
     4
  9
$SKETCHINC
 40
1.0
  9
$FILLETRAD
 40
0.3
  9
$AUNITS
 70
     0
  9
$AUPREC
 70
     0
  9
$MENU
  1
.
  9
$ELEVATION
 40
0.0
  9
$PELEVATION
 40
0.0
  9
$THICKNESS
 40
0.0
  9
$LIMCHECK
 70
     0
  9
$CHAMFERA
 40
10.0
  9
$CHAMFERB
 40
10.0
  9
$CHAMFERC
 40
20.0
  9
$CHAMFERD
 40
0.0
  9
$SKPOLY
 70
     0
  9
$TDCREATE
 40
2453866.557479954
  9
$TDUCREATE
 40
2453866.182479954
  9
$TDUPDATE
 40
2459762.614508414
  9
$TDUUPDATE
 40
2459762.239508414
  9
$TDINDWG
 40
0.8208170486
  9
$TDUSRTIMER
 40
0.0021818056
  9
$USRTIMER
 70
     1
  9
$ANGBASE
 50
0.0
  9
$ANGDIR
 70
     0
  9
$PDMODE
 70
     0
  9
$PDSIZE
 40
0.0
  9
$PLINEWID
 40
0.0
  9
$SPLFRAME
 70
     0
  9
$SPLINETYPE
 70
     6
  9
$SPLINESEGS
 70
     8
  9
$HANDSEED
  5
3AFC
  9
$SURFTAB1
 70
     6
  9
$SURFTAB2
 70
     6
  9
$SURFTYPE
 70
     6
  9
$SURFU
 70
     6
  9
$SURFV
 70
     6
  9
$UCSBASE
  2

  9
$UCSNAME
  2

  9
$UCSORG
 10
0.0
 20
0.0
 30
0.0
  9
$UCSXDIR
 10
1.0
 20
0.0
 30
0.0
  9
$UCSYDIR
 10
0.0
 20
1.0
 30
0.0
  9
$UCSORTHOREF
  2

  9
$UCSORTHOVIEW
 70
     0
  9
$UCSORGTOP
 10
0.0
 20
0.0
 30
0.0
  9
$UCSORGBOTTOM
 10
0.0
 20
0.0
 30
0.0
  9
$UCSORGLEFT
 10
0.0
 20
0.0
 30
0.0
  9
$UCSORGRIGHT
 10
0.0
 20
0.0
 30
0.0
  9
$UCSORGFRONT
 10
0.0
 20
0.0
 30
0.0
  9
$UCSORGBACK
 10
0.0
 20
0.0
 30
0.0
  9
$PUCSBASE
  2

  9
$PUCSNAME
  2

  9
$PUCSORG
 10
0.0
 20
0.0
 30
0.0
  9
$PUCSXDIR
 10
1.0
 20
0.0
 30
0.0
  9
$PUCSYDIR
 10
0.0
 20
1.0
 30
0.0
  9
$PUCSORTHOREF
  2

  9
$PUCSORTHOVIEW
 70
     0
  9
$PUCSORGTOP
 10
0.0
 20
0.0
 30
0.0
  9
$PUCSORGBOTTOM
 10
0.0
 20
0.0
 30
0.0
  9
$PUCSORGLEFT
 10
0.0
 20
0.0
 30
0.0
  9
$PUCSORGRIGHT
 10
0.0
 20
0.0
 30
0.0
  9
$PUCSORGFRONT
 10
0.0
 20
0.0
 30
0.0
  9
$PUCSORGBACK
 10
0.0
 20
0.0
 30
0.0
  9
$USERI1
 70
     0
  9
$USERI2
 70
     0
  9
$USERI3
 70
     0
  9
$USERI4
 70
     0
  9
$USERI5
 70
     0
  9
$USERR1
 40
0.0
  9
$USERR2
 40
0.0
  9
$USERR3
 40
0.0
  9
$USERR4
 40
0.0
  9
$USERR5
 40
0.0
  9
$WORLDVIEW
 70
     1
  9
$SHADEDGE
 70
     3
  9
$SHADEDIF
 70
    70
  9
$TILEMODE
 70
     1
  9
$MAXACTVP
 70
    64
  9
$PINSBASE
 10
0.0
 20
0.0
 30
0.0
  9
$PLIMCHECK
 70
     0
  9
$PEXTMIN
 10
1.000000000000000E+20
 20
1.000000000000000E+20
 30
1.000000000000000E+20
  9
$PEXTMAX
 10
-1.000000000000000E+20
 20
-1.000000000000000E+20
 30
-1.000000000000000E+20
  9
$PLIMMIN
 10
0.0
 20
0.0
  9
$PLIMMAX
 10
0.0
 20
0.0
  9
$UNITMODE
 70
     0
  9
$VISRETAIN
 70
     1
  9
$PLINEGEN
 70
     0
  9
$PSLTSCALE
 70
     1
  9
$TREEDEPTH
 70
  3020
  9
$CMLSTYLE
  2
Standard
  9
$CMLJUST
 70
     0
  9
$CMLSCALE
 40
20.0
  9
$PROXYGRAPHICS
 70
     1
  9
$MEASUREMENT
 70
     1
  9
$CELWEIGHT
370
    -1
  9
$ENDCAPS
280
     0
  9
$JOINSTYLE
280
     0
  9
$LWDISPLAY
290
     0
  9
$INSUNITS
 70
     4
  9
$HYPERLINKBASE
  1

  9
$STYLESHEET
  1

  9
$XEDIT
290
     1
  9
$CEPSNTYPE
380
     0
  9
$PSTYLEMODE
290
     1
  9
$FINGERPRINTGUID
  2
{49B20B3B-064E-400B-9469-2837C497CFA5}
  9
$VERSIONGUID
  2
{CCDC3A7D-9D77-4BF9-B421-98E64B28052D}
  9
$EXTNAMES
290
     1
  9
$PSVPSCALE
 40
0.0
  9
$OLESTARTUP
290
     0
  9
$SORTENTS
280
    96
  9
$INDEXCTL
280
     0
  9
$HIDETEXT
280
     1
  9
$XCLIPFRAME
280
     2
  9
$HALOGAP
280
     0
  9
$OBSCOLOR
 70
   257
  9
$OBSLTYPE
280
     0
  9
$INTERSECTIONDISPLAY
280
     0
  9
$INTERSECTIONCOLOR
 70
   257
  9
$DIMASSOC
280
     2
  9
$PROJECTNAME
  1

  9
$CAMERADISPLAY
290
     0
  9
$LENSLENGTH
 40
50.0
  9
$CAMERAHEIGHT
 40
0.0
  9
$STEPSPERSEC
 40
2.0
  9
$STEPSIZE
 40
6.0
  9
$3DDWFPREC
 40
2.0
  9
$PSOLWIDTH
 40
0.25
  9
$PSOLHEIGHT
 40
4.0
  9
$LOFTANG1
 40
1.570796326794897
  9
$LOFTANG2
 40
1.570796326794897
  9
$LOFTMAG1
 40
0.0
  9
$LOFTMAG2
 40
0.0
  9
$LOFTPARAM
 70
     7
  9
$LOFTNORMALS
280
     1
  9
$LATITUDE
 40
37.795
  9
$LONGITUDE
 40
-122.394
  9
$NORTHDIRECTION
 40
0.0
  9
$TIMEZONE
 70
 -8000
  9
$LIGHTGLYPHDISPLAY
280
     1
  9
$TILEMODELIGHTSYNCH
280
     1
  9
$SOLIDHIST
280
     0
  9
$SHOWHIST
280
     1
  9
$DWFFRAME
280
     2
  9
$DGNFRAME
280
     2
  9
$REALWORLDSCALE
290
     1
  9
$INTERFERECOLOR
 62
   256
  9
$CSHADOW
280
     0
  9
$SHADOWPLANELOCATION
 40
0.0
  0
ENDSEC
  0
SECTION
  2
CLASSES
  0
CLASS
  1
ACDBDICTIONARYWDFLT
  2
AcDbDictionaryWithDefault
  3
ObjectDBX Classes
 90
        0
 91
        3
280
     0
281
     0
  0
CLASS
  1
ACDBPLACEHOLDER
  2
AcDbPlaceHolder
  3
ObjectDBX Classes
 90
        0
 91
        1
280
     0
281
     0
  0
CLASS
  1
LAYOUT
  2
AcDbLayout
  3
ObjectDBX Classes
 90
        0
 91
        1
280
     0
281
     0
  0
CLASS
  1
DICTIONARYVAR
  2
AcDbDictionaryVar
  3
ObjectDBX Classes
 90
        0
 91
        3
280
     0
281
     0
  0
CLASS
  1
SCALE
  2
AcDbScale
  3
ObjectDBX Classes
 90
     1153
 91
        3
280
     0
281
     0
  0
CLASS
  1
MATERIAL
  2
AcDbMaterial
  3
ObjectDBX Classes
 90
     1153
 91
        3
280
     0
281
     0
  0
CLASS
  1
VISUALSTYLE
  2
AcDbVisualStyle
  3
ObjectDBX Classes
 90
     4095
 91
        3
280
     0
281
     0
  0
CLASS
  1
TABLESTYLE
  2
AcDbTableStyle
  3
ObjectDBX Classes
 90
     4095
 91
        3
280
     0
281
     0
  0
CLASS
  1
RASTERVARIABLES
  2
AcDbRasterVariables
  3
ISM
 90
        0
 91
        3
280
     0
281
     0
  0
CLASS
  1
DIMASSOC
  2
AcDbDimAssoc
  3
"AcDbDimAssoc|Product Desc:     AcDim ARX App For Dimension|Company:          Autodesk, Inc.|WEB Address:      www.autodesk.com"
 90
        0
 91
        3
280
     0
281
     0
  0
CLASS
  1
MLEADERSTYLE
  2
AcDbMLeaderStyle
  3
ACDB_MLEADERSTYLE_CLASS
 90
     4095
 91
        3
280
     0
281
     0
  0
CLASS
  1
SUN
  2
AcDbSun
  3
SCENEOE
 90
     1153
 91
        3
280
     0
281
     0
  0
CLASS
  1
CELLSTYLEMAP
  2
AcDbCellStyleMap
  3
ObjectDBX Classes
 90
     1152
 91
        3
280
     0
281
     0
  0
CLASS
  1
SORTENTSTABLE
  2
AcDbSortentsTable
  3
ObjectDBX Classes
 90
        0
 91
        3
280
     0
281
     0
  0
ENDSEC
  0
SECTION
  2
TABLES
  0
TABLE
  2
VPORT
  5
8
330
0
100
AcDbSymbolTable
 70
     1
  0
VPORT
  5
934
330
8
100
AcDbSymbolTableRecord
100
AcDbViewportTableRecord
  2
*Active
 70
     0
 10
0.0
 20
0.0
 11
1.0
 21
1.0
 12
146.0
 22
102.5
 13
0.0
 23
0.0
 14
10.0
 24
10.0
 15
10.0
 25
10.0
 16
0.0
 26
0.0
 36
1.0
 17
0.0
 27
0.0
 37
0.0
 40
209.1
 41
1.737931034482759
 42
50.0
 43
0.0
 44
0.0
 50
0.0
 51
0.0
 71
    16
 72
   100
 73
     1
 74
     3
 75
     0
 76
     0
 77
     0
 78
     0
281
     0
 65
     1
110
0.0
120
0.0
130
0.0
111
1.0
121
0.0
131
0.0
112
0.0
122
1.0
132
0.0
 79
     0
146
0.0
348
39DA
 60
     3
 61
     5
292
     1
282
     1
141
0.0
142
0.0
 63
   256
361
39FD
  0
ENDTAB
  0
TABLE
  2
LTYPE
  5
5
330
0
100
AcDbSymbolTable
 70
     5
  0
LTYPE
  5
14
330
5
100
AcDbSymbolTableRecord
100
AcDbLinetypeTableRecord
  2
ByBlock
 70
     0
  3

 72
    65
 73
     0
 40
0.0
  0
LTYPE
  5
15
330
5
100
AcDbSymbolTableRecord
100
AcDbLinetypeTableRecord
  2
ByLayer
 70
     0
  3

 72
    65
 73
     0
 40
0.0
  0
LTYPE
  5
16
330
5
100
AcDbSymbolTableRecord
100
AcDbLinetypeTableRecord
  2
Continuous
 70
     0
  3
Solid line
 72
    65
 73
     0
 40
0.0
  0
LTYPE
  5
C6
330
5
100
AcDbSymbolTableRecord
100
AcDbLinetypeTableRecord
  2
ACAD_ISO02W100
 70
     0
  3
ISO dash __ __ __ __ __ __ __ __ __ __ __ __ __
 72
    65
 73
     2
 40
15.0
 49
12.0
 74
     0
 49
-3.0
 74
     0
  0
LTYPE
  5
63F
330
5
100
AcDbSymbolTableRecord
100
AcDbLinetypeTableRecord
  2
HIDDEN
 70
     0
  3
Hidden __ __ __ __ __ __ __ __ __ __ __ __ __ _
 72
    65
 73
     2
 40
4.5
 49
3.0
 74
     0
 49
-1.5
 74
     0
  0
LTYPE
  5
7A5
330
5
100
AcDbSymbolTableRecord
100
AcDbLinetypeTableRecord
  2
ACAD_ISO07W100
 70
     0
  3
ISO dot . . . . . . . . . . . . . . . . . . . .
 72
    65
 73
     2
 40
3.0
 49
0.0
 74
     0
 49
-3.0
 74
     0
  0
LTYPE
  5
A8D
330
5
100
AcDbSymbolTableRecord
100
AcDbLinetypeTableRecord
  2
CENTER2
 70
     0
  3
Center (.5x) ___ _ ___ _ ___ _ ___ _ ___ _ ___
 72
    65
 73
     4
 40
28.575
 49
19.05
 74
     0
 49
-3.175
 74
     0
 49
3.175
 74
     0
 49
-3.175
 74
     0
  0
ENDTAB
  0
TABLE
  2
LAYER
  5
2
102
{ACAD_XDICTIONARY
360
970
102
}
330
0
100
AcDbSymbolTable
 70
    18
  0
LAYER
  5
10
330
2
100
AcDbSymbolTableRecord
100
AcDbLayerTableRecord
  2
0
 70
     0
 62
     7
  6
Continuous
370
    -3
390
F
347
39F1
  0
LAYER
  5
110
330
2
100
AcDbSymbolTableRecord
100
AcDbLayerTableRecord
  2
Defpoints
 70
     0
 62
     7
  6
Continuous
290
     0
370
    -3
390
F
347
39F1
  0
LAYER
  5
4E7
330
2
100
AcDbSymbolTableRecord
100
AcDbLayerTableRecord
  2
100
 70
     0
 62
     7
  6
ACAD_ISO07W100
370
    -3
390
F
347
39F1
  0
LAYER
  5
68D
330
2
100
AcDbSymbolTableRecord
100
AcDbLayerTableRecord
  2
用紙範囲
 70
     0
 62
    10
  6
Continuous
370
    -3
390
F
347
39F1
  0
LAYER
  5
68E
330
2
100
AcDbSymbolTableRecord
100
AcDbLayerTableRecord
  2
枠
 70
     0
 62
   112
  6
Continuous
370
    -3
390
F
347
39F1
  0
LAYER
  5
68F
330
2
100
AcDbSymbolTableRecord
100
AcDbLayerTableRecord
  2
寸法
 70
     0
 62
    90
  6
Continuous
370
    -3
390
F
347
39F1
  0
LAYER
  5
690
330
2
100
AcDbSymbolTableRecord
100
AcDbLayerTableRecord
  2
金属部分
 70
     0
 62
   170
  6
Continuous
370
    -3
390
F
347
39F1
  0
LAYER
  5
691
330
2
100
AcDbSymbolTableRecord
100
AcDbLayerTableRecord
  2
品番
 70
     0
 62
   244
  6
Continuous
370
    -3
390
F
347
39F1
  0
LAYER
  5
786
330
2
100
AcDbSymbolTableRecord
100
AcDbLayerTableRecord
  2
文字
 70
     0
 62
    40
  6
Continuous
370
    -3
390
F
347
39F1
  0
LAYER
  5
790
330
2
100
AcDbSymbolTableRecord
100
AcDbLayerTableRecord
  2
社名
 70
     0
 62
     1
  6
Continuous
370
    -3
390
F
347
39F1
  0
LAYER
  5
880
330
2
100
AcDbSymbolTableRecord
100
AcDbLayerTableRecord
  2
軟質樹脂部分
 70
     0
 62
    30
  6
Continuous
370
    -3
390
F
347
39F1
  0
LAYER
  5
896
330
2
100
AcDbSymbolTableRecord
100
AcDbLayerTableRecord
  2
TOS_M1
 70
     0
 62
     7
  6
Continuous
370
    -3
390
F
347
39F1
  0
LAYER
  5
897
330
2
100
AcDbSymbolTableRecord
100
AcDbLayerTableRecord
  2
TOS_S1
 70
     0
 62
     4
  6
Continuous
370
    -3
390
F
347
39F1
  0
LAYER
  5
A57
330
2
100
AcDbSymbolTableRecord
100
AcDbLayerTableRecord
  2
補助
 70
     0
 62
     7
  6
HIDDEN
370
    -3
390
F
347
39F1
1001
AcAecLayerStandard
1000

1000

  0
LAYER
  5
A86
102
{ACAD_XDICTIONARY
360
A87
102
}
330
2
100
AcDbSymbolTableRecord
100
AcDbLayerTableRecord
  2
SCALE
 70
     0
 62
     3
  6
Continuous
370
    -3
390
F
347
39F1
  0
LAYER
  5
A8A
102
{ACAD_XDICTIONARY
360
A8B
102
}
330
2
100
AcDbSymbolTableRecord
100
AcDbLayerTableRecord
  2
Hojo
 70
     0
 62
   111
  6
Continuous
370
    -3
390
F
347
39F1
  0
LAYER
  5
2076
330
2
100
AcDbSymbolTableRecord
100
AcDbLayerTableRecord
  2
硬質樹脂部分
 70
     0
 62
   220
  6
Continuous
370
    -3
390
F
347
39F1
1001
AcAecLayerStandard
1000

1000

  0
LAYER
  5
34A4
330
2
100
AcDbSymbolTableRecord
100
AcDbLayerTableRecord
  2
両面テープ
 70
     0
 62
     7
  6
Continuous
370
    -3
390
F
347
39F1
1001
AcAecLayerStandard
1000

1000

  0
ENDTAB
  0
TABLE
  2
STYLE
  5
3
330
0
100
AcDbSymbolTable
 70
     2
  0
STYLE
  5
11
330
3
100
AcDbSymbolTableRecord
100
AcDbTextStyleTableRecord
  2
Standard
 70
     0
 40
0.0
 41
1.0
 50
0.0
 71
     0
 42
2.5
  3
txt.shx
  4
bigfont.shx
  0
STYLE
  5
C5
330
3
100
AcDbSymbolTableRecord
100
AcDbTextStyleTableRecord
  2

 70
     1
 40
0.0
 41
1.0
 50
0.0
 71
     0
 42
2.5
  3
ltypeshp.shx
  4

  0
ENDTAB
  0
TABLE
  2
VIEW
  5
6
330
0
100
AcDbSymbolTable
 70
     0
  0
ENDTAB
  0
TABLE
  2
UCS
  5
7
330
0
100
AcDbSymbolTable
 70
     0
  0
ENDTAB
  0
TABLE
  2
APPID
  5
9
330
0
100
AcDbSymbolTable
 70
     6
  0
APPID
  5
12
330
9
100
AcDbSymbolTableRecord
100
AcDbRegAppTableRecord
  2
ACAD
 70
     0
  0
APPID
  5
A58
330
9
100
AcDbSymbolTableRecord
100
AcDbRegAppTableRecord
  2
AcAecLayerStandard
 70
     0
  0
APPID
  5
A97
330
9
100
AcDbSymbolTableRecord
100
AcDbRegAppTableRecord
  2
ACAD_NAV_VCDISPLAY
 70
     0
  0
APPID
  5
A98
330
9
100
AcDbSymbolTableRecord
100
AcDbRegAppTableRecord
  2
ACAD_PSEXT
 70
     0
  0
APPID
  5
B15
330
9
100
AcDbSymbolTableRecord
100
AcDbRegAppTableRecord
  2
ACAD_DSTYLE_DIMRADIAL_EXTENSION
 70
     0
  0
APPID
  5
3A8A
330
9
100
AcDbSymbolTableRecord
100
AcDbRegAppTableRecord
  2
PLOTTRANSPARENCY
 70
     0
  0
ENDTAB
  0
TABLE
  2
DIMSTYLE
  5
A
330
0
100
AcDbSymbolTable
 70
     4
100
AcDbDimStyleTable
  0
DIMSTYLE
105
27
102
{ACAD_REACTORS
330
2E4B
330
2E5B
330
2E6B
330
2E9B
330
383D
330
3A67
330
3ABB
330
3AD1
330
3AD6
102
}
330
A
100
AcDbSymbolTableRecord
100
AcDbDimStyleTableRecord
  2
ISO-25
 70
     0
 41
1.5
 42
0.625
 43
3.75
 44
1.25
 77
     1
 78
     8
140
2.0
141
2.5
143
0.03937007874016
147
0.625
171
     3
178
     0
271
     2
272
     2
274
     3
279
     2
283
     0
284
     8
288
     1
340
11
  0
DIMSTYLE
105
4E8
330
A
100
AcDbSymbolTableRecord
100
AcDbDimStyleTableRecord
  2
Standard
 70
     0
178
     0
340
11
  0
DIMSTYLE
105
14C6
330
A
100
AcDbSymbolTableRecord
100
AcDbDimStyleTableRecord
  2
ISO-1
 70
     0
 41
2.5
 42
0.625
 43
3.75
 44
1.25
 77
     1
 78
     8
140
5.0
141
0.0
143
0.03937007874016
144
0.5
147
0.625
171
     3
178
     0
271
     2
272
     2
274
     3
279
     2
283
     0
284
     8
288
     1
340
11
  0
DIMSTYLE
105
2BCC
330
A
100
AcDbSymbolTableRecord
100
AcDbDimStyleTableRecord
  2
ISO-2
 70
     0
 41
2.5
 42
0.625
 43
3.75
 44
1.25
 77
     1
 78
     8
140
5.0
141
0.0
143
0.03937007874016
144
0.2
147
0.625
171
     3
178
     0
271
     2
272
     2
274
     3
279
     2
283
     0
284
     8
288
     1
340
11
  0
ENDTAB
  0
TABLE
  2
BLOCK_RECORD
  5
1
330
0
100
AcDbSymbolTable
 70
    46
  0
BLOCK_RECORD
  5
1F
330
1
100
AcDbSymbolTableRecord
100
AcDbBlockTableRecord
  2
*Model_Space
340
22
 70
     0
280
     1
281
     0
  0
BLOCK_RECORD
  5
1B
330
1
100
AcDbSymbolTableRecord
100
AcDbBlockTableRecord
  2
*Paper_Space
340
1E
 70
     0
280
     1
281
     0
  0
BLOCK_RECORD
  5
23
330
1
100
AcDbSymbolTableRecord
100
AcDbBlockTableRecord
  2
*Paper_Space0
340
26
 70
     0
280
     1
281
     0
  0
BLOCK_RECORD
  5
A91
330
1
100
AcDbSymbolTableRecord
100
AcDbBlockTableRecord
  2
_OPEN
340
0
 70
     0
280
     1
281
     0
  0
BLOCK_RECORD
  5
2D6A
330
1
100
AcDbSymbolTableRecord
100
AcDbBlockTableRecord
  2
*D2
340
0
 70
     0
280
     1
281
     0
  0
BLOCK_RECORD
  5
2D7A
330
1
100
AcDbSymbolTableRecord
100
AcDbBlockTableRecord
  2
*D3
340
0
 70
     0
280
     1
281
     0
  0
BLOCK_RECORD
  5
2D8E
330
1
100
AcDbSymbolTableRecord
100
AcDbBlockTableRecord
  2
*D4
340
0
 70
     0
280
     1
281
     0
  0
BLOCK_RECORD
  5
2D9C
330
1
100
AcDbSymbolTableRecord
100
AcDbBlockTableRecord
  2
*D5
340
0
 70
     0
280
     1
281
     0
  0
BLOCK_RECORD
  5
2DAA
330
1
100
AcDbSymbolTableRecord
100
AcDbBlockTableRecord
  2
*D6
340
0
 70
     0
280
     1
281
     0
  0
BLOCK_RECORD
  5
2DB8
330
1
100
AcDbSymbolTableRecord
100
AcDbBlockTableRecord
  2
*D7
340
0
 70
     0
280
     1
281
     0
  0
BLOCK_RECORD
  5
2DC6
330
1
100
AcDbSymbolTableRecord
100
AcDbBlockTableRecord
  2
*D8
340
0
 70
     0
280
     1
281
     0
  0
BLOCK_RECORD
  5
2DD4
330
1
100
AcDbSymbolTableRecord
100
AcDbBlockTableRecord
  2
*D9
340
0
 70
     0
280
     1
281
     0
  0
BLOCK_RECORD
  5
2DE2
330
1
100
AcDbSymbolTableRecord
100
AcDbBlockTableRecord
  2
*D10
340
0
 70
     0
280
     1
281
     0
  0
BLOCK_RECORD
  5
2DF0
330
1
100
AcDbSymbolTableRecord
100
AcDbBlockTableRecord
  2
*D11
340
0
 70
     0
280
     1
281
     0
  0
BLOCK_RECORD
  5
2DFE
330
1
100
AcDbSymbolTableRecord
100
AcDbBlockTableRecord
  2
*D12
340
0
 70
     0
280
     1
281
     0
  0
BLOCK_RECORD
  5
2E0E
330
1
100
AcDbSymbolTableRecord
100
AcDbBlockTableRecord
  2
*D13
340
0
 70
     0
280
     1
281
     0
  0
BLOCK_RECORD
  5
2E4E
330
1
100
AcDbSymbolTableRecord
100
AcDbBlockTableRecord
  2
*D14
340
0
 70
     0
280
     1
281
     0
  0
BLOCK_RECORD
  5
2E5E
330
1
100
AcDbSymbolTableRecord
100
AcDbBlockTableRecord
  2
*D15
340
0
 70
     0
280
     1
281
     0
  0
BLOCK_RECORD
  5
2E6E
330
1
100
AcDbSymbolTableRecord
100
AcDbBlockTableRecord
  2
*D16
340
0
 70
     0
280
     1
281
     0
  0
BLOCK_RECORD
  5
2E7E
330
1
100
AcDbSymbolTableRecord
100
AcDbBlockTableRecord
  2
*D17
340
0
 70
     0
280
     1
281
     0
  0
BLOCK_RECORD
  5
2E8E
330
1
100
AcDbSymbolTableRecord
100
AcDbBlockTableRecord
  2
*D18
340
0
 70
     0
280
     1
281
     0
  0
BLOCK_RECORD
  5
2E9E
330
1
100
AcDbSymbolTableRecord
100
AcDbBlockTableRecord
  2
*D19
340
0
 70
     0
280
     1
281
     0
  0
BLOCK_RECORD
  5
2EAD
330
1
100
AcDbSymbolTableRecord
100
AcDbBlockTableRecord
  2
*D20
340
0
 70
     0
280
     1
281
     0
  0
BLOCK_RECORD
  5
2ECE
330
1
100
AcDbSymbolTableRecord
100
AcDbBlockTableRecord
  2
*D21
340
0
 70
     0
280
     1
281
     0
  0
BLOCK_RECORD
  5
2EDE
330
1
100
AcDbSymbolTableRecord
100
AcDbBlockTableRecord
  2
*D22
340
0
 70
     0
280
     1
281
     0
  0
BLOCK_RECORD
  5
2EEE
330
1
100
AcDbSymbolTableRecord
100
AcDbBlockTableRecord
  2
*D23
340
0
 70
     0
280
     1
281
     0
  0
BLOCK_RECORD
  5
2F1D
330
1
100
AcDbSymbolTableRecord
100
AcDbBlockTableRecord
  2
*D24
340
0
 70
     0
280
     1
281
     0
  0
BLOCK_RECORD
  5
3516
330
1
100
AcDbSymbolTableRecord
100
AcDbBlockTableRecord
  2
*D25
340
0
 70
     0
280
     1
281
     0
  0
BLOCK_RECORD
  5
3530
330
1
100
AcDbSymbolTableRecord
100
AcDbBlockTableRecord
  2
*D26
340
0
 70
     0
280
     1
281
     0
  0
BLOCK_RECORD
  5
354A
330
1
100
AcDbSymbolTableRecord
100
AcDbBlockTableRecord
  2
*D27
340
0
 70
     0
280
     1
281
     0
  0
BLOCK_RECORD
  5
3557
330
1
100
AcDbSymbolTableRecord
100
AcDbBlockTableRecord
  2
*D28
340
0
 70
     0
280
     1
281
     0
  0
BLOCK_RECORD
  5
3564
330
1
100
AcDbSymbolTableRecord
100
AcDbBlockTableRecord
  2
*D29
340
0
 70
     0
280
     1
281
     0
  0
BLOCK_RECORD
  5
3571
330
1
100
AcDbSymbolTableRecord
100
AcDbBlockTableRecord
  2
*D30
340
0
 70
     0
280
     1
281
     0
  0
BLOCK_RECORD
  5
36B6
330
1
100
AcDbSymbolTableRecord
100
AcDbBlockTableRecord
  2
*D31
340
0
 70
     0
280
     1
281
     0
  0
BLOCK_RECORD
  5
36D0
330
1
100
AcDbSymbolTableRecord
100
AcDbBlockTableRecord
  2
*D32
340
0
 70
     0
280
     1
281
     0
  0
BLOCK_RECORD
  5
371A
330
1
100
AcDbSymbolTableRecord
100
AcDbBlockTableRecord
  2
*D33
340
0
 70
     0
280
     1
281
     0
  0
BLOCK_RECORD
  5
3773
330
1
100
AcDbSymbolTableRecord
100
AcDbBlockTableRecord
  2
*D34
340
0
 70
     0
280
     1
281
     0
  0
BLOCK_RECORD
  5
379C
330
1
100
AcDbSymbolTableRecord
100
AcDbBlockTableRecord
  2
*D35
340
0
 70
     0
280
     1
281
     0
  0
BLOCK_RECORD
  5
37EF
330
1
100
AcDbSymbolTableRecord
100
AcDbBlockTableRecord
  2
*D36
340
0
 70
     0
280
     1
281
     0
  0
BLOCK_RECORD
  5
381F
330
1
100
AcDbSymbolTableRecord
100
AcDbBlockTableRecord
  2
*D37
340
0
 70
     0
280
     1
281
     0
  0
BLOCK_RECORD
  5
382F
330
1
100
AcDbSymbolTableRecord
100
AcDbBlockTableRecord
  2
*D38
340
0
 70
     0
280
     1
281
     0
  0
BLOCK_RECORD
  5
3840
330
1
100
AcDbSymbolTableRecord
100
AcDbBlockTableRecord
  2
*D39
340
0
 70
     0
280
     1
281
     0
  0
BLOCK_RECORD
  5
3971
330
1
100
AcDbSymbolTableRecord
100
AcDbBlockTableRecord
  2
*D40
340
0
 70
     0
280
     1
281
     0
  0
BLOCK_RECORD
  5
3981
330
1
100
AcDbSymbolTableRecord
100
AcDbBlockTableRecord
  2
*D41
340
0
 70
     0
280
     1
281
     0
  0
BLOCK_RECORD
  5
3991
330
1
100
AcDbSymbolTableRecord
100
AcDbBlockTableRecord
  2
*D42
340
0
 70
     0
280
     1
281
     0
  0
BLOCK_RECORD
  5
39A1
330
1
100
AcDbSymbolTableRecord
100
AcDbBlockTableRecord
  2
*D43
340
0
 70
     0
280
     1
281
     0
  0
BLOCK_RECORD
  5
39B5
330
1
100
AcDbSymbolTableRecord
100
AcDbBlockTableRecord
  2
*D44
340
0
 70
     0
280
     1
281
     0
  0
BLOCK_RECORD
  5
3AD9
330
1
100
AcDbSymbolTableRecord
100
AcDbBlockTableRecord
  2
*D45
340
0
 70
     0
280
     1
281
     0
  0
ENDTAB
  0
ENDSEC
  0
SECTION
  2
BLOCKS
  0
BLOCK
  5
20
330
1F
100
AcDbEntity
  8
0
100
AcDbBlockBegin
  2
*Model_Space
 70
     0
 10
0.0
 20
0.0
 30
0.0
  3
*Model_Space
  1
*Model_Space
  0
ENDBLK
  5
21
330
1F
100
AcDbEntity
  8
0
100
AcDbBlockEnd
  0
BLOCK
  5
1C
330
1B
100
AcDbEntity
 67
     1
  8
0
100
AcDbBlockBegin
  2
*Paper_Space
 70
     0
 10
0.0
 20
0.0
 30
0.0
  3
*Paper_Space
  1
*Paper_Space
  0
ENDBLK
  5
1D
330
1B
100
AcDbEntity
 67
     1
  8
0
100
AcDbBlockEnd
  0
BLOCK
  5
24
330
23
100
AcDbEntity
  8
0
100
AcDbBlockBegin
  2
*Paper_Space0
 70
     0
 10
0.0
 20
0.0
 30
0.0
  3
*Paper_Space0
  1
*Paper_Space0
  0
ENDBLK
  5
25
330
23
100
AcDbEntity
  8
0
100
AcDbBlockEnd
  0
BLOCK
  5
A92
330
A91
100
AcDbEntity
  8
0
100
AcDbBlockBegin
  2
_OPEN
 70
     0
 10
0.0
 20
0.0
 30
0.0
  3
_OPEN
  1
_OPEN
  0
LINE
  5
A93
330
A91
100
AcDbEntity
  8
0
  6
ByBlock
 62
     0
100
AcDbLine
 10
-1.0
 20
0.1666666666666667
 30
0.0
 11
0.0
 21
0.0
 31
0.0
  0
LINE
  5
A94
330
A91
100
AcDbEntity
  8
0
  6
ByBlock
 62
     0
100
AcDbLine
 10
0.0
 20
0.0
 30
0.0
 11
-1.0
 21
-0.1666666666666667
 31
0.0
  0
LINE
  5
A95
330
A91
100
AcDbEntity
  8
0
  6
ByBlock
 62
     0
100
AcDbLine
 10
0.0
 20
0.0
 30
0.0
 11
-1.0
 21
0.0
 31
0.0
  0
ENDBLK
  5
A96
330
A91
100
AcDbEntity
  8
0
100
AcDbBlockEnd
  0
BLOCK
  5
2D6B
330
2D6A
100
AcDbEntity
  8
0
100
AcDbBlockBegin
  2
*D2
 70
     1
 10
0.0
 20
0.0
 30
0.0
  3
*D2
  1
*D269
  0
LINE
  5
2D6D
330
2D6A
100
AcDbEntity
  8
寸法
  6
Continuous
 62
     0
370
    -2
100
AcDbLine
 10
118.2513344569852
 20
135.0994429882005
 30
0.0
 11
106.4082212386542
 21
135.0994429882005
 31
0.0
  0
LINE
  5
2D6E
330
2D6A
100
AcDbEntity
  8
寸法
  6
Continuous
 62
     0
370
    -2
100
AcDbLine
 10
116.2513344569852
 20
133.5994429882005
 30
0.0
 11
106.4082212386542
 21
133.5994429882005
 31
0.0
  0
LINE
  5
2D6F
330
2D6A
100
AcDbEntity
  8
寸法
  6
Continuous
 62
     0
370
    -2
100
AcDbLine
 10
107.6582212386542
 20
136.5994429882005
 30
0.0
 11
107.6582212386542
 21
138.0994429882005
 31
0.0
  0
LINE
  5
2D70
330
2D6A
100
AcDbEntity
  8
寸法
  6
Continuous
 62
     0
370
    -2
100
AcDbLine
 10
107.6582212386542
 20
132.0994429882005
 30
0.0
 11
107.6582212386542
 21
130.5994429882005
 31
0.0
  0
SOLID
  5
2D71
330
2D6A
100
AcDbEntity
  8
寸法
 62
     0
100
AcDbTrace
 10
107.4082212386542
 20
136.5994429882005
 30
0.0
 11
107.9082212386542
 21
136.5994429882005
 31
0.0
 12
107.6582212386542
 22
135.0994429882005
 32
0.0
 13
107.6582212386542
 23
135.0994429882005
 33
0.0
  0
SOLID
  5
2D72
330
2D6A
100
AcDbEntity
  8
寸法
 62
     0
100
AcDbTrace
 10
107.9082212386542
 20
132.0994429882005
 30
0.0
 11
107.4082212386542
 21
132.0994429882005
 31
0.0
 12
107.6582212386542
 22
133.5994429882005
 32
0.0
 13
107.6582212386542
 23
133.5994429882005
 33
0.0
  0
MTEXT
  5
2D73
330
2D6A
100
AcDbEntity
  8
寸法
  6
Continuous
 62
     0
100
AcDbMText
 10
103.5136117771859
 20
135.1060617375448
 30
0.0
 40
2.0
 41
0.0
 46
0.0
 71
     5
 72
     1
  1
1.5
 73
     1
 44
1.0
  0
POINT
  5
2D74
330
2D6A
100
AcDbEntity
  8
Defpoints
 62
     0
100
AcDbPoint
 10
118.8763344569852
 20
135.0994429882005
 30
0.0
  0
POINT
  5
2D75
330
2D6A
100
AcDbEntity
  8
Defpoints
 62
     0
100
AcDbPoint
 10
116.8763344569852
 20
133.5994429882005
 30
0.0
  0
POINT
  5
2D76
330
2D6A
100
AcDbEntity
  8
Defpoints
 62
     0
100
AcDbPoint
 10
107.6582212386542
 20
133.5994429882005
 30
0.0
  0
ENDBLK
  5
2D6C
330
2D6A
100
AcDbEntity
  8
0
100
AcDbBlockEnd
  0
BLOCK
  5
2D7B
330
2D7A
100
AcDbEntity
  8
0
100
AcDbBlockBegin
  2
*D3
 70
     1
 10
0.0
 20
0.0
 30
0.0
  3
*D3
  1
*D270
  0
LINE
  5
2D7D
330
2D7A
100
AcDbEntity
  8
寸法
  6
Continuous
 62
     0
370
    -2
100
AcDbLine
 10
116.8763344569852
 20
134.2244429882005
 30
0.0
 11
116.8763344569852
 21
143.9142307601851
 31
0.0
  0
LINE
  5
2D7E
330
2D7A
100
AcDbEntity
  8
寸法
  6
Continuous
 62
     0
370
    -2
100
AcDbLine
 10
118.8763344569852
 20
134.5929519794256
 30
0.0
 11
118.8763344569852
 21
143.9142307601851
 31
0.0
  0
LINE
  5
2D7F
330
2D7A
100
AcDbEntity
  8
寸法
  6
Continuous
 62
     0
370
    -2
100
AcDbLine
 10
115.3763344569852
 20
142.6642307601851
 30
0.0
 11
113.8763344569852
 21
142.6642307601851
 31
0.0
  0
LINE
  5
2D80
330
2D7A
100
AcDbEntity
  8
寸法
  6
Continuous
 62
     0
370
    -2
100
AcDbLine
 10
120.3763344569852
 20
142.6642307601851
 30
0.0
 11
121.8763344569852
 21
142.6642307601851
 31
0.0
  0
SOLID
  5
2D81
330
2D7A
100
AcDbEntity
  8
寸法
 62
     0
100
AcDbTrace
 10
115.3763344569852
 20
142.4142307601851
 30
0.0
 11
115.3763344569852
 21
142.9142307601851
 31
0.0
 12
116.8763344569852
 22
142.6642307601851
 32
0.0
 13
116.8763344569852
 23
142.6642307601851
 33
0.0
  0
SOLID
  5
2D82
330
2D7A
100
AcDbEntity
  8
寸法
 62
     0
100
AcDbTrace
 10
120.3763344569852
 20
142.9142307601851
 30
0.0
 11
120.3763344569852
 21
142.4142307601851
 31
0.0
 12
118.8763344569852
 22
142.6642307601851
 32
0.0
 13
118.8763344569852
 23
142.6642307601851
 33
0.0
  0
MTEXT
  5
2D83
330
2D7A
100
AcDbEntity
  8
寸法
  6
Continuous
 62
     0
100
AcDbMText
 10
117.802029544126
 20
145.3779631456703
 30
0.0
 40
2.0
 41
0.0
 46
0.0
 71
     5
 72
     1
  1
2
 73
     1
 44
1.0
  0
POINT
  5
2D84
330
2D7A
100
AcDbEntity
  8
Defpoints
 62
     0
100
AcDbPoint
 10
116.8763344569852
 20
133.5994429882005
 30
0.0
  0
POINT
  5
2D85
330
2D7A
100
AcDbEntity
  8
Defpoints
 62
     0
100
AcDbPoint
 10
118.8763344569852
 20
133.9679519794256
 30
0.0
  0
POINT
  5
2D86
330
2D7A
100
AcDbEntity
  8
Defpoints
 62
     0
100
AcDbPoint
 10
118.8763344569852
 20
142.6642307601851
 30
0.0
  0
ENDBLK
  5
2D7C
330
2D7A
100
AcDbEntity
  8
0
100
AcDbBlockEnd
  0
BLOCK
  5
2D8F
330
2D8E
100
AcDbEntity
  8
0
100
AcDbBlockBegin
  2
*D4
 70
     1
 10
0.0
 20
0.0
 30
0.0
  3
*D4
  1
*D271
  0
LINE
  5
2D91
330
2D8E
100
AcDbEntity
  8
寸法
  6
Continuous
 62
     0
370
    -2
100
AcDbLine
 10
118.8763344569852
 20
134.5929519794256
 30
0.0
 11
118.8763344569852
 21
143.9142307601851
 31
0.0
  0
LINE
  5
2D92
330
2D8E
100
AcDbEntity
  8
寸法
  6
Continuous
 62
     0
370
    -2
100
AcDbLine
 10
121.8763344569852
 20
135.7244429882005
 30
0.0
 11
121.8763344569852
 21
143.9142307601851
 31
0.0
  0
LINE
  5
2D93
330
2D8E
100
AcDbEntity
  8
寸法
  6
Continuous
 62
     0
370
    -2
100
AcDbLine
 10
117.3763344569852
 20
142.6642307601851
 30
0.0
 11
115.8763344569852
 21
142.6642307601851
 31
0.0
  0
LINE
  5
2D94
330
2D8E
100
AcDbEntity
  8
寸法
  6
Continuous
 62
     0
370
    -2
100
AcDbLine
 10
123.3763344569852
 20
142.6642307601851
 30
0.0
 11
124.8763344569852
 21
142.6642307601851
 31
0.0
  0
SOLID
  5
2D95
330
2D8E
100
AcDbEntity
  8
寸法
 62
     0
100
AcDbTrace
 10
117.3763344569852
 20
142.4142307601851
 30
0.0
 11
117.3763344569852
 21
142.9142307601851
 31
0.0
 12
118.8763344569852
 22
142.6642307601851
 32
0.0
 13
118.8763344569852
 23
142.6642307601851
 33
0.0
  0
SOLID
  5
2D96
330
2D8E
100
AcDbEntity
  8
寸法
 62
     0
100
AcDbTrace
 10
123.3763344569852
 20
142.9142307601851
 30
0.0
 11
123.3763344569852
 21
142.4142307601851
 31
0.0
 12
121.8763344569852
 22
142.6642307601851
 32
0.0
 13
121.8763344569852
 23
142.6642307601851
 33
0.0
  0
MTEXT
  5
2D97
330
2D8E
100
AcDbEntity
  8
寸法
  6
Continuous
 62
     0
100
AcDbMText
 10
120.3763344569852
 20
145.3310895862847
 30
0.0
 40
2.0
 41
0.0
 46
0.0
 71
     5
 72
     1
  1
3
 73
     1
 44
1.0
  0
POINT
  5
2D98
330
2D8E
100
AcDbEntity
  8
Defpoints
 62
     0
100
AcDbPoint
 10
118.8763344569852
 20
133.9679519794256
 30
0.0
  0
POINT
  5
2D99
330
2D8E
100
AcDbEntity
  8
Defpoints
 62
     0
100
AcDbPoint
 10
121.8763344569852
 20
135.0994429882005
 30
0.0
  0
POINT
  5
2D9A
330
2D8E
100
AcDbEntity
  8
Defpoints
 62
     0
100
AcDbPoint
 10
121.8763344569852
 20
142.6642307601851
 30
0.0
  0
ENDBLK
  5
2D90
330
2D8E
100
AcDbEntity
  8
0
100
AcDbBlockEnd
  0
BLOCK
  5
2D9D
330
2D9C
100
AcDbEntity
  8
0
100
AcDbBlockBegin
  2
*D5
 70
     1
 10
0.0
 20
0.0
 30
0.0
  3
*D5
  1
*D272
  0
LINE
  5
2D9F
330
2D9C
100
AcDbEntity
  8
寸法
  6
Continuous
 62
     0
370
    -2
100
AcDbLine
 10
121.8763344569852
 20
135.7244429882005
 30
0.0
 11
121.8763344569852
 21
143.9142307601851
 31
0.0
  0
LINE
  5
2DA0
330
2D9C
100
AcDbEntity
  8
寸法
  6
Continuous
 62
     0
370
    -2
100
AcDbLine
 10
123.8763344569852
 20
135.7244429882005
 30
0.0
 11
123.8763344569852
 21
143.9142307601851
 31
0.0
  0
LINE
  5
2DA1
330
2D9C
100
AcDbEntity
  8
寸法
  6
Continuous
 62
     0
370
    -2
100
AcDbLine
 10
120.3763344569852
 20
142.6642307601851
 30
0.0
 11
118.8763344569852
 21
142.6642307601851
 31
0.0
  0
LINE
  5
2DA2
330
2D9C
100
AcDbEntity
  8
寸法
  6
Continuous
 62
     0
370
    -2
100
AcDbLine
 10
125.3763344569852
 20
142.6642307601851
 30
0.0
 11
126.8763344569852
 21
142.6642307601851
 31
0.0
  0
SOLID
  5
2DA3
330
2D9C
100
AcDbEntity
  8
寸法
 62
     0
100
AcDbTrace
 10
120.3763344569852
 20
142.4142307601851
 30
0.0
 11
120.3763344569852
 21
142.9142307601851
 31
0.0
 12
121.8763344569852
 22
142.6642307601851
 32
0.0
 13
121.8763344569852
 23
142.6642307601851
 33
0.0
  0
SOLID
  5
2DA4
330
2D9C
100
AcDbEntity
  8
寸法
 62
     0
100
AcDbTrace
 10
125.3763344569852
 20
142.9142307601851
 30
0.0
 11
125.3763344569852
 21
142.4142307601851
 31
0.0
 12
123.8763344569852
 22
142.6642307601851
 32
0.0
 13
123.8763344569852
 23
142.6642307601851
 33
0.0
  0
MTEXT
  5
2DA5
330
2D9C
100
AcDbEntity
  8
寸法
  6
Continuous
 62
     0
100
AcDbMText
 10
122.8763344569852
 20
145.4100345284079
 30
0.0
 40
2.0
 41
0.0
 46
0.0
 71
     5
 72
     1
  1
2
 73
     1
 44
1.0
  0
POINT
  5
2DA6
330
2D9C
100
AcDbEntity
  8
Defpoints
 62
     0
100
AcDbPoint
 10
121.8763344569852
 20
135.0994429882005
 30
0.0
  0
POINT
  5
2DA7
330
2D9C
100
AcDbEntity
  8
Defpoints
 62
     0
100
AcDbPoint
 10
123.8763344569852
 20
135.0994429882005
 30
0.0
  0
POINT
  5
2DA8
330
2D9C
100
AcDbEntity
  8
Defpoints
 62
     0
100
AcDbPoint
 10
123.8763344569852
 20
142.6642307601851
 30
0.0
  0
ENDBLK
  5
2D9E
330
2D9C
100
AcDbEntity
  8
0
100
AcDbBlockEnd
  0
BLOCK
  5
2DAB
330
2DAA
100
AcDbEntity
  8
0
100
AcDbBlockBegin
  2
*D6
 70
     1
 10
0.0
 20
0.0
 30
0.0
  3
*D6
  1
*D273
  0
LINE
  5
2DAD
330
2DAA
100
AcDbEntity
  8
寸法
  6
Continuous
 62
     0
370
    -2
100
AcDbLine
 10
123.8763344569852
 20
135.7244429882005
 30
0.0
 11
123.8763344569852
 21
143.9142307601851
 31
0.0
  0
LINE
  5
2DAE
330
2DAA
100
AcDbEntity
  8
寸法
  6
Continuous
 62
     0
370
    -2
100
AcDbLine
 10
126.8763344569852
 20
135.7244429882005
 30
0.0
 11
126.8763344569852
 21
143.9142307601851
 31
0.0
  0
LINE
  5
2DAF
330
2DAA
100
AcDbEntity
  8
寸法
  6
Continuous
 62
     0
370
    -2
100
AcDbLine
 10
122.3763344569852
 20
142.6642307601851
 30
0.0
 11
120.8763344569852
 21
142.6642307601851
 31
0.0
  0
LINE
  5
2DB0
330
2DAA
100
AcDbEntity
  8
寸法
  6
Continuous
 62
     0
370
    -2
100
AcDbLine
 10
128.3763344569852
 20
142.6642307601851
 30
0.0
 11
129.8763344569852
 21
142.6642307601851
 31
0.0
  0
SOLID
  5
2DB1
330
2DAA
100
AcDbEntity
  8
寸法
 62
     0
100
AcDbTrace
 10
122.3763344569852
 20
142.4142307601851
 30
0.0
 11
122.3763344569852
 21
142.9142307601851
 31
0.0
 12
123.8763344569852
 22
142.6642307601851
 32
0.0
 13
123.8763344569852
 23
142.6642307601851
 33
0.0
  0
SOLID
  5
2DB2
330
2DAA
100
AcDbEntity
  8
寸法
 62
     0
100
AcDbTrace
 10
128.3763344569852
 20
142.9142307601851
 30
0.0
 11
128.3763344569852
 21
142.4142307601851
 31
0.0
 12
126.8763344569852
 22
142.6642307601851
 32
0.0
 13
126.8763344569852
 23
142.6642307601851
 33
0.0
  0
MTEXT
  5
2DB3
330
2DAA
100
AcDbEntity
  8
寸法
  6
Continuous
 62
     0
100
AcDbMText
 10
125.3763344569852
 20
145.4100345284079
 30
0.0
 40
2.0
 41
0.0
 46
0.0
 71
     5
 72
     1
  1
3
 73
     1
 44
1.0
  0
POINT
  5
2DB4
330
2DAA
100
AcDbEntity
  8
Defpoints
 62
     0
100
AcDbPoint
 10
123.8763344569852
 20
135.0994429882005
 30
0.0
  0
POINT
  5
2DB5
330
2DAA
100
AcDbEntity
  8
Defpoints
 62
     0
100
AcDbPoint
 10
126.8763344569852
 20
135.0994429882005
 30
0.0
  0
POINT
  5
2DB6
330
2DAA
100
AcDbEntity
  8
Defpoints
 62
     0
100
AcDbPoint
 10
126.8763344569852
 20
142.6642307601851
 30
0.0
  0
ENDBLK
  5
2DAC
330
2DAA
100
AcDbEntity
  8
0
100
AcDbBlockEnd
  0
BLOCK
  5
2DB9
330
2DB8
100
AcDbEntity
  8
0
100
AcDbBlockBegin
  2
*D7
 70
     1
 10
0.0
 20
0.0
 30
0.0
  3
*D7
  1
*D274
  0
LINE
  5
2DBB
330
2DB8
100
AcDbEntity
  8
寸法
  6
Continuous
 62
     0
370
    -2
100
AcDbLine
 10
126.8763344569852
 20
135.7244429882005
 30
0.0
 11
126.8763344569852
 21
143.9142307601851
 31
0.0
  0
LINE
  5
2DBC
330
2DB8
100
AcDbEntity
  8
寸法
  6
Continuous
 62
     0
370
    -2
100
AcDbLine
 10
128.8763344569852
 20
135.7244429882005
 30
0.0
 11
128.8763344569852
 21
143.9142307601851
 31
0.0
  0
LINE
  5
2DBD
330
2DB8
100
AcDbEntity
  8
寸法
  6
Continuous
 62
     0
370
    -2
100
AcDbLine
 10
125.3763344569852
 20
142.6642307601851
 30
0.0
 11
123.8763344569852
 21
142.6642307601851
 31
0.0
  0
LINE
  5
2DBE
330
2DB8
100
AcDbEntity
  8
寸法
  6
Continuous
 62
     0
370
    -2
100
AcDbLine
 10
130.3763344569852
 20
142.6642307601851
 30
0.0
 11
131.8763344569852
 21
142.6642307601851
 31
0.0
  0
SOLID
  5
2DBF
330
2DB8
100
AcDbEntity
  8
寸法
 62
     0
100
AcDbTrace
 10
125.3763344569852
 20
142.4142307601851
 30
0.0
 11
125.3763344569852
 21
142.9142307601851
 31
0.0
 12
126.8763344569852
 22
142.6642307601851
 32
0.0
 13
126.8763344569852
 23
142.6642307601851
 33
0.0
  0
SOLID
  5
2DC0
330
2DB8
100
AcDbEntity
  8
寸法
 62
     0
100
AcDbTrace
 10
130.3763344569852
 20
142.9142307601851
 30
0.0
 11
130.3763344569852
 21
142.4142307601851
 31
0.0
 12
128.8763344569852
 22
142.6642307601851
 32
0.0
 13
128.8763344569852
 23
142.6642307601851
 33
0.0
  0
MTEXT
  5
2DC1
330
2DB8
100
AcDbEntity
  8
寸法
  6
Continuous
 62
     0
100
AcDbMText
 10
127.8763344569852
 20
145.4889794705311
 30
0.0
 40
2.0
 41
0.0
 46
0.0
 71
     5
 72
     1
  1
2
 73
     1
 44
1.0
  0
POINT
  5
2DC2
330
2DB8
100
AcDbEntity
  8
Defpoints
 62
     0
100
AcDbPoint
 10
126.8763344569852
 20
135.0994429882005
 30
0.0
  0
POINT
  5
2DC3
330
2DB8
100
AcDbEntity
  8
Defpoints
 62
     0
100
AcDbPoint
 10
128.8763344569852
 20
135.0994429882005
 30
0.0
  0
POINT
  5
2DC4
330
2DB8
100
AcDbEntity
  8
Defpoints
 62
     0
100
AcDbPoint
 10
128.8763344569852
 20
142.6642307601851
 30
0.0
  0
ENDBLK
  5
2DBA
330
2DB8
100
AcDbEntity
  8
0
100
AcDbBlockEnd
  0
BLOCK
  5
2DC7
330
2DC6
100
AcDbEntity
  8
0
100
AcDbBlockBegin
  2
*D8
 70
     1
 10
0.0
 20
0.0
 30
0.0
  3
*D8
  1
*D275
  0
LINE
  5
2DC9
330
2DC6
100
AcDbEntity
  8
寸法
  6
Continuous
 62
     0
370
    -2
100
AcDbLine
 10
128.8763344569852
 20
135.7244429882005
 30
0.0
 11
128.8763344569852
 21
143.9142307601851
 31
0.0
  0
LINE
  5
2DCA
330
2DC6
100
AcDbEntity
  8
寸法
  6
Continuous
 62
     0
370
    -2
100
AcDbLine
 10
131.8763344569852
 20
135.7244429882005
 30
0.0
 11
131.8763344569852
 21
143.9142307601851
 31
0.0
  0
LINE
  5
2DCB
330
2DC6
100
AcDbEntity
  8
寸法
  6
Continuous
 62
     0
370
    -2
100
AcDbLine
 10
127.3763344569852
 20
142.6642307601851
 30
0.0
 11
125.8763344569852
 21
142.6642307601851
 31
0.0
  0
LINE
  5
2DCC
330
2DC6
100
AcDbEntity
  8
寸法
  6
Continuous
 62
     0
370
    -2
100
AcDbLine
 10
133.3763344569852
 20
142.6642307601851
 30
0.0
 11
134.8763344569852
 21
142.6642307601851
 31
0.0
  0
SOLID
  5
2DCD
330
2DC6
100
AcDbEntity
  8
寸法
 62
     0
100
AcDbTrace
 10
127.3763344569852
 20
142.4142307601851
 30
0.0
 11
127.3763344569852
 21
142.9142307601851
 31
0.0
 12
128.8763344569852
 22
142.6642307601851
 32
0.0
 13
128.8763344569852
 23
142.6642307601851
 33
0.0
  0
SOLID
  5
2DCE
330
2DC6
100
AcDbEntity
  8
寸法
 62
     0
100
AcDbTrace
 10
133.3763344569852
 20
142.9142307601851
 30
0.0
 11
133.3763344569852
 21
142.4142307601851
 31
0.0
 12
131.8763344569852
 22
142.6642307601851
 32
0.0
 13
131.8763344569852
 23
142.6642307601851
 33
0.0
  0
MTEXT
  5
2DCF
330
2DC6
100
AcDbEntity
  8
寸法
  6
Continuous
 62
     0
100
AcDbMText
 10
130.3763344569852
 20
145.4889794705311
 30
0.0
 40
2.0
 41
0.0
 46
0.0
 71
     5
 72
     1
  1
3
 73
     1
 44
1.0
  0
POINT
  5
2DD0
330
2DC6
100
AcDbEntity
  8
Defpoints
 62
     0
100
AcDbPoint
 10
128.8763344569852
 20
135.0994429882005
 30
0.0
  0
POINT
  5
2DD1
330
2DC6
100
AcDbEntity
  8
Defpoints
 62
     0
100
AcDbPoint
 10
131.8763344569852
 20
135.0994429882005
 30
0.0
  0
POINT
  5
2DD2
330
2DC6
100
AcDbEntity
  8
Defpoints
 62
     0
100
AcDbPoint
 10
131.8763344569852
 20
142.6642307601851
 30
0.0
  0
ENDBLK
  5
2DC8
330
2DC6
100
AcDbEntity
  8
0
100
AcDbBlockEnd
  0
BLOCK
  5
2DD5
330
2DD4
100
AcDbEntity
  8
0
100
AcDbBlockBegin
  2
*D9
 70
     1
 10
0.0
 20
0.0
 30
0.0
  3
*D9
  1
*D276
  0
LINE
  5
2DD7
330
2DD4
100
AcDbEntity
  8
寸法
  6
Continuous
 62
     0
370
    -2
100
AcDbLine
 10
131.8763344569852
 20
135.7244429882005
 30
0.0
 11
131.8763344569852
 21
143.9142307601851
 31
0.0
  0
LINE
  5
2DD8
330
2DD4
100
AcDbEntity
  8
寸法
  6
Continuous
 62
     0
370
    -2
100
AcDbLine
 10
133.8763344569852
 20
135.7244429882005
 30
0.0
 11
133.8763344569852
 21
143.9142307601851
 31
0.0
  0
LINE
  5
2DD9
330
2DD4
100
AcDbEntity
  8
寸法
  6
Continuous
 62
     0
370
    -2
100
AcDbLine
 10
130.3763344569852
 20
142.6642307601851
 30
0.0
 11
128.8763344569852
 21
142.6642307601851
 31
0.0
  0
LINE
  5
2DDA
330
2DD4
100
AcDbEntity
  8
寸法
  6
Continuous
 62
     0
370
    -2
100
AcDbLine
 10
135.3763344569852
 20
142.6642307601851
 30
0.0
 11
136.8763344569852
 21
142.6642307601851
 31
0.0
  0
SOLID
  5
2DDB
330
2DD4
100
AcDbEntity
  8
寸法
 62
     0
100
AcDbTrace
 10
130.3763344569852
 20
142.4142307601851
 30
0.0
 11
130.3763344569852
 21
142.9142307601851
 31
0.0
 12
131.8763344569852
 22
142.6642307601851
 32
0.0
 13
131.8763344569852
 23
142.6642307601851
 33
0.0
  0
SOLID
  5
2DDC
330
2DD4
100
AcDbEntity
  8
寸法
 62
     0
100
AcDbTrace
 10
135.3763344569852
 20
142.9142307601851
 30
0.0
 11
135.3763344569852
 21
142.4142307601851
 31
0.0
 12
133.8763344569852
 22
142.6642307601851
 32
0.0
 13
133.8763344569852
 23
142.6642307601851
 33
0.0
  0
MTEXT
  5
2DDD
330
2DD4
100
AcDbEntity
  8
寸法
  6
Continuous
 62
     0
100
AcDbMText
 10
132.8763344569852
 20
145.4495069994695
 30
0.0
 40
2.0
 41
0.0
 46
0.0
 71
     5
 72
     1
  1
2
 73
     1
 44
1.0
  0
POINT
  5
2DDE
330
2DD4
100
AcDbEntity
  8
Defpoints
 62
     0
100
AcDbPoint
 10
131.8763344569852
 20
135.0994429882005
 30
0.0
  0
POINT
  5
2DDF
330
2DD4
100
AcDbEntity
  8
Defpoints
 62
     0
100
AcDbPoint
 10
133.8763344569852
 20
135.0994429882005
 30
0.0
  0
POINT
  5
2DE0
330
2DD4
100
AcDbEntity
  8
Defpoints
 62
     0
100
AcDbPoint
 10
133.8763344569852
 20
142.6642307601851
 30
0.0
  0
ENDBLK
  5
2DD6
330
2DD4
100
AcDbEntity
  8
0
100
AcDbBlockEnd
  0
BLOCK
  5
2DE3
330
2DE2
100
AcDbEntity
  8
0
100
AcDbBlockBegin
  2
*D10
 70
     1
 10
0.0
 20
0.0
 30
0.0
  3
*D10
  1
*D277
  0
LINE
  5
2DE5
330
2DE2
100
AcDbEntity
  8
寸法
  6
Continuous
 62
     0
370
    -2
100
AcDbLine
 10
133.8763344569852
 20
135.7244429882005
 30
0.0
 11
133.8763344569852
 21
143.9142307601851
 31
0.0
  0
LINE
  5
2DE6
330
2DE2
100
AcDbEntity
  8
寸法
  6
Continuous
 62
     0
370
    -2
100
AcDbLine
 10
136.8763344569852
 20
135.7244429882005
 30
0.0
 11
136.8763344569852
 21
143.9142307601851
 31
0.0
  0
LINE
  5
2DE7
330
2DE2
100
AcDbEntity
  8
寸法
  6
Continuous
 62
     0
370
    -2
100
AcDbLine
 10
132.3763344569852
 20
142.6642307601851
 30
0.0
 11
130.8763344569852
 21
142.6642307601851
 31
0.0
  0
LINE
  5
2DE8
330
2DE2
100
AcDbEntity
  8
寸法
  6
Continuous
 62
     0
370
    -2
100
AcDbLine
 10
138.3763344569852
 20
142.6642307601851
 30
0.0
 11
139.8763344569852
 21
142.6642307601851
 31
0.0
  0
SOLID
  5
2DE9
330
2DE2
100
AcDbEntity
  8
寸法
 62
     0
100
AcDbTrace
 10
132.3763344569852
 20
142.4142307601851
 30
0.0
 11
132.3763344569852
 21
142.9142307601851
 31
0.0
 12
133.8763344569852
 22
142.6642307601851
 32
0.0
 13
133.8763344569852
 23
142.6642307601851
 33
0.0
  0
SOLID
  5
2DEA
330
2DE2
100
AcDbEntity
  8
寸法
 62
     0
100
AcDbTrace
 10
138.3763344569852
 20
142.9142307601851
 30
0.0
 11
138.3763344569852
 21
142.4142307601851
 31
0.0
 12
136.8763344569852
 22
142.6642307601851
 32
0.0
 13
136.8763344569852
 23
142.6642307601851
 33
0.0
  0
MTEXT
  5
2DEB
330
2DE2
100
AcDbEntity
  8
寸法
  6
Continuous
 62
     0
100
AcDbMText
 10
135.3763344569852
 20
145.5284519415927
 30
0.0
 40
2.0
 41
0.0
 46
0.0
 71
     5
 72
     1
  1
3
 73
     1
 44
1.0
  0
POINT
  5
2DEC
330
2DE2
100
AcDbEntity
  8
Defpoints
 62
     0
100
AcDbPoint
 10
133.8763344569852
 20
135.0994429882005
 30
0.0
  0
POINT
  5
2DED
330
2DE2
100
AcDbEntity
  8
Defpoints
 62
     0
100
AcDbPoint
 10
136.8763344569852
 20
135.0994429882005
 30
0.0
  0
POINT
  5
2DEE
330
2DE2
100
AcDbEntity
  8
Defpoints
 62
     0
100
AcDbPoint
 10
136.8763344569852
 20
142.6642307601851
 30
0.0
  0
ENDBLK
  5
2DE4
330
2DE2
100
AcDbEntity
  8
0
100
AcDbBlockEnd
  0
BLOCK
  5
2DF1
330
2DF0
100
AcDbEntity
  8
0
100
AcDbBlockBegin
  2
*D11
 70
     1
 10
0.0
 20
0.0
 30
0.0
  3
*D11
  1
*D278
  0
LINE
  5
2DF3
330
2DF0
100
AcDbEntity
  8
寸法
  6
Continuous
 62
     0
370
    -2
100
AcDbLine
 10
136.8763344569852
 20
135.7244429882005
 30
0.0
 11
136.8763344569852
 21
143.9142307601851
 31
0.0
  0
LINE
  5
2DF4
330
2DF0
100
AcDbEntity
  8
寸法
  6
Continuous
 62
     0
370
    -2
100
AcDbLine
 10
138.8763344569852
 20
135.7244429882005
 30
0.0
 11
138.8763344569852
 21
143.9142307601851
 31
0.0
  0
LINE
  5
2DF5
330
2DF0
100
AcDbEntity
  8
寸法
  6
Continuous
 62
     0
370
    -2
100
AcDbLine
 10
135.3763344569852
 20
142.6642307601851
 30
0.0
 11
133.8763344569852
 21
142.6642307601851
 31
0.0
  0
LINE
  5
2DF6
330
2DF0
100
AcDbEntity
  8
寸法
  6
Continuous
 62
     0
370
    -2
100
AcDbLine
 10
140.3763344569852
 20
142.6642307601851
 30
0.0
 11
141.8763344569852
 21
142.6642307601851
 31
0.0
  0
SOLID
  5
2DF7
330
2DF0
100
AcDbEntity
  8
寸法
 62
     0
100
AcDbTrace
 10
135.3763344569852
 20
142.4142307601851
 30
0.0
 11
135.3763344569852
 21
142.9142307601851
 31
0.0
 12
136.8763344569852
 22
142.6642307601851
 32
0.0
 13
136.8763344569852
 23
142.6642307601851
 33
0.0
  0
SOLID
  5
2DF8
330
2DF0
100
AcDbEntity
  8
寸法
 62
     0
100
AcDbTrace
 10
140.3763344569852
 20
142.9142307601851
 30
0.0
 11
140.3763344569852
 21
142.4142307601851
 31
0.0
 12
138.8763344569852
 22
142.6642307601851
 32
0.0
 13
138.8763344569852
 23
142.6642307601851
 33
0.0
  0
MTEXT
  5
2DF9
330
2DF0
100
AcDbEntity
  8
寸法
  6
Continuous
 62
     0
100
AcDbMText
 10
137.8763344569852
 20
145.4889794705311
 30
0.0
 40
2.0
 41
0.0
 46
0.0
 71
     5
 72
     1
  1
2
 73
     1
 44
1.0
  0
POINT
  5
2DFA
330
2DF0
100
AcDbEntity
  8
Defpoints
 62
     0
100
AcDbPoint
 10
136.8763344569852
 20
135.0994429882005
 30
0.0
  0
POINT
  5
2DFB
330
2DF0
100
AcDbEntity
  8
Defpoints
 62
     0
100
AcDbPoint
 10
138.8763344569852
 20
135.0994429882005
 30
0.0
  0
POINT
  5
2DFC
330
2DF0
100
AcDbEntity
  8
Defpoints
 62
     0
100
AcDbPoint
 10
138.8763344569852
 20
142.6642307601851
 30
0.0
  0
ENDBLK
  5
2DF2
330
2DF0
100
AcDbEntity
  8
0
100
AcDbBlockEnd
  0
BLOCK
  5
2DFF
330
2DFE
100
AcDbEntity
  8
0
100
AcDbBlockBegin
  2
*D12
 70
     1
 10
0.0
 20
0.0
 30
0.0
  3
*D12
  1
*D279
  0
LINE
  5
2E01
330
2DFE
100
AcDbEntity
  8
寸法
  6
Continuous
 62
     0
370
    -2
100
AcDbLine
 10
138.8763344569852
 20
135.7244429882005
 30
0.0
 11
138.8763344569852
 21
143.9142307601851
 31
0.0
  0
LINE
  5
2E02
330
2DFE
100
AcDbEntity
  8
寸法
  6
Continuous
 62
     0
370
    -2
100
AcDbLine
 10
141.8763344569852
 20
135.7244429882005
 30
0.0
 11
141.8763344569852
 21
143.9142307601851
 31
0.0
  0
LINE
  5
2E03
330
2DFE
100
AcDbEntity
  8
寸法
  6
Continuous
 62
     0
370
    -2
100
AcDbLine
 10
137.3763344569852
 20
142.6642307601851
 30
0.0
 11
135.8763344569852
 21
142.6642307601851
 31
0.0
  0
LINE
  5
2E04
330
2DFE
100
AcDbEntity
  8
寸法
  6
Continuous
 62
     0
370
    -2
100
AcDbLine
 10
143.3763344569852
 20
142.6642307601851
 30
0.0
 11
144.8763344569852
 21
142.6642307601851
 31
0.0
  0
SOLID
  5
2E05
330
2DFE
100
AcDbEntity
  8
寸法
 62
     0
100
AcDbTrace
 10
137.3763344569852
 20
142.4142307601851
 30
0.0
 11
137.3763344569852
 21
142.9142307601851
 31
0.0
 12
138.8763344569852
 22
142.6642307601851
 32
0.0
 13
138.8763344569852
 23
142.6642307601851
 33
0.0
  0
SOLID
  5
2E06
330
2DFE
100
AcDbEntity
  8
寸法
 62
     0
100
AcDbTrace
 10
143.3763344569852
 20
142.9142307601851
 30
0.0
 11
143.3763344569852
 21
142.4142307601851
 31
0.0
 12
141.8763344569852
 22
142.6642307601851
 32
0.0
 13
141.8763344569852
 23
142.6642307601851
 33
0.0
  0
MTEXT
  5
2E07
330
2DFE
100
AcDbEntity
  8
寸法
  6
Continuous
 62
     0
100
AcDbMText
 10
140.3763344569852
 20
145.4889794705311
 30
0.0
 40
2.0
 41
0.0
 46
0.0
 71
     5
 72
     1
  1
3
 73
     1
 44
1.0
  0
POINT
  5
2E08
330
2DFE
100
AcDbEntity
  8
Defpoints
 62
     0
100
AcDbPoint
 10
138.8763344569852
 20
135.0994429882005
 30
0.0
  0
POINT
  5
2E09
330
2DFE
100
AcDbEntity
  8
Defpoints
 62
     0
100
AcDbPoint
 10
141.8763344569852
 20
135.0994429882005
 30
0.0
  0
POINT
  5
2E0A
330
2DFE
100
AcDbEntity
  8
Defpoints
 62
     0
100
AcDbPoint
 10
141.8763344569852
 20
142.6642307601851
 30
0.0
  0
ENDBLK
  5
2E00
330
2DFE
100
AcDbEntity
  8
0
100
AcDbBlockEnd
  0
BLOCK
  5
2E0F
330
2E0E
100
AcDbEntity
  8
0
100
AcDbBlockBegin
  2
*D13
 70
     1
 10
0.0
 20
0.0
 30
0.0
  3
*D13
  1
*D280
  0
LINE
  5
2E11
330
2E0E
100
AcDbEntity
  8
寸法
  6
Continuous
 62
     0
370
    -2
100
AcDbLine
 10
116.8763344569852
 20
134.2244429882005
 30
0.0
 11
116.8763344569852
 21
152.5852224891708
 31
0.0
  0
LINE
  5
2E12
330
2E0E
100
AcDbEntity
  8
寸法
  6
Continuous
 62
     0
370
    -2
100
AcDbLine
 10
141.8763344569852
 20
135.7244429882005
 30
0.0
 11
141.8763344569852
 21
152.5852224891708
 31
0.0
  0
LINE
  5
2E13
330
2E0E
100
AcDbEntity
  8
寸法
  6
Continuous
 62
     0
370
    -2
100
AcDbLine
 10
118.3763344569852
 20
151.3352224891708
 30
0.0
 11
125.7787561697192
 21
151.3352224891708
 31
0.0
  0
LINE
  5
2E14
330
2E0E
100
AcDbEntity
  8
寸法
  6
Continuous
 62
     0
370
    -2
100
AcDbLine
 10
140.3763344569852
 20
151.3352224891708
 30
0.0
 11
130.3620895030525
 21
151.3352224891708
 31
0.0
  0
SOLID
  5
2E15
330
2E0E
100
AcDbEntity
  8
寸法
 62
     0
100
AcDbTrace
 10
118.3763344569852
 20
151.5852224891708
 30
0.0
 11
118.3763344569852
 21
151.0852224891708
 31
0.0
 12
116.8763344569852
 22
151.3352224891708
 32
0.0
 13
116.8763344569852
 23
151.3352224891708
 33
0.0
  0
SOLID
  5
2E16
330
2E0E
100
AcDbEntity
  8
寸法
 62
     0
100
AcDbTrace
 10
140.3763344569852
 20
151.0852224891708
 30
0.0
 11
140.3763344569852
 21
151.5852224891708
 31
0.0
 12
141.8763344569852
 22
151.3352224891708
 32
0.0
 13
141.8763344569852
 23
151.3352224891708
 33
0.0
  0
MTEXT
  5
2E17
330
2E0E
100
AcDbEntity
  8
寸法
  6
Continuous
 62
     0
100
AcDbMText
 10
128.0704228363859
 20
151.3352224891708
 30
0.0
 40
2.0
 41
0.0
 46
0.0
 71
     5
 72
     1
  1
25
 73
     1
 44
1.0
  0
POINT
  5
2E18
330
2E0E
100
AcDbEntity
  8
Defpoints
 62
     0
100
AcDbPoint
 10
116.8763344569852
 20
133.5994429882005
 30
0.0
  0
POINT
  5
2E19
330
2E0E
100
AcDbEntity
  8
Defpoints
 62
     0
100
AcDbPoint
 10
141.8763344569852
 20
135.0994429882005
 30
0.0
  0
POINT
  5
2E1A
330
2E0E
100
AcDbEntity
  8
Defpoints
 62
     0
100
AcDbPoint
 10
141.8763344569852
 20
151.3352224891708
 30
0.0
  0
ENDBLK
  5
2E10
330
2E0E
100
AcDbEntity
  8
0
100
AcDbBlockEnd
  0
BLOCK
  5
2E4F
330
2E4E
100
AcDbEntity
  8
0
100
AcDbBlockBegin
  2
*D14
 70
     1
 10
0.0
 20
0.0
 30
0.0
  3
*D14
  1
*D284
  0
LINE
  5
2E51
330
2E4E
100
AcDbEntity
  8
寸法
  6
Continuous
 62
     0
370
    -2
100
AcDbLine
 10
113.2513344569852
 20
102.4258682835331
 30
0.0
 11
102.6263344569852
 21
102.4258682835331
 31
0.0
  0
LINE
  5
2E52
330
2E4E
100
AcDbEntity
  8
寸法
  6
Continuous
 62
     0
370
    -2
100
AcDbLine
 10
113.2513344569852
 20
93.42586828353313
 30
0.0
 11
102.6263344569852
 21
93.42586828353313
 31
0.0
  0
LINE
  5
2E53
330
2E4E
100
AcDbEntity
  8
寸法
  6
Continuous
 62
     0
370
    -2
100
AcDbLine
 10
103.8763344569852
 20
100.9258682835331
 30
0.0
 11
103.8763344569852
 21
99.55086828353312
 31
0.0
  0
LINE
  5
2E54
330
2E4E
100
AcDbEntity
  8
寸法
  6
Continuous
 62
     0
370
    -2
100
AcDbLine
 10
103.8763344569852
 20
94.92586828353313
 30
0.0
 11
103.8763344569852
 21
96.30086828353312
 31
0.0
  0
SOLID
  5
2E55
330
2E4E
100
AcDbEntity
  8
寸法
 62
     0
100
AcDbTrace
 10
104.1263344569852
 20
100.9258682835331
 30
0.0
 11
103.6263344569852
 21
100.9258682835331
 31
0.0
 12
103.8763344569852
 22
102.4258682835331
 32
0.0
 13
103.8763344569852
 23
102.4258682835331
 33
0.0
  0
SOLID
  5
2E56
330
2E4E
100
AcDbEntity
  8
寸法
 62
     0
100
AcDbTrace
 10
103.6263344569852
 20
94.92586828353313
 30
0.0
 11
104.1263344569852
 21
94.92586828353313
 31
0.0
 12
103.8763344569852
 22
93.42586828353313
 32
0.0
 13
103.8763344569852
 23
93.42586828353313
 33
0.0
  0
MTEXT
  5
2E57
330
2E4E
100
AcDbEntity
  8
寸法
  6
Continuous
 62
     0
100
AcDbMText
 10
103.8763344569852
 20
97.92586828353312
 30
0.0
 40
2.0
 41
0.0
 46
0.0
 71
     5
 72
     1
  1
9
 73
     1
 44
1.0
  0
POINT
  5
2E58
330
2E4E
100
AcDbEntity
  8
Defpoints
 62
     0
100
AcDbPoint
 10
113.8763344569852
 20
102.4258682835331
 30
0.0
  0
POINT
  5
2E59
330
2E4E
100
AcDbEntity
  8
Defpoints
 62
     0
100
AcDbPoint
 10
113.8763344569852
 20
93.42586828353313
 30
0.0
  0
POINT
  5
383C
330
2E4E
100
AcDbEntity
  8
Defpoints
 62
     0
100
AcDbPoint
 10
103.8763344569852
 20
93.42586828353313
 30
0.0
  0
ENDBLK
  5
2E50
330
2E4E
100
AcDbEntity
  8
0
100
AcDbBlockEnd
  0
BLOCK
  5
2E5F
330
2E5E
100
AcDbEntity
  8
0
100
AcDbBlockBegin
  2
*D15
 70
     1
 10
0.0
 20
0.0
 30
0.0
  3
*D15
  1
*D285
  0
LINE
  5
2E61
330
2E5E
100
AcDbEntity
  8
寸法
  6
Continuous
 62
     0
370
    -2
100
AcDbLine
 10
113.8763344569852
 20
103.0508682835331
 30
0.0
 11
113.8763344569852
 21
113.6758682835331
 31
0.0
  0
LINE
  5
2E62
330
2E5E
100
AcDbEntity
  8
寸法
  6
Continuous
 62
     0
370
    -2
100
AcDbLine
 10
141.8763344569852
 20
103.0508682835331
 30
0.0
 11
141.8763344569852
 21
113.6758682835331
 31
0.0
  0
LINE
  5
2E63
330
2E5E
100
AcDbEntity
  8
寸法
  6
Continuous
 62
     0
370
    -2
100
AcDbLine
 10
115.3763344569852
 20
112.4258682835331
 30
0.0
 11
124.9091333004702
 21
112.4258682835331
 31
0.0
  0
LINE
  5
2E64
330
2E5E
100
AcDbEntity
  8
寸法
  6
Continuous
 62
     0
370
    -2
100
AcDbLine
 10
140.3763344569852
 20
112.4258682835331
 30
0.0
 11
129.4924666338036
 21
112.4258682835331
 31
0.0
  0
SOLID
  5
2E65
330
2E5E
100
AcDbEntity
  8
寸法
 62
     0
100
AcDbTrace
 10
115.3763344569852
 20
112.6758682835331
 30
0.0
 11
115.3763344569852
 21
112.1758682835331
 31
0.0
 12
113.8763344569852
 22
112.4258682835331
 32
0.0
 13
113.8763344569852
 23
112.4258682835331
 33
0.0
  0
SOLID
  5
2E66
330
2E5E
100
AcDbEntity
  8
寸法
 62
     0
100
AcDbTrace
 10
140.3763344569852
 20
112.1758682835331
 30
0.0
 11
140.3763344569852
 21
112.6758682835331
 31
0.0
 12
141.8763344569852
 22
112.4258682835331
 32
0.0
 13
141.8763344569852
 23
112.4258682835331
 33
0.0
  0
MTEXT
  5
2E67
330
2E5E
100
AcDbEntity
  8
寸法
  6
Continuous
 62
     0
100
AcDbMText
 10
127.2007999671369
 20
112.4258682835331
 30
0.0
 40
2.0
 41
0.0
 46
0.0
 71
     5
 72
     1
  1
28
 73
     1
 44
1.0
  0
POINT
  5
2E68
330
2E5E
100
AcDbEntity
  8
Defpoints
 62
     0
100
AcDbPoint
 10
113.8763344569852
 20
102.4258682835331
 30
0.0
  0
POINT
  5
2E69
330
2E5E
100
AcDbEntity
  8
Defpoints
 62
     0
100
AcDbPoint
 10
141.8763344569852
 20
102.4258682835331
 30
0.0
  0
POINT
  5
2E6A
330
2E5E
100
AcDbEntity
  8
Defpoints
 62
     0
100
AcDbPoint
 10
141.8763344569852
 20
112.4258682835331
 30
0.0
  0
ENDBLK
  5
2E60
330
2E5E
100
AcDbEntity
  8
0
100
AcDbBlockEnd
  0
BLOCK
  5
2E6F
330
2E6E
100
AcDbEntity
  8
0
100
AcDbBlockBegin
  2
*D16
 70
     1
 10
0.0
 20
0.0
 30
0.0
  3
*D16
  1
*D286
  0
LINE
  5
2E71
330
2E6E
100
AcDbEntity
  8
寸法
  6
Continuous
 62
     0
370
    -2
100
AcDbLine
 10
115.0763344569852
 20
92.80086828353313
 30
0.0
 11
115.0763344569852
 21
87.17586828353313
 31
0.0
  0
LINE
  5
2E72
330
2E6E
100
AcDbEntity
  8
寸法
  6
Continuous
 62
     0
370
    -2
100
AcDbLine
 10
113.8763344569852
 20
92.80086828353313
 30
0.0
 11
113.8763344569852
 21
87.17586828353313
 31
0.0
  0
LINE
  5
2E73
330
2E6E
100
AcDbEntity
  8
寸法
  6
Continuous
 62
     0
370
    -2
100
AcDbLine
 10
116.5763344569852
 20
88.42586828353313
 30
0.0
 11
118.0763344569852
 21
88.42586828353313
 31
0.0
  0
LINE
  5
2E74
330
2E6E
100
AcDbEntity
  8
寸法
  6
Continuous
 62
     0
370
    -2
100
AcDbLine
 10
112.3763344569852
 20
88.42586828353313
 30
0.0
 11
110.8763344569852
 21
88.42586828353313
 31
0.0
  0
SOLID
  5
2E75
330
2E6E
100
AcDbEntity
  8
寸法
 62
     0
100
AcDbTrace
 10
116.5763344569852
 20
88.67586828353313
 30
0.0
 11
116.5763344569852
 21
88.17586828353313
 31
0.0
 12
115.0763344569852
 22
88.42586828353313
 32
0.0
 13
115.0763344569852
 23
88.42586828353313
 33
0.0
  0
SOLID
  5
2E76
330
2E6E
100
AcDbEntity
  8
寸法
 62
     0
100
AcDbTrace
 10
112.3763344569852
 20
88.17586828353313
 30
0.0
 11
112.3763344569852
 21
88.67586828353313
 31
0.0
 12
113.8763344569852
 22
88.42586828353313
 32
0.0
 13
113.8763344569852
 23
88.42586828353313
 33
0.0
  0
MTEXT
  5
2E77
330
2E6E
100
AcDbEntity
  8
寸法
  6
Continuous
 62
     0
100
AcDbMText
 10
114.5418551462086
 20
85.71051222253017
 30
0.0
 40
2.0
 41
0.0
 46
0.0
 71
     5
 72
     1
  1
1.2
 73
     1
 44
1.0
  0
POINT
  5
2E78
330
2E6E
100
AcDbEntity
  8
Defpoints
 62
     0
100
AcDbPoint
 10
115.0763344569852
 20
93.42586828353313
 30
0.0
  0
POINT
  5
2E79
330
2E6E
100
AcDbEntity
  8
Defpoints
 62
     0
100
AcDbPoint
 10
113.8763344569852
 20
93.42586828353313
 30
0.0
  0
POINT
  5
2E7A
330
2E6E
100
AcDbEntity
  8
Defpoints
 62
     0
100
AcDbPoint
 10
113.8763344569852
 20
88.42586828353313
 30
0.0
  0
ENDBLK
  5
2E70
330
2E6E
100
AcDbEntity
  8
0
100
AcDbBlockEnd
  0
BLOCK
  5
2E7F
330
2E7E
100
AcDbEntity
  8
0
100
AcDbBlockBegin
  2
*D17
 70
     1
 10
0.0
 20
0.0
 30
0.0
  3
*D17
  1
*D287
  0
LINE
  5
2E81
330
2E7E
100
AcDbEntity
  8
寸法
  6
Continuous
 62
     0
370
    -2
100
AcDbLine
 10
115.0763344569852
 20
94.46835582231486
 30
0.0
 11
115.0763344569852
 21
95.09335582231486
 31
0.0
  0
LINE
  5
2E82
330
2E7E
100
AcDbEntity
  8
寸法
  6
Continuous
 62
     0
370
    -2
100
AcDbLine
 10
133.8763344569851
 20
96.10086828353352
 30
0.0
 11
133.8763344569851
 21
92.59335582231486
 31
0.0
  0
LINE
  5
2E83
330
2E7E
100
AcDbEntity
  8
寸法
  6
Continuous
 62
     0
370
    -2
100
AcDbLine
 10
116.5763344569852
 20
93.84335582231486
 30
0.0
 11
125.064590703622
 21
93.84335582231486
 31
0.0
  0
LINE
  5
2E84
330
2E7E
100
AcDbEntity
  8
寸法
  6
Continuous
 62
     0
370
    -2
100
AcDbLine
 10
132.3763344569851
 20
93.84335582231486
 30
0.0
 11
131.6479240369553
 21
93.84335582231486
 31
0.0
  0
SOLID
  5
2E85
330
2E7E
100
AcDbEntity
  8
寸法
 62
     0
100
AcDbTrace
 10
116.5763344569852
 20
94.09335582231486
 30
0.0
 11
116.5763344569852
 21
93.59335582231486
 31
0.0
 12
115.0763344569852
 22
93.84335582231486
 32
0.0
 13
115.0763344569852
 23
93.84335582231486
 33
0.0
  0
SOLID
  5
2E86
330
2E7E
100
AcDbEntity
  8
寸法
 62
     0
100
AcDbTrace
 10
132.3763344569851
 20
93.59335582231486
 30
0.0
 11
132.3763344569851
 21
94.09335582231486
 31
0.0
 12
133.8763344569851
 22
93.84335582231486
 32
0.0
 13
133.8763344569851
 23
93.84335582231486
 33
0.0
  0
MTEXT
  5
2E87
330
2E7E
100
AcDbEntity
  8
寸法
  6
Continuous
 62
     0
100
AcDbMText
 10
128.3562573702887
 20
93.84335582231486
 30
0.0
 40
2.0
 41
0.0
 46
0.0
 71
     5
 72
     1
  1
18.8
 73
     1
 44
1.0
  0
POINT
  5
2E88
330
2E7E
100
AcDbEntity
  8
Defpoints
 62
     0
100
AcDbPoint
 10
115.0763344569852
 20
93.84335582231486
 30
0.0
  0
POINT
  5
2E89
330
2E7E
100
AcDbEntity
  8
Defpoints
 62
     0
100
AcDbPoint
 10
133.8763344569851
 20
96.72586828353352
 30
0.0
  0
POINT
  5
2E8A
330
2E7E
100
AcDbEntity
  8
Defpoints
 62
     0
100
AcDbPoint
 10
133.8763344569851
 20
93.84335582231486
 30
0.0
  0
ENDBLK
  5
2E80
330
2E7E
100
AcDbEntity
  8
0
100
AcDbBlockEnd
  0
BLOCK
  5
2E8F
330
2E8E
100
AcDbEntity
  8
0
100
AcDbBlockBegin
  2
*D18
 70
     1
 10
0.0
 20
0.0
 30
0.0
  3
*D18
  1
*D288
  0
LINE
  5
2E91
330
2E8E
100
AcDbEntity
  8
寸法
  6
Continuous
 62
     0
370
    -2
100
AcDbLine
 10
133.8763344569851
 20
96.10086828353352
 30
0.0
 11
133.8763344569851
 21
92.59335582231486
 31
0.0
  0
LINE
  5
2E92
330
2E8E
100
AcDbEntity
  8
寸法
  6
Continuous
 62
     0
370
    -2
100
AcDbLine
 10
141.8763344569852
 20
95.80086828353313
 30
0.0
 11
141.8763344569852
 21
92.59335582231486
 31
0.0
  0
LINE
  5
2E93
330
2E8E
100
AcDbEntity
  8
寸法
  6
Continuous
 62
     0
370
    -2
100
AcDbLine
 10
135.3763344569851
 20
93.84335582231486
 30
0.0
 11
136.5846677903185
 21
93.84335582231486
 31
0.0
  0
LINE
  5
2E94
330
2E8E
100
AcDbEntity
  8
寸法
  6
Continuous
 62
     0
370
    -2
100
AcDbLine
 10
140.3763344569852
 20
93.84335582231486
 30
0.0
 11
139.1680011236519
 21
93.84335582231486
 31
0.0
  0
SOLID
  5
2E95
330
2E8E
100
AcDbEntity
  8
寸法
 62
     0
100
AcDbTrace
 10
135.3763344569851
 20
94.09335582231486
 30
0.0
 11
135.3763344569851
 21
93.59335582231486
 31
0.0
 12
133.8763344569851
 22
93.84335582231486
 32
0.0
 13
133.8763344569851
 23
93.84335582231486
 33
0.0
  0
SOLID
  5
2E96
330
2E8E
100
AcDbEntity
  8
寸法
 62
     0
100
AcDbTrace
 10
140.3763344569852
 20
93.59335582231486
 30
0.0
 11
140.3763344569852
 21
94.09335582231486
 31
0.0
 12
141.8763344569852
 22
93.84335582231486
 32
0.0
 13
141.8763344569852
 23
93.84335582231486
 33
0.0
  0
MTEXT
  5
2E97
330
2E8E
100
AcDbEntity
  8
寸法
  6
Continuous
 62
     0
100
AcDbMText
 10
137.8763344569852
 20
93.84335582231486
 30
0.0
 40
2.0
 41
0.0
 46
0.0
 71
     5
 72
     1
  1
8
 73
     1
 44
1.0
  0
POINT
  5
2E98
330
2E8E
100
AcDbEntity
  8
Defpoints
 62
     0
100
AcDbPoint
 10
133.8763344569851
 20
96.72586828353352
 30
0.0
  0
POINT
  5
2E99
330
2E8E
100
AcDbEntity
  8
Defpoints
 62
     0
100
AcDbPoint
 10
141.8763344569852
 20
96.42586828353313
 30
0.0
  0
POINT
  5
2E9A
330
2E8E
100
AcDbEntity
  8
Defpoints
 62
     0
100
AcDbPoint
 10
141.8763344569852
 20
93.84335582231486
 30
0.0
  0
ENDBLK
  5
2E90
330
2E8E
100
AcDbEntity
  8
0
100
AcDbBlockEnd
  0
BLOCK
  5
2E9F
330
2E9E
100
AcDbEntity
  8
0
100
AcDbBlockBegin
  2
*D19
 70
     1
 10
0.0
 20
0.0
 30
0.0
  3
*D19
  1
*D289
  0
LINE
  5
2EA1
330
2E9E
100
AcDbEntity
  8
寸法
  6
Continuous
 62
     0
370
    -2
100
AcDbLine
 10
142.5013344569852
 20
102.4258682835331
 30
0.0
 11
148.1263344569852
 21
102.4258682835331
 31
0.0
  0
LINE
  5
2EA2
330
2E9E
100
AcDbEntity
  8
寸法
  6
Continuous
 62
     0
370
    -2
100
AcDbLine
 10
142.5013344569852
 20
96.42586828353313
 30
0.0
 11
148.1263344569852
 21
96.42586828353313
 31
0.0
  0
LINE
  5
2EA3
330
2E9E
100
AcDbEntity
  8
寸法
  6
Continuous
 62
     0
370
    -2
100
AcDbLine
 10
146.8763344569852
 20
100.9258682835331
 30
0.0
 11
146.8763344569852
 21
101.2027739976063
 31
0.0
  0
LINE
  5
2EA4
330
2E9E
100
AcDbEntity
  8
寸法
  6
Continuous
 62
     0
370
    -2
100
AcDbLine
 10
146.8763344569852
 20
97.92586828353313
 30
0.0
 11
146.8763344569852
 21
97.95277399760627
 31
0.0
  0
SOLID
  5
2EA5
330
2E9E
100
AcDbEntity
  8
寸法
 62
     0
100
AcDbTrace
 10
147.1263344569852
 20
100.9258682835331
 30
0.0
 11
146.6263344569852
 21
100.9258682835331
 31
0.0
 12
146.8763344569852
 22
102.4258682835331
 32
0.0
 13
146.8763344569852
 23
102.4258682835331
 33
0.0
  0
SOLID
  5
2EA6
330
2E9E
100
AcDbEntity
  8
寸法
 62
     0
100
AcDbTrace
 10
146.6263344569852
 20
97.92586828353313
 30
0.0
 11
147.1263344569852
 21
97.92586828353313
 31
0.0
 12
146.8763344569852
 22
96.42586828353313
 32
0.0
 13
146.8763344569852
 23
96.42586828353313
 33
0.0
  0
MTEXT
  5
2EA7
330
2E9E
100
AcDbEntity
  8
寸法
  6
Continuous
 62
     0
100
AcDbMText
 10
146.8763344569852
 20
99.57777399760627
 30
0.0
 40
2.0
 41
0.0
 46
0.0
 71
     5
 72
     1
  1
6
 73
     1
 44
1.0
  0
POINT
  5
2EA8
330
2E9E
100
AcDbEntity
  8
Defpoints
 62
     0
100
AcDbPoint
 10
141.8763344569852
 20
102.4258682835331
 30
0.0
  0
POINT
  5
2EA9
330
2E9E
100
AcDbEntity
  8
Defpoints
 62
     0
100
AcDbPoint
 10
141.8763344569852
 20
96.42586828353313
 30
0.0
  0
POINT
  5
3AF8
330
2E9E
100
AcDbEntity
  8
Defpoints
 62
     0
100
AcDbPoint
 10
146.8763344569852
 20
96.42586828353313
 30
0.0
  0
ENDBLK
  5
2EA0
330
2E9E
100
AcDbEntity
  8
0
100
AcDbBlockEnd
  0
BLOCK
  5
2EAE
330
2EAD
100
AcDbEntity
  8
0
100
AcDbBlockBegin
  2
*D20
 70
     1
 10
0.0
 20
0.0
 30
0.0
  3
*D20
  1
*D290
  0
LINE
  5
2EB0
330
2EAD
100
AcDbEntity
  8
寸法
  6
Continuous
 62
     0
370
    -2
100
AcDbLine
 10
113.2513344569852
 20
67.25414175545627
 30
0.0
 11
103.0748839988669
 21
67.25414175545627
 31
0.0
  0
LINE
  5
2EB1
330
2EAD
100
AcDbEntity
  8
寸法
  6
Continuous
 62
     0
370
    -2
100
AcDbLine
 10
113.2513344569852
 20
58.25414175545627
 30
0.0
 11
103.0748839988669
 21
58.25414175545627
 31
0.0
  0
LINE
  5
2EB2
330
2EAD
100
AcDbEntity
  8
寸法
  6
Continuous
 62
     0
370
    -2
100
AcDbLine
 10
104.3248839988669
 20
65.75414175545627
 30
0.0
 11
104.3248839988669
 21
64.37914175545627
 31
0.0
  0
LINE
  5
2EB3
330
2EAD
100
AcDbEntity
  8
寸法
  6
Continuous
 62
     0
370
    -2
100
AcDbLine
 10
104.3248839988669
 20
59.75414175545627
 30
0.0
 11
104.3248839988669
 21
61.12914175545627
 31
0.0
  0
SOLID
  5
2EB4
330
2EAD
100
AcDbEntity
  8
寸法
 62
     0
100
AcDbTrace
 10
104.5748839988669
 20
65.75414175545627
 30
0.0
 11
104.0748839988669
 21
65.75414175545627
 31
0.0
 12
104.3248839988669
 22
67.25414175545627
 32
0.0
 13
104.3248839988669
 23
67.25414175545627
 33
0.0
  0
SOLID
  5
2EB5
330
2EAD
100
AcDbEntity
  8
寸法
 62
     0
100
AcDbTrace
 10
104.0748839988669
 20
59.75414175545627
 30
0.0
 11
104.5748839988669
 21
59.75414175545627
 31
0.0
 12
104.3248839988669
 22
58.25414175545627
 32
0.0
 13
104.3248839988669
 23
58.25414175545627
 33
0.0
  0
MTEXT
  5
2EB6
330
2EAD
100
AcDbEntity
  8
寸法
  6
Continuous
 62
     0
100
AcDbMText
 10
104.3248839988669
 20
62.75414175545627
 30
0.0
 40
2.0
 41
0.0
 46
0.0
 71
     5
 72
     1
  1
9
 73
     1
 44
1.0
  0
POINT
  5
2EB7
330
2EAD
100
AcDbEntity
  8
Defpoints
 62
     0
100
AcDbPoint
 10
113.8763344569852
 20
67.25414175545627
 30
0.0
  0
POINT
  5
2EB8
330
2EAD
100
AcDbEntity
  8
Defpoints
 62
     0
100
AcDbPoint
 10
113.8763344569852
 20
58.25414175545627
 30
0.0
  0
POINT
  5
2EBA
330
2EAD
100
AcDbEntity
  8
Defpoints
 62
     0
100
AcDbPoint
 10
104.3248839988669
 20
58.25414175545627
 30
0.0
  0
ENDBLK
  5
2EAF
330
2EAD
100
AcDbEntity
  8
0
100
AcDbBlockEnd
  0
BLOCK
  5
2ECF
330
2ECE
100
AcDbEntity
  8
0
100
AcDbBlockBegin
  2
*D21
 70
     1
 10
0.0
 20
0.0
 30
0.0
  3
*D21
  1
*D292
  0
LINE
  5
2ED1
330
2ECE
100
AcDbEntity
  8
寸法
  6
Continuous
 62
     0
370
    -2
100
AcDbLine
 10
113.8763344569852
 20
57.62914175545627
 30
0.0
 11
113.8763344569852
 21
52.91834318068859
 31
0.0
  0
LINE
  5
2ED2
330
2ECE
100
AcDbEntity
  8
寸法
  6
Continuous
 62
     0
370
    -2
100
AcDbLine
 10
115.0763344569852
 20
57.62914175545627
 30
0.0
 11
115.0763344569852
 21
52.91834318068859
 31
0.0
  0
LINE
  5
2ED3
330
2ECE
100
AcDbEntity
  8
寸法
  6
Continuous
 62
     0
370
    -2
100
AcDbLine
 10
112.3763344569852
 20
54.16834318068859
 30
0.0
 11
110.8763344569852
 21
54.16834318068859
 31
0.0
  0
LINE
  5
2ED4
330
2ECE
100
AcDbEntity
  8
寸法
  6
Continuous
 62
     0
370
    -2
100
AcDbLine
 10
116.5763344569852
 20
54.16834318068859
 30
0.0
 11
118.0763344569852
 21
54.16834318068859
 31
0.0
  0
SOLID
  5
2ED5
330
2ECE
100
AcDbEntity
  8
寸法
 62
     0
100
AcDbTrace
 10
112.3763344569852
 20
53.91834318068859
 30
0.0
 11
112.3763344569852
 21
54.41834318068859
 31
0.0
 12
113.8763344569852
 22
54.16834318068859
 32
0.0
 13
113.8763344569852
 23
54.16834318068859
 33
0.0
  0
SOLID
  5
2ED6
330
2ECE
100
AcDbEntity
  8
寸法
 62
     0
100
AcDbTrace
 10
116.5763344569852
 20
54.41834318068859
 30
0.0
 11
116.5763344569852
 21
53.91834318068859
 31
0.0
 12
115.0763344569852
 22
54.16834318068859
 32
0.0
 13
115.0763344569852
 23
54.16834318068859
 33
0.0
  0
MTEXT
  5
2ED7
330
2ECE
100
AcDbEntity
  8
寸法
  6
Continuous
 62
     0
100
AcDbMText
 10
114.5655494883526
 20
51.95754460592092
 30
0.0
 40
2.0
 41
0.0
 46
0.0
 71
     5
 72
     1
  1
1.2
 73
     1
 44
1.0
  0
POINT
  5
2ED8
330
2ECE
100
AcDbEntity
  8
Defpoints
 62
     0
100
AcDbPoint
 10
113.8763344569852
 20
58.25414175545627
 30
0.0
  0
POINT
  5
2ED9
330
2ECE
100
AcDbEntity
  8
Defpoints
 62
     0
100
AcDbPoint
 10
115.0763344569852
 20
58.25414175545627
 30
0.0
  0
POINT
  5
2EDA
330
2ECE
100
AcDbEntity
  8
Defpoints
 62
     0
100
AcDbPoint
 10
115.0763344569852
 20
54.16834318068859
 30
0.0
  0
ENDBLK
  5
2ED0
330
2ECE
100
AcDbEntity
  8
0
100
AcDbBlockEnd
  0
BLOCK
  5
2EDF
330
2EDE
100
AcDbEntity
  8
0
100
AcDbBlockBegin
  2
*D22
 70
     1
 10
0.0
 20
0.0
 30
0.0
  3
*D22
  1
*D293
  0
LINE
  5
2EE1
330
2EDE
100
AcDbEntity
  8
寸法
  6
Continuous
 62
     0
370
    -2
100
AcDbLine
 10
113.2513344569852
 20
61.25414175545627
 30
0.0
 11
109.8711384905019
 21
61.25414175545627
 31
0.0
  0
LINE
  5
2EE2
330
2EDE
100
AcDbEntity
  8
寸法
  6
Continuous
 62
     0
370
    -2
100
AcDbLine
 10
113.2513344569852
 20
58.25414175545627
 30
0.0
 11
109.8711384905019
 21
58.25414175545627
 31
0.0
  0
LINE
  5
2EE3
330
2EDE
100
AcDbEntity
  8
寸法
  6
Continuous
 62
     0
370
    -2
100
AcDbLine
 10
111.1211384905019
 20
62.75414175545627
 30
0.0
 11
111.1211384905019
 21
64.25414175545627
 31
0.0
  0
LINE
  5
2EE4
330
2EDE
100
AcDbEntity
  8
寸法
  6
Continuous
 62
     0
370
    -2
100
AcDbLine
 10
111.1211384905019
 20
56.75414175545627
 30
0.0
 11
111.1211384905019
 21
55.25414175545627
 31
0.0
  0
SOLID
  5
2EE5
330
2EDE
100
AcDbEntity
  8
寸法
 62
     0
100
AcDbTrace
 10
110.8711384905019
 20
62.75414175545627
 30
0.0
 11
111.3711384905019
 21
62.75414175545627
 31
0.0
 12
111.1211384905019
 22
61.25414175545627
 32
0.0
 13
111.1211384905019
 23
61.25414175545627
 33
0.0
  0
SOLID
  5
2EE6
330
2EDE
100
AcDbEntity
  8
寸法
 62
     0
100
AcDbTrace
 10
111.3711384905019
 20
56.75414175545627
 30
0.0
 11
110.8711384905019
 21
56.75414175545627
 31
0.0
 12
111.1211384905019
 22
58.25414175545627
 32
0.0
 13
111.1211384905019
 23
58.25414175545627
 33
0.0
  0
MTEXT
  5
2EE7
330
2EDE
100
AcDbEntity
  8
寸法
  6
Continuous
 62
     0
100
AcDbMText
 10
108.2728049786966
 20
59.69922156525114
 30
0.0
 40
2.0
 41
0.0
 46
0.0
 71
     5
 72
     1
  1
3
 73
     1
 44
1.0
  0
POINT
  5
2EE8
330
2EDE
100
AcDbEntity
  8
Defpoints
 62
     0
100
AcDbPoint
 10
113.8763344569852
 20
61.25414175545627
 30
0.0
  0
POINT
  5
2EE9
330
2EDE
100
AcDbEntity
  8
Defpoints
 62
     0
100
AcDbPoint
 10
113.8763344569852
 20
58.25414175545627
 30
0.0
  0
POINT
  5
2EEA
330
2EDE
100
AcDbEntity
  8
Defpoints
 62
     0
100
AcDbPoint
 10
111.1211384905019
 20
58.25414175545627
 30
0.0
  0
ENDBLK
  5
2EE0
330
2EDE
100
AcDbEntity
  8
0
100
AcDbBlockEnd
  0
BLOCK
  5
2EEF
330
2EEE
100
AcDbEntity
  8
0
100
AcDbBlockBegin
  2
*D23
 70
     1
 10
0.0
 20
0.0
 30
0.0
  3
*D23
  1
*D294
  0
LINE
  5
2EF1
330
2EEE
100
AcDbEntity
  8
寸法
  6
Continuous
 62
     0
370
    -2
100
AcDbLine
 10
113.2513344569852
 20
61.25414175545627
 30
0.0
 11
109.8711384905019
 21
61.25414175545627
 31
0.0
  0
LINE
  5
2EF2
330
2EEE
100
AcDbEntity
  8
寸法
  6
Continuous
 62
     0
370
    -2
100
AcDbLine
 10
113.2513344569852
 20
67.25414175545627
 30
0.0
 11
109.8711384905019
 21
67.25414175545627
 31
0.0
  0
LINE
  5
2EF3
330
2EEE
100
AcDbEntity
  8
寸法
  6
Continuous
 62
     0
370
    -2
100
AcDbLine
 10
111.1211384905019
 20
62.75414175545627
 30
0.0
 11
111.1211384905019
 21
65.75414175545627
 31
0.0
  0
SOLID
  5
2EF4
330
2EEE
100
AcDbEntity
  8
寸法
 62
     0
100
AcDbTrace
 10
110.8711384905019
 20
62.75414175545627
 30
0.0
 11
111.3711384905019
 21
62.75414175545627
 31
0.0
 12
111.1211384905019
 22
61.25414175545627
 32
0.0
 13
111.1211384905019
 23
61.25414175545627
 33
0.0
  0
SOLID
  5
2EF5
330
2EEE
100
AcDbEntity
  8
寸法
 62
     0
100
AcDbTrace
 10
111.3711384905019
 20
65.75414175545627
 30
0.0
 11
110.8711384905019
 21
65.75414175545627
 31
0.0
 12
111.1211384905019
 22
67.25414175545627
 32
0.0
 13
111.1211384905019
 23
67.25414175545627
 33
0.0
  0
MTEXT
  5
2EF6
330
2EEE
100
AcDbEntity
  8
寸法
  6
Continuous
 62
     0
100
AcDbMText
 10
108.2001756319433
 20
64.31720370126769
 30
0.0
 40
2.0
 41
0.0
 46
0.0
 71
     5
 72
     1
  1
6
 73
     1
 44
1.0
  0
POINT
  5
2EF7
330
2EEE
100
AcDbEntity
  8
Defpoints
 62
     0
100
AcDbPoint
 10
113.8763344569852
 20
61.25414175545627
 30
0.0
  0
POINT
  5
2EF8
330
2EEE
100
AcDbEntity
  8
Defpoints
 62
     0
100
AcDbPoint
 10
113.8763344569852
 20
67.25414175545627
 30
0.0
  0
POINT
  5
2EF9
330
2EEE
100
AcDbEntity
  8
Defpoints
 62
     0
100
AcDbPoint
 10
111.1211384905019
 20
67.25414175545627
 30
0.0
  0
ENDBLK
  5
2EF0
330
2EEE
100
AcDbEntity
  8
0
100
AcDbBlockEnd
  0
BLOCK
  5
2F1E
330
2F1D
100
AcDbEntity
  8
0
100
AcDbBlockBegin
  2
*D24
 70
     1
 10
0.0
 20
0.0
 30
0.0
  3
*D24
  1
*D297
  0
LINE
  5
2F20
330
2F1D
100
AcDbEntity
  8
寸法
  6
Continuous
 62
     0
370
    -2
100
AcDbLine
 10
117.5013344569852
 20
67.25414175545627
 30
0.0
 11
127.0960374314062
 21
67.25414175545627
 31
0.0
  0
LINE
  5
2F21
330
2F1D
100
AcDbEntity
  8
寸法
  6
Continuous
 62
     0
370
    -2
100
AcDbLine
 10
117.5013344569852
 20
63.75414175545627
 30
0.0
 11
127.0960374314062
 21
63.75414175545627
 31
0.0
  0
LINE
  5
2F22
330
2F1D
100
AcDbEntity
  8
寸法
  6
Continuous
 62
     0
370
    -2
100
AcDbLine
 10
125.8460374314062
 20
68.75414175545627
 30
0.0
 11
125.8460374314062
 21
70.25414175545627
 31
0.0
  0
LINE
  5
2F23
330
2F1D
100
AcDbEntity
  8
寸法
  6
Continuous
 62
     0
370
    -2
100
AcDbLine
 10
125.8460374314062
 20
62.25414175545627
 30
0.0
 11
125.8460374314062
 21
60.75414175545627
 31
0.0
  0
SOLID
  5
2F24
330
2F1D
100
AcDbEntity
  8
寸法
 62
     0
100
AcDbTrace
 10
125.5960374314062
 20
68.75414175545627
 30
0.0
 11
126.0960374314062
 21
68.75414175545627
 31
0.0
 12
125.8460374314062
 22
67.25414175545627
 32
0.0
 13
125.8460374314062
 23
67.25414175545627
 33
0.0
  0
SOLID
  5
2F25
330
2F1D
100
AcDbEntity
  8
寸法
 62
     0
100
AcDbTrace
 10
126.0960374314062
 20
62.25414175545627
 30
0.0
 11
125.5960374314062
 21
62.25414175545627
 31
0.0
 12
125.8460374314062
 22
63.75414175545627
 32
0.0
 13
125.8460374314062
 23
63.75414175545627
 33
0.0
  0
MTEXT
  5
2F26
330
2F1D
100
AcDbEntity
  8
寸法
  6
Continuous
 62
     0
100
AcDbMText
 10
129.2011974716424
 20
65.58696603177678
 30
0.0
 40
2.0
 41
0.0
 46
0.0
 71
     5
 72
     1
  1
3.5
 73
     1
 44
1.0
  0
POINT
  5
2F27
330
2F1D
100
AcDbEntity
  8
Defpoints
 62
     0
100
AcDbPoint
 10
116.8763344569852
 20
67.25414175545627
 30
0.0
  0
POINT
  5
2F28
330
2F1D
100
AcDbEntity
  8
Defpoints
 62
     0
100
AcDbPoint
 10
116.8763344569852
 20
63.75414175545627
 30
0.0
  0
POINT
  5
2F29
330
2F1D
100
AcDbEntity
  8
Defpoints
 62
     0
100
AcDbPoint
 10
125.8460374314062
 20
63.75414175545627
 30
0.0
  0
ENDBLK
  5
2F1F
330
2F1D
100
AcDbEntity
  8
0
100
AcDbBlockEnd
  0
BLOCK
  5
3517
330
3516
100
AcDbEntity
  8
0
100
AcDbBlockBegin
  2
*D25
 70
     1
 10
0.0
 20
0.0
 30
0.0
  3
*D25
  1
*D366
  0
LINE
  5
3519
330
3516
100
AcDbEntity
  8
寸法
  6
Continuous
 62
     0
370
    -2
100
AcDbLine
 10
116.8763344569852
 20
131.1744429882005
 30
0.0
 11
116.8763344569852
 21
125.0407126689291
 31
0.0
  0
LINE
  5
351A
330
3516
100
AcDbEntity
  8
寸法
  6
Continuous
 62
     0
370
    -2
100
AcDbLine
 10
140.7930011236519
 20
131.1744429882005
 30
0.0
 11
140.7930011236519
 21
125.0407126689291
 31
0.0
  0
LINE
  5
351B
330
3516
100
AcDbEntity
  8
寸法
  6
Continuous
 62
     0
370
    -2
100
AcDbLine
 10
118.3763344569852
 20
126.2907126689291
 30
0.0
 11
122.3379595047989
 21
126.2907126689291
 31
0.0
  0
LINE
  5
351C
330
3516
100
AcDbEntity
  8
寸法
  6
Continuous
 62
     0
370
    -2
100
AcDbLine
 10
139.2930011236519
 20
126.2907126689291
 30
0.0
 11
131.5879595047989
 21
126.2907126689291
 31
0.0
  0
SOLID
  5
351D
330
3516
100
AcDbEntity
  8
寸法
 62
     0
100
AcDbTrace
 10
118.3763344569852
 20
126.5407126689291
 30
0.0
 11
118.3763344569852
 21
126.0407126689291
 31
0.0
 12
116.8763344569852
 22
126.2907126689291
 32
0.0
 13
116.8763344569852
 23
126.2907126689291
 33
0.0
  0
SOLID
  5
351E
330
3516
100
AcDbEntity
  8
寸法
 62
     0
100
AcDbTrace
 10
139.2930011236519
 20
126.0407126689291
 30
0.0
 11
139.2930011236519
 21
126.5407126689291
 31
0.0
 12
140.7930011236519
 22
126.2907126689291
 32
0.0
 13
140.7930011236519
 23
126.2907126689291
 33
0.0
  0
MTEXT
  5
351F
330
3516
100
AcDbEntity
  8
寸法
  6
Continuous
 62
     0
100
AcDbMText
 10
126.9629595047989
 20
126.2907126689291
 30
0.0
 40
2.0
 41
0.0
 46
0.0
 71
     5
 72
     1
  1
23.92
 73
     1
 44
1.0
  0
POINT
  5
3520
330
3516
100
AcDbEntity
  8
Defpoints
 62
     0
100
AcDbPoint
 10
116.8763344569852
 20
131.7994429882005
 30
0.0
  0
POINT
  5
3521
330
3516
100
AcDbEntity
  8
Defpoints
 62
     0
100
AcDbPoint
 10
140.7930011236519
 20
131.7994429882005
 30
0.0
  0
POINT
  5
3522
330
3516
100
AcDbEntity
  8
Defpoints
 62
     0
100
AcDbPoint
 10
140.7930011236519
 20
126.2907126689291
 30
0.0
  0
ENDBLK
  5
3518
330
3516
100
AcDbEntity
  8
0
100
AcDbBlockEnd
  0
BLOCK
  5
3531
330
3530
100
AcDbEntity
  8
0
100
AcDbBlockBegin
  2
*D26
 70
     1
 10
0.0
 20
0.0
 30
0.0
  3
*D26
  1
*D368
  0
LINE
  5
3533
330
3530
100
AcDbEntity
  8
寸法
  6
Continuous
 62
     0
370
    -2
100
AcDbLine
 10
115.7513344569852
 20
131.7994429882005
 30
0.0
 11
106.4082212386542
 21
131.7994429882005
 31
0.0
  0
LINE
  5
3534
330
3530
100
AcDbEntity
  8
寸法
  6
Continuous
 62
     0
370
    -2
100
AcDbLine
 10
116.2513344569852
 20
133.5994429882005
 30
0.0
 11
106.4082212386542
 21
133.5994429882005
 31
0.0
  0
LINE
  5
3535
330
3530
100
AcDbEntity
  8
寸法
  6
Continuous
 62
     0
370
    -2
100
AcDbLine
 10
107.6582212386542
 20
130.2994429882005
 30
0.0
 11
107.6582212386542
 21
128.7994429882005
 31
0.0
  0
LINE
  5
3536
330
3530
100
AcDbEntity
  8
寸法
  6
Continuous
 62
     0
370
    -2
100
AcDbLine
 10
107.6582212386542
 20
135.0994429882005
 30
0.0
 11
107.6582212386542
 21
136.5994429882005
 31
0.0
  0
SOLID
  5
3537
330
3530
100
AcDbEntity
  8
寸法
 62
     0
100
AcDbTrace
 10
107.9082212386542
 20
130.2994429882005
 30
0.0
 11
107.4082212386542
 21
130.2994429882005
 31
0.0
 12
107.6582212386542
 22
131.7994429882005
 32
0.0
 13
107.6582212386542
 23
131.7994429882005
 33
0.0
  0
SOLID
  5
3538
330
3530
100
AcDbEntity
  8
寸法
 62
     0
100
AcDbTrace
 10
107.4082212386542
 20
135.0994429882005
 30
0.0
 11
107.9082212386542
 21
135.0994429882005
 31
0.0
 12
107.6582212386542
 22
133.5994429882005
 32
0.0
 13
107.6582212386542
 23
133.5994429882005
 33
0.0
  0
MTEXT
  5
3539
330
3530
100
AcDbEntity
  8
寸法
  6
Continuous
 62
     0
100
AcDbMText
 10
103.6715016614323
 20
131.9729009936625
 30
0.0
 40
2.0
 41
0.0
 46
0.0
 71
     5
 72
     1
  1
1.8
 73
     1
 44
1.0
  0
POINT
  5
353A
330
3530
100
AcDbEntity
  8
Defpoints
 62
     0
100
AcDbPoint
 10
116.3763344569852
 20
131.7994429882005
 30
0.0
  0
POINT
  5
353B
330
3530
100
AcDbEntity
  8
Defpoints
 62
     0
100
AcDbPoint
 10
116.8763344569852
 20
133.5994429882005
 30
0.0
  0
POINT
  5
353C
330
3530
100
AcDbEntity
  8
Defpoints
 62
     0
100
AcDbPoint
 10
107.6582212386542
 20
133.5994429882005
 30
0.0
  0
ENDBLK
  5
3532
330
3530
100
AcDbEntity
  8
0
100
AcDbBlockEnd
  0
BLOCK
  5
354B
330
354A
100
AcDbEntity
  8
0
100
AcDbBlockBegin
  2
*D27
 70
     1
 10
0.0
 20
0.0
 30
0.0
  3
*D27
  1
*D370
  0
LINE
  5
354D
330
354A
100
AcDbEntity
  8
寸法
  6
Continuous
 62
     0
370
    -2
100
AcDbLine
 10
140.7930011236519
 20
131.1744429882005
 30
0.0
 11
140.7930011236519
 21
125.0407126689291
 31
0.0
  0
LINE
  5
354E
330
354A
100
AcDbEntity
  8
寸法
  6
Continuous
 62
     0
370
    -2
100
AcDbLine
 10
141.8763344569852
 20
134.4744429882005
 30
0.0
 11
141.8763344569852
 21
125.0407126689291
 31
0.0
  0
LINE
  5
354F
330
354A
100
AcDbEntity
  8
寸法
  6
Continuous
 62
     0
370
    -2
100
AcDbLine
 10
139.2930011236519
 20
126.2907126689291
 30
0.0
 11
137.7930011236519
 21
126.2907126689291
 31
0.0
  0
LINE
  5
3550
330
354A
100
AcDbEntity
  8
寸法
  6
Continuous
 62
     0
370
    -2
100
AcDbLine
 10
143.3763344569852
 20
126.2907126689291
 30
0.0
 11
144.8763344569852
 21
126.2907126689291
 31
0.0
  0
SOLID
  5
3551
330
354A
100
AcDbEntity
  8
寸法
 62
     0
100
AcDbTrace
 10
139.2930011236519
 20
126.0407126689291
 30
0.0
 11
139.2930011236519
 21
126.5407126689291
 31
0.0
 12
140.7930011236519
 22
126.2907126689291
 32
0.0
 13
140.7930011236519
 23
126.2907126689291
 33
0.0
  0
SOLID
  5
3552
330
354A
100
AcDbEntity
  8
寸法
 62
     0
100
AcDbTrace
 10
143.3763344569852
 20
126.5407126689291
 30
0.0
 11
143.3763344569852
 21
126.0407126689291
 31
0.0
 12
141.8763344569852
 22
126.2907126689291
 32
0.0
 13
141.8763344569852
 23
126.2907126689291
 33
0.0
  0
MTEXT
  5
3553
330
354A
100
AcDbEntity
  8
寸法
  6
Continuous
 62
     0
100
AcDbMText
 10
147.6512754782594
 20
125.9955072845495
 30
0.0
 40
2.0
 41
0.0
 46
0.0
 71
     5
 72
     1
  1
1.08
 73
     1
 44
1.0
  0
POINT
  5
3554
330
354A
100
AcDbEntity
  8
Defpoints
 62
     0
100
AcDbPoint
 10
140.7930011236519
 20
131.7994429882005
 30
0.0
  0
POINT
  5
3555
330
354A
100
AcDbEntity
  8
Defpoints
 62
     0
100
AcDbPoint
 10
141.8763344569852
 20
135.0994429882005
 30
0.0
  0
POINT
  5
3556
330
354A
100
AcDbEntity
  8
Defpoints
 62
     0
100
AcDbPoint
 10
141.8763344569852
 20
126.2907126689291
 30
0.0
  0
ENDBLK
  5
354C
330
354A
100
AcDbEntity
  8
0
100
AcDbBlockEnd
  0
BLOCK
  5
3558
330
3557
100
AcDbEntity
  8
0
100
AcDbBlockBegin
  2
*D28
 70
     1
 10
0.0
 20
0.0
 30
0.0
  3
*D28
  1
*D371
  0
LINE
  5
355A
330
3557
100
AcDbEntity
  8
寸法
  6
Continuous
 62
     0
370
    -2
100
AcDbLine
 10
142.5013344569852
 20
132.8994429882005
 30
0.0
 11
147.5278403503796
 21
132.8994429882005
 31
0.0
  0
LINE
  5
355B
330
3557
100
AcDbEntity
  8
寸法
  6
Continuous
 62
     0
370
    -2
100
AcDbLine
 10
141.4180011236519
 20
131.7994429882005
 30
0.0
 11
147.5278403503796
 21
131.7994429882005
 31
0.0
  0
LINE
  5
355C
330
3557
100
AcDbEntity
  8
寸法
  6
Continuous
 62
     0
370
    -2
100
AcDbLine
 10
146.2778403503796
 20
134.3994429882005
 30
0.0
 11
146.2778403503796
 21
135.8994429882005
 31
0.0
  0
LINE
  5
355D
330
3557
100
AcDbEntity
  8
寸法
  6
Continuous
 62
     0
370
    -2
100
AcDbLine
 10
146.2778403503796
 20
130.2994429882005
 30
0.0
 11
146.2778403503796
 21
128.7994429882005
 31
0.0
  0
SOLID
  5
355E
330
3557
100
AcDbEntity
  8
寸法
 62
     0
100
AcDbTrace
 10
146.0278403503796
 20
134.3994429882005
 30
0.0
 11
146.5278403503796
 21
134.3994429882005
 31
0.0
 12
146.2778403503796
 22
132.8994429882005
 32
0.0
 13
146.2778403503796
 23
132.8994429882005
 33
0.0
  0
SOLID
  5
355F
330
3557
100
AcDbEntity
  8
寸法
 62
     0
100
AcDbTrace
 10
146.5278403503796
 20
130.2994429882005
 30
0.0
 11
146.0278403503796
 21
130.2994429882005
 31
0.0
 12
146.2778403503796
 22
131.7994429882005
 32
0.0
 13
146.2778403503796
 23
131.7994429882005
 33
0.0
  0
MTEXT
  5
3560
330
3557
100
AcDbEntity
  8
寸法
  6
Continuous
 62
     0
100
AcDbMText
 10
148.9062885253064
 20
129.9979382022346
 30
0.0
 40
2.0
 41
0.0
 46
0.0
 71
     5
 72
     1
  1
1.1
 73
     1
 44
1.0
  0
POINT
  5
3561
330
3557
100
AcDbEntity
  8
Defpoints
 62
     0
100
AcDbPoint
 10
141.8763344569852
 20
132.8994429882005
 30
0.0
  0
POINT
  5
3562
330
3557
100
AcDbEntity
  8
Defpoints
 62
     0
100
AcDbPoint
 10
140.7930011236519
 20
131.7994429882005
 30
0.0
  0
POINT
  5
3563
330
3557
100
AcDbEntity
  8
Defpoints
 62
     0
100
AcDbPoint
 10
146.2778403503796
 20
131.7994429882005
 30
0.0
  0
ENDBLK
  5
3559
330
3557
100
AcDbEntity
  8
0
100
AcDbBlockEnd
  0
BLOCK
  5
3565
330
3564
100
AcDbEntity
  8
0
100
AcDbBlockBegin
  2
*D29
 70
     1
 10
0.0
 20
0.0
 30
0.0
  3
*D29
  1
*D372
  0
LINE
  5
3567
330
3564
100
AcDbEntity
  8
寸法
  6
Continuous
 62
     0
370
    -2
100
AcDbLine
 10
142.5013344569852
 20
135.0994429882005
 30
0.0
 11
147.5278403503796
 21
135.0994429882005
 31
0.0
  0
LINE
  5
3568
330
3564
100
AcDbEntity
  8
寸法
  6
Continuous
 62
     0
370
    -2
100
AcDbLine
 10
142.5013344569852
 20
132.8994429882005
 30
0.0
 11
147.5278403503796
 21
132.8994429882005
 31
0.0
  0
LINE
  5
3569
330
3564
100
AcDbEntity
  8
寸法
  6
Continuous
 62
     0
370
    -2
100
AcDbLine
 10
146.2778403503796
 20
136.5994429882005
 30
0.0
 11
146.2778403503796
 21
138.0994429882005
 31
0.0
  0
LINE
  5
356A
330
3564
100
AcDbEntity
  8
寸法
  6
Continuous
 62
     0
370
    -2
100
AcDbLine
 10
146.2778403503796
 20
131.3994429882005
 30
0.0
 11
146.2778403503796
 21
129.8994429882005
 31
0.0
  0
SOLID
  5
356B
330
3564
100
AcDbEntity
  8
寸法
 62
     0
100
AcDbTrace
 10
146.0278403503796
 20
136.5994429882005
 30
0.0
 11
146.5278403503796
 21
136.5994429882005
 31
0.0
 12
146.2778403503796
 22
135.0994429882005
 32
0.0
 13
146.2778403503796
 23
135.0994429882005
 33
0.0
  0
SOLID
  5
356C
330
3564
100
AcDbEntity
  8
寸法
 62
     0
100
AcDbTrace
 10
146.5278403503796
 20
131.3994429882005
 30
0.0
 11
146.0278403503796
 21
131.3994429882005
 31
0.0
 12
146.2778403503796
 22
132.8994429882005
 32
0.0
 13
146.2778403503796
 23
132.8994429882005
 33
0.0
  0
MTEXT
  5
356D
330
3564
100
AcDbEntity
  8
寸法
  6
Continuous
 62
     0
100
AcDbMText
 10
148.2895311649688
 20
136.7822691659477
 30
0.0
 40
2.0
 41
0.0
 46
0.0
 71
     5
 72
     1
  1
2.2
 73
     1
 44
1.0
  0
POINT
  5
356E
330
3564
100
AcDbEntity
  8
Defpoints
 62
     0
100
AcDbPoint
 10
141.8763344569852
 20
135.0994429882005
 30
0.0
  0
POINT
  5
356F
330
3564
100
AcDbEntity
  8
Defpoints
 62
     0
100
AcDbPoint
 10
141.8763344569852
 20
132.8994429882005
 30
0.0
  0
POINT
  5
3570
330
3564
100
AcDbEntity
  8
Defpoints
 62
     0
100
AcDbPoint
 10
146.2778403503796
 20
132.8994429882005
 30
0.0
  0
ENDBLK
  5
3566
330
3564
100
AcDbEntity
  8
0
100
AcDbBlockEnd
  0
BLOCK
  5
3572
330
3571
100
AcDbEntity
  8
0
100
AcDbBlockBegin
  2
*D30
 70
     1
 10
0.0
 20
0.0
 30
0.0
  3
*D30
  1
*D373
  0
LINE
  5
3574
330
3571
100
AcDbEntity
  8
寸法
  6
Continuous
 62
     0
370
    -2
100
AcDbLine
 10
142.5013344569852
 20
135.0994429882005
 30
0.0
 11
156.4431666752365
 21
135.0994429882005
 31
0.0
  0
LINE
  5
3575
330
3571
100
AcDbEntity
  8
寸法
  6
Continuous
 62
     0
370
    -2
100
AcDbLine
 10
139.0013344569852
 20
131.5994429882005
 30
0.0
 11
156.4431666752365
 21
131.5994429882005
 31
0.0
  0
LINE
  5
3576
330
3571
100
AcDbEntity
  8
寸法
  6
Continuous
 62
     0
370
    -2
100
AcDbLine
 10
155.1931666752365
 20
136.5994429882005
 30
0.0
 11
155.1931666752365
 21
138.0994429882005
 31
0.0
  0
LINE
  5
3577
330
3571
100
AcDbEntity
  8
寸法
  6
Continuous
 62
     0
370
    -2
100
AcDbLine
 10
155.1931666752365
 20
130.0994429882005
 30
0.0
 11
155.1931666752365
 21
128.5994429882005
 31
0.0
  0
SOLID
  5
3578
330
3571
100
AcDbEntity
  8
寸法
 62
     0
100
AcDbTrace
 10
154.9431666752365
 20
136.5994429882005
 30
0.0
 11
155.4431666752365
 21
136.5994429882005
 31
0.0
 12
155.1931666752365
 22
135.0994429882005
 32
0.0
 13
155.1931666752365
 23
135.0994429882005
 33
0.0
  0
SOLID
  5
3579
330
3571
100
AcDbEntity
  8
寸法
 62
     0
100
AcDbTrace
 10
155.4431666752365
 20
130.0994429882005
 30
0.0
 11
154.9431666752365
 21
130.0994429882005
 31
0.0
 12
155.1931666752365
 22
131.5994429882005
 32
0.0
 13
155.1931666752365
 23
131.5994429882005
 33
0.0
  0
MTEXT
  5
357A
330
3571
100
AcDbEntity
  8
寸法
  6
Continuous
 62
     0
100
AcDbMText
 10
155.1931666752365
 20
133.1398372556853
 30
0.0
 40
2.0
 41
0.0
 46
0.0
 71
     5
 72
     1
  1
3.5
 73
     1
 44
1.0
  0
POINT
  5
357B
330
3571
100
AcDbEntity
  8
Defpoints
 62
     0
100
AcDbPoint
 10
141.8763344569852
 20
135.0994429882005
 30
0.0
  0
POINT
  5
357C
330
3571
100
AcDbEntity
  8
Defpoints
 62
     0
100
AcDbPoint
 10
138.3763344569852
 20
131.5994429882005
 30
0.0
  0
POINT
  5
357D
330
3571
100
AcDbEntity
  8
Defpoints
 62
     0
100
AcDbPoint
 10
155.1931666752365
 20
131.5994429882005
 30
0.0
  0
ENDBLK
  5
3573
330
3571
100
AcDbEntity
  8
0
100
AcDbBlockEnd
  0
BLOCK
  5
36B7
330
36B6
100
AcDbEntity
  8
0
100
AcDbBlockBegin
  2
*D31
 70
     1
 10
0.0
 20
0.0
 30
0.0
  3
*D31
  1
*D389
  0
LINE
  5
36B9
330
36B6
100
AcDbEntity
  8
寸法
  6
Continuous
 62
     0
370
    -2
100
AcDbLine
 10
140.3763344569852
 20
65.87914175545627
 30
0.0
 11
140.3763344569852
 21
71.01655601532953
 31
0.0
  0
LINE
  5
36BA
330
36B6
100
AcDbEntity
  8
寸法
  6
Continuous
 62
     0
370
    -2
100
AcDbLine
 10
141.8763344569852
 20
65.87914175545627
 30
0.0
 11
141.8763344569852
 21
71.01655601532953
 31
0.0
  0
LINE
  5
36BB
330
36B6
100
AcDbEntity
  8
寸法
  6
Continuous
 62
     0
370
    -2
100
AcDbLine
 10
138.8763344569852
 20
69.76655601532953
 30
0.0
 11
137.3763344569852
 21
69.76655601532953
 31
0.0
  0
LINE
  5
36BC
330
36B6
100
AcDbEntity
  8
寸法
  6
Continuous
 62
     0
370
    -2
100
AcDbLine
 10
143.3763344569852
 20
69.76655601532953
 30
0.0
 11
144.8763344569852
 21
69.76655601532953
 31
0.0
  0
SOLID
  5
36BD
330
36B6
100
AcDbEntity
  8
寸法
 62
     0
100
AcDbTrace
 10
138.8763344569852
 20
69.51655601532953
 30
0.0
 11
138.8763344569852
 21
70.01655601532953
 31
0.0
 12
140.3763344569852
 22
69.76655601532953
 32
0.0
 13
140.3763344569852
 23
69.76655601532953
 33
0.0
  0
SOLID
  5
36BE
330
36B6
100
AcDbEntity
  8
寸法
 62
     0
100
AcDbTrace
 10
143.3763344569852
 20
70.01655601532953
 30
0.0
 11
143.3763344569852
 21
69.51655601532953
 31
0.0
 12
141.8763344569852
 22
69.76655601532953
 32
0.0
 13
141.8763344569852
 23
69.76655601532953
 33
0.0
  0
MTEXT
  5
36BF
330
36B6
100
AcDbEntity
  8
寸法
  6
Continuous
 62
     0
100
AcDbMText
 10
141.2239293443622
 20
71.63597224480706
 30
0.0
 40
2.0
 41
0.0
 46
0.0
 71
     5
 72
     1
  1
1.5
 73
     1
 44
1.0
  0
POINT
  5
36C0
330
36B6
100
AcDbEntity
  8
Defpoints
 62
     0
100
AcDbPoint
 10
140.3763344569852
 20
65.25414175545627
 30
0.0
  0
POINT
  5
36C1
330
36B6
100
AcDbEntity
  8
Defpoints
 62
     0
100
AcDbPoint
 10
141.8763344569852
 20
65.25414175545627
 30
0.0
  0
POINT
  5
36C2
330
36B6
100
AcDbEntity
  8
Defpoints
 62
     0
100
AcDbPoint
 10
141.8763344569852
 20
69.76655601532953
 30
0.0
  0
ENDBLK
  5
36B8
330
36B6
100
AcDbEntity
  8
0
100
AcDbBlockEnd
  0
BLOCK
  5
36D1
330
36D0
100
AcDbEntity
  8
0
100
AcDbBlockBegin
  2
*D32
 70
     1
 10
0.0
 20
0.0
 30
0.0
  3
*D32
  1
*D391
  0
LINE
  5
36D3
330
36D0
100
AcDbEntity
  8
寸法
  6
Continuous
 62
     0
370
    -2
100
AcDbLine
 10
142.5013344569852
 20
64.95414175545628
 30
0.0
 11
149.2947723438073
 21
64.95414175545628
 31
0.0
  0
LINE
  5
36D4
330
36D0
100
AcDbEntity
  8
寸法
  6
Continuous
 62
     0
370
    -2
100
AcDbLine
 10
142.5013344569852
 20
61.25414175545627
 30
0.0
 11
149.2947723438073
 21
61.25414175545627
 31
0.0
  0
LINE
  5
36D5
330
36D0
100
AcDbEntity
  8
寸法
  6
Continuous
 62
     0
370
    -2
100
AcDbLine
 10
148.0447723438073
 20
66.45414175545628
 30
0.0
 11
148.0447723438073
 21
67.95414175545628
 31
0.0
  0
LINE
  5
36D6
330
36D0
100
AcDbEntity
  8
寸法
  6
Continuous
 62
     0
370
    -2
100
AcDbLine
 10
148.0447723438073
 20
59.75414175545627
 30
0.0
 11
148.0447723438073
 21
58.25414175545627
 31
0.0
  0
SOLID
  5
36D7
330
36D0
100
AcDbEntity
  8
寸法
 62
     0
100
AcDbTrace
 10
147.7947723438073
 20
66.45414175545628
 30
0.0
 11
148.2947723438073
 21
66.45414175545628
 31
0.0
 12
148.0447723438073
 22
64.95414175545628
 32
0.0
 13
148.0447723438073
 23
64.95414175545628
 33
0.0
  0
SOLID
  5
36D8
330
36D0
100
AcDbEntity
  8
寸法
 62
     0
100
AcDbTrace
 10
148.2947723438073
 20
59.75414175545627
 30
0.0
 11
147.7947723438073
 21
59.75414175545627
 31
0.0
 12
148.0447723438073
 22
61.25414175545627
 32
0.0
 13
148.0447723438073
 23
61.25414175545627
 33
0.0
  0
MTEXT
  5
36D9
330
36D0
100
AcDbEntity
  8
寸法
  6
Continuous
 62
     0
100
AcDbMText
 10
148.0447723438073
 20
63.42569826399355
 30
0.0
 40
2.0
 41
0.0
 46
0.0
 71
     5
 72
     1
  1
3.7
 73
     1
 44
1.0
  0
POINT
  5
36DA
330
36D0
100
AcDbEntity
  8
Defpoints
 62
     0
100
AcDbPoint
 10
141.8763344569852
 20
64.95414175545628
 30
0.0
  0
POINT
  5
36DB
330
36D0
100
AcDbEntity
  8
Defpoints
 62
     0
100
AcDbPoint
 10
141.8763344569852
 20
61.25414175545627
 30
0.0
  0
POINT
  5
36DC
330
36D0
100
AcDbEntity
  8
Defpoints
 62
     0
100
AcDbPoint
 10
148.0447723438073
 20
61.25414175545627
 30
0.0
  0
ENDBLK
  5
36D2
330
36D0
100
AcDbEntity
  8
0
100
AcDbBlockEnd
  0
BLOCK
  5
371B
330
371A
100
AcDbEntity
  8
0
100
AcDbBlockBegin
  2
*D33
 70
     1
 10
0.0
 20
0.0
 30
0.0
  3
*D33
  1
*D393
  0
LINE
  5
371D
330
371A
100
AcDbEntity
  8
寸法
  6
Continuous
 62
     0
370
    -2
100
AcDbLine
 10
139.1626389456385
 20
101.4814353269914
 30
0.0
 11
143.2696515968616
 21
109.4509955906746
 31
0.0
  0
LINE
  5
371E
330
371A
100
AcDbEntity
  8
寸法
  6
Continuous
 62
     0
370
    -2
100
AcDbLine
 10
140.5209722789719
 20
100.7814353269914
 30
0.0
 11
144.627984930195
 21
108.7509955906746
 31
0.0
  0
LINE
  5
371F
330
371A
100
AcDbEntity
  8
寸法
  6
Continuous
 62
     0
370
    -2
100
AcDbLine
 10
141.3636817152551
 20
109.0269922765261
 30
0.0
 11
140.0303208109553
 21
109.7141230492941
 31
0.0
  0
LINE
  5
3720
330
371A
100
AcDbEntity
  8
寸法
  6
Continuous
 62
     0
370
    -2
100
AcDbLine
 10
145.3887368571882
 20
106.9527307309901
 30
0.0
 11
146.722097761488
 21
106.2655999582221
 31
0.0
  0
SOLID
  5
3721
330
371A
100
AcDbEntity
  8
寸法
 62
     0
100
AcDbTrace
 10
141.2491599197938
 20
108.8047654591428
 30
0.0
 11
141.4782035107164
 21
109.2492190939094
 31
0.0
 12
142.6970426195549
 22
108.3398615037581
 32
0.0
 13
142.6970426195549
 23
108.3398615037581
 33
0.0
  0
SOLID
  5
3722
330
371A
100
AcDbEntity
  8
寸法
 62
     0
100
AcDbTrace
 10
145.5032586526495
 20
107.1749575483734
 30
0.0
 11
145.2742150617268
 21
106.7305039136068
 31
0.0
 12
144.0553759528883
 22
107.6398615037581
 32
0.0
 13
144.0553759528883
 23
107.6398615037581
 33
0.0
  0
MTEXT
  5
3723
330
371A
100
AcDbEntity
  8
寸法
  6
Continuous
 62
     0
100
AcDbMText
 10
149.0373480981437
 20
105.0724648154056
 30
0.0
 40
2.0
 41
0.0
 46
0.0
 71
     5
 72
     1
  1
1.53
 73
     1
 44
1.0
  0
POINT
  5
3724
330
371A
100
AcDbEntity
  8
Defpoints
 62
     0
100
AcDbPoint
 10
138.8763344569852
 20
100.9258682835331
 30
0.0
  0
POINT
  5
3725
330
371A
100
AcDbEntity
  8
Defpoints
 62
     0
100
AcDbPoint
 10
140.2346677903186
 20
100.2258682835331
 30
0.0
  0
POINT
  5
3726
330
371A
100
AcDbEntity
  8
Defpoints
 62
     0
100
AcDbPoint
 10
144.0553759528883
 20
107.6398615037581
 30
0.0
  0
ENDBLK
  5
371C
330
371A
100
AcDbEntity
  8
0
100
AcDbBlockEnd
  0
BLOCK
  5
3774
330
3773
100
AcDbEntity
  8
0
100
AcDbBlockBegin
  2
*D34
 70
     1
 10
0.0
 20
0.0
 30
0.0
  3
*D34
  1
*D398
  0
LINE
  5
3776
330
3773
100
AcDbEntity
  8
寸法
  6
Continuous
 62
     0
370
    -2
100
AcDbLine
 10
140.3763344569852
 20
64.32914175545628
 30
0.0
 11
140.3763344569852
 21
56.50642482525975
 31
0.0
  0
LINE
  5
3777
330
3773
100
AcDbEntity
  8
寸法
  6
Continuous
 62
     0
370
    -2
100
AcDbLine
 10
140.8763344569852
 20
63.12914175545627
 30
0.0
 11
140.8763344569852
 21
56.50642482525975
 31
0.0
  0
LINE
  5
3778
330
3773
100
AcDbEntity
  8
寸法
  6
Continuous
 62
     0
370
    -2
100
AcDbLine
 10
138.8763344569852
 20
57.75642482525975
 30
0.0
 11
137.3763344569852
 21
57.75642482525975
 31
0.0
  0
LINE
  5
3779
330
3773
100
AcDbEntity
  8
寸法
  6
Continuous
 62
     0
370
    -2
100
AcDbLine
 10
142.3763344569852
 20
57.75642482525975
 30
0.0
 11
143.8763344569852
 21
57.75642482525975
 31
0.0
  0
SOLID
  5
377A
330
3773
100
AcDbEntity
  8
寸法
 62
     0
100
AcDbTrace
 10
138.8763344569852
 20
57.50642482525975
 30
0.0
 11
138.8763344569852
 21
58.00642482525975
 31
0.0
 12
140.3763344569852
 22
57.75642482525975
 32
0.0
 13
140.3763344569852
 23
57.75642482525975
 33
0.0
  0
SOLID
  5
377B
330
3773
100
AcDbEntity
  8
寸法
 62
     0
100
AcDbTrace
 10
142.3763344569852
 20
58.00642482525975
 30
0.0
 11
142.3763344569852
 21
57.50642482525975
 31
0.0
 12
140.8763344569852
 22
57.75642482525975
 32
0.0
 13
140.8763344569852
 23
57.75642482525975
 33
0.0
  0
MTEXT
  5
377C
330
3773
100
AcDbEntity
  8
寸法
  6
Continuous
 62
     0
100
AcDbMText
 10
140.6874065087501
 20
55.37165601360192
 30
0.0
 40
2.0
 41
0.0
 46
0.0
 71
     5
 72
     1
  1
0.5
 73
     1
 44
1.0
  0
POINT
  5
377D
330
3773
100
AcDbEntity
  8
Defpoints
 62
     0
100
AcDbPoint
 10
140.3763344569852
 20
64.95414175545628
 30
0.0
  0
POINT
  5
377E
330
3773
100
AcDbEntity
  8
Defpoints
 62
     0
100
AcDbPoint
 10
140.8763344569852
 20
63.75414175545627
 30
0.0
  0
POINT
  5
377F
330
3773
100
AcDbEntity
  8
Defpoints
 62
     0
100
AcDbPoint
 10
140.8763344569852
 20
57.75642482525975
 30
0.0
  0
ENDBLK
  5
3775
330
3773
100
AcDbEntity
  8
0
100
AcDbBlockEnd
  0
BLOCK
  5
379D
330
379C
100
AcDbEntity
  8
0
100
AcDbBlockBegin
  2
*D35
 70
     1
 10
0.0
 20
0.0
 30
0.0
  3
*D35
  1
*D399
  0
LINE
  5
379F
330
379C
100
AcDbEntity
  8
寸法
  6
Continuous
 62
     0
370
    -2
100
AcDbLine
 10
116.2513344569852
 20
132.7994429882005
 30
0.0
 11
112.5720311778079
 21
132.7994429882005
 31
0.0
  0
LINE
  5
37A0
330
379C
100
AcDbEntity
  8
寸法
  6
Continuous
 62
     0
370
    -2
100
AcDbLine
 10
116.2513344569852
 20
131.7994429882005
 30
0.0
 11
112.5720311778079
 21
131.7994429882005
 31
0.0
  0
LINE
  5
37A1
330
379C
100
AcDbEntity
  8
寸法
  6
Continuous
 62
     0
370
    -2
100
AcDbLine
 10
113.8220311778079
 20
134.2994429882005
 30
0.0
 11
113.8220311778079
 21
135.7994429882005
 31
0.0
  0
LINE
  5
37A2
330
379C
100
AcDbEntity
  8
寸法
  6
Continuous
 62
     0
370
    -2
100
AcDbLine
 10
113.8220311778079
 20
130.2994429882005
 30
0.0
 11
113.8220311778079
 21
128.7994429882005
 31
0.0
  0
SOLID
  5
37A3
330
379C
100
AcDbEntity
  8
寸法
 62
     0
100
AcDbTrace
 10
113.5720311778079
 20
134.2994429882005
 30
0.0
 11
114.0720311778079
 21
134.2994429882005
 31
0.0
 12
113.8220311778079
 22
132.7994429882005
 32
0.0
 13
113.8220311778079
 23
132.7994429882005
 33
0.0
  0
SOLID
  5
37A4
330
379C
100
AcDbEntity
  8
寸法
 62
     0
100
AcDbTrace
 10
114.0720311778079
 20
130.2994429882005
 30
0.0
 11
113.5720311778079
 21
130.2994429882005
 31
0.0
 12
113.8220311778079
 22
131.7994429882005
 32
0.0
 13
113.8220311778079
 23
131.7994429882005
 33
0.0
  0
MTEXT
  5
37A5
330
379C
100
AcDbEntity
  8
寸法
  6
Continuous
 62
     0
100
AcDbMText
 10
113.8220311778079
 20
126.4088957442684
 30
0.0
 40
2.0
 41
0.0
 46
0.0
 71
     5
 72
     1
  1
1
 73
     1
 44
1.0
  0
POINT
  5
37A6
330
379C
100
AcDbEntity
  8
Defpoints
 62
     0
100
AcDbPoint
 10
116.8763344569852
 20
132.7994429882005
 30
0.0
  0
POINT
  5
37A7
330
379C
100
AcDbEntity
  8
Defpoints
 62
     0
100
AcDbPoint
 10
116.8763344569852
 20
131.7994429882005
 30
0.0
  0
POINT
  5
37A8
330
379C
100
AcDbEntity
  8
Defpoints
 62
     0
100
AcDbPoint
 10
113.8220311778079
 20
131.7994429882005
 30
0.0
  0
ENDBLK
  5
379E
330
379C
100
AcDbEntity
  8
0
100
AcDbBlockEnd
  0
BLOCK
  5
37F0
330
37EF
100
AcDbEntity
  8
0
100
AcDbBlockBegin
  2
*D36
 70
     1
 10
0.0
 20
0.0
 30
0.0
  3
*D36
  1
*D402
  0
LINE
  5
37F2
330
37EF
100
AcDbEntity
  8
寸法
  6
Continuous
 62
     0
370
    -2
100
AcDbLine
 10
129.6263344569852
 20
131.1744429882005
 30
0.0
 11
129.6263344569852
 21
128.2878248195042
 31
0.0
  0
LINE
  5
37F3
330
37EF
100
AcDbEntity
  8
寸法
  6
Continuous
 62
     0
370
    -2
100
AcDbLine
 10
131.1263344569852
 20
131.1744429882005
 30
0.0
 11
131.1263344569852
 21
128.2878248195042
 31
0.0
  0
LINE
  5
37F4
330
37EF
100
AcDbEntity
  8
寸法
  6
Continuous
 62
     0
370
    -2
100
AcDbLine
 10
128.1263344569852
 20
129.5378248195042
 30
0.0
 11
126.6263344569852
 21
129.5378248195042
 31
0.0
  0
LINE
  5
37F5
330
37EF
100
AcDbEntity
  8
寸法
  6
Continuous
 62
     0
370
    -2
100
AcDbLine
 10
132.6263344569852
 20
129.5378248195042
 30
0.0
 11
134.1263344569852
 21
129.5378248195042
 31
0.0
  0
SOLID
  5
37F6
330
37EF
100
AcDbEntity
  8
寸法
 62
     0
100
AcDbTrace
 10
128.1263344569852
 20
129.2878248195042
 30
0.0
 11
128.1263344569852
 21
129.7878248195042
 31
0.0
 12
129.6263344569852
 22
129.5378248195042
 32
0.0
 13
129.6263344569852
 23
129.5378248195042
 33
0.0
  0
SOLID
  5
37F7
330
37EF
100
AcDbEntity
  8
寸法
 62
     0
100
AcDbTrace
 10
132.6263344569852
 20
129.7878248195042
 30
0.0
 11
132.6263344569852
 21
129.2878248195042
 31
0.0
 12
131.1263344569852
 22
129.5378248195042
 32
0.0
 13
131.1263344569852
 23
129.5378248195042
 33
0.0
  0
MTEXT
  5
37F8
330
37EF
100
AcDbEntity
  8
寸法
  6
Continuous
 62
     0
100
AcDbMText
 10
136.40281529839
 20
129.5378248195042
 30
0.0
 40
2.0
 41
0.0
 46
0.0
 71
     5
 72
     1
  1
1.5
 73
     1
 44
1.0
  0
POINT
  5
37F9
330
37EF
100
AcDbEntity
  8
Defpoints
 62
     0
100
AcDbPoint
 10
129.6263344569852
 20
131.7994429882005
 30
0.0
  0
POINT
  5
37FA
330
37EF
100
AcDbEntity
  8
Defpoints
 62
     0
100
AcDbPoint
 10
131.1263344569852
 20
131.7994429882005
 30
0.0
  0
POINT
  5
37FB
330
37EF
100
AcDbEntity
  8
Defpoints
 62
     0
100
AcDbPoint
 10
131.1263344569852
 20
129.5378248195042
 30
0.0
  0
ENDBLK
  5
37F1
330
37EF
100
AcDbEntity
  8
0
100
AcDbBlockEnd
  0
BLOCK
  5
3820
330
381F
100
AcDbEntity
  8
0
100
AcDbBlockBegin
  2
*D37
 70
     1
 10
0.0
 20
0.0
 30
0.0
  3
*D37
  1
*D405
  0
LINE
  5
3822
330
381F
100
AcDbEntity
  8
寸法
  6
Continuous
 62
     0
370
    -2
100
AcDbLine
 10
113.2513344569852
 20
100.9258682835331
 30
0.0
 11
107.8426171885715
 21
100.9258682835331
 31
0.0
  0
LINE
  5
3823
330
381F
100
AcDbEntity
  8
寸法
  6
Continuous
 62
     0
370
    -2
100
AcDbLine
 10
113.2513344569852
 20
96.92586828353313
 30
0.0
 11
107.8426171885715
 21
96.92586828353313
 31
0.0
  0
LINE
  5
3824
330
381F
100
AcDbEntity
  8
寸法
  6
Continuous
 62
     0
370
    -2
100
AcDbLine
 10
109.0926171885715
 20
102.4258682835331
 30
0.0
 11
109.0926171885715
 21
103.9258682835331
 31
0.0
  0
LINE
  5
3825
330
381F
100
AcDbEntity
  8
寸法
  6
Continuous
 62
     0
370
    -2
100
AcDbLine
 10
109.0926171885715
 20
95.42586828353313
 30
0.0
 11
109.0926171885715
 21
93.92586828353313
 31
0.0
  0
SOLID
  5
3826
330
381F
100
AcDbEntity
  8
寸法
 62
     0
100
AcDbTrace
 10
108.8426171885715
 20
102.4258682835331
 30
0.0
 11
109.3426171885715
 21
102.4258682835331
 31
0.0
 12
109.0926171885715
 22
100.9258682835331
 32
0.0
 13
109.0926171885715
 23
100.9258682835331
 33
0.0
  0
SOLID
  5
3827
330
381F
100
AcDbEntity
  8
寸法
 62
     0
100
AcDbTrace
 10
109.3426171885715
 20
95.42586828353313
 30
0.0
 11
108.8426171885715
 21
95.42586828353313
 31
0.0
 12
109.0926171885715
 22
96.92586828353313
 32
0.0
 13
109.0926171885715
 23
96.92586828353313
 33
0.0
  0
MTEXT
  5
3828
330
381F
100
AcDbEntity
  8
寸法
  6
Continuous
 62
     0
100
AcDbMText
 10
107.4957857371429
 20
98.87467785142847
 30
0.0
 40
2.0
 41
0.0
 46
0.0
 71
     5
 72
     1
  1
4
 73
     1
 44
1.0
  0
POINT
  5
3829
330
381F
100
AcDbEntity
  8
Defpoints
 62
     0
100
AcDbPoint
 10
113.8763344569852
 20
100.9258682835331
 30
0.0
  0
POINT
  5
382A
330
381F
100
AcDbEntity
  8
Defpoints
 62
     0
100
AcDbPoint
 10
113.8763344569852
 20
96.92586828353313
 30
0.0
  0
POINT
  5
382B
330
381F
100
AcDbEntity
  8
Defpoints
 62
     0
100
AcDbPoint
 10
109.0926171885715
 20
96.92586828353313
 30
0.0
  0
ENDBLK
  5
3821
330
381F
100
AcDbEntity
  8
0
100
AcDbBlockEnd
  0
BLOCK
  5
3830
330
382F
100
AcDbEntity
  8
0
100
AcDbBlockBegin
  2
*D38
 70
     1
 10
0.0
 20
0.0
 30
0.0
  3
*D38
  1
*D406
  0
LINE
  5
3832
330
382F
100
AcDbEntity
  8
寸法
  6
Continuous
 62
     0
370
    -2
100
AcDbLine
 10
113.2513344569852
 20
102.4258682835331
 30
0.0
 11
107.8426171885715
 21
102.4258682835331
 31
0.0
  0
LINE
  5
3833
330
382F
100
AcDbEntity
  8
寸法
  6
Continuous
 62
     0
370
    -2
100
AcDbLine
 10
113.2513344569852
 20
100.9258682835331
 30
0.0
 11
107.8426171885715
 21
100.9258682835331
 31
0.0
  0
LINE
  5
3834
330
382F
100
AcDbEntity
  8
寸法
  6
Continuous
 62
     0
370
    -2
100
AcDbLine
 10
109.0926171885715
 20
103.9258682835331
 30
0.0
 11
109.0926171885715
 21
105.4258682835331
 31
0.0
  0
LINE
  5
3835
330
382F
100
AcDbEntity
  8
寸法
  6
Continuous
 62
     0
370
    -2
100
AcDbLine
 10
109.0926171885715
 20
99.4258682835331
 30
0.0
 11
109.0926171885715
 21
97.9258682835331
 31
0.0
  0
SOLID
  5
3836
330
382F
100
AcDbEntity
  8
寸法
 62
     0
100
AcDbTrace
 10
108.8426171885715
 20
103.9258682835331
 30
0.0
 11
109.3426171885715
 21
103.9258682835331
 31
0.0
 12
109.0926171885715
 22
102.4258682835331
 32
0.0
 13
109.0926171885715
 23
102.4258682835331
 33
0.0
  0
SOLID
  5
3837
330
382F
100
AcDbEntity
  8
寸法
 62
     0
100
AcDbTrace
 10
109.3426171885715
 20
99.4258682835331
 30
0.0
 11
108.8426171885715
 21
99.4258682835331
 31
0.0
 12
109.0926171885715
 22
100.9258682835331
 32
0.0
 13
109.0926171885715
 23
100.9258682835331
 33
0.0
  0
MTEXT
  5
3838
330
382F
100
AcDbEntity
  8
寸法
  6
Continuous
 62
     0
100
AcDbMText
 10
106.4517036342858
 20
101.020874449002
 30
0.0
 40
2.0
 41
0.0
 46
0.0
 71
     5
 72
     1
  1
1.5
 73
     1
 44
1.0
  0
POINT
  5
3839
330
382F
100
AcDbEntity
  8
Defpoints
 62
     0
100
AcDbPoint
 10
113.8763344569852
 20
102.4258682835331
 30
0.0
  0
POINT
  5
383A
330
382F
100
AcDbEntity
  8
Defpoints
 62
     0
100
AcDbPoint
 10
113.8763344569852
 20
100.9258682835331
 30
0.0
  0
POINT
  5
383B
330
382F
100
AcDbEntity
  8
Defpoints
 62
     0
100
AcDbPoint
 10
109.0926171885715
 20
100.9258682835331
 30
0.0
  0
ENDBLK
  5
3831
330
382F
100
AcDbEntity
  8
0
100
AcDbBlockEnd
  0
BLOCK
  5
3841
330
3840
100
AcDbEntity
  8
0
100
AcDbBlockBegin
  2
*D39
 70
     1
 10
0.0
 20
0.0
 30
0.0
  3
*D39
  1
*D407
  0
LINE
  5
3843
330
3840
100
AcDbEntity
  8
寸法
  6
Continuous
 62
     0
370
    -2
100
AcDbLine
 10
113.8763344569852
 20
103.0508682835331
 30
0.0
 11
113.8763344569852
 21
108.6758682835331
 31
0.0
  0
LINE
  5
3844
330
3840
100
AcDbEntity
  8
寸法
  6
Continuous
 62
     0
370
    -2
100
AcDbLine
 10
116.8763344569852
 20
103.0508682835331
 30
0.0
 11
116.8763344569852
 21
108.6758682835331
 31
0.0
  0
LINE
  5
3845
330
3840
100
AcDbEntity
  8
寸法
  6
Continuous
 62
     0
370
    -2
100
AcDbLine
 10
112.3763344569852
 20
107.4258682835331
 30
0.0
 11
110.8763344569852
 21
107.4258682835331
 31
0.0
  0
LINE
  5
3846
330
3840
100
AcDbEntity
  8
寸法
  6
Continuous
 62
     0
370
    -2
100
AcDbLine
 10
118.3763344569852
 20
107.4258682835331
 30
0.0
 11
119.8763344569852
 21
107.4258682835331
 31
0.0
  0
SOLID
  5
3847
330
3840
100
AcDbEntity
  8
寸法
 62
     0
100
AcDbTrace
 10
112.3763344569852
 20
107.1758682835331
 30
0.0
 11
112.3763344569852
 21
107.6758682835331
 31
0.0
 12
113.8763344569852
 22
107.4258682835331
 32
0.0
 13
113.8763344569852
 23
107.4258682835331
 33
0.0
  0
SOLID
  5
3848
330
3840
100
AcDbEntity
  8
寸法
 62
     0
100
AcDbTrace
 10
118.3763344569852
 20
107.6758682835331
 30
0.0
 11
118.3763344569852
 21
107.1758682835331
 31
0.0
 12
116.8763344569852
 22
107.4258682835331
 32
0.0
 13
116.8763344569852
 23
107.4258682835331
 33
0.0
  0
MTEXT
  5
3849
330
3840
100
AcDbEntity
  8
寸法
  6
Continuous
 62
     0
100
AcDbMText
 10
115.2342766171429
 20
107.4258682835331
 30
0.0
 40
2.0
 41
0.0
 46
0.0
 71
     5
 72
     1
  1
3
 73
     1
 44
1.0
  0
POINT
  5
384A
330
3840
100
AcDbEntity
  8
Defpoints
 62
     0
100
AcDbPoint
 10
113.8763344569852
 20
102.4258682835331
 30
0.0
  0
POINT
  5
384B
330
3840
100
AcDbEntity
  8
Defpoints
 62
     0
100
AcDbPoint
 10
116.8763344569852
 20
102.4258682835331
 30
0.0
  0
POINT
  5
384C
330
3840
100
AcDbEntity
  8
Defpoints
 62
     0
100
AcDbPoint
 10
116.8763344569852
 20
107.4258682835331
 30
0.0
  0
ENDBLK
  5
3842
330
3840
100
AcDbEntity
  8
0
100
AcDbBlockEnd
  0
BLOCK
  5
3972
330
3971
100
AcDbEntity
  8
0
100
AcDbBlockBegin
  2
*D40
 70
     1
 10
0.0
 20
0.0
 30
0.0
  3
*D40
  1
*D421
  0
LINE
  5
3974
330
3971
100
AcDbEntity
  8
寸法
  6
Continuous
 62
     0
370
    -2
100
AcDbLine
 10
116.8763344569852
 20
67.87914175545627
 30
0.0
 11
116.8763344569852
 21
80.44937490334053
 31
0.0
  0
LINE
  5
3975
330
3971
100
AcDbEntity
  8
寸法
  6
Continuous
 62
     0
370
    -2
100
AcDbLine
 10
113.8763344569852
 20
67.87914175545627
 30
0.0
 11
113.8763344569852
 21
80.44937490334053
 31
0.0
  0
LINE
  5
3976
330
3971
100
AcDbEntity
  8
寸法
  6
Continuous
 62
     0
370
    -2
100
AcDbLine
 10
118.3763344569852
 20
79.19937490334053
 30
0.0
 11
119.8763344569852
 21
79.19937490334053
 31
0.0
  0
LINE
  5
3977
330
3971
100
AcDbEntity
  8
寸法
  6
Continuous
 62
     0
370
    -2
100
AcDbLine
 10
112.3763344569852
 20
79.19937490334053
 30
0.0
 11
110.8763344569852
 21
79.19937490334053
 31
0.0
  0
SOLID
  5
3978
330
3971
100
AcDbEntity
  8
寸法
 62
     0
100
AcDbTrace
 10
118.3763344569852
 20
79.44937490334053
 30
0.0
 11
118.3763344569852
 21
78.94937490334053
 31
0.0
 12
116.8763344569852
 22
79.19937490334053
 32
0.0
 13
116.8763344569852
 23
79.19937490334053
 33
0.0
  0
SOLID
  5
3979
330
3971
100
AcDbEntity
  8
寸法
 62
     0
100
AcDbTrace
 10
112.3763344569852
 20
78.94937490334053
 30
0.0
 11
112.3763344569852
 21
79.44937490334053
 31
0.0
 12
113.8763344569852
 22
79.19937490334053
 32
0.0
 13
113.8763344569852
 23
79.19937490334053
 33
0.0
  0
MTEXT
  5
397A
330
3971
100
AcDbEntity
  8
寸法
  6
Continuous
 62
     0
100
AcDbMText
 10
115.2314505233217
 20
79.36933383215231
 30
0.0
 40
2.0
 41
0.0
 46
0.0
 71
     5
 72
     1
  1
3
 73
     1
 44
1.0
  0
POINT
  5
397B
330
3971
100
AcDbEntity
  8
Defpoints
 62
     0
100
AcDbPoint
 10
116.8763344569852
 20
67.25414175545627
 30
0.0
  0
POINT
  5
397C
330
3971
100
AcDbEntity
  8
Defpoints
 62
     0
100
AcDbPoint
 10
113.8763344569852
 20
67.25414175545627
 30
0.0
  0
POINT
  5
397D
330
3971
100
AcDbEntity
  8
Defpoints
 62
     0
100
AcDbPoint
 10
113.8763344569852
 20
79.19937490334053
 30
0.0
  0
ENDBLK
  5
3973
330
3971
100
AcDbEntity
  8
0
100
AcDbBlockEnd
  0
BLOCK
  5
3982
330
3981
100
AcDbEntity
  8
0
100
AcDbBlockBegin
  2
*D41
 70
     1
 10
0.0
 20
0.0
 30
0.0
  3
*D41
  1
*D422
  0
LINE
  5
3984
330
3981
100
AcDbEntity
  8
寸法
  6
Continuous
 62
     0
370
    -2
100
AcDbLine
 10
117.5013344569852
 20
67.25414175545627
 30
0.0
 11
122.0056675633018
 21
67.25414175545627
 31
0.0
  0
LINE
  5
3985
330
3981
100
AcDbEntity
  8
寸法
  6
Continuous
 62
     0
370
    -2
100
AcDbLine
 10
117.5013344569852
 20
65.50414175545627
 30
0.0
 11
122.0056675633018
 21
65.50414175545627
 31
0.0
  0
LINE
  5
3986
330
3981
100
AcDbEntity
  8
寸法
  6
Continuous
 62
     0
370
    -2
100
AcDbLine
 10
120.7556675633018
 20
68.75414175545627
 30
0.0
 11
120.7556675633018
 21
70.25414175545627
 31
0.0
  0
LINE
  5
3987
330
3981
100
AcDbEntity
  8
寸法
  6
Continuous
 62
     0
370
    -2
100
AcDbLine
 10
120.7556675633018
 20
64.00414175545627
 30
0.0
 11
120.7556675633018
 21
62.50414175545627
 31
0.0
  0
SOLID
  5
3988
330
3981
100
AcDbEntity
  8
寸法
 62
     0
100
AcDbTrace
 10
120.5056675633018
 20
68.75414175545627
 30
0.0
 11
121.0056675633018
 21
68.75414175545627
 31
0.0
 12
120.7556675633018
 22
67.25414175545627
 32
0.0
 13
120.7556675633018
 23
67.25414175545627
 33
0.0
  0
SOLID
  5
3989
330
3981
100
AcDbEntity
  8
寸法
 62
     0
100
AcDbTrace
 10
121.0056675633018
 20
64.00414175545627
 30
0.0
 11
120.5056675633018
 21
64.00414175545627
 31
0.0
 12
120.7556675633018
 22
65.50414175545627
 32
0.0
 13
120.7556675633018
 23
65.50414175545627
 33
0.0
  0
MTEXT
  5
398A
330
3981
100
AcDbEntity
  8
寸法
  6
Continuous
 62
     0
100
AcDbMText
 10
121.3291856069995
 20
70.70433698470912
 30
0.0
 40
2.0
 41
0.0
 46
0.0
 71
     5
 72
     1
  1
1.75
 73
     1
 44
1.0
  0
POINT
  5
398B
330
3981
100
AcDbEntity
  8
Defpoints
 62
     0
100
AcDbPoint
 10
116.8763344569852
 20
67.25414175545627
 30
0.0
  0
POINT
  5
398C
330
3981
100
AcDbEntity
  8
Defpoints
 62
     0
100
AcDbPoint
 10
116.8763344569852
 20
65.50414175545627
 30
0.0
  0
POINT
  5
398D
330
3981
100
AcDbEntity
  8
Defpoints
 62
     0
100
AcDbPoint
 10
120.7556675633018
 20
65.50414175545627
 30
0.0
  0
ENDBLK
  5
3983
330
3981
100
AcDbEntity
  8
0
100
AcDbBlockEnd
  0
BLOCK
  5
3992
330
3991
100
AcDbEntity
  8
0
100
AcDbBlockBegin
  2
*D42
 70
     1
 10
0.0
 20
0.0
 30
0.0
  3
*D42
  1
*D423
  0
LINE
  5
3994
330
3991
100
AcDbEntity
  8
寸法
  6
Continuous
 62
     0
370
    -2
100
AcDbLine
 10
116.6763344569852
 20
64.37914175545627
 30
0.0
 11
116.6763344569852
 21
74.50710063320516
 31
0.0
  0
LINE
  5
3995
330
3991
100
AcDbEntity
  8
寸法
  6
Continuous
 62
     0
370
    -2
100
AcDbLine
 10
116.8763344569852
 20
67.87914175545627
 30
0.0
 11
116.8763344569852
 21
74.50710063320516
 31
0.0
  0
LINE
  5
3996
330
3991
100
AcDbEntity
  8
寸法
  6
Continuous
 62
     0
370
    -2
100
AcDbLine
 10
115.1763344569852
 20
73.25710063320516
 30
0.0
 11
113.6763344569852
 21
73.25710063320516
 31
0.0
  0
LINE
  5
3997
330
3991
100
AcDbEntity
  8
寸法
  6
Continuous
 62
     0
370
    -2
100
AcDbLine
 10
118.3763344569852
 20
73.25710063320516
 30
0.0
 11
119.8763344569852
 21
73.25710063320516
 31
0.0
  0
SOLID
  5
3998
330
3991
100
AcDbEntity
  8
寸法
 62
     0
100
AcDbTrace
 10
115.1763344569852
 20
73.00710063320516
 30
0.0
 11
115.1763344569852
 21
73.50710063320516
 31
0.0
 12
116.6763344569852
 22
73.25710063320516
 32
0.0
 13
116.6763344569852
 23
73.25710063320516
 33
0.0
  0
SOLID
  5
3999
330
3991
100
AcDbEntity
  8
寸法
 62
     0
100
AcDbTrace
 10
118.3763344569852
 20
73.50710063320516
 30
0.0
 11
118.3763344569852
 21
73.00710063320516
 31
0.0
 12
116.8763344569852
 22
73.25710063320516
 32
0.0
 13
116.8763344569852
 23
73.25710063320516
 33
0.0
  0
MTEXT
  5
399A
330
3991
100
AcDbEntity
  8
寸法
  6
Continuous
 62
     0
100
AcDbMText
 10
121.9935242557937
 20
73.79040516891234
 30
0.0
 40
2.0
 41
0.0
 46
0.0
 71
     5
 72
     1
  1
0.2
 73
     1
 44
1.0
  0
POINT
  5
399B
330
3991
100
AcDbEntity
  8
Defpoints
 62
     0
100
AcDbPoint
 10
116.6763344569852
 20
63.75414175545627
 30
0.0
  0
POINT
  5
399C
330
3991
100
AcDbEntity
  8
Defpoints
 62
     0
100
AcDbPoint
 10
116.8763344569852
 20
67.25414175545627
 30
0.0
  0
POINT
  5
399D
330
3991
100
AcDbEntity
  8
Defpoints
 62
     0
100
AcDbPoint
 10
116.8763344569852
 20
73.25710063320516
 30
0.0
  0
ENDBLK
  5
3993
330
3991
100
AcDbEntity
  8
0
100
AcDbBlockEnd
  0
BLOCK
  5
39A2
330
39A1
100
AcDbEntity
  8
0
100
AcDbBlockBegin
  2
*D43
 70
     1
 10
0.0
 20
0.0
 30
0.0
  3
*D43
  1
*D424
  0
LINE
  5
39A4
330
39A1
100
AcDbEntity
  8
寸法
  6
Continuous
 62
     0
370
    -2
100
AcDbLine
 10
140.3763344569852
 20
65.57914175545628
 30
0.0
 11
140.3763344569852
 21
68.08705010490506
 31
0.0
  0
LINE
  5
39A5
330
39A1
100
AcDbEntity
  8
寸法
  6
Continuous
 62
     0
370
    -2
100
AcDbLine
 10
140.6763344569852
 20
65.57914175545628
 30
0.0
 11
140.6763344569852
 21
68.08705010490506
 31
0.0
  0
LINE
  5
39A6
330
39A1
100
AcDbEntity
  8
寸法
  6
Continuous
 62
     0
370
    -2
100
AcDbLine
 10
138.8763344569852
 20
66.83705010490506
 30
0.0
 11
137.3763344569852
 21
66.83705010490506
 31
0.0
  0
LINE
  5
39A7
330
39A1
100
AcDbEntity
  8
寸法
  6
Continuous
 62
     0
370
    -2
100
AcDbLine
 10
142.1763344569852
 20
66.83705010490506
 30
0.0
 11
143.6763344569852
 21
66.83705010490506
 31
0.0
  0
SOLID
  5
39A8
330
39A1
100
AcDbEntity
  8
寸法
 62
     0
100
AcDbTrace
 10
138.8763344569852
 20
66.58705010490506
 30
0.0
 11
138.8763344569852
 21
67.08705010490506
 31
0.0
 12
140.3763344569852
 22
66.83705010490506
 32
0.0
 13
140.3763344569852
 23
66.83705010490506
 33
0.0
  0
SOLID
  5
39A9
330
39A1
100
AcDbEntity
  8
寸法
 62
     0
100
AcDbTrace
 10
142.1763344569852
 20
67.08705010490506
 30
0.0
 11
142.1763344569852
 21
66.58705010490506
 31
0.0
 12
140.6763344569852
 22
66.83705010490506
 32
0.0
 13
140.6763344569852
 23
66.83705010490506
 33
0.0
  0
MTEXT
  5
39AA
330
39A1
100
AcDbEntity
  8
寸法
  6
Continuous
 62
     0
100
AcDbMText
 10
135.0595681831352
 20
66.83705010490506
 30
0.0
 40
2.0
 41
0.0
 46
0.0
 71
     5
 72
     1
  1
0.3
 73
     1
 44
1.0
  0
POINT
  5
39AB
330
39A1
100
AcDbEntity
  8
Defpoints
 62
     0
100
AcDbPoint
 10
140.3763344569852
 20
64.95414175545628
 30
0.0
  0
POINT
  5
39AC
330
39A1
100
AcDbEntity
  8
Defpoints
 62
     0
100
AcDbPoint
 10
140.6763344569852
 20
64.95414175545628
 30
0.0
  0
POINT
  5
39AD
330
39A1
100
AcDbEntity
  8
Defpoints
 62
     0
100
AcDbPoint
 10
140.6763344569852
 20
66.83705010490506
 30
0.0
  0
ENDBLK
  5
39A3
330
39A1
100
AcDbEntity
  8
0
100
AcDbBlockEnd
  0
BLOCK
  5
39B6
330
39B5
100
AcDbEntity
  8
0
100
AcDbBlockBegin
  2
*D44
 70
     1
 10
0.0
 20
0.0
 30
0.0
  3
*D44
  1
*D425
  0
LINE
  5
39B8
330
39B5
100
AcDbEntity
  8
寸法
  6
Continuous
 62
     0
370
    -2
100
AcDbLine
 10
140.3763344569852
 20
64.32914175545628
 30
0.0
 11
140.3763344569852
 21
58.23558431276351
 31
0.0
  0
LINE
  5
39B9
330
39B5
100
AcDbEntity
  8
寸法
  6
Continuous
 62
     0
370
    -2
100
AcDbLine
 10
140.4763344569852
 20
64.0891417554563
 30
0.0
 11
140.4763344569852
 21
58.23558431276351
 31
0.0
  0
LINE
  5
39BA
330
39B5
100
AcDbEntity
  8
寸法
  6
Continuous
 62
     0
370
    -2
100
AcDbLine
 10
138.8763344569852
 20
59.48558431276351
 30
0.0
 11
137.3763344569852
 21
59.48558431276351
 31
0.0
  0
LINE
  5
39BB
330
39B5
100
AcDbEntity
  8
寸法
  6
Continuous
 62
     0
370
    -2
100
AcDbLine
 10
141.9763344569852
 20
59.48558431276351
 30
0.0
 11
143.4763344569852
 21
59.48558431276351
 31
0.0
  0
SOLID
  5
39BC
330
39B5
100
AcDbEntity
  8
寸法
 62
     0
100
AcDbTrace
 10
138.8763344569852
 20
59.23558431276351
 30
0.0
 11
138.8763344569852
 21
59.73558431276351
 31
0.0
 12
140.3763344569852
 22
59.48558431276351
 32
0.0
 13
140.3763344569852
 23
59.48558431276351
 33
0.0
  0
SOLID
  5
39BD
330
39B5
100
AcDbEntity
  8
寸法
 62
     0
100
AcDbTrace
 10
141.9763344569852
 20
59.73558431276351
 30
0.0
 11
141.9763344569852
 21
59.23558431276351
 31
0.0
 12
140.4763344569852
 22
59.48558431276351
 32
0.0
 13
140.4763344569852
 23
59.48558431276351
 33
0.0
  0
MTEXT
  5
39BE
330
39B5
100
AcDbEntity
  8
寸法
  6
Continuous
 62
     0
100
AcDbMText
 10
136.0116533826688
 20
59.48558431276351
 30
0.0
 40
2.0
 41
0.0
 46
0.0
 71
     5
 72
     1
  1
0.1
 73
     1
 44
1.0
  0
POINT
  5
39BF
330
39B5
100
AcDbEntity
  8
Defpoints
 62
     0
100
AcDbPoint
 10
140.3763344569852
 20
64.95414175545628
 30
0.0
  0
POINT
  5
39C0
330
39B5
100
AcDbEntity
  8
Defpoints
 62
     0
100
AcDbPoint
 10
140.4763344569852
 20
64.7141417554563
 30
0.0
  0
POINT
  5
39C1
330
39B5
100
AcDbEntity
  8
Defpoints
 62
     0
100
AcDbPoint
 10
140.4763344569852
 20
59.48558431276351
 30
0.0
  0
ENDBLK
  5
39B7
330
39B5
100
AcDbEntity
  8
0
100
AcDbBlockEnd
  0
BLOCK
  5
3ADA
330
3AD9
100
AcDbEntity
  8
0
100
AcDbBlockBegin
  2
*D45
 70
     1
 10
0.0
 20
0.0
 30
0.0
  3
*D45
  1

  0
LINE
  5
3ADC
330
3AD9
100
AcDbEntity
  8
寸法
  6
Continuous
 62
     0
370
    -2
100
AcDbLine
 10
113.2513344569852
 20
93.42586828353313
 30
0.0
 11
107.6263344569852
 21
93.42586828353313
 31
0.0
  0
LINE
  5
3ADD
330
3AD9
100
AcDbEntity
  8
寸法
  6
Continuous
 62
     0
370
    -2
100
AcDbLine
 10
114.4513344569852
 20
96.42586828353313
 30
0.0
 11
107.6263344569852
 21
96.42586828353313
 31
0.0
  0
LINE
  5
3ADE
330
3AD9
100
AcDbEntity
  8
寸法
  6
Continuous
 62
     0
370
    -2
100
AcDbLine
 10
108.8763344569852
 20
91.92586828353313
 30
0.0
 11
108.8763344569852
 21
90.42586828353313
 31
0.0
  0
LINE
  5
3ADF
330
3AD9
100
AcDbEntity
  8
寸法
  6
Continuous
 62
     0
370
    -2
100
AcDbLine
 10
108.8763344569852
 20
97.92586828353313
 30
0.0
 11
108.8763344569852
 21
99.42586828353313
 31
0.0
  0
SOLID
  5
3AE0
330
3AD9
100
AcDbEntity
  8
寸法
 62
     0
100
AcDbTrace
 10
109.1263344569852
 20
91.92586828353313
 30
0.0
 11
108.6263344569852
 21
91.92586828353313
 31
0.0
 12
108.8763344569852
 22
93.42586828353313
 32
0.0
 13
108.8763344569852
 23
93.42586828353313
 33
0.0
  0
SOLID
  5
3AE1
330
3AD9
100
AcDbEntity
  8
寸法
 62
     0
100
AcDbTrace
 10
108.6263344569852
 20
97.92586828353313
 30
0.0
 11
109.1263344569852
 21
97.92586828353313
 31
0.0
 12
108.8763344569852
 22
96.42586828353313
 32
0.0
 13
108.8763344569852
 23
96.42586828353313
 33
0.0
  0
MTEXT
  5
3AE2
330
3AD9
100
AcDbEntity
  8
寸法
  6
Continuous
 62
     0
100
AcDbMText
 10
108.8763344569852
 20
94.84496407627282
 30
0.0
 40
2.0
 41
0.0
 46
0.0
 71
     5
 72
     1
  1
3
 73
     1
 44
1.0
  0
POINT
  5
3AE3
330
3AD9
100
AcDbEntity
  8
Defpoints
 62
     0
100
AcDbPoint
 10
113.8763344569852
 20
93.42586828353313
 30
0.0
  0
POINT
  5
3AE4
330
3AD9
100
AcDbEntity
  8
Defpoints
 62
     0
100
AcDbPoint
 10
115.0763344569852
 20
96.42586828353313
 30
0.0
  0
POINT
  5
3AE5
330
3AD9
100
AcDbEntity
  8
Defpoints
 62
     0
100
AcDbPoint
 10
108.8763344569852
 20
96.42586828353313
 30
0.0
  0
ENDBLK
  5
3ADB
330
3AD9
100
AcDbEntity
  8
0
100
AcDbBlockEnd
  0
ENDSEC
  0
SECTION
  2
ENTITIES
  0
LINE
  5
664
330
1F
100
AcDbEntity
  8
用紙範囲
  6
HIDDEN
100
AcDbLine
 10
0.0
 20
205.0
 30
0.0
 11
0.0
 21
0.0
 31
0.0
  0
LINE
  5
665
330
1F
100
AcDbEntity
  8
用紙範囲
  6
HIDDEN
100
AcDbLine
 10
292.0
 20
205.0
 30
0.0
 11
292.0
 21
0.0
 31
0.0
  0
LINE
  5
666
330
1F
100
AcDbEntity
  8
用紙範囲
  6
HIDDEN
100
AcDbLine
 10
0.0
 20
205.0
 30
0.0
 11
292.0
 21
205.0
 31
0.0
  0
LINE
  5
667
330
1F
100
AcDbEntity
  8
用紙範囲
  6
HIDDEN
100
AcDbLine
 10
0.0
 20
0.0
 30
0.0
 11
292.0
 21
0.0
 31
0.0
  0
LINE
  5
668
330
1F
100
AcDbEntity
  8
枠
  6
Continuous
100
AcDbLine
 10
11.00000000000003
 20
193.5
 30
0.0
 11
281.0
 21
193.5
 31
0.0
  0
LINE
  5
669
330
1F
100
AcDbEntity
  8
枠
  6
Continuous
100
AcDbLine
 10
11.00000000000003
 20
11.5
 30
0.0
 11
281.0
 21
11.5
 31
0.0
  0
LINE
  5
66A
330
1F
100
AcDbEntity
  8
枠
  6
Continuous
100
AcDbLine
 10
11.00000000000003
 20
193.5
 30
0.0
 11
11.00000000000003
 21
11.5
 31
0.0
  0
LINE
  5
66B
330
1F
100
AcDbEntity
  8
枠
  6
Continuous
100
AcDbLine
 10
281.0
 20
193.5
 30
0.0
 11
281.0
 21
11.5
 31
0.0
  0
LINE
  5
673
330
1F
100
AcDbEntity
  8
枠
  6
Continuous
100
AcDbLine
 10
10.00000000000003
 20
194.5
 30
0.0
 11
282.0
 21
194.5
 31
0.0
  0
LINE
  5
674
330
1F
100
AcDbEntity
  8
枠
  6
Continuous
100
AcDbLine
 10
10.00000000000003
 20
194.5
 30
0.0
 11
10.00000000000003
 21
10.5
 31
0.0
  0
LINE
  5
675
330
1F
100
AcDbEntity
  8
枠
  6
Continuous
100
AcDbLine
 10
10.00000000000003
 20
10.5
 30
0.0
 11
282.0
 21
10.5
 31
0.0
  0
LINE
  5
676
330
1F
100
AcDbEntity
  8
枠
  6
Continuous
100
AcDbLine
 10
282.0
 20
194.5
 30
0.0
 11
282.0
 21
10.5
 31
0.0
  0
LINE
  5
677
330
1F
100
AcDbEntity
  8
枠
  6
Continuous
100
AcDbLine
 10
236.0
 20
193.5
 30
0.0
 11
236.0
 21
11.5
 31
0.0
  0
LINE
  5
678
330
1F
100
AcDbEntity
  8
枠
  6
Continuous
100
AcDbLine
 10
236.0
 20
171.3660465293556
 30
0.0
 11
281.0
 21
171.3660465293556
 31
0.0
  0
LINE
  5
679
330
1F
100
AcDbEntity
  8
枠
  6
Continuous
100
AcDbLine
 10
236.0
 20
149.2320930587111
 30
0.0
 11
281.0
 21
149.2320930587111
 31
0.0
  0
LINE
  5
67A
330
1F
100
AcDbEntity
  8
枠
  6
Continuous
100
AcDbLine
 10
236.0
 20
31.87291584484291
 30
0.0
 11
281.0
 21
31.87291584484291
 31
0.0
  0
LINE
  5
67B
330
1F
100
AcDbEntity
  8
枠
  6
Continuous
100
AcDbLine
 10
236.0
 20
41.88960476803794
 30
0.0
 11
281.0
 21
41.88960476803794
 31
0.0
  0
LINE
  5
67D
330
1F
100
AcDbEntity
  8
枠
  6
Continuous
100
AcDbLine
 10
235.0
 20
193.5
 30
0.0
 11
235.0
 21
11.5
 31
0.0
  0
MTEXT
  5
A15
330
1F
100
AcDbEntity
  8
文字
100
AcDbMText
 10
238.0774350305441
 20
192.0038694137743
 30
0.0
 40
2.5
 41
19.50744578598591
 46
2.8275
 71
     1
 72
     5
  1
{\fＭＳ Ｐゴシック|b0|i0|c0|p0;名称}
 73
     1
 44
1.0
1001
ACAD
1000
ACAD_MTEXT_DEFINED_HEIGHT_BEGIN
1070
    46
1040
2.8275
1000
ACAD_MTEXT_DEFINED_HEIGHT_END
  0
MTEXT
  5
A17
330
1F
100
AcDbEntity
  8
文字
100
AcDbMText
 10
236.0
 20
183.859332666015
 30
0.0
 40
2.5
 41
45.0
 46
6.964166666666667
 71
     1
 72
     5
  1
\fＭＳ Ｐゴシック|b0|i0|c0|p0;Ｐｒｅｖｉｏ T\Pタイルカーペット用}
 73
     1
 44
1.0
1001
ACAD
1000
ACAD_MTEXT_DEFINED_HEIGHT_BEGIN
1070
    46
1040
6.964166666666667
1000
ACAD_MTEXT_DEFINED_HEIGHT_END
  0
MTEXT
  5
A18
330
1F
100
AcDbEntity
  8
文字
100
AcDbMText
 10
238.0774350305441
 20
169.6766048811238
 30
0.0
 40
2.5
 41
12.9189203585147
 46
2.84
 71
     1
 72
     5
  1
{\fＭＳ Ｐゴシック|b0|i0|c0|p0;品番}
 73
     1
 44
1.0
1001
ACAD
1000
ACAD_MTEXT_DEFINED_HEIGHT_BEGIN
1070
    46
1040
2.84
1000
ACAD_MTEXT_DEFINED_HEIGHT_END
  0
MTEXT
  5
A1C
330
1F
100
AcDbEntity
  8
文字
100
AcDbMText
 10
238.0774350305441
 20
148.0690084662711
 30
0.0
 40
2.5
 41
9.970036363636382
 46
2.8125
 71
     1
 72
     5
  1
{\fＭＳ Ｐゴシック|b0|i0|c0|p0;仕様}
 73
     1
 44
1.0
1001
ACAD
1000
ACAD_MTEXT_DEFINED_HEIGHT_BEGIN
1070
    46
1040
2.8125
1000
ACAD_MTEXT_DEFINED_HEIGHT_END
  0
MTEXT
  5
A1D
330
1F
100
AcDbEntity
  8
文字
100
AcDbMText
 10
245.3794334940524
 20
138.8428917133901
 30
0.0
 40
2.0
 41
31.03349346991041
 46
2.33
 71
     1
 72
     5
  1
{\fＭＳ Ｐゴシック|b0|i0|c0|p0;材質：アルミ製}
 73
     1
 44
1.0
1001
ACAD
1000
ACAD_MTEXT_DEFINED_HEIGHT_BEGIN
1070
    46
1040
2.33
1000
ACAD_MTEXT_DEFINED_HEIGHT_END
  0
MTEXT
  5
A1E
330
1F
100
AcDbEntity
  8
文字
100
AcDbMText
 10
245.3794334940524
 20
130.5090576528301
 30
0.0
 40
2.0
 41
31.03349346991044
 46
2.181818181818182
 71
     1
 72
     5
  1
{\fＭＳ Ｐゴシック|b0|i0|c0|p0;仕上：2色}
 73
     1
 44
1.0
1001
ACAD
1000
ACAD_MTEXT_DEFINED_HEIGHT_BEGIN
1070
    46
1040
2.181818181818182
1000
ACAD_MTEXT_DEFINED_HEIGHT_END
  0
MTEXT
  5
A22
330
1F
100
AcDbEntity
  8
社名
100
AcDbMText
 10
236.0
 20
27.36191229983774
 30
0.0
 40
3.0
 41
46.0
 46
3.375
 71
     1
 72
     5
  1
\fＭＳ Ｐゴシック|b0|i0|c0|p0;株式会社ＡＳＳＩＳＴ}
 73
     1
 44
1.0
1001
ACAD
1000
ACAD_MTEXT_DEFINED_HEIGHT_BEGIN
1070
    46
1040
3.375
1000
ACAD_MTEXT_DEFINED_HEIGHT_END
  0
MTEXT
  5
A24
330
1F
100
AcDbEntity
  8
文字
100
AcDbMText
 10
238.0774350305441
 20
40.58955921885172
 30
0.0
 40
2.5
 41
9.970036363636382
 46
2.8275
 71
     1
 72
     5
  1
{\fＭＳ Ｐゴシック|b0|i0|c0|p0;縮尺}
 73
     1
 44
1.0
1001
ACAD
1000
ACAD_MTEXT_DEFINED_HEIGHT_BEGIN
1070
    46
1040
2.8275
1000
ACAD_MTEXT_DEFINED_HEIGHT_END
  0
MTEXT
  5
A25
330
1F
100
AcDbEntity
  8
文字
100
AcDbMText
 10
251.2855836701089
 20
36.15844413562513
 30
0.0
 40
2.5
 41
28.36545556978234
 46
2.5
 71
     1
 72
     5
  1
{\fＭＳ Ｐゴシック|b0|i0|c0|p0;１：１ }
 73
     1
 44
1.0
1001
ACAD
1000
ACAD_MTEXT_DEFINED_HEIGHT_BEGIN
1070
    46
1040
2.5
1000
ACAD_MTEXT_DEFINED_HEIGHT_END
  0
MTEXT
  5
DF8
330
1F
100
AcDbEntity
  8
文字
100
AcDbMText
 10
253.810188672227
 20
134.80617212146
 30
0.0
 40
2.0
 41
31.03349346991041
 46
2.228
 71
     1
 72
     5
  1
{\fＭＳ Ｐゴシック|b0|i0|c0|p0;（A6063S-T5)}
 73
     1
 44
1.0
1001
ACAD
1000
ACAD_MTEXT_DEFINED_HEIGHT_BEGIN
1070
    46
1040
2.228
1000
ACAD_MTEXT_DEFINED_HEIGHT_END
  0
MTEXT
  5
13F5
330
1F
100
AcDbEntity
  8
文字
100
AcDbMText
 10
239.5379477351412
 20
143.0699637133901
 30
0.0
 40
2.0
 41
31.03349346991041
 46
2.25
 71
     1
 72
     5
  1
{\fＭＳ Ｐゴシック|b0|i0|c0|p0;ベース部分}
 73
     1
 44
1.0
1001
ACAD
1000
ACAD_MTEXT_DEFINED_HEIGHT_BEGIN
1070
    46
1040
2.25
1000
ACAD_MTEXT_DEFINED_HEIGHT_END
  0
MTEXT
  5
27D9
330
1F
100
AcDbEntity
  8
文字
100
AcDbMText
 10
245.3794334940524
 20
113.7816313094619
 30
0.0
 40
2.0
 41
31.03349346991044
 46
2.238651994497937
 71
     1
 72
     5
  1
{\fＭＳ Ｐゴシック|b0|i0|c0|p0;材質：軟硬同時成PVC}
 73
     1
 44
1.0
1001
ACAD
1000
ACAD_MTEXT_DEFINED_HEIGHT_BEGIN
1070
    46
1040
2.238651994497937
1000
ACAD_MTEXT_DEFINED_HEIGHT_END
  0
MTEXT
  5
27DB
330
1F
100
AcDbEntity
  8
文字
100
AcDbMText
 10
239.5379477351412
 20
118.6204118137378
 30
0.0
 40
2.0
 41
31.03349346991041
 46
2.25
 71
     1
 72
     5
  1
{\fＭＳ Ｐゴシック|b0|i0|c0|p0;タイヤ部分}
 73
     1
 44
1.0
1001
ACAD
1000
ACAD_MTEXT_DEFINED_HEIGHT_BEGIN
1070
    46
1040
2.25
1000
ACAD_MTEXT_DEFINED_HEIGHT_END
  0
MTEXT
  5
27DC
330
1F
100
AcDbEntity
  8
文字
100
AcDbMText
 10
243.6094939751414
 20
107.9650013328301
 30
0.0
 40
2.0
 41
31.03349346991041
 46
2.182
 71
     1
 72
     5
  1
{\fＭＳ Ｐゴシック|b0|i0|c0|p0;カラー：３色}
 73
     1
 44
1.0
1001
ACAD
1000
ACAD_MTEXT_DEFINED_HEIGHT_BEGIN
1070
    46
1040
2.182
1000
ACAD_MTEXT_DEFINED_HEIGHT_END
  0
MTEXT
  5
27DD
330
1F
100
AcDbEntity
  8
文字
100
AcDbMText
 10
254.0
 20
103.7379293328301
 30
0.0
 40
2.0
 41
31.03349346991041
 46
9.725204243257888
 71
     1
 72
     5
  1
{\fＭＳ Ｐゴシック|b0|i0|c0|p0;BL　ブラック\PCH　チャコール\PAS　アッシュ}
 73
     1
 44
1.0
1001
ACAD
1000
ACAD_MTEXT_DEFINED_HEIGHT_BEGIN
1070
    46
1040
9.725204243257888
1000
ACAD_MTEXT_DEFINED_HEIGHT_END
  0
LINE
  5
27E4
330
1F
100
AcDbEntity
  8
枠
  6
Continuous
100
AcDbLine
 10
236.0
 20
51.88960476803794
 30
0.0
 11
281.0
 21
51.88960476803794
 31
0.0
  0
MTEXT
  5
27E5
330
1F
100
AcDbEntity
  8
文字
100
AcDbMText
 10
238.0774350305441
 20
50.58955921885172
 30
0.0
 40
2.5
 41
9.970036363636382
 46
2.5
 71
     1
 72
     5
  1
{\fＭＳ Ｐゴシック|b0|i0|c0|p0;Date}
 73
     1
 44
1.0
1001
ACAD
1000
ACAD_MTEXT_DEFINED_HEIGHT_BEGIN
1070
    46
1040
2.5
1000
ACAD_MTEXT_DEFINED_HEIGHT_END
  0
MTEXT
  5
27E6
330
1F
100
AcDbEntity
  8
文字
100
AcDbMText
 10
246.1251641599999
 20
46.15844413562513
 30
0.0
 40
2.5
 41
32.59247095787819
 46
2.627860447667875
 71
     1
 72
     5
  1
{\fＭＳ Ｐゴシック|b0|i0|c0|p0;2022年6月24日}
 73
     1
 44
1.0
1001
ACAD
1000
ACAD_MTEXT_DEFINED_HEIGHT_BEGIN
1070
    46
1040
2.627860447667875
1000
ACAD_MTEXT_DEFINED_HEIGHT_END
  0
MTEXT
  5
2C03
330
1F
100
AcDbEntity
  8
文字
100
AcDbMText
 10
236.0
 20
160.4307612374436
 30
0.0
 40
2.5
 41
45.0
 46
2.5
 71
     1
 72
     5
  1
\fＭＳ Ｐゴシック|b0|i0|c0|p0;ＰVT３０１　}
 73
     1
 44
1.0
1001
ACAD
1000
ACAD_MTEXT_DEFINED_HEIGHT_BEGIN
1070
    46
1040
2.5
1000
ACAD_MTEXT_DEFINED_HEIGHT_END
  0
MTEXT
  5
2C09
330
1F
100
AcDbEntity
  8
社名
100
AcDbMText
 10
236.0
 20
19.58027172995764
 30
0.0
 40
5.0
 41
45.0
 46
5.0
 71
     1
 72
     5
  1
{\fＭＳ Ｐゴシック|b0|i0|c0|p0;\T1.15;\W1.3;AFOLA}
 73
     1
 44
1.0
1001
ACAD
1000
ACAD_MTEXT_DEFINED_HEIGHT_BEGIN
1070
    46
1040
5.0
1000
ACAD_MTEXT_DEFINED_HEIGHT_END
  0
LINE
  5
2CF5
102
{ACAD_REACTORS
330
3AD8
102
}
330
1F
100
AcDbEntity
  8
金属部分
  6
Continuous
100
AcDbLine
 10
113.8763344569852
 20
93.42586828353313
 30
0.0
 11
113.8763344569852
 21
102.4258682835331
 31
0.0
  0
LINE
  5
2CF6
330
1F
100
AcDbEntity
  8
金属部分
  6
Continuous
100
AcDbLine
 10
113.8763344569852
 20
102.4258682835331
 30
0.0
 11
116.8763344569852
 21
102.4258682835331
 31
0.0
  0
LINE
  5
2CF7
330
1F
100
AcDbEntity
  8
金属部分
  6
Continuous
100
AcDbLine
 10
141.8763344569852
 20
98.92586828353313
 30
0.0
 11
141.8763344569852
 21
96.42586828353313
 31
0.0
  0
LINE
  5
2CF8
330
1F
100
AcDbEntity
  8
金属部分
  6
Continuous
100
AcDbLine
 10
113.8763344569852
 20
93.42586828353313
 30
0.0
 11
115.0763344569852
 21
93.42586828353313
 31
0.0
  0
LINE
  5
2CF9
330
1F
100
AcDbEntity
  8
金属部分
  6
Continuous
100
AcDbLine
 10
115.0763344569852
 20
93.42586828353313
 30
0.0
 11
115.0763344569852
 21
96.42586828353313
 31
0.0
  0
LINE
  5
2CFE
330
1F
100
AcDbEntity
  8
金属部分
  6
Continuous
100
AcDbLine
 10
116.8763344569852
 20
100.4258682835331
 30
0.0
 11
116.8763344569852
 21
100.9258682835331
 31
0.0
  0
LINE
  5
2CFF
102
{ACAD_REACTORS
330
3AD8
102
}
330
1F
100
AcDbEntity
  8
金属部分
  6
Continuous
100
AcDbLine
 10
115.0763344569852
 20
96.42586828353313
 30
0.0
 11
117.8763344569852
 21
96.42586828353313
 31
0.0
  0
ARC
  5
2D00
330
1F
100
AcDbEntity
  8
金属部分
100
AcDbCircle
 10
127.6263344569852
 20
95.63875097644602
 30
0.0
 40
1.087222909580392
100
AcDbArc
 50
46.38327232989832
 51
133.6167276701049
  0
ARC
  5
2D01
330
1F
100
AcDbEntity
  8
金属部分
100
AcDbCircle
 10
118.6263344569852
 20
95.63875097644579
 30
0.0
 40
1.087222909580392
100
AcDbArc
 50
46.38327232989937
 51
133.6167276701038
  0
LWPOLYLINE
  5
2D02
330
1F
100
AcDbEntity
  8
金属部分
100
AcDbPolyline
 90
        2
 70
     0
 43
0.0
 10
123.8763344569852
 20
96.42586828353329
 10
122.3763344569852
 20
96.42586828353323
  0
LWPOLYLINE
  5
2D03
330
1F
100
AcDbEntity
  8
金属部分
100
AcDbPolyline
 90
        2
 70
     0
 43
0.0
 10
120.8763344569852
 20
96.42586828353318
 10
119.3763344569852
 20
96.42586828353318
  0
ARC
  5
2D04
330
1F
100
AcDbEntity
  8
金属部分
100
AcDbCircle
 10
121.6263344569852
 20
95.63875097644585
 30
0.0
 40
1.087222909580392
100
AcDbArc
 50
46.38327232989937
 51
133.6167276701049
  0
ARC
  5
2D05
330
1F
100
AcDbEntity
  8
金属部分
100
AcDbCircle
 10
124.6263344569852
 20
95.63875097644596
 30
0.0
 40
1.087222909580392
100
AcDbArc
 50
46.38327232989937
 51
133.6167276701049
  0
LWPOLYLINE
  5
2D06
330
1F
100
AcDbEntity
  8
金属部分
100
AcDbPolyline
 90
        2
 70
     0
 43
0.0
 10
126.8763344569852
 20
96.42586828353335
 10
125.3763344569852
 20
96.42586828353329
  0
ARC
  5
2D07
330
1F
100
AcDbEntity
  8
金属部分
100
AcDbCircle
 10
130.6263344569852
 20
95.63875097644608
 30
0.0
 40
1.087222909580392
100
AcDbArc
 50
46.38327232989725
 51
133.6167276701027
  0
LWPOLYLINE
  5
2D08
330
1F
100
AcDbEntity
  8
金属部分
100
AcDbPolyline
 90
        2
 70
     0
 43
0.0
 10
129.8763344569851
 20
96.4258682835334
 10
128.3763344569852
 20
96.4258682835334
  0
LWPOLYLINE
  5
2D09
330
1F
100
AcDbEntity
  8
金属部分
100
AcDbPolyline
 90
        2
 70
     0
 43
0.0
 10
132.8763344569851
 20
96.42586828353352
 10
131.3763344569852
 20
96.4258682835334
  0
LINE
  5
2D0A
330
1F
100
AcDbEntity
  8
金属部分
  6
Continuous
100
AcDbLine
 10
132.8763344569851
 20
96.42586828353352
 30
0.0
 11
132.8763344569851
 21
96.72586828353352
 31
0.0
  0
LINE
  5
2D0B
330
1F
100
AcDbEntity
  8
金属部分
  6
Continuous
100
AcDbLine
 10
132.8763344569851
 20
96.72586828353352
 30
0.0
 11
134.8763344569851
 21
96.72586828353352
 31
0.0
  0
LINE
  5
2D0C
330
1F
100
AcDbEntity
  8
金属部分
  6
Continuous
100
AcDbLine
 10
134.8763344569851
 20
96.72586828353352
 30
0.0
 11
134.8763344569851
 21
96.42586828353352
 31
0.0
  0
LWPOLYLINE
  5
2D0D
330
1F
100
AcDbEntity
  8
金属部分
100
AcDbPolyline
 90
        2
 70
     0
 43
0.0
 10
136.3763344569851
 20
96.42586828353357
 10
134.8763344569851
 20
96.42586828353352
  0
ARC
  5
2D0E
330
1F
100
AcDbEntity
  8
金属部分
100
AcDbCircle
 10
137.1263344569852
 20
95.63875097644625
 30
0.0
 40
1.087222909580392
100
AcDbArc
 50
46.38327232990098
 51
133.6167276701065
  0
LWPOLYLINE
  5
2D0F
330
1F
100
AcDbEntity
  8
金属部分
100
AcDbPolyline
 90
        2
 70
     0
 43
0.0
 10
141.8763344569852
 20
96.42586828353313
 10
137.8763344569851
 20
96.42586828353363
  0
LINE
  5
2D13
330
1F
100
AcDbEntity
  8
金属部分
  6
Continuous
100
AcDbLine
 10
116.8763344569852
 20
98.92586828353313
 30
0.0
 11
133.5763344569852
 21
98.92586828353313
 31
0.0
  0
LINE
  5
2D14
330
1F
100
AcDbEntity
  8
軟質樹脂部分
  6
Continuous
100
AcDbLine
 10
116.8763344569852
 20
100.9258682835331
 30
0.0
 11
118.8763344569852
 21
100.9258682835331
 31
0.0
  0
LINE
  5
2D15
330
1F
100
AcDbEntity
  8
軟質樹脂部分
  6
Continuous
100
AcDbLine
 10
118.8763344569852
 20
100.9258682835331
 30
0.0
 11
118.8763344569852
 21
102.4258682835331
 31
0.0
  0
LINE
  5
2D16
330
1F
100
AcDbEntity
  8
軟質樹脂部分
  6
Continuous
100
AcDbLine
 10
118.8763344569852
 20
102.4258682835331
 30
0.0
 11
121.8763344569852
 21
102.4258682835331
 31
0.0
  0
LINE
  5
2D17
330
1F
100
AcDbEntity
  8
軟質樹脂部分
  6
Continuous
100
AcDbLine
 10
121.8763344569852
 20
102.4258682835331
 30
0.0
 11
121.8763344569852
 21
100.9258682835331
 31
0.0
  0
LINE
  5
2D18
330
1F
100
AcDbEntity
  8
軟質樹脂部分
  6
Continuous
100
AcDbLine
 10
121.8763344569852
 20
100.9258682835331
 30
0.0
 11
123.8763344569852
 21
100.9258682835331
 31
0.0
  0
LINE
  5
2D19
330
1F
100
AcDbEntity
  8
軟質樹脂部分
  6
Continuous
100
AcDbLine
 10
123.8763344569852
 20
100.9258682835331
 30
0.0
 11
123.8763344569852
 21
102.4258682835331
 31
0.0
  0
LINE
  5
2D1A
330
1F
100
AcDbEntity
  8
軟質樹脂部分
  6
Continuous
100
AcDbLine
 10
123.8763344569852
 20
102.4258682835331
 30
0.0
 11
126.8763344569852
 21
102.4258682835331
 31
0.0
  0
LINE
  5
2D1B
330
1F
100
AcDbEntity
  8
軟質樹脂部分
  6
Continuous
100
AcDbLine
 10
126.8763344569852
 20
102.4258682835331
 30
0.0
 11
126.8763344569852
 21
100.9258682835331
 31
0.0
  0
LINE
  5
2D1C
330
1F
100
AcDbEntity
  8
軟質樹脂部分
  6
Continuous
100
AcDbLine
 10
126.8763344569852
 20
100.9258682835331
 30
0.0
 11
128.8763344569852
 21
100.9258682835331
 31
0.0
  0
LINE
  5
2D1D
330
1F
100
AcDbEntity
  8
軟質樹脂部分
  6
Continuous
100
AcDbLine
 10
128.8763344569852
 20
100.9258682835331
 30
0.0
 11
128.8763344569852
 21
102.4258682835331
 31
0.0
  0
LINE
  5
2D1E
330
1F
100
AcDbEntity
  8
軟質樹脂部分
  6
Continuous
100
AcDbLine
 10
128.8763344569852
 20
102.4258682835331
 30
0.0
 11
131.8763344569852
 21
102.4258682835331
 31
0.0
  0
LINE
  5
2D1F
330
1F
100
AcDbEntity
  8
軟質樹脂部分
  6
Continuous
100
AcDbLine
 10
131.8763344569852
 20
102.4258682835331
 30
0.0
 11
131.8763344569852
 21
100.9258682835331
 31
0.0
  0
LINE
  5
2D20
330
1F
100
AcDbEntity
  8
軟質樹脂部分
  6
Continuous
100
AcDbLine
 10
131.8763344569852
 20
100.9258682835331
 30
0.0
 11
133.8763344569852
 21
100.9258682835331
 31
0.0
  0
LINE
  5
2D21
330
1F
100
AcDbEntity
  8
軟質樹脂部分
  6
Continuous
100
AcDbLine
 10
133.8763344569852
 20
100.9258682835331
 30
0.0
 11
133.8763344569852
 21
102.4258682835331
 31
0.0
  0
LINE
  5
2D22
330
1F
100
AcDbEntity
  8
軟質樹脂部分
  6
Continuous
100
AcDbLine
 10
133.8763344569852
 20
102.4258682835331
 30
0.0
 11
136.8763344569852
 21
102.4258682835331
 31
0.0
  0
LINE
  5
2D23
330
1F
100
AcDbEntity
  8
軟質樹脂部分
  6
Continuous
100
AcDbLine
 10
136.8763344569852
 20
102.4258682835331
 30
0.0
 11
136.8763344569852
 21
100.9258682835331
 31
0.0
  0
LINE
  5
2D24
330
1F
100
AcDbEntity
  8
軟質樹脂部分
  6
Continuous
100
AcDbLine
 10
136.8763344569852
 20
100.9258682835331
 30
0.0
 11
138.8763344569852
 21
100.9258682835331
 31
0.0
  0
LINE
  5
2D25
330
1F
100
AcDbEntity
  8
軟質樹脂部分
  6
Continuous
100
AcDbLine
 10
138.8763344569852
 20
100.9258682835331
 30
0.0
 11
138.8763344569852
 21
102.4258682835331
 31
0.0
  0
LINE
  5
2D26
330
1F
100
AcDbEntity
  8
軟質樹脂部分
  6
Continuous
100
AcDbLine
 10
138.8763344569852
 20
102.4258682835331
 30
0.0
 11
141.8763344569852
 21
102.4258682835331
 31
0.0
  0
LINE
  5
2D2A
330
1F
100
AcDbEntity
  8
軟質樹脂部分
  6
Continuous
100
AcDbLine
 10
116.8763344569852
 20
100.9258682835331
 30
0.0
 11
116.8763344569852
 21
100.1258682835331
 31
0.0
  0
LINE
  5
2D2C
330
1F
100
AcDbEntity
  8
硬質樹脂部分
  6
Continuous
100
AcDbLine
 10
140.3763344569852
 20
98.92586828353313
 30
0.0
 11
134.1763344569852
 21
98.92586828353313
 31
0.0
  0
DIMENSION
  5
2E4B
330
1F
100
AcDbEntity
  8
寸法
  6
Continuous
100
AcDbDimension
280
     0
  2
*D14
 10
103.8763344569852
 20
93.42586828353313
 30
0.0
 11
103.8763344569852
 21
97.92586828353312
 31
0.0
 70
   160
 71
     5
 42
8.999999999999972
 73
     0
 74
     0
 75
     0
  3
ISO-25
100
AcDbAlignedDimension
 13
113.8763344569852
 23
102.4258682835331
 33
0.0
 14
113.8763344569852
 24
93.42586828353313
 34
0.0
 50
90.0
100
AcDbRotatedDimension
  0
DIMENSION
  5
2E5B
330
1F
100
AcDbEntity
  8
寸法
  6
Continuous
100
AcDbDimension
280
     0
  2
*D15
 10
141.8763344569852
 20
112.4258682835331
 30
0.0
 11
127.2007999671369
 21
112.4258682835331
 31
0.0
 70
   160
 71
     5
 42
28.0
 73
     0
 74
     0
 75
     0
  3
ISO-25
100
AcDbAlignedDimension
 13
113.8763344569852
 23
102.4258682835331
 33
0.0
 14
141.8763344569852
 24
102.4258682835331
 34
0.0
100
AcDbRotatedDimension
  0
DIMENSION
  5
2E6B
330
1F
100
AcDbEntity
  8
寸法
  6
Continuous
100
AcDbDimension
280
     0
  2
*D16
 10
113.8763344569852
 20
88.42586828353313
 30
0.0
 11
114.5418551462086
 21
85.71051222253017
 31
0.0
 70
   160
 71
     5
 42
1.199999999999989
 73
     0
 74
     0
 75
     0
  3
ISO-25
100
AcDbAlignedDimension
 13
115.0763344569852
 23
93.42586828353313
 33
0.0
 14
113.8763344569852
 24
93.42586828353313
 34
0.0
100
AcDbRotatedDimension
  0
DIMENSION
  5
2E9B
330
1F
100
AcDbEntity
  8
寸法
  6
Continuous
100
AcDbDimension
280
     0
  2
*D19
 10
146.8763344569852
 20
96.42586828353313
 30
0.0
 11
146.8763344569852
 21
99.57777399760627
 31
0.0
 70
   160
 71
     5
 42
5.999999999999972
 73
     0
 74
     0
 75
     0
  3
ISO-25
100
AcDbAlignedDimension
 13
141.8763344569852
 23
102.4258682835331
 33
0.0
 14
141.8763344569852
 24
96.42586828353313
 34
0.0
 50
90.0
100
AcDbRotatedDimension
  0
LINE
  5
2F2E
330
1F
100
AcDbEntity
  8
金属部分
  6
Continuous
100
AcDbLine
 10
134.1763344569852
 20
98.92586828353313
 30
0.0
 11
133.8763344569852
 21
98.62586828353314
 31
0.0
  0
LINE
  5
2F30
330
1F
100
AcDbEntity
  8
金属部分
  6
Continuous
100
AcDbLine
 10
133.5763344569852
 20
98.92586828353313
 30
0.0
 11
133.8763344569852
 21
98.62586828353314
 31
0.0
  0
LINE
  5
2F32
330
1F
100
AcDbEntity
  8
金属部分
  6
Continuous
100
AcDbLine
 10
134.1763344569852
 20
98.92586828353313
 30
0.0
 11
140.3763344569852
 21
98.92586828353313
 31
0.0
  0
LINE
  5
3620
330
1F
100
AcDbEntity
  8
金属部分
  6
Continuous
100
AcDbLine
 10
141.8763344569852
 20
98.92586828353313
 30
0.0
 11
141.8763344569852
 21
100.1258682835331
 31
0.0
  0
LINE
  5
3644
330
1F
100
AcDbEntity
  8
硬質樹脂部分
  6
Continuous
100
AcDbLine
 10
140.7930011236519
 20
99.12586828353314
 30
0.0
 11
116.8763344569852
 21
99.12586828353314
 31
0.0
  0
LINE
  5
3645
102
{ACAD_REACTORS
330
3646
102
}
330
1F
100
AcDbEntity
  8
両面テープ
  6
Continuous
100
AcDbLine
 10
118.3763344569852
 20
99.12586828353314
 30
0.0
 11
138.3763344569852
 21
99.12586828353314
 31
0.0
  0
HATCH
  5
3646
330
1F
100
AcDbEntity
  8
両面テープ
  6
Continuous
100
AcDbHatch
 10
0.0
 20
0.0
 30
0.0
210
0.0
220
0.0
230
1.0
  2
ANSI31
 70
     0
 71
     1
 91
        1
 92
        7
 72
     0
 73
     1
 93
        4
 10
138.3763344569852
 20
98.92586828353315
 10
138.3763344569852
 20
99.12586828353314
 10
118.3763344569852
 20
99.12586828353314
 10
118.3763344569852
 20
98.92586828353315
 97
        4
330
3649
330
3645
330
3647
330
3648
 75
     0
 76
     1
 52
0.0
 41
0.25
 77
     0
 78
     1
 53
45.0
 43
5.68704874269946
 44
-32.67357470466736
 45
-0.561266007566822
 46
0.5612660075668221
 79
     0
 47
0.0
 98
        1
 10
127.264080312348
 20
99.03021655494923
1001
ACAD
1010
0.0
1020
0.0
1030
0.0
  0
LINE
  5
3647
102
{ACAD_REACTORS
330
3646
102
}
330
1F
100
AcDbEntity
  8
両面テープ
  6
Continuous
100
AcDbLine
 10
118.3763344569852
 20
99.12586828353314
 30
0.0
 11
118.3763344569852
 21
98.92586828353315
 31
0.0
  0
LINE
  5
3648
102
{ACAD_REACTORS
330
3646
102
}
330
1F
100
AcDbEntity
  8
両面テープ
  6
Continuous
100
AcDbLine
 10
118.3763344569852
 20
98.92586828353315
 30
0.0
 11
138.3763344569852
 21
98.92586828353315
 31
0.0
  0
LINE
  5
3649
102
{ACAD_REACTORS
330
3646
102
}
330
1F
100
AcDbEntity
  8
両面テープ
  6
Continuous
100
AcDbLine
 10
138.3763344569852
 20
98.92586828353315
 30
0.0
 11
138.3763344569852
 21
99.12586828353314
 31
0.0
  0
LINE
  5
364A
330
1F
100
AcDbEntity
  8
硬質樹脂部分
  6
Continuous
100
AcDbLine
 10
140.7930011236519
 20
99.12586828353314
 30
0.0
 11
140.284796127026
 21
100.1271079783782
 31
0.0
  0
LINE
  5
364B
330
1F
100
AcDbEntity
  8
軟質樹脂部分
  6
Continuous
100
AcDbLine
 10
140.2346677903186
 20
100.2258682835331
 30
0.0
 11
141.8763344569852
 21
100.2258682835331
 31
0.0
  0
LINE
  5
364C
330
1F
100
AcDbEntity
  8
軟質樹脂部分
  6
Continuous
100
AcDbLine
 10
141.8763344569852
 20
100.2258682835331
 30
0.0
 11
141.8763344569852
 21
102.4258682835331
 31
0.0
  0
LINE
  5
36E3
330
1F
100
AcDbEntity
  8
金属部分
  6
Continuous
100
AcDbLine
 10
140.3763344569852
 20
98.92586828353313
 30
0.0
 11
140.8763344569852
 21
98.92586828353313
 31
0.0
  0
DIMENSION
  5
383D
330
1F
100
AcDbEntity
  8
寸法
  6
Continuous
100
AcDbDimension
280
     0
  2
*D39
 10
116.8763344569852
 20
107.4258682835331
 30
0.0
 11
115.2342766171429
 21
107.4258682835331
 31
0.0
 70
   160
 71
     5
 42
3.0
 73
     0
 74
     0
 75
     0
  3
ISO-25
100
AcDbAlignedDimension
 13
113.8763344569852
 23
102.4258682835331
 33
0.0
 14
116.8763344569852
 24
102.4258682835331
 34
0.0
100
AcDbRotatedDimension
  0
LINE
  5
385A
102
{ACAD_REACTORS
330
385E
102
}
330
1F
100
AcDbEntity
  8
TOS_M1
  6
Continuous
100
AcDbLine
 10
134.3763344569851
 20
96.10086828353352
 30
0.0
 11
133.3763344569851
 21
96.10086828353352
 31
0.0
  0
LINE
  5
385C
102
{ACAD_REACTORS
330
385E
102
}
330
1F
100
AcDbEntity
  8
TOS_M1
  6
Continuous
100
AcDbLine
 10
133.8763344569851
 20
95.10086828353352
 30
0.0
 11
133.3763344569851
 21
96.10086828353352
 31
0.0
  0
LINE
  5
385D
102
{ACAD_REACTORS
330
385E
102
}
330
1F
100
AcDbEntity
  8
TOS_M1
  6
Continuous
100
AcDbLine
 10
133.8763344569851
 20
95.10086828353352
 30
0.0
 11
134.3763344569851
 21
96.10086828353352
 31
0.0
  0
HATCH
  5
385E
330
1F
100
AcDbEntity
  8
TOS_M1
  6
Continuous
100
AcDbHatch
 10
0.0
 20
0.0
 30
0.0
210
0.0
220
0.0
230
1.0
  2
SOLID
 70
     1
 71
     1
 91
        1
 92
        7
 72
     0
 73
     1
 93
        3
 10
133.8763344569851
 20
95.10086828353352
 10
134.3763344569851
 20
96.10086828353352
 10
133.3763344569851
 20
96.10086828353352
 97
        3
330
385D
330
385A
330
385C
 75
     0
 76
     1
 47
0.0
 98
        1
 10
133.957005748736
 20
95.72233697651004
1001
ACAD
1010
0.0
1020
0.0
1030
0.0
  0
LINE
  5
39C2
330
1F
100
AcDbEntity
  8
金属部分
  6
Continuous
100
AcDbLine
 10
141.8763344569852
 20
98.92586828353313
 30
0.0
 11
141.8763344569852
 21
100.1258682835331
 31
0.0
  0
LINE
  5
39C4
330
1F
100
AcDbEntity
  8
金属部分
  6
Continuous
100
AcDbLine
 10
140.6763344569852
 20
100.1258682835331
 30
0.0
 11
140.4763344569852
 21
99.88586828353316
 31
0.0
  0
LINE
  5
39C5
330
1F
100
AcDbEntity
  8
金属部分
  6
Continuous
100
AcDbLine
 10
140.8763344569852
 20
98.92586828353313
 30
0.0
 11
140.4763344569852
 21
99.88586828353316
 31
0.0
  0
LINE
  5
39C6
330
1F
100
AcDbEntity
  8
金属部分
  6
Continuous
100
AcDbLine
 10
141.8763344569852
 20
100.1258682835331
 30
0.0
 11
140.6763344569852
 21
100.1258682835331
 31
0.0
  0
LINE
  5
39C7
330
1F
100
AcDbEntity
  8
TOS_M1
  6
Continuous
100
AcDbLine
 10
116.8763344569852
 20
98.92586828353313
 30
0.0
 11
116.6763344569852
 21
98.92586828353313
 31
0.0
  0
LINE
  5
39C8
330
1F
100
AcDbEntity
  8
金属部分
  6
Continuous
100
AcDbLine
 10
116.8763344569852
 20
102.4258682835331
 30
0.0
 11
116.8763344569852
 21
100.6758682835331
 31
0.0
  0
LINE
  5
39C9
330
1F
100
AcDbEntity
  8
金属部分
  6
Continuous
100
AcDbLine
 10
116.8763344569852
 20
100.6758682835331
 30
0.0
 11
116.6763344569852
 21
98.92586828353313
 31
0.0
  0
LINE
  5
3A10
330
1F
100
AcDbEntity
  8
TOS_M1
  6
ACAD_ISO07W100
 48
0.5
100
AcDbLine
 10
115.0763344569852
 20
93.42586828353313
 30
0.0
 11
133.8763344569852
 21
93.42586828353313
 31
0.0
  0
MTEXT
  5
3A22
330
1F
100
AcDbEntity
  8
TOS_M1
  6
Continuous
100
AcDbMText
 10
123.1722753521169
 20
94.68683368628085
 30
0.0
 40
2.5
 41
4.776168998454011
 46
2.5
 71
     1
 72
     5
  1
{19}
 73
     1
 44
1.0
1001
ACAD
1000
ACAD_MTEXT_DEFINED_HEIGHT_BEGIN
1070
    46
1040
2.5
1000
ACAD_MTEXT_DEFINED_HEIGHT_END
  0
MTEXT
  5
3A38
330
1F
100
AcDbEntity
  8
文字
100
AcDbMText
 10
254.0
 20
126.8940092238547
 30
0.0
 40
2.0
 41
22.6408857762272
 46
6.212319203034471
 71
     1
 72
     5
  1
{\fＭＳ Ｐゴシック|b0|i0|c0|p0;シルバー\Pアルマイトブラック}
 73
     1
 44
1.0
1001
ACAD
1000
ACAD_MTEXT_DEFINED_HEIGHT_BEGIN
1070
    46
1040
6.212319203034471
1000
ACAD_MTEXT_DEFINED_HEIGHT_END
  0
LEADER
  5
3A67
330
1F
100
AcDbEntity
  8
TOS_M1
  6
Continuous
100
AcDbLeader
  3
ISO-25
 76
     2
 10
120.030794525056
 20
101.1345798841379
 30
0.0
 10
107.906111962937
 20
107.5488564316484
 30
0.0
  0
MTEXT
  5
3A68
330
1F
100
AcDbEntity
  8
文字
  6
Continuous
100
AcDbMText
 10
103.3888200353652
 20
108.6872691345918
 30
0.0
 40
1.5
 41
5.489140507004223
 46
1.704545454545455
 71
     1
 72
     5
  1
{\fＭＳ Ｐゴシック|b0|i0|c0|p0;軟質}
 73
     1
 44
1.0
1001
ACAD
1000
ACAD_MTEXT_DEFINED_HEIGHT_BEGIN
1070
    46
1040
1.704545454545455
1000
ACAD_MTEXT_DEFINED_HEIGHT_END
  0
LINE
  5
3A69
330
1F
100
AcDbEntity
  8
硬質樹脂部分
  6
Continuous
100
AcDbLine
 10
116.8763344569852
 20
99.12586828353314
 30
0.0
 11
116.8763344569852
 21
100.1258682835331
 31
0.0
  0
LINE
  5
3A6A
330
1F
100
AcDbEntity
  8
硬質樹脂部分
  6
Continuous
100
AcDbLine
 10
116.8763344569852
 20
100.1258682835331
 30
0.0
 11
140.284796127026
 21
100.1271079783782
 31
0.0
  0
LINE
  5
3A6B
330
1F
100
AcDbEntity
  8
軟質樹脂部分
  6
Continuous
100
AcDbLine
 10
140.284796127026
 20
100.1271079783782
 30
0.0
 11
140.2346677903186
 21
100.2258682835331
 31
0.0
  0
LEADER
  5
3ABB
330
1F
100
AcDbEntity
  8
TOS_M1
  6
Continuous
100
AcDbLeader
  3
ISO-25
 76
     2
 10
120.3884675617022
 20
99.60966715240767
 30
0.0
 10
109.9377156148439
 20
88.77742640782895
 30
0.0
  0
MTEXT
  5
3ABC
330
1F
100
AcDbEntity
  8
文字
  6
Continuous
100
AcDbMText
 10
104.8353196999503
 20
89.6620860593849
 30
0.0
 40
1.5
 41
5.489140507004223
 46
1.704545454545455
 71
     1
 72
     5
  1
{\fＭＳ Ｐゴシック|b0|i0|c0|p0;\C6;硬質}
 73
     1
 44
1.0
1001
ACAD
1000
ACAD_MTEXT_DEFINED_HEIGHT_BEGIN
1070
    46
1040
1.704545454545455
1000
ACAD_MTEXT_DEFINED_HEIGHT_END
  0
LEADER
  5
3AD1
330
1F
100
AcDbEntity
  8
TOS_M1
  6
Continuous
100
AcDbLeader
  3
ISO-25
 76
     2
 10
136.7893209498401
 20
99.02343446162696
 30
0.0
 10
142.9913302353125
 20
88.19119371704825
 30
0.0
  0
MTEXT
  5
3AD2
330
1F
100
AcDbEntity
  8
文字
  6
Continuous
100
AcDbMText
 10
143.6881146279283
 20
89.0758533686042
 30
0.0
 40
1.5
 41
12.46447959569807
 46
1.551136363636364
 71
     1
 72
     5
  1
{\fＭＳ Ｐゴシック|b0|i0|c0|p0;\C7;両面テープ}
 73
     1
 44
1.0
1001
ACAD
1000
ACAD_MTEXT_DEFINED_HEIGHT_BEGIN
1070
    46
1040
1.551136363636364
1000
ACAD_MTEXT_DEFINED_HEIGHT_END
  0
DIMENSION
  5
3AD6
102
{ACAD_REACTORS
330
3AD8
102
}
102
{ACAD_XDICTIONARY
360
3AD7
102
}
330
1F
100
AcDbEntity
  8
寸法
  6
Continuous
100
AcDbDimension
280
     0
  2
*D45
 10
108.8763344569852
 20
96.42586828353313
 30
0.0
 11
108.8763344569852
 21
94.84496407627282
 31
0.0
 70
   160
 71
     5
 42
3.0
 73
     0
 74
     0
 75
     0
  3
ISO-25
100
AcDbAlignedDimension
 13
113.8763344569852
 23
93.42586828353313
 33
0.0
 14
115.0763344569852
 24
96.42586828353313
 34
0.0
 50
90.0
100
AcDbRotatedDimension
  0
ENDSEC
  0
SECTION
  2
OBJECTS
  0
DICTIONARY
  5
C
330
0
100
AcDbDictionary
281
     1
  3
ACAD_DETAILVIEWSTYLE
350
A4E
  3
ACAD_GROUP
350
D
  3
ACAD_IMAGE_VARS
350
96F
  3
ACAD_LAYOUT
350
1A
  3
ACAD_MATERIAL
350
39EE
  3
ACAD_MLEADERSTYLE
350
39F4
  3
ACAD_MLINESTYLE
350
17
  3
ACAD_PLOTSETTINGS
350
19
  3
ACAD_PLOTSTYLENAME
350
E
  3
ACAD_SCALELIST
350
935
  3
ACAD_SECTIONVIEWSTYLE
350
A4F
  3
ACAD_TABLESTYLE
350
39F2
  3
ACAD_VISUALSTYLE
350
39D5
  3
ACDB_RECOMPOSE_DATA
350
3AFB
  3
AcDbVariableDictionary
350
3E1
  3
APPDATA
350
96E
  3
DimOffsetDictionary
350
14C9
  0
SUN
  5
39FD
330
934
100
AcDbSun
 90
        1
290
     0
 63
     7
421
 16777215
 40
1.0
291
     1
 91
  2455826
 92
 54000000
292
     0
 70
     2
 71
   256
280
     1
  0
DICTIONARY
  5
970
330
2
100
AcDbDictionary
280
     1
281
     1
  3
ACAD_LAYERSTATES
360
971
  3
ACLYDICTIONARY
360
34A5
  0
DICTIONARY
  5
A87
330
A86
100
AcDbDictionary
280
     1
281
     1
  3
ADSK_XREC_LAYER_RECONCILED
360
A88
  0
DICTIONARY
  5
A8B
330
A8A
100
AcDbDictionary
280
     1
281
     1
  3
ADSK_XREC_LAYER_RECONCILED
360
A8C
  0
DICTIONARY
  5
3AD7
330
3AD6
100
AcDbDictionary
280
     1
281
     1
  3
ACAD_DIMASSOC
360
3AD8
  0
DICTIONARY
  5
A4E
102
{ACAD_REACTORS
330
C
102
}
330
C
100
AcDbDictionary
281
     1
  0
DICTIONARY
  5
D
102
{ACAD_REACTORS
330
C
102
}
330
C
100
AcDbDictionary
281
     1
  0
RASTERVARIABLES
  5
96F
102
{ACAD_REACTORS
330
C
102
}
330
C
100
AcDbRasterVariables
 90
        0
 70
     1
 71
     1
 72
     1
  0
DICTIONARY
  5
1A
102
{ACAD_REACTORS
330
C
102
}
330
C
100
AcDbDictionary
281
     1
  3
Model
350
22
  3
ﾚｲｱｳﾄ1
350
1E
  3
ﾚｲｱｳﾄ2
350
26
  0
DICTIONARY
  5
39EE
102
{ACAD_REACTORS
330
C
102
}
330
C
100
AcDbDictionary
281
     1
  3
ByBlock
350
39F0
  3
ByLayer
350
39EF
  3
Global
350
39F1
  0
DICTIONARY
  5
39F4
102
{ACAD_REACTORS
330
C
102
}
330
C
100
AcDbDictionary
281
     1
  3
Standard
350
39F5
  0
DICTIONARY
  5
17
102
{ACAD_REACTORS
330
C
102
}
330
C
100
AcDbDictionary
281
     1
  3
Standard
350
18
  0
DICTIONARY
  5
19
102
{ACAD_REACTORS
330
C
102
}
330
C
100
AcDbDictionary
281
     1
  0
ACDBDICTIONARYWDFLT
  5
E
102
{ACAD_REACTORS
330
C
102
}
330
C
100
AcDbDictionary
281
     1
  3
Normal
350
F
100
AcDbDictionaryWithDefault
340
F
  0
DICTIONARY
  5
935
102
{ACAD_REACTORS
330
C
102
}
330
C
100
AcDbDictionary
281
     1
  3
A0
350
936
  3
A1
350
937
  3
A2
350
938
  3
A3
350
939
  3
A4
350
93A
  3
A5
350
93B
  3
A6
350
93C
  3
A7
350
93D
  3
A8
350
93E
  3
A9
350
93F
  3
B0
350
940
  3
B1
350
941
  3
B2
350
942
  3
B3
350
943
  3
B4
350
944
  3
B5
350
945
  3
B6
350
946
  3
B7
350
947
  3
B8
350
948
  3
B9
350
949
  3
C0
350
94A
  3
C1
350
94B
  3
C2
350
94C
  3
C3
350
94D
  3
C4
350
94E
  3
C5
350
94F
  3
C6
350
950
  3
C7
350
951
  3
C8
350
952
  3
C9
350
953
  3
D0
350
954
  3
D1
350
955
  3
D2
350
956
  0
DICTIONARY
  5
A4F
102
{ACAD_REACTORS
330
C
102
}
330
C
100
AcDbDictionary
281
     1
  0
DICTIONARY
  5
39F2
102
{ACAD_REACTORS
330
C
102
}
330
C
100
AcDbDictionary
281
     1
  3
Standard
350
39F3
  0
DICTIONARY
  5
39D5
102
{ACAD_REACTORS
330
C
102
}
330
C
100
AcDbDictionary
281
     1
  3
2dWireframe
350
39DA
  3
Basic
350
39DD
  3
Brighten
350
39E1
  3
ColorChange
350
39E5
  3
Conceptual
350
39DF
  3
Dim
350
39E0
  3
EdgeColorOff
350
39E8
  3
Facepattern
350
39E4
  3
Flat
350
39D6
  3
FlatWithEdges
350
39D7
  3
Gouraud
350
39D8
  3
GouraudWithEdges
350
39D9
  3
Hidden
350
39DC
  3
JitterOff
350
39E6
  3
Linepattern
350
39E3
  3
OverhangOff
350
39E7
  3
Realistic
350
39DE
  3
Shaded
350
39ED
  3
Shaded with edges
350
39EC
  3
Shades of Gray
350
39E9
  3
Sketchy
350
39EA
  3
Thicken
350
39E2
  3
Wireframe
350
39DB
  3
X-Ray
350
39EB
  0
XRECORD
  5
3AFB
102
{ACAD_REACTORS
330
C
102
}
330
C
100
AcDbXrecord
280
     1
 90
        1
330
39F3
  0
DICTIONARY
  5
3E1
102
{ACAD_REACTORS
330
C
102
}
330
C
100
AcDbDictionary
281
     1
  3
CANNOSCALE
350
39F6
  3
CMLEADERSTYLE
350
39FB
  3
CTABLESTYLE
350
39FA
  3
HPTRANSPARENCY
350
14C8
  3
MSLTSCALE
350
39FC
  3
SORTENTS
350
3E2
  0
DICTIONARY
  5
96E
102
{ACAD_REACTORS
330
C
102
}
330
C
100
AcDbDictionary
281
     1
  0
DICTIONARY
  5
14C9
102
{ACAD_REACTORS
330
C
102
}
330
C
100
AcDbDictionary
281
     1
  3
DIMRAILANGLE
350
3857
  3
DIMRAILFIRSTOFFSET
350
3855
  3
DIMRAILOFFSET
350
3856
  3
DIMRAILSENABLED
350
3858
  0
DICTIONARY
  5
971
102
{ACAD_REACTORS
330
970
102
}
330
970
100
AcDbDictionary
281
     1
  0
DICTIONARY
  5
34A5
102
{ACAD_REACTORS
330
970
102
}
330
970
100
AcDbDictionary
281
     1
1001
ACAD
1000
<All
  0
XRECORD
  5
A88
102
{ACAD_REACTORS
330
A87
102
}
330
A87
100
AcDbXrecord
280
     1
290
     1
  0
XRECORD
  5
A8C
102
{ACAD_REACTORS
330
A8B
102
}
330
A8B
100
AcDbXrecord
280
     1
290
     1
  0
DIMASSOC
  5
3AD8
102
{ACAD_REACTORS
330
3AD7
102
}
330
3AD7
100
AcDbDimAssoc
330
3AD6
 90
        3
 70
     0
 71
     1
  1
AcDbOsnapPointRef
 72
    13
331
2CF5
 73
     0
 91
        0
 40
0.0
 10
0.0
 20
0.0
 30
0.0
 75
     0
  1
AcDbOsnapPointRef
 72
    13
331
2CFF
 73
     0
 91
        0
 40
0.0
 10
0.0
 20
0.0
 30
0.0
 75
     0
  0
LAYOUT
  5
22
102
{ACAD_REACTORS
330
1A
102
}
330
1A
100
AcDbPlotSettings
  1

  2
RICOH IPSiO NX850 RPCS
  4
A4
  6

 40
5.873749732971191
 41
5.873747825622559
 42
5.873748779296875
 43
5.873748779296875
 44
209.9733276367188
 45
296.9259948730469
 46
56.21
 47
68.71
 48
0.0
 49
0.0
140
0.0
141
0.0
142
1.0
143
1.0
 70
 11940
 72
     1
 73
     1
 74
     0
  7

 75
     0
 76
     0
 77
     2
 78
   300
147
1.0
148
-86.56519164515282
149
-171.1912652483589
100
AcDbLayout
  1
Model
 70
     1
 71
     0
 10
0.0
 20
0.0
 11
12.0
 21
9.0
 12
0.0
 22
0.0
 32
0.0
 14
0.0
 24
0.0
 34
0.0
 15
292.0
 25
205.0
 35
0.0
146
0.0
 13
0.0
 23
0.0
 33
0.0
 16
1.0
 26
0.0
 36
0.0
 17
0.0
 27
1.0
 37
0.0
 76
     0
330
1F
331
934
  0
LAYOUT
  5
1E
102
{ACAD_REACTORS
330
1A
102
}
330
1A
100
AcDbPlotSettings
  1

  2
RICOH IPSiO NX850 RPCS
  4

  6

 40
0.0
 41
0.0
 42
0.0
 43
0.0
 44
0.0
 45
0.0
 46
0.0
 47
0.0
 48
0.0
 49
0.0
140
0.0
141
0.0
142
1.0
143
1.0
 70
   688
 72
     0
 73
     0
 74
     5
  7

 75
    16
 76
     0
 77
     2
 78
   300
147
1.0
148
0.0
149
0.0
100
AcDbLayout
  1
ﾚｲｱｳﾄ1
 70
     1
 71
     1
 10
0.0
 20
0.0
 11
420.0
 21
297.0
 12
0.0
 22
0.0
 32
0.0
 14
1.000000000000000E+20
 24
1.000000000000000E+20
 34
1.000000000000000E+20
 15
-1.000000000000000E+20
 25
-1.000000000000000E+20
 35
-1.000000000000000E+20
146
0.0
 13
0.0
 23
0.0
 33
0.0
 16
1.0
 26
0.0
 36
0.0
 17
0.0
 27
1.0
 37
0.0
 76
     0
330
1B
  0
LAYOUT
  5
26
102
{ACAD_REACTORS
330
1A
102
}
330
1A
100
AcDbPlotSettings
  1

  2
RICOH IPSiO NX850 RPCS
  4

  6

 40
0.0
 41
0.0
 42
0.0
 43
0.0
 44
0.0
 45
0.0
 46
0.0
 47
0.0
 48
0.0
 49
0.0
140
0.0
141
0.0
142
1.0
143
1.0
 70
   688
 72
     0
 73
     0
 74
     5
  7

 75
    16
 76
     0
 77
     2
 78
   300
147
1.0
148
0.0
149
0.0
100
AcDbLayout
  1
ﾚｲｱｳﾄ2
 70
     1
 71
     2
 10
0.0
 20
0.0
 11
12.0
 21
9.0
 12
0.0
 22
0.0
 32
0.0
 14
0.0
 24
0.0
 34
0.0
 15
0.0
 25
0.0
 35
0.0
146
0.0
 13
0.0
 23
0.0
 33
0.0
 16
1.0
 26
0.0
 36
0.0
 17
0.0
 27
1.0
 37
0.0
 76
     0
330
23
  0
MATERIAL
  5
39F0
102
{ACAD_REACTORS
330
39EE
102
}
330
39EE
100
AcDbMaterial
  1
ByBlock
 72
     1
 94
      127
  0
MATERIAL
  5
39EF
102
{ACAD_REACTORS
330
39EE
102
}
330
39EE
100
AcDbMaterial
  1
ByLayer
 72
     1
 94
      127
  0
MATERIAL
  5
39F1
102
{ACAD_REACTORS
330
39EE
102
}
330
39EE
100
AcDbMaterial
  1
Global
 72
     1
 94
      127
  0
MLEADERSTYLE
  5
39F5
102
{ACAD_REACTORS
330
39F4
102
}
330
39F4
100
AcDbMLeaderStyle
179
     2
170
     2
171
     1
172
     0
 90
        2
 40
0.0
 41
0.0
173
     1
 91
-1056964608
340
14
 92
       -2
290
     1
 42
2.0
291
     1
 43
8.0
  3
Standard
341
0
 44
4.0
300

342
11
174
     1
178
     1
175
     1
176
     0
 93
-1056964608
 45
4.0
292
     0
297
     0
 46
4.0
343
0
 94
-1056964608
 47
1.0
 49
1.0
140
1.0
293
     1
141
0.0
294
     1
177
     0
142
1.0
295
     0
296
     0
143
3.75
271
     0
272
     9
273
     9
  0
MLINESTYLE
  5
18
102
{ACAD_REACTORS
330
17
102
}
330
17
100
AcDbMlineStyle
  2
STANDARD
 70
     0
  3

 62
   256
 51
90.0
 52
90.0
 71
     2
 49
0.5
 62
   256
  6
BYLAYER
 49
-0.5
 62
   256
  6
BYLAYER
  0
ACDBPLACEHOLDER
  5
F
102
{ACAD_REACTORS
330
E
102
}
330
E
  0
SCALE
  5
936
102
{ACAD_REACTORS
330
935
102
}
330
935
100
AcDbScale
 70
     0
300
1:1
140
1.0
141
1.0
290
     1
  0
SCALE
  5
937
102
{ACAD_REACTORS
330
935
102
}
330
935
100
AcDbScale
 70
     0
300
1:2
140
1.0
141
2.0
290
     0
  0
SCALE
  5
938
102
{ACAD_REACTORS
330
935
102
}
330
935
100
AcDbScale
 70
     0
300
1:4
140
1.0
141
4.0
290
     0
  0
SCALE
  5
939
102
{ACAD_REACTORS
330
935
102
}
330
935
100
AcDbScale
 70
     0
300
1:5
140
1.0
141
5.0
290
     0
  0
SCALE
  5
93A
102
{ACAD_REACTORS
330
935
102
}
330
935
100
AcDbScale
 70
     0
300
1:8
140
1.0
141
8.0
290
     0
  0
SCALE
  5
93B
102
{ACAD_REACTORS
330
935
102
}
330
935
100
AcDbScale
 70
     0
300
1:10
140
1.0
141
10.0
290
     0
  0
SCALE
  5
93C
102
{ACAD_REACTORS
330
935
102
}
330
935
100
AcDbScale
 70
     0
300
1:16
140
1.0
141
16.0
290
     0
  0
SCALE
  5
93D
102
{ACAD_REACTORS
330
935
102
}
330
935
100
AcDbScale
 70
     0
300
1:20
140
1.0
141
20.0
290
     0
  0
SCALE
  5
93E
102
{ACAD_REACTORS
330
935
102
}
330
935
100
AcDbScale
 70
     0
300
1:30
140
1.0
141
30.0
290
     0
  0
SCALE
  5
93F
102
{ACAD_REACTORS
330
935
102
}
330
935
100
AcDbScale
 70
     0
300
1:40
140
1.0
141
40.0
290
     0
  0
SCALE
  5
940
102
{ACAD_REACTORS
330
935
102
}
330
935
100
AcDbScale
 70
     0
300
1:50
140
1.0
141
50.0
290
     0
  0
SCALE
  5
941
102
{ACAD_REACTORS
330
935
102
}
330
935
100
AcDbScale
 70
     0
300
1:100
140
1.0
141
100.0
290
     0
  0
SCALE
  5
942
102
{ACAD_REACTORS
330
935
102
}
330
935
100
AcDbScale
 70
     0
300
2:1
140
2.0
141
1.0
290
     0
  0
SCALE
  5
943
102
{ACAD_REACTORS
330
935
102
}
330
935
100
AcDbScale
 70
     0
300
4:1
140
4.0
141
1.0
290
     0
  0
SCALE
  5
944
102
{ACAD_REACTORS
330
935
102
}
330
935
100
AcDbScale
 70
     0
300
8:1
140
8.0
141
1.0
290
     0
  0
SCALE
  5
945
102
{ACAD_REACTORS
330
935
102
}
330
935
100
AcDbScale
 70
     0
300
10:1
140
10.0
141
1.0
290
     0
  0
SCALE
  5
946
102
{ACAD_REACTORS
330
935
102
}
330
935
100
AcDbScale
 70
     0
300
100:1
140
100.0
141
1.0
290
     0
  0
SCALE
  5
947
102
{ACAD_REACTORS
330
935
102
}
330
935
100
AcDbScale
 70
     0
300
1/128" = 1'-0"
140
0.0078125
141
12.0
290
     0
  0
SCALE
  5
948
102
{ACAD_REACTORS
330
935
102
}
330
935
100
AcDbScale
 70
     0
300
1/64" = 1'-0"
140
0.015625
141
12.0
290
     0
  0
SCALE
  5
949
102
{ACAD_REACTORS
330
935
102
}
330
935
100
AcDbScale
 70
     0
300
1/32" = 1'-0"
140
0.03125
141
12.0
290
     0
  0
SCALE
  5
94A
102
{ACAD_REACTORS
330
935
102
}
330
935
100
AcDbScale
 70
     0
300
1/16" = 1'-0"
140
0.0625
141
12.0
290
     0
  0
SCALE
  5
94B
102
{ACAD_REACTORS
330
935
102
}
330
935
100
AcDbScale
 70
     0
300
3/32" = 1'-0"
140
0.09375
141
12.0
290
     0
  0
SCALE
  5
94C
102
{ACAD_REACTORS
330
935
102
}
330
935
100
AcDbScale
 70
     0
300
1/8" = 1'-0"
140
0.125
141
12.0
290
     0
  0
SCALE
  5
94D
102
{ACAD_REACTORS
330
935
102
}
330
935
100
AcDbScale
 70
     0
300
3/16" = 1'-0"
140
0.1875
141
12.0
290
     0
  0
SCALE
  5
94E
102
{ACAD_REACTORS
330
935
102
}
330
935
100
AcDbScale
 70
     0
300
1/4" = 1'-0"
140
0.25
141
12.0
290
     0
  0
SCALE
  5
94F
102
{ACAD_REACTORS
330
935
102
}
330
935
100
AcDbScale
 70
     0
300
3/8" = 1'-0"
140
0.375
141
12.0
290
     0
  0
SCALE
  5
950
102
{ACAD_REACTORS
330
935
102
}
330
935
100
AcDbScale
 70
     0
300
1/2" = 1'-0"
140
0.5
141
12.0
290
     0
  0
SCALE
  5
951
102
{ACAD_REACTORS
330
935
102
}
330
935
100
AcDbScale
 70
     0
300
3/4" = 1'-0"
140
0.75
141
12.0
290
     0
  0
SCALE
  5
952
102
{ACAD_REACTORS
330
935
102
}
330
935
100
AcDbScale
 70
     0
300
1" = 1'-0"
140
1.0
141
12.0
290
     0
  0
SCALE
  5
953
102
{ACAD_REACTORS
330
935
102
}
330
935
100
AcDbScale
 70
     0
300
1-1/2" = 1'-0"
140
1.5
141
12.0
290
     0
  0
SCALE
  5
954
102
{ACAD_REACTORS
330
935
102
}
330
935
100
AcDbScale
 70
     0
300
3" = 1'-0"
140
3.0
141
12.0
290
     0
  0
SCALE
  5
955
102
{ACAD_REACTORS
330
935
102
}
330
935
100
AcDbScale
 70
     0
300
6" = 1'-0"
140
6.0
141
12.0
290
     0
  0
SCALE
  5
956
102
{ACAD_REACTORS
330
935
102
}
330
935
100
AcDbScale
 70
     0
300
1'-0" = 1'-0"
140
12.0
141
12.0
290
     0
  0
TABLESTYLE
  5
39F3
102
{ACAD_REACTORS
330
39F2
102
}
102
{ACAD_XDICTIONARY
360
3AF9
102
}
330
39F2
100
AcDbTableStyle
  3
Standard
 70
     0
 71
     0
 40
0.06
 41
0.06
280
     0
281
     0
  7
Standard
140
4.5
170
     2
 62
     0
 63
   257
283
     0
 90
        4
 91
        0
  1

274
    -2
284
     1
 64
     0
275
    -2
285
     1
 65
     0
276
    -2
286
     1
 66
     0
277
    -2
287
     1
 67
     0
278
    -2
288
     1
 68
     0
279
    -2
289
     1
 69
     0
  7
Standard
140
6.0
170
     5
 62
     0
 63
   257
283
     0
 90
        4
 91
        0
  1

274
    -2
284
     1
 64
     0
275
    -2
285
     1
 65
     0
276
    -2
286
     1
 66
     0
277
    -2
287
     1
 67
     0
278
    -2
288
     1
 68
     0
279
    -2
289
     1
 69
     0
  7
Standard
140
4.5
170
     5
 62
     0
 63
   257
283
     0
 90
        4
 91
        0
  1

274
    -2
284
     1
 64
     0
275
    -2
285
     1
 65
     0
276
    -2
286
     1
 66
     0
277
    -2
287
     1
 67
     0
278
    -2
288
     1
 68
     0
279
    -2
289
     1
 69
     0
  0
VISUALSTYLE
  5
39DA
102
{ACAD_REACTORS
330
39D5
102
}
330
39D5
100
AcDbVisualStyle
  2
2dWireframe
 70
     4
177
     2
291
     0
 71
     0
176
     1
 72
     2
176
     1
 73
     0
176
     1
 90
        0
176
     1
 40
0.6
176
     1
 41
30.0
176
     1
 62
     5
 63
     7
421
 16777215
176
     1
 74
     1
176
     1
 91
        4
176
     1
 64
     7
176
     1
 65
   257
176
     1
 75
     1
176
     1
175
     1
176
     1
 42
1.0
176
     1
 92
        0
176
     1
 66
   257
176
     1
 43
1.0
176
     1
 76
     1
176
     1
 77
     6
176
     1
 78
     2
176
     1
 67
     7
176
     1
 79
     5
176
     1
170
     0
176
     1
171
     0
176
     1
290
     0
176
     1
 93
        1
176
     1
 44
0.0
176
     1
173
     0
176
     1
  0
VISUALSTYLE
  5
39DD
102
{ACAD_REACTORS
330
39D5
102
}
330
39D5
100
AcDbVisualStyle
  2
Basic
 70
     7
177
     2
291
     1
 71
     1
176
     1
 72
     0
176
     1
 73
     1
176
     1
 90
        0
176
     1
 40
0.6
176
     1
 41
30.0
176
     1
 62
     5
 63
     7
421
 16777215
176
     1
 74
     0
176
     1
 91
        4
176
     1
 64
     7
176
     1
 65
   257
176
     1
 75
     1
176
     1
175
     1
176
     1
 42
1.0
176
     1
 92
        8
176
     1
 66
     7
176
     1
 43
1.0
176
     1
 76
     1
176
     1
 77
     6
176
     1
 78
     2
176
     1
 67
     7
176
     1
 79
     5
176
     1
170
     0
176
     1
171
     0
176
     1
290
     0
176
     1
 93
        1
176
     1
 44
0.0
176
     1
173
     0
176
     1
  0
VISUALSTYLE
  5
39E1
102
{ACAD_REACTORS
330
39D5
102
}
330
39D5
100
AcDbVisualStyle
  2
Brighten
 70
    12
177
     2
291
     1
 71
     2
176
     1
 72
     2
176
     1
 73
     0
176
     1
 90
        0
176
     1
 40
0.6
176
     1
 41
30.0
176
     1
 62
     5
 63
     7
421
 16777215
176
     1
 74
     1
176
     1
 91
        4
176
     1
 64
     7
176
     1
 65
   257
176
     1
 75
     1
176
     1
175
     1
176
     1
 42
1.0
176
     1
 92
        8
176
     1
 66
     7
176
     1
 43
1.0
176
     1
 76
     1
176
     1
 77
     6
176
     1
 78
     2
176
     1
 67
     7
176
     1
 79
     5
176
     1
170
     0
176
     1
171
     0
176
     1
290
     0
176
     1
 93
        1
176
     1
 44
50.0
176
     1
173
     0
176
     1
  0
VISUALSTYLE
  5
39E5
102
{ACAD_REACTORS
330
39D5
102
}
330
39D5
100
AcDbVisualStyle
  2
ColorChange
 70
    16
177
     2
291
     1
 71
     2
176
     1
 72
     2
176
     1
 73
     3
176
     1
 90
        0
176
     1
 40
0.6
176
     1
 41
30.0
176
     1
 62
     5
 63
     8
421
  8421504
176
     1
 74
     1
176
     1
 91
        4
176
     1
 64
     7
176
     1
 65
   257
176
     1
 75
     1
176
     1
175
     1
176
     1
 42
1.0
176
     1
 92
        8
176
     1
 66
     8
424
  8421504
176
     1
 43
1.0
176
     1
 76
     1
176
     1
 77
     6
176
     1
 78
     2
176
     1
 67
     7
176
     1
 79
     5
176
     1
170
     0
176
     1
171
     0
176
     1
290
     0
176
     1
 93
        1
176
     1
 44
0.0
176
     1
173
     0
176
     1
  0
VISUALSTYLE
  5
39DF
102
{ACAD_REACTORS
330
39D5
102
}
330
39D5
100
AcDbVisualStyle
  2
Conceptual
 70
     9
177
     2
291
     0
 71
     3
176
     1
 72
     2
176
     1
 73
     0
176
     1
 90
        0
176
     1
 40
0.6
176
     1
 41
30.0
176
     1
 62
     5
 63
     7
421
 16777215
176
     1
 74
     2
176
     1
 91
        2
176
     1
 64
     7
176
     1
 65
   257
176
     1
 75
     1
176
     1
175
     1
176
     1
 42
179.0
176
     1
 92
        8
176
     1
 66
     7
176
     1
 43
1.0
176
     1
 76
     1
176
     1
 77
     6
176
     1
 78
     2
176
     1
 67
     7
176
     1
 79
     3
176
     1
170
     0
176
     1
171
     0
176
     1
290
     0
176
     1
 93
        1
176
     1
 44
0.0
176
     1
173
     0
176
     1
  0
VISUALSTYLE
  5
39E0
102
{ACAD_REACTORS
330
39D5
102
}
330
39D5
100
AcDbVisualStyle
  2
Dim
 70
    11
177
     2
291
     1
 71
     2
176
     1
 72
     2
176
     1
 73
     0
176
     1
 90
        0
176
     1
 40
0.6
176
     1
 41
30.0
176
     1
 62
     5
 63
     7
421
 16777215
176
     1
 74
     1
176
     1
 91
        4
176
     1
 64
     7
176
     1
 65
   257
176
     1
 75
     1
176
     1
175
     1
176
     1
 42
1.0
176
     1
 92
        8
176
     1
 66
     7
176
     1
 43
1.0
176
     1
 76
     1
176
     1
 77
     6
176
     1
 78
     2
176
     1
 67
     7
176
     1
 79
     5
176
     1
170
     0
176
     1
171
     0
176
     1
290
     0
176
     1
 93
        1
176
     1
 44
-50.0
176
     1
173
     0
176
     1
  0
VISUALSTYLE
  5
39E8
102
{ACAD_REACTORS
330
39D5
102
}
330
39D5
100
AcDbVisualStyle
  2
EdgeColorOff
 70
    22
177
     2
291
     1
 71
     2
176
     0
 72
     2
176
     0
 73
     0
176
     0
 90
        0
176
     0
 40
0.6
176
     0
 41
30.0
176
     0
 62
     5
 63
     7
421
 16777215
176
     0
 74
     1
176
     0
 91
        4
176
     0
 64
     7
176
     0
 65
   257
176
     0
 75
     1
176
     0
175
     1
176
     0
 42
1.0
176
     0
 92
        8
176
     2
 66
     7
176
     0
 43
1.0
176
     0
 76
     1
176
     0
 77
     6
176
     0
 78
     2
176
     0
 67
     7
176
     0
 79
     5
176
     0
170
     0
176
     0
171
     0
176
     0
290
     0
176
     0
 93
        1
176
     0
 44
0.0
176
     0
173
     0
176
     0
  0
VISUALSTYLE
  5
39E4
102
{ACAD_REACTORS
330
39D5
102
}
330
39D5
100
AcDbVisualStyle
  2
Facepattern
 70
    15
177
     2
291
     1
 71
     2
176
     1
 72
     2
176
     1
 73
     0
176
     1
 90
        0
176
     1
 40
0.6
176
     1
 41
30.0
176
     1
 62
     5
 63
     7
421
 16777215
176
     1
 74
     1
176
     1
 91
        4
176
     1
 64
     7
176
     1
 65
   257
176
     1
 75
     1
176
     1
175
     1
176
     1
 42
1.0
176
     1
 92
        8
176
     1
 66
     7
176
     1
 43
1.0
176
     1
 76
     1
176
     1
 77
     6
176
     1
 78
     2
176
     1
 67
     7
176
     1
 79
     5
176
     1
170
     0
176
     1
171
     0
176
     1
290
     0
176
     1
 93
        1
176
     1
 44
0.0
176
     1
173
     0
176
     1
  0
VISUALSTYLE
  5
39D6
102
{ACAD_REACTORS
330
39D5
102
}
330
39D5
100
AcDbVisualStyle
  2
Flat
 70
     0
177
     2
291
     1
 71
     2
176
     1
 72
     1
176
     1
 73
     1
176
     1
 90
        2
176
     1
 40
0.6
176
     1
 41
30.0
176
     1
 62
     5
 63
     7
421
 16777215
176
     1
 74
     0
176
     1
 91
        0
176
     1
 64
     7
176
     1
 65
   257
176
     1
 75
     1
176
     1
175
     1
176
     1
 42
1.0
176
     1
 92
        8
176
     1
 66
     7
176
     1
 43
1.0
176
     1
 76
     1
176
     1
 77
     6
176
     1
 78
     2
176
     1
 67
     7
176
     1
 79
     5
176
     1
170
     0
176
     1
171
     0
176
     1
290
     0
176
     1
 93
       13
176
     1
 44
0.0
176
     1
173
     0
176
     1
  0
VISUALSTYLE
  5
39D7
102
{ACAD_REACTORS
330
39D5
102
}
330
39D5
100
AcDbVisualStyle
  2
FlatWithEdges
 70
     1
177
     2
291
     1
 71
     2
176
     1
 72
     1
176
     1
 73
     1
176
     1
 90
        2
176
     1
 40
0.6
176
     1
 41
30.0
176
     1
 62
     5
 63
     7
421
 16777215
176
     1
 74
     1
176
     1
 91
        0
176
     1
 64
     7
176
     1
 65
   257
176
     1
 75
     1
176
     1
175
     1
176
     1
 42
1.0
176
     1
 92
        0
176
     1
 66
   257
176
     1
 43
1.0
176
     1
 76
     1
176
     1
 77
     6
176
     1
 78
     2
176
     1
 67
     7
176
     1
 79
     5
176
     1
170
     0
176
     1
171
     0
176
     1
290
     0
176
     1
 93
       13
176
     1
 44
0.0
176
     1
173
     0
176
     1
  0
VISUALSTYLE
  5
39D8
102
{ACAD_REACTORS
330
39D5
102
}
330
39D5
100
AcDbVisualStyle
  2
Gouraud
 70
     2
177
     2
291
     1
 71
     2
176
     1
 72
     2
176
     1
 73
     1
176
     1
 90
        2
176
     1
 40
0.6
176
     1
 41
30.0
176
     1
 62
     5
 63
     7
421
 16777215
176
     1
 74
     0
176
     1
 91
        0
176
     1
 64
     7
176
     1
 65
   257
176
     1
 75
     1
176
     1
175
     1
176
     1
 42
1.0
176
     1
 92
        0
176
     1
 66
     7
176
     1
 43
1.0
176
     1
 76
     1
176
     1
 77
     6
176
     1
 78
     2
176
     1
 67
     7
176
     1
 79
     5
176
     1
170
     0
176
     1
171
     0
176
     1
290
     0
176
     1
 93
       13
176
     1
 44
0.0
176
     1
173
     0
176
     1
  0
VISUALSTYLE
  5
39D9
102
{ACAD_REACTORS
330
39D5
102
}
330
39D5
100
AcDbVisualStyle
  2
GouraudWithEdges
 70
     3
177
     2
291
     1
 71
     2
176
     1
 72
     2
176
     1
 73
     1
176
     1
 90
        2
176
     1
 40
0.6
176
     1
 41
30.0
176
     1
 62
     5
 63
     7
421
 16777215
176
     1
 74
     1
176
     1
 91
        0
176
     1
 64
     7
176
     1
 65
   257
176
     1
 75
     1
176
     1
175
     1
176
     1
 42
1.0
176
     1
 92
        0
176
     1
 66
   257
176
     1
 43
1.0
176
     1
 76
     1
176
     1
 77
     6
176
     1
 78
     2
176
     1
 67
     7
176
     1
 79
     5
176
     1
170
     0
176
     1
171
     0
176
     1
290
     0
176
     1
 93
       13
176
     1
 44
0.0
176
     1
173
     0
176
     1
  0
VISUALSTYLE
  5
39DC
102
{ACAD_REACTORS
330
39D5
102
}
330
39D5
100
AcDbVisualStyle
  2
Hidden
 70
     6
177
     2
291
     0
 71
     1
176
     1
 72
     2
176
     1
 73
     2
176
     1
 90
        0
176
     1
 40
0.6
176
     1
 41
30.0
176
     1
 62
     5
 63
     7
421
 16777215
176
     1
 74
     2
176
     1
 91
        2
176
     1
 64
     7
176
     1
 65
   257
176
     1
 75
     2
176
     1
175
     1
176
     1
 42
40.0
176
     1
 92
        0
176
     1
 66
   257
176
     1
 43
1.0
176
     1
 76
     1
176
     1
 77
     6
176
     1
 78
     2
176
     1
 67
     7
176
     1
 79
     3
176
     1
170
     0
176
     1
171
     0
176
     1
290
     0
176
     1
 93
        1
176
     1
 44
0.0
176
     1
173
     0
176
     1
  0
VISUALSTYLE
  5
39E6
102
{ACAD_REACTORS
330
39D5
102
}
330
39D5
100
AcDbVisualStyle
  2
JitterOff
 70
    20
177
     2
291
     1
 71
     2
176
     0
 72
     2
176
     0
 73
     0
176
     0
 90
        0
176
     0
 40
0.6
176
     0
 41
30.0
176
     0
 62
     5
 63
     7
421
 16777215
176
     0
 74
     1
176
     0
 91
        4
176
     0
 64
     7
176
     0
 65
   257
176
     0
 75
     1
176
     0
175
     1
176
     0
 42
1.0
176
     0
 92
       10
176
     2
 66
     7
176
     0
 43
1.0
176
     0
 76
     1
176
     0
 77
     6
176
     0
 78
     2
176
     0
 67
     7
176
     0
 79
     5
176
     0
170
     0
176
     0
171
     0
176
     0
290
     0
176
     0
 93
        1
176
     0
 44
0.0
176
     0
173
     0
176
     0
  0
VISUALSTYLE
  5
39E3
102
{ACAD_REACTORS
330
39D5
102
}
330
39D5
100
AcDbVisualStyle
  2
Linepattern
 70
    14
177
     2
291
     1
 71
     2
176
     1
 72
     2
176
     1
 73
     0
176
     1
 90
        0
176
     1
 40
0.6
176
     1
 41
30.0
176
     1
 62
     5
 63
     7
421
 16777215
176
     1
 74
     1
176
     1
 91
        4
176
     1
 64
     7
176
     1
 65
   257
176
     1
 75
     7
176
     1
175
     7
176
     1
 42
1.0
176
     1
 92
        8
176
     1
 66
     7
176
     1
 43
1.0
176
     1
 76
     1
176
     1
 77
     6
176
     1
 78
     2
176
     1
 67
     7
176
     1
 79
     5
176
     1
170
     0
176
     1
171
     0
176
     1
290
     0
176
     1
 93
        1
176
     1
 44
0.0
176
     1
173
     0
176
     1
  0
VISUALSTYLE
  5
39E7
102
{ACAD_REACTORS
330
39D5
102
}
330
39D5
100
AcDbVisualStyle
  2
OverhangOff
 70
    21
177
     2
291
     1
 71
     2
176
     0
 72
     2
176
     0
 73
     0
176
     0
 90
        0
176
     0
 40
0.6
176
     0
 41
30.0
176
     0
 62
     5
 63
     7
421
 16777215
176
     0
 74
     1
176
     0
 91
        4
176
     0
 64
     7
176
     0
 65
   257
176
     0
 75
     1
176
     0
175
     1
176
     0
 42
1.0
176
     0
 92
        9
176
     2
 66
     7
176
     0
 43
1.0
176
     0
 76
     1
176
     0
 77
     6
176
     0
 78
     2
176
     0
 67
     7
176
     0
 79
     5
176
     0
170
     0
176
     0
171
     0
176
     0
290
     0
176
     0
 93
        1
176
     0
 44
0.0
176
     0
173
     0
176
     0
  0
VISUALSTYLE
  5
39DE
102
{ACAD_REACTORS
330
39D5
102
}
330
39D5
100
AcDbVisualStyle
  2
Realistic
 70
     8
177
     2
291
     0
 71
     2
176
     1
 72
     3
176
     1
 73
     0
176
     1
 90
        2
176
     1
 40
0.6
176
     1
 41
30.0
176
     1
 62
     5
 63
     7
421
 16777215
176
     1
 74
     0
176
     1
 91
        0
176
     1
 64
     7
176
     1
 65
   257
176
     1
 75
     1
176
     1
175
     1
176
     1
 42
1.0
176
     1
 92
        8
176
     1
 66
   257
176
     1
 43
1.0
176
     1
 76
     1
176
     1
 77
     6
176
     1
 78
     2
176
     1
 67
     7
176
     1
 79
     3
176
     1
170
     0
176
     1
171
     0
176
     1
290
     0
176
     1
 93
       13
176
     1
 44
0.0
176
     1
173
     0
176
     1
  0
VISUALSTYLE
  5
39ED
102
{ACAD_REACTORS
330
39D5
102
}
330
39D5
100
AcDbVisualStyle
  2
Shaded
 70
    27
177
     2
291
     0
 71
     2
176
     1
 72
     2
176
     1
 73
     1
176
     1
 90
        2
176
     1
 40
0.6
176
     1
 41
30.0
176
     1
 62
     5
 63
     7
421
 16777215
176
     1
 74
     0
176
     1
 91
        4
176
     1
 64
     7
176
     1
 65
   257
176
     1
 75
     1
176
     1
175
     1
176
     1
 42
1.0
176
     1
 92
        8
176
     1
 66
   257
176
     1
 43
1.0
176
     1
 76
     1
176
     1
 77
     6
176
     1
 78
     2
176
     1
 67
     8
425
  7895160
176
     1
 79
     3
176
     1
170
     0
176
     1
171
     0
176
     1
290
     0
176
     1
 93
        5
176
     1
 44
0.0
176
     1
173
     0
176
     1
  0
VISUALSTYLE
  5
39EC
102
{ACAD_REACTORS
330
39D5
102
}
330
39D5
100
AcDbVisualStyle
  2
Shaded with edges
 70
    26
177
     2
291
     0
 71
     2
176
     1
 72
     2
176
     1
 73
     1
176
     1
 90
        2
176
     1
 40
0.6
176
     1
 41
30.0
176
     1
 62
     5
 63
     7
421
 16777215
176
     1
 74
     1
176
     1
 91
       10
176
     1
 64
     7
176
     1
 65
   257
176
     1
 75
     2
176
     1
175
     1
176
     1
 42
1.0
176
     1
 92
        8
176
     1
 66
   257
176
     1
 43
1.0
176
     1
 76
     1
176
     1
 77
     6
176
     1
 78
     2
176
     1
 67
     7
176
     1
 79
     3
176
     1
170
     0
176
     1
171
     0
176
     1
290
     0
176
     1
 93
        5
176
     1
 44
0.0
176
     1
173
     0
176
     1
  0
VISUALSTYLE
  5
39E9
102
{ACAD_REACTORS
330
39D5
102
}
330
39D5
100
AcDbVisualStyle
  2
Shades of Gray
 70
    23
177
     2
291
     0
 71
     2
176
     1
 72
     2
176
     1
 73
     3
176
     1
 90
        0
176
     1
 40
0.6
176
     1
 41
30.0
176
     1
 62
     5
 63
     7
421
 16777215
176
     1
 74
     2
176
     1
 91
        2
176
     1
 64
     7
176
     1
 65
     7
176
     1
 75
     1
176
     1
175
     1
176
     1
 42
40.0
176
     1
 92
        8
176
     1
 66
     7
176
     1
 43
1.0
176
     1
 76
     1
176
     1
 77
     6
176
     1
 78
     2
176
     1
 67
     7
176
     1
 79
     3
176
     1
170
     0
176
     1
171
     0
176
     1
290
     0
176
     1
 93
        1
176
     1
 44
0.0
176
     1
173
     0
176
     1
  0
VISUALSTYLE
  5
39EA
102
{ACAD_REACTORS
330
39D5
102
}
330
39D5
100
AcDbVisualStyle
  2
Sketchy
 70
    24
177
     2
291
     0
 71
     1
176
     1
 72
     2
176
     1
 73
     2
176
     1
 90
        0
176
     1
 40
0.6
176
     1
 41
30.0
176
     1
 62
     5
 63
     7
421
 16777215
176
     1
 74
     2
176
     1
 91
        2
176
     1
 64
     7
176
     1
 65
     7
176
     1
 75
     1
176
     1
175
     1
176
     1
 42
40.0
176
     1
 92
       11
176
     1
 66
     7
176
     1
 43
1.0
176
     1
 76
     1
176
     1
 77
     6
176
     1
 78
     2
176
     1
 67
     7
176
     1
 79
     6
176
     1
170
     0
176
     1
171
     0
176
     1
290
     0
176
     1
 93
        1
176
     1
 44
0.0
176
     1
173
     0
176
     1
  0
VISUALSTYLE
  5
39E2
102
{ACAD_REACTORS
330
39D5
102
}
330
39D5
100
AcDbVisualStyle
  2
Thicken
 70
    13
177
     2
291
     1
 71
     2
176
     1
 72
     2
176
     1
 73
     0
176
     1
 90
        0
176
     1
 40
0.6
176
     1
 41
30.0
176
     1
 62
     5
 63
     7
421
 16777215
176
     1
 74
     1
176
     1
 91
        4
176
     1
 64
     7
176
     1
 65
   257
176
     1
 75
     1
176
     1
175
     1
176
     1
 42
1.0
176
     1
 92
       12
176
     1
 66
     7
176
     1
 43
1.0
176
     1
 76
     1
176
     1
 77
     6
176
     1
 78
     2
176
     1
 67
     7
176
     1
 79
     5
176
     1
170
     0
176
     1
171
     0
176
     1
290
     0
176
     1
 93
        1
176
     1
 44
0.0
176
     1
173
     0
176
     1
  0
VISUALSTYLE
  5
39DB
102
{ACAD_REACTORS
330
39D5
102
}
330
39D5
100
AcDbVisualStyle
  2
Wireframe
 70
     5
177
     2
291
     0
 71
     0
176
     1
 72
     2
176
     1
 73
     0
176
     1
 90
        0
176
     1
 40
0.6
176
     1
 41
30.0
176
     1
 62
     5
 63
     7
421
 16777215
176
     1
 74
     1
176
     1
 91
        4
176
     1
 64
     7
176
     1
 65
   257
176
     1
 75
     1
176
     1
175
     1
176
     1
 42
1.0
176
     1
 92
        0
176
     1
 66
   257
176
     1
 43
1.0
176
     1
 76
     1
176
     1
 77
     6
176
     1
 78
     2
176
     1
 67
     7
176
     1
 79
     3
176
     1
170
     0
176
     1
171
     0
176
     1
290
     0
176
     1
 93
        1
176
     1
 44
0.0
176
     1
173
     0
176
     1
  0
VISUALSTYLE
  5
39EB
102
{ACAD_REACTORS
330
39D5
102
}
330
39D5
100
AcDbVisualStyle
  2
X-Ray
 70
    25
177
     2
291
     0
 71
     2
176
     1
 72
     2
176
     1
 73
     1
176
     1
 90
        1
176
     1
 40
0.5
176
     1
 41
30.0
176
     1
 62
     5
 63
     7
421
 16777215
176
     1
 74
     1
176
     1
 91
        0
176
     1
 64
     7
176
     1
 65
   257
176
     1
 75
     1
176
     1
175
     1
176
     1
 42
1.0
176
     1
 92
        8
176
     1
 66
     7
176
     1
 43
1.0
176
     1
 76
     1
176
     1
 77
     6
176
     1
 78
     2
176
     1
 67
     7
176
     1
 79
     3
176
     1
170
     0
176
     1
171
     0
176
     1
290
     0
176
     1
 93
       13
176
     1
 44
0.0
176
     1
173
     0
176
     1
  0
DICTIONARYVAR
  5
39F6
102
{ACAD_REACTORS
330
3E1
102
}
330
3E1
100
DictionaryVariables
280
     0
  1
1:1
  0
DICTIONARYVAR
  5
39FB
102
{ACAD_REACTORS
330
3E1
102
}
330
3E1
100
DictionaryVariables
280
     0
  1
Standard
  0
DICTIONARYVAR
  5
39FA
102
{ACAD_REACTORS
330
3E1
102
}
330
3E1
100
DictionaryVariables
280
     0
  1
Standard
  0
DICTIONARYVAR
  5
14C8
102
{ACAD_REACTORS
330
3E1
102
}
330
3E1
100
DictionaryVariables
280
     0
  1
ByLayer
  0
DICTIONARYVAR
  5
39FC
102
{ACAD_REACTORS
330
3E1
102
}
330
3E1
100
DictionaryVariables
280
     0
  1
0
  0
DICTIONARYVAR
  5
3E2
102
{ACAD_REACTORS
330
3E1
102
}
330
3E1
100
DictionaryVariables
280
     0
  1
96
  0
DICTIONARYVAR
  5
3857
102
{ACAD_REACTORS
330
14C9
102
}
330
14C9
100
DictionaryVariables
280
     0
  1
0.261799
  0
DICTIONARYVAR
  5
3855
102
{ACAD_REACTORS
330
14C9
102
}
330
14C9
100
DictionaryVariables
280
     0
  1
10.000000
  0
DICTIONARYVAR
  5
3856
102
{ACAD_REACTORS
330
14C9
102
}
330
14C9
100
DictionaryVariables
280
     0
  1
6.000000
  0
DICTIONARYVAR
  5
3858
102
{ACAD_REACTORS
330
14C9
102
}
330
14C9
100
DictionaryVariables
280
     0
  1
0
  0
DICTIONARY
  5
3AF9
330
39F3
100
AcDbDictionary
280
     1
281
     1
  3
ACAD_ROUNDTRIP_2008_TABLESTYLE_CELLSTYLEMAP
360
3AFA
  0
CELLSTYLEMAP
  5
3AFA
102
{ACAD_REACTORS
330
3AF9
102
}
330
3AF9
100
AcDbCellStyleMap
 90
        3
300
CELLSTYLE
  1
TABLEFORMAT_BEGIN
 90
        5
170
     1
 91
        0
 92
    32768
 62
   257
 93
        1
300
CONTENTFORMAT
  1
CONTENTFORMAT_BEGIN
 90
        0
 91
        0
 92
        4
 93
        0
300

 40
0.0
140
1.0
 94
        5
 62
     0
340
11
144
6.0
309
CONTENTFORMAT_END
171
     1
301
MARGIN
  1
CELLMARGIN_BEGIN
 40
1.5
 40
1.5
 40
1.5
 40
1.5
 40
1.5
 40
1.5
309
CELLMARGIN_END
 94
        6
 95
        1
302
GRIDFORMAT
  1
GRIDFORMAT_BEGIN
 90
        0
 91
        1
 62
     0
 92
       -2
340
14
 93
        0
 40
0.045
309
GRIDFORMAT_END
 95
        2
302
GRIDFORMAT
  1
GRIDFORMAT_BEGIN
 90
        0
 91
        1
 62
     0
 92
       -2
340
14
 93
        0
 40
0.045
309
GRIDFORMAT_END
 95
        4
302
GRIDFORMAT
  1
GRIDFORMAT_BEGIN
 90
        0
 91
        1
 62
     0
 92
       -2
340
14
 93
        0
 40
0.045
309
GRIDFORMAT_END
 95
        8
302
GRIDFORMAT
  1
GRIDFORMAT_BEGIN
 90
        0
 91
        1
 62
     0
 92
       -2
340
14
 93
        0
 40
0.045
309
GRIDFORMAT_END
 95
       16
302
GRIDFORMAT
  1
GRIDFORMAT_BEGIN
 90
        0
 91
        1
 62
     0
 92
       -2
340
14
 93
        0
 40
0.045
309
GRIDFORMAT_END
 95
       32
302
GRIDFORMAT
  1
GRIDFORMAT_BEGIN
 90
        0
 91
        1
 62
     0
 92
       -2
340
14
 93
        0
 40
0.045
309
GRIDFORMAT_END
309
TABLEFORMAT_END
  1
CELLSTYLE_BEGIN
 90
        1
 91
        1
300
_TITLE
309
CELLSTYLE_END
300
CELLSTYLE
  1
TABLEFORMAT_BEGIN
 90
        5
170
     1
 91
        0
 92
        0
 62
   257
 93
        1
300
CONTENTFORMAT
  1
CONTENTFORMAT_BEGIN
 90
        0
 91
        0
 92
        4
 93
        0
300

 40
0.0
140
1.0
 94
        5
 62
     0
340
11
144
4.5
309
CONTENTFORMAT_END
171
     1
301
MARGIN
  1
CELLMARGIN_BEGIN
 40
1.5
 40
1.5
 40
1.5
 40
1.5
 40
1.5
 40
1.5
309
CELLMARGIN_END
 94
        6
 95
        1
302
GRIDFORMAT
  1
GRIDFORMAT_BEGIN
 90
        0
 91
        1
 62
     0
 92
       -2
340
14
 93
        0
 40
0.045
309
GRIDFORMAT_END
 95
        2
302
GRIDFORMAT
  1
GRIDFORMAT_BEGIN
 90
        0
 91
        1
 62
     0
 92
       -2
340
14
 93
        0
 40
0.045
309
GRIDFORMAT_END
 95
        4
302
GRIDFORMAT
  1
GRIDFORMAT_BEGIN
 90
        0
 91
        1
 62
     0
 92
       -2
340
14
 93
        0
 40
0.045
309
GRIDFORMAT_END
 95
        8
302
GRIDFORMAT
  1
GRIDFORMAT_BEGIN
 90
        0
 91
        1
 62
     0
 92
       -2
340
14
 93
        0
 40
0.045
309
GRIDFORMAT_END
 95
       16
302
GRIDFORMAT
  1
GRIDFORMAT_BEGIN
 90
        0
 91
        1
 62
     0
 92
       -2
340
14
 93
        0
 40
0.045
309
GRIDFORMAT_END
 95
       32
302
GRIDFORMAT
  1
GRIDFORMAT_BEGIN
 90
        0
 91
        1
 62
     0
 92
       -2
340
14
 93
        0
 40
0.045
309
GRIDFORMAT_END
309
TABLEFORMAT_END
  1
CELLSTYLE_BEGIN
 90
        2
 91
        1
300
_HEADER
309
CELLSTYLE_END
300
CELLSTYLE
  1
TABLEFORMAT_BEGIN
 90
        5
170
     1
 91
        0
 92
        0
 62
   257
 93
        1
300
CONTENTFORMAT
  1
CONTENTFORMAT_BEGIN
 90
        0
 91
        0
 92
        4
 93
        0
300

 40
0.0
140
1.0
 94
        2
 62
     0
340
11
144
4.5
309
CONTENTFORMAT_END
171
     1
301
MARGIN
  1
CELLMARGIN_BEGIN
 40
1.5
 40
1.5
 40
1.5
 40
1.5
 40
1.5
 40
1.5
309
CELLMARGIN_END
 94
        6
 95
        1
302
GRIDFORMAT
  1
GRIDFORMAT_BEGIN
 90
        0
 91
        1
 62
     0
 92
       -2
340
14
 93
        0
 40
0.045
309
GRIDFORMAT_END
 95
        2
302
GRIDFORMAT
  1
GRIDFORMAT_BEGIN
 90
        0
 91
        1
 62
     0
 92
       -2
340
14
 93
        0
 40
0.045
309
GRIDFORMAT_END
 95
        4
302
GRIDFORMAT
  1
GRIDFORMAT_BEGIN
 90
        0
 91
        1
 62
     0
 92
       -2
340
14
 93
        0
 40
0.045
309
GRIDFORMAT_END
 95
        8
302
GRIDFORMAT
  1
GRIDFORMAT_BEGIN
 90
        0
 91
        1
 62
     0
 92
       -2
340
14
 93
        0
 40
0.045
309
GRIDFORMAT_END
 95
       16
302
GRIDFORMAT
  1
GRIDFORMAT_BEGIN
 90
        0
 91
        1
 62
     0
 92
       -2
340
14
 93
        0
 40
0.045
309
GRIDFORMAT_END
 95
       32
302
GRIDFORMAT
  1
GRIDFORMAT_BEGIN
 90
        0
 91
        1
 62
     0
 92
       -2
340
14
 93
        0
 40
0.045
309
GRIDFORMAT_END
309
TABLEFORMAT_END
  1
CELLSTYLE_BEGIN
 90
        3
 91
        2
300
_DATA
309
CELLSTYLE_END
  0
ENDSEC
  0
EOF
