  0
SECTION
  2
HEADER
  9
$ACADVER
  1
AC1024
  9
$ACADMAINTVER
 70
     6
  9
$DWGCODEPAGE
  3
ANSI_932
  9
$LASTSAVEDBY
  1
営業企画A
  9
$INSBASE
 10
0.0
 20
0.0
 30
0.0
  9
$EXTMIN
 10
0.0
 20
0.0
 30
0.0
  9
$EXTMAX
 10
292.0
 20
205.0
 30
0.0
  9
$LIMMIN
 10
0.0
 20
0.0
  9
$LIMMAX
 10
297.0
 20
210.0
  9
$ORTHOMODE
 70
     1
  9
$REGENMODE
 70
     1
  9
$FILLMODE
 70
     1
  9
$QTEXTMODE
 70
     0
  9
$MIRRTEXT
 70
     1
  9
$LTSCALE
 40
1.0
  9
$ATTMODE
 70
     1
  9
$TEXTSIZE
 40
2.5
  9
$TRACEWID
 40
1.0
  9
$TEXTSTYLE
  7
Standard
  9
$CLAYER
  8
TOS_M1
  9
$CELTYPE
  6
Continuous
  9
$CECOLOR
 62
   256
  9
$CELTSCALE
 40
1.0
  9
$DISPSILH
 70
     0
  9
$DIMSCALE
 40
1.0
  9
$DIMASZ
 40
1.5
  9
$DIMEXO
 40
0.625
  9
$DIMDLI
 40
3.75
  9
$DIMRND
 40
0.0
  9
$DIMDLE
 40
0.0
  9
$DIMEXE
 40
1.25
  9
$DIMTP
 40
0.0
  9
$DIMTM
 40
0.0
  9
$DIMTXT
 40
2.0
  9
$DIMCEN
 40
0.0
  9
$DIMTSZ
 40
0.0
  9
$DIMTOL
 70
     0
  9
$DIMLIM
 70
     0
  9
$DIMTIH
 70
     1
  9
$DIMTOH
 70
     1
  9
$DIMSE1
 70
     0
  9
$DIMSE2
 70
     0
  9
$DIMTAD
 70
     1
  9
$DIMZIN
 70
     8
  9
$DIMBLK
  1

  9
$DIMASO
 70
     1
  9
$DIMSHO
 70
     1
  9
$DIMPOST
  1

  9
$DIMAPOST
  1

  9
$DIMALT
 70
     0
  9
$DIMALTD
 70
     3
  9
$DIMALTF
 40
0.03937007874016
  9
$DIMLFAC
 40
1.0
  9
$DIMTOFL
 70
     0
  9
$DIMTVP
 40
0.0
  9
$DIMTIX
 70
     0
  9
$DIMSOXD
 70
     0
  9
$DIMSAH
 70
     0
  9
$DIMBLK1
  1

  9
$DIMBLK2
  1

  9
$DIMSTYLE
  2
ISO-25
  9
$DIMCLRD
 70
     0
  9
$DIMCLRE
 70
     0
  9
$DIMCLRT
 70
     0
  9
$DIMTFAC
 40
1.0
  9
$DIMGAP
 40
0.625
  9
$DIMJUST
 70
     0
  9
$DIMSD1
 70
     0
  9
$DIMSD2
 70
     0
  9
$DIMTOLJ
 70
     0
  9
$DIMTZIN
 70
     8
  9
$DIMALTZ
 70
     0
  9
$DIMALTTZ
 70
     0
  9
$DIMUPT
 70
     1
  9
$DIMDEC
 70
     2
  9
$DIMTDEC
 70
     2
  9
$DIMALTU
 70
     2
  9
$DIMALTTD
 70
     3
  9
$DIMTXSTY
  7
Standard
  9
$DIMAUNIT
 70
     0
  9
$DIMADEC
 70
     0
  9
$DIMALTRND
 40
0.0
  9
$DIMAZIN
 70
     0
  9
$DIMDSEP
 70
    46
  9
$DIMATFIT
 70
     3
  9
$DIMFRAC
 70
     0
  9
$DIMLDRBLK
  1

  9
$DIMLUNIT
 70
     2
  9
$DIMLWD
 70
    -2
  9
$DIMLWE
 70
    -2
  9
$DIMTMOVE
 70
     2
  9
$DIMFXL
 40
1.0
  9
$DIMFXLON
 70
     0
  9
$DIMJOGANG
 40
0.7853981633974483
  9
$DIMTFILL
 70
     0
  9
$DIMTFILLCLR
 70
     0
  9
$DIMARCSYM
 70
     0
  9
$DIMLTYPE
  6

  9
$DIMLTEX1
  6

  9
$DIMLTEX2
  6

  9
$DIMTXTDIRECTION
 70
     0
  9
$LUNITS
 70
     2
  9
$LUPREC
 70
     4
  9
$SKETCHINC
 40
1.0
  9
$FILLETRAD
 40
1.0
  9
$AUNITS
 70
     0
  9
$AUPREC
 70
     0
  9
$MENU
  1
.
  9
$ELEVATION
 40
0.0
  9
$PELEVATION
 40
0.0
  9
$THICKNESS
 40
0.0
  9
$LIMCHECK
 70
     0
  9
$CHAMFERA
 40
10.0
  9
$CHAMFERB
 40
10.0
  9
$CHAMFERC
 40
20.0
  9
$CHAMFERD
 40
0.0
  9
$SKPOLY
 70
     0
  9
$TDCREATE
 40
2453866.557479954
  9
$TDUCREATE
 40
2453866.182479954
  9
$TDUPDATE
 40
2459762.612221783
  9
$TDUUPDATE
 40
2459762.237221783
  9
$TDINDWG
 40
0.7853720718
  9
$TDUSRTIMER
 40
0.0023031713
  9
$USRTIMER
 70
     1
  9
$ANGBASE
 50
0.0
  9
$ANGDIR
 70
     0
  9
$PDMODE
 70
     0
  9
$PDSIZE
 40
0.0
  9
$PLINEWID
 40
0.0
  9
$SPLFRAME
 70
     0
  9
$SPLINETYPE
 70
     6
  9
$SPLINESEGS
 70
     8
  9
$HANDSEED
  5
3C3A
  9
$SURFTAB1
 70
     6
  9
$SURFTAB2
 70
     6
  9
$SURFTYPE
 70
     6
  9
$SURFU
 70
     6
  9
$SURFV
 70
     6
  9
$UCSBASE
  2

  9
$UCSNAME
  2

  9
$UCSORG
 10
0.0
 20
0.0
 30
0.0
  9
$UCSXDIR
 10
1.0
 20
0.0
 30
0.0
  9
$UCSYDIR
 10
0.0
 20
1.0
 30
0.0
  9
$UCSORTHOREF
  2

  9
$UCSORTHOVIEW
 70
     0
  9
$UCSORGTOP
 10
0.0
 20
0.0
 30
0.0
  9
$UCSORGBOTTOM
 10
0.0
 20
0.0
 30
0.0
  9
$UCSORGLEFT
 10
0.0
 20
0.0
 30
0.0
  9
$UCSORGRIGHT
 10
0.0
 20
0.0
 30
0.0
  9
$UCSORGFRONT
 10
0.0
 20
0.0
 30
0.0
  9
$UCSORGBACK
 10
0.0
 20
0.0
 30
0.0
  9
$PUCSBASE
  2

  9
$PUCSNAME
  2

  9
$PUCSORG
 10
0.0
 20
0.0
 30
0.0
  9
$PUCSXDIR
 10
1.0
 20
0.0
 30
0.0
  9
$PUCSYDIR
 10
0.0
 20
1.0
 30
0.0
  9
$PUCSORTHOREF
  2

  9
$PUCSORTHOVIEW
 70
     0
  9
$PUCSORGTOP
 10
0.0
 20
0.0
 30
0.0
  9
$PUCSORGBOTTOM
 10
0.0
 20
0.0
 30
0.0
  9
$PUCSORGLEFT
 10
0.0
 20
0.0
 30
0.0
  9
$PUCSORGRIGHT
 10
0.0
 20
0.0
 30
0.0
  9
$PUCSORGFRONT
 10
0.0
 20
0.0
 30
0.0
  9
$PUCSORGBACK
 10
0.0
 20
0.0
 30
0.0
  9
$USERI1
 70
     0
  9
$USERI2
 70
     0
  9
$USERI3
 70
     0
  9
$USERI4
 70
     0
  9
$USERI5
 70
     0
  9
$USERR1
 40
0.0
  9
$USERR2
 40
0.0
  9
$USERR3
 40
0.0
  9
$USERR4
 40
0.0
  9
$USERR5
 40
0.0
  9
$WORLDVIEW
 70
     1
  9
$SHADEDGE
 70
     3
  9
$SHADEDIF
 70
    70
  9
$TILEMODE
 70
     1
  9
$MAXACTVP
 70
    64
  9
$PINSBASE
 10
0.0
 20
0.0
 30
0.0
  9
$PLIMCHECK
 70
     0
  9
$PEXTMIN
 10
1.000000000000000E+20
 20
1.000000000000000E+20
 30
1.000000000000000E+20
  9
$PEXTMAX
 10
-1.000000000000000E+20
 20
-1.000000000000000E+20
 30
-1.000000000000000E+20
  9
$PLIMMIN
 10
0.0
 20
0.0
  9
$PLIMMAX
 10
0.0
 20
0.0
  9
$UNITMODE
 70
     0
  9
$VISRETAIN
 70
     1
  9
$PLINEGEN
 70
     0
  9
$PSLTSCALE
 70
     1
  9
$TREEDEPTH
 70
  3020
  9
$CMLSTYLE
  2
Standard
  9
$CMLJUST
 70
     0
  9
$CMLSCALE
 40
20.0
  9
$PROXYGRAPHICS
 70
     1
  9
$MEASUREMENT
 70
     1
  9
$CELWEIGHT
370
    -1
  9
$ENDCAPS
280
     0
  9
$JOINSTYLE
280
     0
  9
$LWDISPLAY
290
     0
  9
$INSUNITS
 70
     4
  9
$HYPERLINKBASE
  1

  9
$STYLESHEET
  1

  9
$XEDIT
290
     1
  9
$CEPSNTYPE
380
     0
  9
$PSTYLEMODE
290
     1
  9
$FINGERPRINTGUID
  2
{49B20B3B-064E-400B-9469-2837C497CFA5}
  9
$VERSIONGUID
  2
{CCDC3A7D-9D77-4BF9-B421-98E64B28052D}
  9
$EXTNAMES
290
     1
  9
$PSVPSCALE
 40
0.0
  9
$OLESTARTUP
290
     0
  9
$SORTENTS
280
    96
  9
$INDEXCTL
280
     0
  9
$HIDETEXT
280
     1
  9
$XCLIPFRAME
280
     2
  9
$HALOGAP
280
     0
  9
$OBSCOLOR
 70
   257
  9
$OBSLTYPE
280
     0
  9
$INTERSECTIONDISPLAY
280
     0
  9
$INTERSECTIONCOLOR
 70
   257
  9
$DIMASSOC
280
     2
  9
$PROJECTNAME
  1

  9
$CAMERADISPLAY
290
     0
  9
$LENSLENGTH
 40
50.0
  9
$CAMERAHEIGHT
 40
0.0
  9
$STEPSPERSEC
 40
2.0
  9
$STEPSIZE
 40
6.0
  9
$3DDWFPREC
 40
2.0
  9
$PSOLWIDTH
 40
0.25
  9
$PSOLHEIGHT
 40
4.0
  9
$LOFTANG1
 40
1.570796326794897
  9
$LOFTANG2
 40
1.570796326794897
  9
$LOFTMAG1
 40
0.0
  9
$LOFTMAG2
 40
0.0
  9
$LOFTPARAM
 70
     7
  9
$LOFTNORMALS
280
     1
  9
$LATITUDE
 40
37.795
  9
$LONGITUDE
 40
-122.394
  9
$NORTHDIRECTION
 40
0.0
  9
$TIMEZONE
 70
 -8000
  9
$LIGHTGLYPHDISPLAY
280
     1
  9
$TILEMODELIGHTSYNCH
280
     1
  9
$SOLIDHIST
280
     0
  9
$SHOWHIST
280
     1
  9
$DWFFRAME
280
     2
  9
$DGNFRAME
280
     2
  9
$REALWORLDSCALE
290
     1
  9
$INTERFERECOLOR
 62
   256
  9
$CSHADOW
280
     0
  9
$SHADOWPLANELOCATION
 40
0.0
  0
ENDSEC
  0
SECTION
  2
CLASSES
  0
CLASS
  1
ACDBDICTIONARYWDFLT
  2
AcDbDictionaryWithDefault
  3
ObjectDBX Classes
 90
        0
 91
        3
280
     0
281
     0
  0
CLASS
  1
ACDBPLACEHOLDER
  2
AcDbPlaceHolder
  3
ObjectDBX Classes
 90
        0
 91
        1
280
     0
281
     0
  0
CLASS
  1
LAYOUT
  2
AcDbLayout
  3
ObjectDBX Classes
 90
        0
 91
        1
280
     0
281
     0
  0
CLASS
  1
DICTIONARYVAR
  2
AcDbDictionaryVar
  3
ObjectDBX Classes
 90
        0
 91
        3
280
     0
281
     0
  0
CLASS
  1
SCALE
  2
AcDbScale
  3
ObjectDBX Classes
 90
     1153
 91
        3
280
     0
281
     0
  0
CLASS
  1
MATERIAL
  2
AcDbMaterial
  3
ObjectDBX Classes
 90
     1153
 91
        3
280
     0
281
     0
  0
CLASS
  1
VISUALSTYLE
  2
AcDbVisualStyle
  3
ObjectDBX Classes
 90
     4095
 91
        3
280
     0
281
     0
  0
CLASS
  1
TABLESTYLE
  2
AcDbTableStyle
  3
ObjectDBX Classes
 90
     4095
 91
        3
280
     0
281
     0
  0
CLASS
  1
RASTERVARIABLES
  2
AcDbRasterVariables
  3
ISM
 90
        0
 91
        3
280
     0
281
     0
  0
CLASS
  1
DIMASSOC
  2
AcDbDimAssoc
  3
"AcDbDimAssoc|Product Desc:     AcDim ARX App For Dimension|Company:          Autodesk, Inc.|WEB Address:      www.autodesk.com"
 90
        0
 91
        3
280
     0
281
     0
  0
CLASS
  1
MLEADERSTYLE
  2
AcDbMLeaderStyle
  3
ACDB_MLEADERSTYLE_CLASS
 90
     4095
 91
        3
280
     0
281
     0
  0
CLASS
  1
SUN
  2
AcDbSun
  3
SCENEOE
 90
     1153
 91
        3
280
     0
281
     0
  0
CLASS
  1
CELLSTYLEMAP
  2
AcDbCellStyleMap
  3
ObjectDBX Classes
 90
     1152
 91
        3
280
     0
281
     0
  0
ENDSEC
  0
SECTION
  2
TABLES
  0
TABLE
  2
VPORT
  5
8
330
0
100
AcDbSymbolTable
 70
     1
  0
VPORT
  5
934
330
8
100
AcDbSymbolTableRecord
100
AcDbViewportTableRecord
  2
*Active
 70
     0
 10
0.0
 20
0.0
 11
1.0
 21
1.0
 12
146.0
 22
102.5
 13
0.0
 23
0.0
 14
10.0
 24
10.0
 15
10.0
 25
10.0
 16
0.0
 26
0.0
 36
1.0
 17
0.0
 27
0.0
 37
0.0
 40
209.1
 41
1.737931034482759
 42
50.0
 43
0.0
 44
0.0
 50
0.0
 51
0.0
 71
    16
 72
   100
 73
     1
 74
     3
 75
     0
 76
     0
 77
     0
 78
     0
281
     0
 65
     1
110
0.0
120
0.0
130
0.0
111
1.0
121
0.0
131
0.0
112
0.0
122
1.0
132
0.0
 79
     0
146
0.0
348
3905
 60
     3
 61
     5
292
     1
282
     1
141
0.0
142
0.0
 63
   256
361
3BD8
  0
ENDTAB
  0
TABLE
  2
LTYPE
  5
5
330
0
100
AcDbSymbolTable
 70
     5
  0
LTYPE
  5
14
330
5
100
AcDbSymbolTableRecord
100
AcDbLinetypeTableRecord
  2
ByBlock
 70
     0
  3

 72
    65
 73
     0
 40
0.0
  0
LTYPE
  5
15
330
5
100
AcDbSymbolTableRecord
100
AcDbLinetypeTableRecord
  2
ByLayer
 70
     0
  3

 72
    65
 73
     0
 40
0.0
  0
LTYPE
  5
16
330
5
100
AcDbSymbolTableRecord
100
AcDbLinetypeTableRecord
  2
Continuous
 70
     0
  3
Solid line
 72
    65
 73
     0
 40
0.0
  0
LTYPE
  5
C6
330
5
100
AcDbSymbolTableRecord
100
AcDbLinetypeTableRecord
  2
ACAD_ISO02W100
 70
     0
  3
ISO dash __ __ __ __ __ __ __ __ __ __ __ __ __
 72
    65
 73
     2
 40
15.0
 49
12.0
 74
     0
 49
-3.0
 74
     0
  0
LTYPE
  5
63F
330
5
100
AcDbSymbolTableRecord
100
AcDbLinetypeTableRecord
  2
HIDDEN
 70
     0
  3
Hidden __ __ __ __ __ __ __ __ __ __ __ __ __ _
 72
    65
 73
     2
 40
4.5
 49
3.0
 74
     0
 49
-1.5
 74
     0
  0
LTYPE
  5
7A5
330
5
100
AcDbSymbolTableRecord
100
AcDbLinetypeTableRecord
  2
ACAD_ISO07W100
 70
     0
  3
ISO dot . . . . . . . . . . . . . . . . . . . .
 72
    65
 73
     2
 40
3.0
 49
0.0
 74
     0
 49
-3.0
 74
     0
  0
LTYPE
  5
A8D
330
5
100
AcDbSymbolTableRecord
100
AcDbLinetypeTableRecord
  2
CENTER2
 70
     0
  3
Center (.5x) ___ _ ___ _ ___ _ ___ _ ___ _ ___
 72
    65
 73
     4
 40
28.575
 49
19.05
 74
     0
 49
-3.175
 74
     0
 49
3.175
 74
     0
 49
-3.175
 74
     0
  0
ENDTAB
  0
TABLE
  2
LAYER
  5
2
102
{ACAD_XDICTIONARY
360
970
102
}
330
0
100
AcDbSymbolTable
 70
    18
  0
LAYER
  5
10
330
2
100
AcDbSymbolTableRecord
100
AcDbLayerTableRecord
  2
0
 70
     0
 62
     7
  6
Continuous
370
    -3
390
F
347
391C
  0
LAYER
  5
110
330
2
100
AcDbSymbolTableRecord
100
AcDbLayerTableRecord
  2
Defpoints
 70
     0
 62
     7
  6
Continuous
290
     0
370
    -3
390
F
347
391C
  0
LAYER
  5
4E7
330
2
100
AcDbSymbolTableRecord
100
AcDbLayerTableRecord
  2
100
 70
     0
 62
     7
  6
ACAD_ISO07W100
370
    -3
390
F
347
391C
  0
LAYER
  5
68D
330
2
100
AcDbSymbolTableRecord
100
AcDbLayerTableRecord
  2
用紙範囲
 70
     0
 62
    10
  6
Continuous
370
    -3
390
F
347
391C
  0
LAYER
  5
68E
330
2
100
AcDbSymbolTableRecord
100
AcDbLayerTableRecord
  2
枠
 70
     0
 62
   112
  6
Continuous
370
    -3
390
F
347
391C
  0
LAYER
  5
68F
330
2
100
AcDbSymbolTableRecord
100
AcDbLayerTableRecord
  2
寸法
 70
     0
 62
    90
  6
Continuous
370
    -3
390
F
347
391C
  0
LAYER
  5
690
330
2
100
AcDbSymbolTableRecord
100
AcDbLayerTableRecord
  2
金属部分
 70
     0
 62
   170
  6
Continuous
370
    -3
390
F
347
391C
  0
LAYER
  5
691
330
2
100
AcDbSymbolTableRecord
100
AcDbLayerTableRecord
  2
品番
 70
     0
 62
   244
  6
Continuous
370
    -3
390
F
347
391C
  0
LAYER
  5
786
330
2
100
AcDbSymbolTableRecord
100
AcDbLayerTableRecord
  2
文字
 70
     0
 62
    40
  6
Continuous
370
    -3
390
F
347
391C
  0
LAYER
  5
790
330
2
100
AcDbSymbolTableRecord
100
AcDbLayerTableRecord
  2
社名
 70
     0
 62
     1
  6
Continuous
370
    -3
390
F
347
391C
  0
LAYER
  5
880
330
2
100
AcDbSymbolTableRecord
100
AcDbLayerTableRecord
  2
軟質樹脂部分
 70
     0
 62
    30
  6
Continuous
370
    -3
390
F
347
391C
  0
LAYER
  5
896
330
2
100
AcDbSymbolTableRecord
100
AcDbLayerTableRecord
  2
TOS_M1
 70
     0
 62
     7
  6
Continuous
370
    -3
390
F
347
391C
  0
LAYER
  5
897
330
2
100
AcDbSymbolTableRecord
100
AcDbLayerTableRecord
  2
TOS_S1
 70
     0
 62
     4
  6
Continuous
370
    -3
390
F
347
391C
  0
LAYER
  5
A57
330
2
100
AcDbSymbolTableRecord
100
AcDbLayerTableRecord
  2
補助
 70
     0
 62
     7
  6
HIDDEN
370
    -3
390
F
347
391C
1001
AcAecLayerStandard
1000

1000

  0
LAYER
  5
A86
102
{ACAD_XDICTIONARY
360
A87
102
}
330
2
100
AcDbSymbolTableRecord
100
AcDbLayerTableRecord
  2
SCALE
 70
     0
 62
     3
  6
Continuous
370
    -3
390
F
347
391C
  0
LAYER
  5
A8A
102
{ACAD_XDICTIONARY
360
A8B
102
}
330
2
100
AcDbSymbolTableRecord
100
AcDbLayerTableRecord
  2
Hojo
 70
     0
 62
   111
  6
Continuous
370
    -3
390
F
347
391C
  0
LAYER
  5
2076
330
2
100
AcDbSymbolTableRecord
100
AcDbLayerTableRecord
  2
硬質樹脂部分
 70
     0
 62
   220
  6
Continuous
370
    -3
390
F
347
391C
1001
AcAecLayerStandard
1000

1000

  0
LAYER
  5
36E3
330
2
100
AcDbSymbolTableRecord
100
AcDbLayerTableRecord
  2
両面テープ
 70
     0
 62
     7
  6
Continuous
370
    -3
390
F
347
391C
1001
AcAecLayerStandard
1000

1000

  0
ENDTAB
  0
TABLE
  2
STYLE
  5
3
330
0
100
AcDbSymbolTable
 70
     2
  0
STYLE
  5
11
330
3
100
AcDbSymbolTableRecord
100
AcDbTextStyleTableRecord
  2
Standard
 70
     0
 40
0.0
 41
1.0
 50
0.0
 71
     0
 42
2.5
  3
txt.shx
  4
bigfont.shx
  0
STYLE
  5
C5
330
3
100
AcDbSymbolTableRecord
100
AcDbTextStyleTableRecord
  2

 70
     1
 40
0.0
 41
1.0
 50
0.0
 71
     0
 42
2.5
  3
ltypeshp.shx
  4

  0
ENDTAB
  0
TABLE
  2
VIEW
  5
6
330
0
100
AcDbSymbolTable
 70
     0
  0
ENDTAB
  0
TABLE
  2
UCS
  5
7
330
0
100
AcDbSymbolTable
 70
     0
  0
ENDTAB
  0
TABLE
  2
APPID
  5
9
330
0
100
AcDbSymbolTable
 70
     8
  0
APPID
  5
12
330
9
100
AcDbSymbolTableRecord
100
AcDbRegAppTableRecord
  2
ACAD
 70
     0
  0
APPID
  5
A58
330
9
100
AcDbSymbolTableRecord
100
AcDbRegAppTableRecord
  2
AcAecLayerStandard
 70
     0
  0
APPID
  5
A97
330
9
100
AcDbSymbolTableRecord
100
AcDbRegAppTableRecord
  2
ACAD_NAV_VCDISPLAY
 70
     0
  0
APPID
  5
A98
330
9
100
AcDbSymbolTableRecord
100
AcDbRegAppTableRecord
  2
ACAD_PSEXT
 70
     0
  0
APPID
  5
B15
330
9
100
AcDbSymbolTableRecord
100
AcDbRegAppTableRecord
  2
ACAD_DSTYLE_DIMRADIAL_EXTENSION
 70
     0
  0
APPID
  5
38FE
330
9
100
AcDbSymbolTableRecord
100
AcDbRegAppTableRecord
  2
ACAD_DSTYLE_DIMFLIPARROW_SYMBOL
 70
     0
  0
APPID
  5
38FF
330
9
100
AcDbSymbolTableRecord
100
AcDbRegAppTableRecord
  2
ACAD_DSTYLE_DIMFLIPARROW_WHICH_SYMBOL
 70
     0
  0
APPID
  5
3C0A
330
9
100
AcDbSymbolTableRecord
100
AcDbRegAppTableRecord
  2
PLOTTRANSPARENCY
 70
     0
  0
ENDTAB
  0
TABLE
  2
DIMSTYLE
  5
A
330
0
100
AcDbSymbolTable
 70
     4
100
AcDbDimStyleTable
  0
DIMSTYLE
105
27
102
{ACAD_REACTORS
330
3B30
330
3B31
330
3B32
330
3B33
330
3B5F
330
3B60
330
3B61
330
3B66
330
3C21
102
}
330
A
100
AcDbSymbolTableRecord
100
AcDbDimStyleTableRecord
  2
ISO-25
 70
     0
 41
1.5
 42
0.625
 43
3.75
 44
1.25
 77
     1
 78
     8
140
2.0
141
0.0
143
0.03937007874016
147
0.625
171
     3
178
     0
271
     2
272
     2
274
     3
279
     2
283
     0
284
     8
288
     1
340
11
  0
DIMSTYLE
105
4E8
330
A
100
AcDbSymbolTableRecord
100
AcDbDimStyleTableRecord
  2
Standard
 70
     0
178
     0
340
11
  0
DIMSTYLE
105
14C6
330
A
100
AcDbSymbolTableRecord
100
AcDbDimStyleTableRecord
  2
ISO-1
 70
     0
 41
2.5
 42
0.625
 43
3.75
 44
1.25
 77
     1
 78
     8
140
5.0
141
0.0
143
0.03937007874016
144
0.5
147
0.625
171
     3
178
     0
271
     2
272
     2
274
     3
279
     2
283
     0
284
     8
288
     1
340
11
  0
DIMSTYLE
105
2BCC
330
A
100
AcDbSymbolTableRecord
100
AcDbDimStyleTableRecord
  2
ISO-2
 70
     0
 41
2.5
 42
0.625
 43
3.75
 44
1.25
 77
     1
 78
     8
140
5.0
141
0.0
143
0.03937007874016
144
0.2
147
0.625
171
     3
178
     0
271
     2
272
     2
274
     3
279
     2
283
     0
284
     8
288
     1
340
11
  0
ENDTAB
  0
TABLE
  2
BLOCK_RECORD
  5
1
330
0
100
AcDbSymbolTable
 70
    65
  0
BLOCK_RECORD
  5
1F
330
1
100
AcDbSymbolTableRecord
100
AcDbBlockTableRecord
  2
*Model_Space
340
22
 70
     0
280
     1
281
     0
  0
BLOCK_RECORD
  5
1B
330
1
100
AcDbSymbolTableRecord
100
AcDbBlockTableRecord
  2
*Paper_Space
340
1E
 70
     0
280
     1
281
     0
  0
BLOCK_RECORD
  5
23
330
1
100
AcDbSymbolTableRecord
100
AcDbBlockTableRecord
  2
*Paper_Space0
340
26
 70
     0
280
     1
281
     0
  0
BLOCK_RECORD
  5
A91
330
1
100
AcDbSymbolTableRecord
100
AcDbBlockTableRecord
  2
_OPEN
340
0
 70
     0
280
     1
281
     0
  0
BLOCK_RECORD
  5
2E4E
330
1
100
AcDbSymbolTableRecord
100
AcDbBlockTableRecord
  2
*D2
340
0
 70
     0
280
     1
281
     0
  0
BLOCK_RECORD
  5
2E5E
330
1
100
AcDbSymbolTableRecord
100
AcDbBlockTableRecord
  2
*D3
340
0
 70
     0
280
     1
281
     0
  0
BLOCK_RECORD
  5
2E6E
330
1
100
AcDbSymbolTableRecord
100
AcDbBlockTableRecord
  2
*D4
340
0
 70
     0
280
     1
281
     0
  0
BLOCK_RECORD
  5
2E9E
330
1
100
AcDbSymbolTableRecord
100
AcDbBlockTableRecord
  2
*D5
340
0
 70
     0
280
     1
281
     0
  0
BLOCK_RECORD
  5
3498
330
1
100
AcDbSymbolTableRecord
100
AcDbBlockTableRecord
  2
*D6
340
0
 70
     0
280
     1
281
     0
  0
BLOCK_RECORD
  5
34A8
330
1
100
AcDbSymbolTableRecord
100
AcDbBlockTableRecord
  2
*D7
340
0
 70
     0
280
     1
281
     0
  0
BLOCK_RECORD
  5
34D3
330
1
100
AcDbSymbolTableRecord
100
AcDbBlockTableRecord
  2
*D8
340
0
 70
     0
280
     1
281
     0
  0
BLOCK_RECORD
  5
34E3
330
1
100
AcDbSymbolTableRecord
100
AcDbBlockTableRecord
  2
*D9
340
0
 70
     0
280
     1
281
     0
  0
BLOCK_RECORD
  5
34F3
330
1
100
AcDbSymbolTableRecord
100
AcDbBlockTableRecord
  2
*D10
340
0
 70
     0
280
     1
281
     0
  0
BLOCK_RECORD
  5
371A
330
1
100
AcDbSymbolTableRecord
100
AcDbBlockTableRecord
  2
*D11
340
0
 70
     0
280
     1
281
     0
  0
BLOCK_RECORD
  5
372A
330
1
100
AcDbSymbolTableRecord
100
AcDbBlockTableRecord
  2
*D12
340
0
 70
     0
280
     1
281
     0
  0
BLOCK_RECORD
  5
374F
330
1
100
AcDbSymbolTableRecord
100
AcDbBlockTableRecord
  2
*D13
340
0
 70
     0
280
     1
281
     0
  0
BLOCK_RECORD
  5
3760
330
1
100
AcDbSymbolTableRecord
100
AcDbBlockTableRecord
  2
*D14
340
0
 70
     0
280
     1
281
     0
  0
BLOCK_RECORD
  5
3771
330
1
100
AcDbSymbolTableRecord
100
AcDbBlockTableRecord
  2
*D15
340
0
 70
     0
280
     1
281
     0
  0
BLOCK_RECORD
  5
3783
330
1
100
AcDbSymbolTableRecord
100
AcDbBlockTableRecord
  2
*D16
340
0
 70
     0
280
     1
281
     0
  0
BLOCK_RECORD
  5
37D7
330
1
100
AcDbSymbolTableRecord
100
AcDbBlockTableRecord
  2
*D17
340
0
 70
     0
280
     1
281
     0
  0
BLOCK_RECORD
  5
37E4
330
1
100
AcDbSymbolTableRecord
100
AcDbBlockTableRecord
  2
*D18
340
0
 70
     0
280
     1
281
     0
  0
BLOCK_RECORD
  5
37F1
330
1
100
AcDbSymbolTableRecord
100
AcDbBlockTableRecord
  2
*D19
340
0
 70
     0
280
     1
281
     0
  0
BLOCK_RECORD
  5
37FE
330
1
100
AcDbSymbolTableRecord
100
AcDbBlockTableRecord
  2
*D20
340
0
 70
     0
280
     1
281
     0
  0
BLOCK_RECORD
  5
3825
330
1
100
AcDbSymbolTableRecord
100
AcDbBlockTableRecord
  2
*D21
340
0
 70
     0
280
     1
281
     0
  0
BLOCK_RECORD
  5
3832
330
1
100
AcDbSymbolTableRecord
100
AcDbBlockTableRecord
  2
*D22
340
0
 70
     0
280
     1
281
     0
  0
BLOCK_RECORD
  5
383F
330
1
100
AcDbSymbolTableRecord
100
AcDbBlockTableRecord
  2
*D23
340
0
 70
     0
280
     1
281
     0
  0
BLOCK_RECORD
  5
384C
330
1
100
AcDbSymbolTableRecord
100
AcDbBlockTableRecord
  2
*D24
340
0
 70
     0
280
     1
281
     0
  0
BLOCK_RECORD
  5
385C
330
1
100
AcDbSymbolTableRecord
100
AcDbBlockTableRecord
  2
*D25
340
0
 70
     0
280
     1
281
     0
  0
BLOCK_RECORD
  5
386C
330
1
100
AcDbSymbolTableRecord
100
AcDbBlockTableRecord
  2
*D26
340
0
 70
     0
280
     1
281
     0
  0
BLOCK_RECORD
  5
387C
330
1
100
AcDbSymbolTableRecord
100
AcDbBlockTableRecord
  2
*D27
340
0
 70
     0
280
     1
281
     0
  0
BLOCK_RECORD
  5
3887
330
1
100
AcDbSymbolTableRecord
100
AcDbBlockTableRecord
  2
*D28
340
0
 70
     0
280
     1
281
     0
  0
BLOCK_RECORD
  5
38AF
330
1
100
AcDbSymbolTableRecord
100
AcDbBlockTableRecord
  2
*D29
340
0
 70
     0
280
     1
281
     0
  0
BLOCK_RECORD
  5
38C3
330
1
100
AcDbSymbolTableRecord
100
AcDbBlockTableRecord
  2
*D30
340
0
 70
     0
280
     1
281
     0
  0
BLOCK_RECORD
  5
38D4
330
1
100
AcDbSymbolTableRecord
100
AcDbBlockTableRecord
  2
*D31
340
0
 70
     0
280
     1
281
     0
  0
BLOCK_RECORD
  5
38E4
330
1
100
AcDbSymbolTableRecord
100
AcDbBlockTableRecord
  2
*D32
340
0
 70
     0
280
     1
281
     0
  0
BLOCK_RECORD
  5
3935
330
1
100
AcDbSymbolTableRecord
100
AcDbBlockTableRecord
  2
*D33
340
0
 70
     0
280
     1
281
     0
  0
BLOCK_RECORD
  5
3943
330
1
100
AcDbSymbolTableRecord
100
AcDbBlockTableRecord
  2
*D34
340
0
 70
     0
280
     1
281
     0
  0
BLOCK_RECORD
  5
3951
330
1
100
AcDbSymbolTableRecord
100
AcDbBlockTableRecord
  2
*D35
340
0
 70
     0
280
     1
281
     0
  0
BLOCK_RECORD
  5
395F
330
1
100
AcDbSymbolTableRecord
100
AcDbBlockTableRecord
  2
*D36
340
0
 70
     0
280
     1
281
     0
  0
BLOCK_RECORD
  5
3998
330
1
100
AcDbSymbolTableRecord
100
AcDbBlockTableRecord
  2
*D37
340
0
 70
     0
280
     1
281
     0
  0
BLOCK_RECORD
  5
39A6
330
1
100
AcDbSymbolTableRecord
100
AcDbBlockTableRecord
  2
*D38
340
0
 70
     0
280
     1
281
     0
  0
BLOCK_RECORD
  5
39B4
330
1
100
AcDbSymbolTableRecord
100
AcDbBlockTableRecord
  2
*D39
340
0
 70
     0
280
     1
281
     0
  0
BLOCK_RECORD
  5
39C6
330
1
100
AcDbSymbolTableRecord
100
AcDbBlockTableRecord
  2
*D40
340
0
 70
     0
280
     1
281
     0
  0
BLOCK_RECORD
  5
3A11
330
1
100
AcDbSymbolTableRecord
100
AcDbBlockTableRecord
  2
*D41
340
0
 70
     0
280
     1
281
     0
  0
BLOCK_RECORD
  5
3A1E
330
1
100
AcDbSymbolTableRecord
100
AcDbBlockTableRecord
  2
*D42
340
0
 70
     0
280
     1
281
     0
  0
BLOCK_RECORD
  5
3A2B
330
1
100
AcDbSymbolTableRecord
100
AcDbBlockTableRecord
  2
*D43
340
0
 70
     0
280
     1
281
     0
  0
BLOCK_RECORD
  5
3A38
330
1
100
AcDbSymbolTableRecord
100
AcDbBlockTableRecord
  2
*D44
340
0
 70
     0
280
     1
281
     0
  0
BLOCK_RECORD
  5
3A45
330
1
100
AcDbSymbolTableRecord
100
AcDbBlockTableRecord
  2
*D45
340
0
 70
     0
280
     1
281
     0
  0
BLOCK_RECORD
  5
3A52
330
1
100
AcDbSymbolTableRecord
100
AcDbBlockTableRecord
  2
*D46
340
0
 70
     0
280
     1
281
     0
  0
BLOCK_RECORD
  5
3A5F
330
1
100
AcDbSymbolTableRecord
100
AcDbBlockTableRecord
  2
*D47
340
0
 70
     0
280
     1
281
     0
  0
BLOCK_RECORD
  5
3A6C
330
1
100
AcDbSymbolTableRecord
100
AcDbBlockTableRecord
  2
*D48
340
0
 70
     0
280
     1
281
     0
  0
BLOCK_RECORD
  5
3A8D
330
1
100
AcDbSymbolTableRecord
100
AcDbBlockTableRecord
  2
*D49
340
0
 70
     0
280
     1
281
     0
  0
BLOCK_RECORD
  5
3A9B
330
1
100
AcDbSymbolTableRecord
100
AcDbBlockTableRecord
  2
*D50
340
0
 70
     0
280
     1
281
     0
  0
BLOCK_RECORD
  5
3AA9
330
1
100
AcDbSymbolTableRecord
100
AcDbBlockTableRecord
  2
*D51
340
0
 70
     0
280
     1
281
     0
  0
BLOCK_RECORD
  5
3AB7
330
1
100
AcDbSymbolTableRecord
100
AcDbBlockTableRecord
  2
*D52
340
0
 70
     0
280
     1
281
     0
  0
BLOCK_RECORD
  5
3AF0
330
1
100
AcDbSymbolTableRecord
100
AcDbBlockTableRecord
  2
*D53
340
0
 70
     0
280
     1
281
     0
  0
BLOCK_RECORD
  5
3AFE
330
1
100
AcDbSymbolTableRecord
100
AcDbBlockTableRecord
  2
*D54
340
0
 70
     0
280
     1
281
     0
  0
BLOCK_RECORD
  5
3B0C
330
1
100
AcDbSymbolTableRecord
100
AcDbBlockTableRecord
  2
*D55
340
0
 70
     0
280
     1
281
     0
  0
BLOCK_RECORD
  5
3B1E
330
1
100
AcDbSymbolTableRecord
100
AcDbBlockTableRecord
  2
*D56
340
0
 70
     0
280
     1
281
     0
  0
BLOCK_RECORD
  5
3B69
330
1
100
AcDbSymbolTableRecord
100
AcDbBlockTableRecord
  2
*D57
340
0
 70
     0
280
     1
281
     0
  0
BLOCK_RECORD
  5
3B76
330
1
100
AcDbSymbolTableRecord
100
AcDbBlockTableRecord
  2
*D58
340
0
 70
     0
280
     1
281
     0
  0
BLOCK_RECORD
  5
3B83
330
1
100
AcDbSymbolTableRecord
100
AcDbBlockTableRecord
  2
*D59
340
0
 70
     0
280
     1
281
     0
  0
BLOCK_RECORD
  5
3B90
330
1
100
AcDbSymbolTableRecord
100
AcDbBlockTableRecord
  2
*D60
340
0
 70
     0
280
     1
281
     0
  0
BLOCK_RECORD
  5
3B9D
330
1
100
AcDbSymbolTableRecord
100
AcDbBlockTableRecord
  2
*D61
340
0
 70
     0
280
     1
281
     0
  0
BLOCK_RECORD
  5
3BAA
330
1
100
AcDbSymbolTableRecord
100
AcDbBlockTableRecord
  2
*D62
340
0
 70
     0
280
     1
281
     0
  0
BLOCK_RECORD
  5
3BB7
330
1
100
AcDbSymbolTableRecord
100
AcDbBlockTableRecord
  2
*D63
340
0
 70
     0
280
     1
281
     0
  0
BLOCK_RECORD
  5
3BC4
330
1
100
AcDbSymbolTableRecord
100
AcDbBlockTableRecord
  2
*D64
340
0
 70
     0
280
     1
281
     0
  0
ENDTAB
  0
ENDSEC
  0
SECTION
  2
BLOCKS
  0
BLOCK
  5
20
330
1F
100
AcDbEntity
  8
0
100
AcDbBlockBegin
  2
*Model_Space
 70
     0
 10
0.0
 20
0.0
 30
0.0
  3
*Model_Space
  1
*Model_Space
  0
ENDBLK
  5
21
330
1F
100
AcDbEntity
  8
0
100
AcDbBlockEnd
  0
BLOCK
  5
1C
330
1B
100
AcDbEntity
 67
     1
  8
0
100
AcDbBlockBegin
  2
*Paper_Space
 70
     0
 10
0.0
 20
0.0
 30
0.0
  3
*Paper_Space
  1
*Paper_Space
  0
ENDBLK
  5
1D
330
1B
100
AcDbEntity
 67
     1
  8
0
100
AcDbBlockEnd
  0
BLOCK
  5
24
330
23
100
AcDbEntity
  8
0
100
AcDbBlockBegin
  2
*Paper_Space0
 70
     0
 10
0.0
 20
0.0
 30
0.0
  3
*Paper_Space0
  1
*Paper_Space0
  0
ENDBLK
  5
25
330
23
100
AcDbEntity
  8
0
100
AcDbBlockEnd
  0
BLOCK
  5
A92
330
A91
100
AcDbEntity
  8
0
100
AcDbBlockBegin
  2
_OPEN
 70
     0
 10
0.0
 20
0.0
 30
0.0
  3
_OPEN
  1
_OPEN
  0
LINE
  5
A93
330
A91
100
AcDbEntity
  8
0
  6
ByBlock
 62
     0
100
AcDbLine
 10
-1.0
 20
0.1666666666666667
 30
0.0
 11
0.0
 21
0.0
 31
0.0
  0
LINE
  5
A94
330
A91
100
AcDbEntity
  8
0
  6
ByBlock
 62
     0
100
AcDbLine
 10
0.0
 20
0.0
 30
0.0
 11
-1.0
 21
-0.1666666666666667
 31
0.0
  0
LINE
  5
A95
330
A91
100
AcDbEntity
  8
0
  6
ByBlock
 62
     0
100
AcDbLine
 10
0.0
 20
0.0
 30
0.0
 11
-1.0
 21
0.0
 31
0.0
  0
ENDBLK
  5
A96
330
A91
100
AcDbEntity
  8
0
100
AcDbBlockEnd
  0
BLOCK
  5
2E4F
330
2E4E
100
AcDbEntity
  8
0
100
AcDbBlockBegin
  2
*D2
 70
     1
 10
0.0
 20
0.0
 30
0.0
  3
*D2
  1
*D284
  0
LINE
  5
2E51
330
2E4E
100
AcDbEntity
  8
寸法
  6
Continuous
 62
     0
370
    -2
100
AcDbLine
 10
124.6884725257143
 20
102.4258682835331
 30
0.0
 11
118.3502472966551
 21
102.4258682835331
 31
0.0
  0
LINE
  5
2E52
330
2E4E
100
AcDbEntity
  8
寸法
  6
Continuous
 62
     0
370
    -2
100
AcDbLine
 10
124.6884725257143
 20
93.42586828353313
 30
0.0
 11
118.3502472966551
 21
93.42586828353313
 31
0.0
  0
LINE
  5
2E53
330
2E4E
100
AcDbEntity
  8
寸法
  6
Continuous
 62
     0
370
    -2
100
AcDbLine
 10
119.6002472966551
 20
100.9258682835331
 30
0.0
 11
119.6002472966551
 21
99.55086828353313
 31
0.0
  0
LINE
  5
2E54
330
2E4E
100
AcDbEntity
  8
寸法
  6
Continuous
 62
     0
370
    -2
100
AcDbLine
 10
119.6002472966551
 20
94.92586828353313
 30
0.0
 11
119.6002472966551
 21
96.30086828353313
 31
0.0
  0
SOLID
  5
2E55
330
2E4E
100
AcDbEntity
  8
寸法
 62
     0
100
AcDbTrace
 10
119.8502472966551
 20
100.9258682835331
 30
0.0
 11
119.3502472966551
 21
100.9258682835331
 31
0.0
 12
119.6002472966551
 22
102.4258682835331
 32
0.0
 13
119.6002472966551
 23
102.4258682835331
 33
0.0
  0
SOLID
  5
2E56
330
2E4E
100
AcDbEntity
  8
寸法
 62
     0
100
AcDbTrace
 10
119.3502472966551
 20
94.92586828353313
 30
0.0
 11
119.8502472966551
 21
94.92586828353313
 31
0.0
 12
119.6002472966551
 22
93.42586828353313
 32
0.0
 13
119.6002472966551
 23
93.42586828353313
 33
0.0
  0
MTEXT
  5
2E57
330
2E4E
100
AcDbEntity
  8
寸法
  6
Continuous
 62
     0
100
AcDbMText
 10
119.6002472966551
 20
97.92586828353313
 30
0.0
 40
2.0
 41
0.0
 46
0.0
 71
     5
 72
     1
  1
9
 73
     1
 44
1.0
  0
POINT
  5
2E58
330
2E4E
100
AcDbEntity
  8
Defpoints
 62
     0
100
AcDbPoint
 10
125.3134725257143
 20
102.4258682835331
 30
0.0
  0
POINT
  5
2E59
330
2E4E
100
AcDbEntity
  8
Defpoints
 62
     0
100
AcDbPoint
 10
125.3134725257143
 20
93.42586828353313
 30
0.0
  0
POINT
  5
38F4
330
2E4E
100
AcDbEntity
  8
Defpoints
 62
     0
100
AcDbPoint
 10
119.6002472966551
 20
93.42586828353313
 30
0.0
  0
ENDBLK
  5
2E50
330
2E4E
100
AcDbEntity
  8
0
100
AcDbBlockEnd
  0
BLOCK
  5
2E5F
330
2E5E
100
AcDbEntity
  8
0
100
AcDbBlockBegin
  2
*D3
 70
     1
 10
0.0
 20
0.0
 30
0.0
  3
*D3
  1
*D285
  0
LINE
  5
2E61
330
2E5E
100
AcDbEntity
  8
寸法
  6
Continuous
 62
     0
370
    -2
100
AcDbLine
 10
125.3134725257143
 20
103.0508682835331
 30
0.0
 11
125.3134725257143
 21
110.0146905961999
 31
0.0
  0
LINE
  5
2E62
330
2E5E
100
AcDbEntity
  8
寸法
  6
Continuous
 62
     0
370
    -2
100
AcDbLine
 10
153.3134725257143
 20
103.0508682835331
 30
0.0
 11
153.3134725257143
 21
110.0146905961999
 31
0.0
  0
LINE
  5
2E63
330
2E5E
100
AcDbEntity
  8
寸法
  6
Continuous
 62
     0
370
    -2
100
AcDbLine
 10
126.8134725257143
 20
108.7646905961999
 30
0.0
 11
136.3462713691993
 21
108.7646905961999
 31
0.0
  0
LINE
  5
2E64
330
2E5E
100
AcDbEntity
  8
寸法
  6
Continuous
 62
     0
370
    -2
100
AcDbLine
 10
151.8134725257143
 20
108.7646905961999
 30
0.0
 11
140.9296047025326
 21
108.7646905961999
 31
0.0
  0
SOLID
  5
2E65
330
2E5E
100
AcDbEntity
  8
寸法
 62
     0
100
AcDbTrace
 10
126.8134725257143
 20
109.0146905961999
 30
0.0
 11
126.8134725257143
 21
108.5146905961999
 31
0.0
 12
125.3134725257143
 22
108.7646905961999
 32
0.0
 13
125.3134725257143
 23
108.7646905961999
 33
0.0
  0
SOLID
  5
2E66
330
2E5E
100
AcDbEntity
  8
寸法
 62
     0
100
AcDbTrace
 10
151.8134725257143
 20
108.5146905961999
 30
0.0
 11
151.8134725257143
 21
109.0146905961999
 31
0.0
 12
153.3134725257143
 22
108.7646905961999
 32
0.0
 13
153.3134725257143
 23
108.7646905961999
 33
0.0
  0
MTEXT
  5
2E67
330
2E5E
100
AcDbEntity
  8
寸法
  6
Continuous
 62
     0
100
AcDbMText
 10
138.637938035866
 20
108.7646905961999
 30
0.0
 40
2.0
 41
0.0
 46
0.0
 71
     5
 72
     1
  1
28
 73
     1
 44
1.0
  0
POINT
  5
2E68
330
2E5E
100
AcDbEntity
  8
Defpoints
 62
     0
100
AcDbPoint
 10
125.3134725257143
 20
102.4258682835331
 30
0.0
  0
POINT
  5
2E69
330
2E5E
100
AcDbEntity
  8
Defpoints
 62
     0
100
AcDbPoint
 10
153.3134725257143
 20
102.4258682835331
 30
0.0
  0
POINT
  5
375C
330
2E5E
100
AcDbEntity
  8
Defpoints
 62
     0
100
AcDbPoint
 10
153.3134725257143
 20
108.7646905961999
 30
0.0
  0
ENDBLK
  5
2E60
330
2E5E
100
AcDbEntity
  8
0
100
AcDbBlockEnd
  0
BLOCK
  5
2E6F
330
2E6E
100
AcDbEntity
  8
0
100
AcDbBlockBegin
  2
*D4
 70
     1
 10
0.0
 20
0.0
 30
0.0
  3
*D4
  1
*D286
  0
LINE
  5
2E71
330
2E6E
100
AcDbEntity
  8
寸法
  6
Continuous
 62
     0
370
    -2
100
AcDbLine
 10
126.5134725257143
 20
92.80086828353313
 30
0.0
 11
126.5134725257143
 21
88.75290766878898
 31
0.0
  0
LINE
  5
2E72
330
2E6E
100
AcDbEntity
  8
寸法
  6
Continuous
 62
     0
370
    -2
100
AcDbLine
 10
125.3134725257143
 20
92.80086828353313
 30
0.0
 11
125.3134725257143
 21
88.75290766878898
 31
0.0
  0
LINE
  5
2E73
330
2E6E
100
AcDbEntity
  8
寸法
  6
Continuous
 62
     0
370
    -2
100
AcDbLine
 10
128.0134725257143
 20
90.00290766878898
 30
0.0
 11
129.5134725257143
 21
90.00290766878898
 31
0.0
  0
LINE
  5
2E74
330
2E6E
100
AcDbEntity
  8
寸法
  6
Continuous
 62
     0
370
    -2
100
AcDbLine
 10
123.8134725257143
 20
90.00290766878898
 30
0.0
 11
122.3134725257143
 21
90.00290766878898
 31
0.0
  0
SOLID
  5
2E75
330
2E6E
100
AcDbEntity
  8
寸法
 62
     0
100
AcDbTrace
 10
128.0134725257143
 20
90.25290766878898
 30
0.0
 11
128.0134725257143
 21
89.75290766878898
 31
0.0
 12
126.5134725257143
 22
90.00290766878898
 32
0.0
 13
126.5134725257143
 23
90.00290766878898
 33
0.0
  0
SOLID
  5
2E76
330
2E6E
100
AcDbEntity
  8
寸法
 62
     0
100
AcDbTrace
 10
123.8134725257143
 20
89.75290766878898
 30
0.0
 11
123.8134725257143
 21
90.25290766878898
 31
0.0
 12
125.3134725257143
 22
90.00290766878898
 32
0.0
 13
125.3134725257143
 23
90.00290766878898
 33
0.0
  0
MTEXT
  5
2E77
330
2E6E
100
AcDbEntity
  8
寸法
  6
Continuous
 62
     0
100
AcDbMText
 10
125.9789932149377
 20
87.45494705404482
 30
0.0
 40
2.0
 41
0.0
 46
0.0
 71
     5
 72
     1
  1
1.2
 73
     1
 44
1.0
  0
POINT
  5
2E78
330
2E6E
100
AcDbEntity
  8
Defpoints
 62
     0
100
AcDbPoint
 10
126.5134725257143
 20
93.42586828353313
 30
0.0
  0
POINT
  5
2E79
330
2E6E
100
AcDbEntity
  8
Defpoints
 62
     0
100
AcDbPoint
 10
125.3134725257143
 20
93.42586828353313
 30
0.0
  0
POINT
  5
2E7A
330
2E6E
100
AcDbEntity
  8
Defpoints
 62
     0
100
AcDbPoint
 10
125.3134725257143
 20
90.00290766878898
 30
0.0
  0
ENDBLK
  5
2E70
330
2E6E
100
AcDbEntity
  8
0
100
AcDbBlockEnd
  0
BLOCK
  5
2E9F
330
2E9E
100
AcDbEntity
  8
0
100
AcDbBlockBegin
  2
*D5
 70
     1
 10
0.0
 20
0.0
 30
0.0
  3
*D5
  1
*D289
  0
LINE
  5
2EA1
330
2E9E
100
AcDbEntity
  8
寸法
  6
Continuous
 62
     0
370
    -2
100
AcDbLine
 10
153.9384725257143
 20
102.4258682835331
 30
0.0
 11
158.1084785136397
 21
102.4258682835331
 31
0.0
  0
LINE
  5
2EA2
330
2E9E
100
AcDbEntity
  8
寸法
  6
Continuous
 62
     0
370
    -2
100
AcDbLine
 10
153.7984725257143
 20
98.92586828353316
 30
0.0
 11
158.1084785136397
 21
98.92586828353316
 31
0.0
  0
LINE
  5
2EA3
330
2E9E
100
AcDbEntity
  8
寸法
  6
Continuous
 62
     0
370
    -2
100
AcDbLine
 10
156.8584785136397
 20
103.9258682835331
 30
0.0
 11
156.8584785136397
 21
105.4258682835331
 31
0.0
  0
LINE
  5
2EA4
330
2E9E
100
AcDbEntity
  8
寸法
  6
Continuous
 62
     0
370
    -2
100
AcDbLine
 10
156.8584785136397
 20
97.42586828353316
 30
0.0
 11
156.8584785136397
 21
95.92586828353316
 31
0.0
  0
SOLID
  5
2EA5
330
2E9E
100
AcDbEntity
  8
寸法
 62
     0
100
AcDbTrace
 10
156.6084785136397
 20
103.9258682835331
 30
0.0
 11
157.1084785136397
 21
103.9258682835331
 31
0.0
 12
156.8584785136397
 22
102.4258682835331
 32
0.0
 13
156.8584785136397
 23
102.4258682835331
 33
0.0
  0
SOLID
  5
2EA6
330
2E9E
100
AcDbEntity
  8
寸法
 62
     0
100
AcDbTrace
 10
157.1084785136397
 20
97.42586828353316
 30
0.0
 11
156.6084785136397
 21
97.42586828353316
 31
0.0
 12
156.8584785136397
 22
98.92586828353316
 32
0.0
 13
156.8584785136397
 23
98.92586828353316
 33
0.0
  0
MTEXT
  5
2EA7
330
2E9E
100
AcDbEntity
  8
寸法
  6
Continuous
 62
     0
100
AcDbMText
 10
159.8978587853831
 20
100.5860422945628
 30
0.0
 40
2.0
 41
0.0
 46
0.0
 71
     5
 72
     1
  1
3.5
 73
     1
 44
1.0
  0
POINT
  5
2EA8
330
2E9E
100
AcDbEntity
  8
Defpoints
 62
     0
100
AcDbPoint
 10
153.3134725257143
 20
102.4258682835331
 30
0.0
  0
POINT
  5
2EA9
330
2E9E
100
AcDbEntity
  8
Defpoints
 62
     0
100
AcDbPoint
 10
153.1734725257143
 20
98.92586828353316
 30
0.0
  0
POINT
  5
376D
330
2E9E
100
AcDbEntity
  8
Defpoints
 62
     0
100
AcDbPoint
 10
156.8584785136397
 20
98.92586828353316
 30
0.0
  0
ENDBLK
  5
2EA0
330
2E9E
100
AcDbEntity
  8
0
100
AcDbBlockEnd
  0
BLOCK
  5
3499
330
3498
100
AcDbEntity
  8
0
100
AcDbBlockBegin
  2
*D6
 70
     1
 10
0.0
 20
0.0
 30
0.0
  3
*D6
  1
*D362
  0
LINE
  5
349B
330
3498
100
AcDbEntity
  8
寸法
  6
Continuous
 62
     0
370
    -2
100
AcDbLine
 10
126.5134725257143
 20
96.80086828353313
 30
0.0
 11
126.5134725257143
 21
94.67586828353313
 31
0.0
  0
LINE
  5
349C
330
3498
100
AcDbEntity
  8
寸法
  6
Continuous
 62
     0
370
    -2
100
AcDbLine
 10
145.3134725257143
 20
97.10086828353352
 30
0.0
 11
145.3134725257143
 21
94.67586828353313
 31
0.0
  0
LINE
  5
349D
330
3498
100
AcDbEntity
  8
寸法
  6
Continuous
 62
     0
370
    -2
100
AcDbLine
 10
128.0134725257143
 20
95.92586828353313
 30
0.0
 11
133.1313001268014
 21
95.92586828353313
 31
0.0
  0
LINE
  5
349E
330
3498
100
AcDbEntity
  8
寸法
  6
Continuous
 62
     0
370
    -2
100
AcDbLine
 10
143.8134725257143
 20
95.92586828353313
 30
0.0
 11
139.7146334601347
 21
95.92586828353313
 31
0.0
  0
SOLID
  5
349F
330
3498
100
AcDbEntity
  8
寸法
 62
     0
100
AcDbTrace
 10
128.0134725257143
 20
96.17586828353313
 30
0.0
 11
128.0134725257143
 21
95.67586828353313
 31
0.0
 12
126.5134725257143
 22
95.92586828353313
 32
0.0
 13
126.5134725257143
 23
95.92586828353313
 33
0.0
  0
SOLID
  5
34A0
330
3498
100
AcDbEntity
  8
寸法
 62
     0
100
AcDbTrace
 10
143.8134725257143
 20
95.67586828353313
 30
0.0
 11
143.8134725257143
 21
96.17586828353313
 31
0.0
 12
145.3134725257143
 22
95.92586828353313
 32
0.0
 13
145.3134725257143
 23
95.92586828353313
 33
0.0
  0
MTEXT
  5
34A1
330
3498
100
AcDbEntity
  8
寸法
  6
Continuous
 62
     0
100
AcDbMText
 10
136.422966793468
 20
95.36447388622841
 30
0.0
 40
2.0
 41
0.0
 46
0.0
 71
     5
 72
     1
  1
18.8
 73
     1
 44
1.0
  0
POINT
  5
34A2
330
3498
100
AcDbEntity
  8
Defpoints
 62
     0
100
AcDbPoint
 10
126.5134725257143
 20
97.42586828353313
 30
0.0
  0
POINT
  5
34A3
330
3498
100
AcDbEntity
  8
Defpoints
 62
     0
100
AcDbPoint
 10
145.3134725257143
 20
97.72586828353352
 30
0.0
  0
POINT
  5
34A4
330
3498
100
AcDbEntity
  8
Defpoints
 62
     0
100
AcDbPoint
 10
145.3134725257143
 20
95.92586828353313
 30
0.0
  0
ENDBLK
  5
349A
330
3498
100
AcDbEntity
  8
0
100
AcDbBlockEnd
  0
BLOCK
  5
34A9
330
34A8
100
AcDbEntity
  8
0
100
AcDbBlockBegin
  2
*D7
 70
     1
 10
0.0
 20
0.0
 30
0.0
  3
*D7
  1
*D363
  0
LINE
  5
34AB
330
34A8
100
AcDbEntity
  8
寸法
  6
Continuous
 62
     0
370
    -2
100
AcDbLine
 10
145.3134725257143
 20
97.10086828353352
 30
0.0
 11
145.3134725257143
 21
94.66447388622879
 31
0.0
  0
LINE
  5
34AC
330
34A8
100
AcDbEntity
  8
寸法
  6
Continuous
 62
     0
370
    -2
100
AcDbLine
 10
153.3134725257143
 20
97.30086828353313
 30
0.0
 11
153.3134725257143
 21
94.66447388622879
 31
0.0
  0
LINE
  5
34AD
330
34A8
100
AcDbEntity
  8
寸法
  6
Continuous
 62
     0
370
    -2
100
AcDbLine
 10
146.8134725257143
 20
95.91447388622879
 30
0.0
 11
148.0218058590476
 21
95.91447388622879
 31
0.0
  0
LINE
  5
34AE
330
34A8
100
AcDbEntity
  8
寸法
  6
Continuous
 62
     0
370
    -2
100
AcDbLine
 10
151.8134725257143
 20
95.91447388622879
 30
0.0
 11
150.605139192381
 21
95.91447388622879
 31
0.0
  0
SOLID
  5
34AF
330
34A8
100
AcDbEntity
  8
寸法
 62
     0
100
AcDbTrace
 10
146.8134725257143
 20
96.16447388622879
 30
0.0
 11
146.8134725257143
 21
95.66447388622879
 31
0.0
 12
145.3134725257143
 22
95.91447388622879
 32
0.0
 13
145.3134725257143
 23
95.91447388622879
 33
0.0
  0
SOLID
  5
34B0
330
34A8
100
AcDbEntity
  8
寸法
 62
     0
100
AcDbTrace
 10
151.8134725257143
 20
95.66447388622879
 30
0.0
 11
151.8134725257143
 21
96.16447388622879
 31
0.0
 12
153.3134725257143
 22
95.91447388622879
 32
0.0
 13
153.3134725257143
 23
95.91447388622879
 33
0.0
  0
MTEXT
  5
34B1
330
34A8
100
AcDbEntity
  8
寸法
  6
Continuous
 62
     0
100
AcDbMText
 10
149.3134725257143
 20
95.91447388622879
 30
0.0
 40
2.0
 41
0.0
 46
0.0
 71
     5
 72
     1
  1
8
 73
     1
 44
1.0
  0
POINT
  5
34B2
330
34A8
100
AcDbEntity
  8
Defpoints
 62
     0
100
AcDbPoint
 10
145.3134725257143
 20
97.72586828353352
 30
0.0
  0
POINT
  5
34B3
330
34A8
100
AcDbEntity
  8
Defpoints
 62
     0
100
AcDbPoint
 10
153.3134725257143
 20
97.92586828353313
 30
0.0
  0
POINT
  5
34B5
330
34A8
100
AcDbEntity
  8
Defpoints
 62
     0
100
AcDbPoint
 10
153.3134725257143
 20
95.91447388622879
 30
0.0
  0
ENDBLK
  5
34AA
330
34A8
100
AcDbEntity
  8
0
100
AcDbBlockEnd
  0
BLOCK
  5
34D4
330
34D3
100
AcDbEntity
  8
0
100
AcDbBlockBegin
  2
*D8
 70
     1
 10
0.0
 20
0.0
 30
0.0
  3
*D8
  1
*D364
  0
LINE
  5
34D6
330
34D3
100
AcDbEntity
  8
寸法
  6
Continuous
 62
     0
370
    -2
100
AcDbLine
 10
127.4134725257143
 20
160.0142571428571
 30
0.0
 11
127.4134725257143
 21
167.1416557869358
 31
0.0
  0
LINE
  5
34D7
330
34D3
100
AcDbEntity
  8
寸法
  6
Continuous
 62
     0
370
    -2
100
AcDbLine
 10
151.2134725257143
 20
160.0142571428571
 30
0.0
 11
151.2134725257143
 21
167.1416557869358
 31
0.0
  0
LINE
  5
34D8
330
34D3
100
AcDbEntity
  8
寸法
  6
Continuous
 62
     0
370
    -2
100
AcDbLine
 10
128.9134725257143
 20
165.8916557869358
 30
0.0
 11
135.0814757431278
 21
165.8916557869358
 31
0.0
  0
LINE
  5
34D9
330
34D3
100
AcDbEntity
  8
寸法
  6
Continuous
 62
     0
370
    -2
100
AcDbLine
 10
149.7134725257143
 20
165.8916557869358
 30
0.0
 11
142.3314757431278
 21
165.8916557869358
 31
0.0
  0
SOLID
  5
34DA
330
34D3
100
AcDbEntity
  8
寸法
 62
     0
100
AcDbTrace
 10
128.9134725257143
 20
166.1416557869358
 30
0.0
 11
128.9134725257143
 21
165.6416557869358
 31
0.0
 12
127.4134725257143
 22
165.8916557869358
 32
0.0
 13
127.4134725257143
 23
165.8916557869358
 33
0.0
  0
SOLID
  5
34DB
330
34D3
100
AcDbEntity
  8
寸法
 62
     0
100
AcDbTrace
 10
149.7134725257143
 20
165.6416557869358
 30
0.0
 11
149.7134725257143
 21
166.1416557869358
 31
0.0
 12
151.2134725257143
 22
165.8916557869358
 32
0.0
 13
151.2134725257143
 23
165.8916557869358
 33
0.0
  0
MTEXT
  5
34DC
330
34D3
100
AcDbEntity
  8
寸法
  6
Continuous
 62
     0
100
AcDbMText
 10
138.7064757431278
 20
165.8916557869358
 30
0.0
 40
2.0
 41
0.0
 46
0.0
 71
     5
 72
     1
  1
23.8
 73
     1
 44
1.0
  0
POINT
  5
34DD
330
34D3
100
AcDbEntity
  8
Defpoints
 62
     0
100
AcDbPoint
 10
127.4134725257143
 20
159.3892571428571
 30
0.0
  0
POINT
  5
34DE
330
34D3
100
AcDbEntity
  8
Defpoints
 62
     0
100
AcDbPoint
 10
151.2134725257143
 20
159.3892571428571
 30
0.0
  0
POINT
  5
34DF
330
34D3
100
AcDbEntity
  8
Defpoints
 62
     0
100
AcDbPoint
 10
151.2134725257143
 20
165.8916557869358
 30
0.0
  0
ENDBLK
  5
34D5
330
34D3
100
AcDbEntity
  8
0
100
AcDbBlockEnd
  0
BLOCK
  5
34E4
330
34E3
100
AcDbEntity
  8
0
100
AcDbBlockBegin
  2
*D9
 70
     1
 10
0.0
 20
0.0
 30
0.0
  3
*D9
  1
*D365
  0
LINE
  5
34E6
330
34E3
100
AcDbEntity
  8
寸法
  6
Continuous
 62
     0
370
    -2
100
AcDbLine
 10
128.4134725257143
 20
155.4642571428571
 30
0.0
 11
128.4134725257143
 21
149.5841030443198
 31
0.0
  0
LINE
  5
34E7
330
34E3
100
AcDbEntity
  8
寸法
  6
Continuous
 62
     0
370
    -2
100
AcDbLine
 10
150.2134725257143
 20
155.4642571428571
 30
0.0
 11
150.2134725257143
 21
149.5841030443198
 31
0.0
  0
LINE
  5
34E8
330
34E3
100
AcDbEntity
  8
寸法
  6
Continuous
 62
     0
370
    -2
100
AcDbLine
 10
129.9134725257143
 20
150.8341030443198
 30
0.0
 11
134.8249140832819
 21
150.8341030443198
 31
0.0
  0
LINE
  5
34E9
330
34E3
100
AcDbEntity
  8
寸法
  6
Continuous
 62
     0
370
    -2
100
AcDbLine
 10
148.7134725257143
 20
150.8341030443198
 30
0.0
 11
141.4082474166152
 21
150.8341030443198
 31
0.0
  0
SOLID
  5
34EA
330
34E3
100
AcDbEntity
  8
寸法
 62
     0
100
AcDbTrace
 10
129.9134725257143
 20
151.0841030443198
 30
0.0
 11
129.9134725257143
 21
150.5841030443198
 31
0.0
 12
128.4134725257143
 22
150.8341030443198
 32
0.0
 13
128.4134725257143
 23
150.8341030443198
 33
0.0
  0
SOLID
  5
34EB
330
34E3
100
AcDbEntity
  8
寸法
 62
     0
100
AcDbTrace
 10
148.7134725257143
 20
150.5841030443198
 30
0.0
 11
148.7134725257143
 21
151.0841030443198
 31
0.0
 12
150.2134725257143
 22
150.8341030443198
 32
0.0
 13
150.2134725257143
 23
150.8341030443198
 33
0.0
  0
MTEXT
  5
34EC
330
34E3
100
AcDbEntity
  8
寸法
  6
Continuous
 62
     0
100
AcDbMText
 10
138.1165807499486
 20
150.8341030443198
 30
0.0
 40
2.0
 41
0.0
 46
0.0
 71
     5
 72
     1
  1
21.8
 73
     1
 44
1.0
  0
POINT
  5
34ED
330
34E3
100
AcDbEntity
  8
Defpoints
 62
     0
100
AcDbPoint
 10
128.4134725257143
 20
156.0892571428571
 30
0.0
  0
POINT
  5
34EE
330
34E3
100
AcDbEntity
  8
Defpoints
 62
     0
100
AcDbPoint
 10
150.2134725257143
 20
156.0892571428571
 30
0.0
  0
POINT
  5
34EF
330
34E3
100
AcDbEntity
  8
Defpoints
 62
     0
100
AcDbPoint
 10
150.2134725257143
 20
150.8341030443198
 30
0.0
  0
ENDBLK
  5
34E5
330
34E3
100
AcDbEntity
  8
0
100
AcDbBlockEnd
  0
BLOCK
  5
34F4
330
34F3
100
AcDbEntity
  8
0
100
AcDbBlockBegin
  2
*D10
 70
     1
 10
0.0
 20
0.0
 30
0.0
  3
*D10
  1
*D366
  0
LINE
  5
34F6
330
34F3
100
AcDbEntity
  8
寸法
  6
Continuous
 62
     0
370
    -2
100
AcDbLine
 10
151.8384725257143
 20
159.3892571428571
 30
0.0
 11
160.0733662072629
 21
159.3892571428571
 31
0.0
  0
LINE
  5
34F7
330
34F3
100
AcDbEntity
  8
寸法
  6
Continuous
 62
     0
370
    -2
100
AcDbLine
 10
150.8384725257143
 20
156.0892571428571
 30
0.0
 11
160.0733662072629
 21
156.0892571428571
 31
0.0
  0
LINE
  5
34F8
330
34F3
100
AcDbEntity
  8
寸法
  6
Continuous
 62
     0
370
    -2
100
AcDbLine
 10
158.8233662072629
 20
160.8892571428571
 30
0.0
 11
158.8233662072629
 21
162.3892571428571
 31
0.0
  0
LINE
  5
34F9
330
34F3
100
AcDbEntity
  8
寸法
  6
Continuous
 62
     0
370
    -2
100
AcDbLine
 10
158.8233662072629
 20
154.5892571428571
 30
0.0
 11
158.8233662072629
 21
153.0892571428571
 31
0.0
  0
SOLID
  5
34FA
330
34F3
100
AcDbEntity
  8
寸法
 62
     0
100
AcDbTrace
 10
158.5733662072629
 20
160.8892571428571
 30
0.0
 11
159.0733662072629
 21
160.8892571428571
 31
0.0
 12
158.8233662072629
 22
159.3892571428571
 32
0.0
 13
158.8233662072629
 23
159.3892571428571
 33
0.0
  0
SOLID
  5
34FB
330
34F3
100
AcDbEntity
  8
寸法
 62
     0
100
AcDbTrace
 10
159.0733662072629
 20
154.5892571428571
 30
0.0
 11
158.5733662072629
 21
154.5892571428571
 31
0.0
 12
158.8233662072629
 22
156.0892571428571
 32
0.0
 13
158.8233662072629
 23
156.0892571428571
 33
0.0
  0
MTEXT
  5
34FC
330
34F3
100
AcDbEntity
  8
寸法
  6
Continuous
 62
     0
100
AcDbMText
 10
162.1962580216088
 20
157.6832792712886
 30
0.0
 40
2.0
 41
0.0
 46
0.0
 71
     5
 72
     1
  1
3.3
 73
     1
 44
1.0
  0
POINT
  5
34FD
330
34F3
100
AcDbEntity
  8
Defpoints
 62
     0
100
AcDbPoint
 10
151.2134725257143
 20
159.3892571428571
 30
0.0
  0
POINT
  5
34FE
330
34F3
100
AcDbEntity
  8
Defpoints
 62
     0
100
AcDbPoint
 10
150.2134725257143
 20
156.0892571428571
 30
0.0
  0
POINT
  5
34FF
330
34F3
100
AcDbEntity
  8
Defpoints
 62
     0
100
AcDbPoint
 10
158.8233662072629
 20
156.0892571428571
 30
0.0
  0
ENDBLK
  5
34F5
330
34F3
100
AcDbEntity
  8
0
100
AcDbBlockEnd
  0
BLOCK
  5
371B
330
371A
100
AcDbEntity
  8
0
100
AcDbBlockBegin
  2
*D11
 70
     1
 10
0.0
 20
0.0
 30
0.0
  3
*D11
  1
*D393
  0
LINE
  5
371D
330
371A
100
AcDbEntity
  8
寸法
  6
Continuous
 62
     0
370
    -2
100
AcDbLine
 10
149.9384725257143
 20
156.0892571428571
 30
0.0
 11
160.0400328739295
 21
156.0892571428571
 31
0.0
  0
LINE
  5
371E
330
371A
100
AcDbEntity
  8
寸法
  6
Continuous
 62
     0
370
    -2
100
AcDbLine
 10
149.9384725257143
 20
155.8892571428571
 30
0.0
 11
160.0400328739295
 21
155.8892571428571
 31
0.0
  0
LINE
  5
371F
330
371A
100
AcDbEntity
  8
寸法
  6
Continuous
 62
     0
370
    -2
100
AcDbLine
 10
158.7900328739295
 20
157.5892571428571
 30
0.0
 11
158.7900328739295
 21
159.0892571428571
 31
0.0
  0
LINE
  5
3720
330
371A
100
AcDbEntity
  8
寸法
  6
Continuous
 62
     0
370
    -2
100
AcDbLine
 10
158.7900328739295
 20
154.3892571428571
 30
0.0
 11
158.7900328739295
 21
152.8892571428571
 31
0.0
  0
SOLID
  5
3721
330
371A
100
AcDbEntity
  8
寸法
 62
     0
100
AcDbTrace
 10
158.5400328739295
 20
157.5892571428571
 30
0.0
 11
159.0400328739295
 21
157.5892571428571
 31
0.0
 12
158.7900328739295
 22
156.0892571428571
 32
0.0
 13
158.7900328739295
 23
156.0892571428571
 33
0.0
  0
SOLID
  5
3722
330
371A
100
AcDbEntity
  8
寸法
 62
     0
100
AcDbTrace
 10
159.0400328739295
 20
154.3892571428571
 30
0.0
 11
158.5400328739295
 21
154.3892571428571
 31
0.0
 12
158.7900328739295
 22
155.8892571428571
 32
0.0
 13
158.7900328739295
 23
155.8892571428571
 33
0.0
  0
MTEXT
  5
3723
330
371A
100
AcDbEntity
  8
寸法
  6
Continuous
 62
     0
100
AcDbMText
 10
162.4453557940199
 20
154.1964917659674
 30
0.0
 40
2.0
 41
0.0
 46
0.0
 71
     5
 72
     1
  1
0.2
 73
     1
 44
1.0
  0
POINT
  5
3724
330
371A
100
AcDbEntity
  8
Defpoints
 62
     0
100
AcDbPoint
 10
149.3134725257143
 20
156.0892571428571
 30
0.0
  0
POINT
  5
3725
330
371A
100
AcDbEntity
  8
Defpoints
 62
     0
100
AcDbPoint
 10
149.3134725257143
 20
155.8892571428571
 30
0.0
  0
POINT
  5
3726
330
371A
100
AcDbEntity
  8
Defpoints
 62
     0
100
AcDbPoint
 10
158.7900328739295
 20
155.8892571428571
 30
0.0
  0
ENDBLK
  5
371C
330
371A
100
AcDbEntity
  8
0
100
AcDbBlockEnd
  0
BLOCK
  5
372B
330
372A
100
AcDbEntity
  8
0
100
AcDbBlockBegin
  2
*D12
 70
     1
 10
0.0
 20
0.0
 30
0.0
  3
*D12
  1
*D394
  0
LINE
  5
372D
330
372A
100
AcDbEntity
  8
寸法
  6
Continuous
 62
     0
370
    -2
100
AcDbLine
 10
151.8384725257143
 20
159.3892571428571
 30
0.0
 11
170.7018350494595
 21
159.3892571428571
 31
0.0
  0
LINE
  5
372E
330
372A
100
AcDbEntity
  8
寸法
  6
Continuous
 62
     0
370
    -2
100
AcDbLine
 10
149.9384725257143
 20
155.8892571428571
 30
0.0
 11
170.7018350494595
 21
155.8892571428571
 31
0.0
  0
LINE
  5
372F
330
372A
100
AcDbEntity
  8
寸法
  6
Continuous
 62
     0
370
    -2
100
AcDbLine
 10
169.4518350494595
 20
160.8892571428571
 30
0.0
 11
169.4518350494595
 21
162.3892571428571
 31
0.0
  0
LINE
  5
3730
330
372A
100
AcDbEntity
  8
寸法
  6
Continuous
 62
     0
370
    -2
100
AcDbLine
 10
169.4518350494595
 20
154.3892571428571
 30
0.0
 11
169.4518350494595
 21
152.8892571428571
 31
0.0
  0
SOLID
  5
3731
330
372A
100
AcDbEntity
  8
寸法
 62
     0
100
AcDbTrace
 10
169.2018350494595
 20
160.8892571428571
 30
0.0
 11
169.7018350494595
 21
160.8892571428571
 31
0.0
 12
169.4518350494595
 22
159.3892571428571
 32
0.0
 13
169.4518350494595
 23
159.3892571428571
 33
0.0
  0
SOLID
  5
3732
330
372A
100
AcDbEntity
  8
寸法
 62
     0
100
AcDbTrace
 10
169.7018350494595
 20
154.3892571428571
 30
0.0
 11
169.2018350494595
 21
154.3892571428571
 31
0.0
 12
169.4518350494595
 22
155.8892571428571
 32
0.0
 13
169.4518350494595
 23
155.8892571428571
 33
0.0
  0
MTEXT
  5
3733
330
372A
100
AcDbEntity
  8
寸法
  6
Continuous
 62
     0
100
AcDbMText
 10
169.4518350494595
 20
157.4961359343062
 30
0.0
 40
2.0
 41
0.0
 46
0.0
 71
     5
 72
     1
  1
3.5
 73
     1
 44
1.0
  0
POINT
  5
3734
330
372A
100
AcDbEntity
  8
Defpoints
 62
     0
100
AcDbPoint
 10
151.2134725257143
 20
159.3892571428571
 30
0.0
  0
POINT
  5
3735
330
372A
100
AcDbEntity
  8
Defpoints
 62
     0
100
AcDbPoint
 10
149.3134725257143
 20
155.8892571428571
 30
0.0
  0
POINT
  5
3736
330
372A
100
AcDbEntity
  8
Defpoints
 62
     0
100
AcDbPoint
 10
169.4518350494595
 20
155.8892571428571
 30
0.0
  0
ENDBLK
  5
372C
330
372A
100
AcDbEntity
  8
0
100
AcDbBlockEnd
  0
BLOCK
  5
3750
330
374F
100
AcDbEntity
  8
0
100
AcDbBlockBegin
  2
*D13
 70
     1
 10
0.0
 20
0.0
 30
0.0
  3
*D13
  1
*D395
  0
LINE
  5
3752
330
374F
100
AcDbEntity
  8
寸法
  6
Continuous
 62
     0
370
    -2
100
AcDbLine
 10
153.3134725257143
 20
103.0508682835331
 30
0.0
 11
153.3134725257143
 21
110.0146905961999
 31
0.0
  0
LINE
  5
3753
330
374F
100
AcDbEntity
  8
寸法
  6
Continuous
 62
     0
370
    -2
100
AcDbLine
 10
173.3134725257143
 20
98.45086828353307
 30
0.0
 11
173.3134725257143
 21
110.0146905961999
 31
0.0
  0
LINE
  5
3754
330
374F
100
AcDbEntity
  8
寸法
  6
Continuous
 62
     0
370
    -2
100
AcDbLine
 10
154.8134725257143
 20
108.7646905961999
 30
0.0
 11
161.1884725257143
 21
108.7646905961999
 31
0.0
  0
LINE
  5
3755
330
374F
100
AcDbEntity
  8
寸法
  6
Continuous
 62
     0
370
    -2
100
AcDbLine
 10
171.8134725257143
 20
108.7646905961999
 30
0.0
 11
165.4384725257143
 21
108.7646905961999
 31
0.0
  0
SOLID
  5
3756
330
374F
100
AcDbEntity
  8
寸法
 62
     0
100
AcDbTrace
 10
154.8134725257143
 20
109.0146905961999
 30
0.0
 11
154.8134725257143
 21
108.5146905961999
 31
0.0
 12
153.3134725257143
 22
108.7646905961999
 32
0.0
 13
153.3134725257143
 23
108.7646905961999
 33
0.0
  0
SOLID
  5
3757
330
374F
100
AcDbEntity
  8
寸法
 62
     0
100
AcDbTrace
 10
171.8134725257143
 20
108.5146905961999
 30
0.0
 11
171.8134725257143
 21
109.0146905961999
 31
0.0
 12
173.3134725257143
 22
108.7646905961999
 32
0.0
 13
173.3134725257143
 23
108.7646905961999
 33
0.0
  0
MTEXT
  5
3758
330
374F
100
AcDbEntity
  8
寸法
  6
Continuous
 62
     0
100
AcDbMText
 10
163.3134725257143
 20
108.7646905961999
 30
0.0
 40
2.0
 41
0.0
 46
0.0
 71
     5
 72
     1
  1
20
 73
     1
 44
1.0
  0
POINT
  5
3759
330
374F
100
AcDbEntity
  8
Defpoints
 62
     0
100
AcDbPoint
 10
153.3134725257143
 20
102.4258682835331
 30
0.0
  0
POINT
  5
375A
330
374F
100
AcDbEntity
  8
Defpoints
 62
     0
100
AcDbPoint
 10
173.3134725257143
 20
97.82586828353307
 30
0.0
  0
POINT
  5
38A0
330
374F
100
AcDbEntity
  8
Defpoints
 62
     0
100
AcDbPoint
 10
173.3134725257143
 20
108.7646905961999
 30
0.0
  0
ENDBLK
  5
3751
330
374F
100
AcDbEntity
  8
0
100
AcDbBlockEnd
  0
BLOCK
  5
3761
330
3760
100
AcDbEntity
  8
0
100
AcDbBlockBegin
  2
*D14
 70
     1
 10
0.0
 20
0.0
 30
0.0
  3
*D14
  1
*D396
  0
LINE
  5
3763
330
3760
100
AcDbEntity
  8
寸法
  6
Continuous
 62
     0
370
    -2
100
AcDbLine
 10
125.3134725257143
 20
103.6758682835331
 30
0.0
 11
125.3134725257143
 21
114.5545427480987
 31
0.0
  0
LINE
  5
3764
330
3760
100
AcDbEntity
  8
寸法
  6
Continuous
 62
     0
370
    -2
100
AcDbLine
 10
173.3134725257143
 20
98.45086828353307
 30
0.0
 11
173.3134725257143
 21
114.5545427480987
 31
0.0
  0
LINE
  5
3765
330
3760
100
AcDbEntity
  8
寸法
  6
Continuous
 62
     0
370
    -2
100
AcDbLine
 10
126.8134725257143
 20
113.3045427480987
 30
0.0
 11
147.0218058590477
 21
113.3045427480987
 31
0.0
  0
LINE
  5
3766
330
3760
100
AcDbEntity
  8
寸法
  6
Continuous
 62
     0
370
    -2
100
AcDbLine
 10
171.8134725257143
 20
113.3045427480987
 30
0.0
 11
151.605139192381
 21
113.3045427480987
 31
0.0
  0
SOLID
  5
3767
330
3760
100
AcDbEntity
  8
寸法
 62
     0
100
AcDbTrace
 10
126.8134725257143
 20
113.5545427480987
 30
0.0
 11
126.8134725257143
 21
113.0545427480987
 31
0.0
 12
125.3134725257143
 22
113.3045427480987
 32
0.0
 13
125.3134725257143
 23
113.3045427480987
 33
0.0
  0
SOLID
  5
3768
330
3760
100
AcDbEntity
  8
寸法
 62
     0
100
AcDbTrace
 10
171.8134725257143
 20
113.0545427480987
 30
0.0
 11
171.8134725257143
 21
113.5545427480987
 31
0.0
 12
173.3134725257143
 22
113.3045427480987
 32
0.0
 13
173.3134725257143
 23
113.3045427480987
 33
0.0
  0
MTEXT
  5
3769
330
3760
100
AcDbEntity
  8
寸法
  6
Continuous
 62
     0
100
AcDbMText
 10
149.3134725257143
 20
113.3045427480987
 30
0.0
 40
2.0
 41
0.0
 46
0.0
 71
     5
 72
     1
  1
48
 73
     1
 44
1.0
  0
POINT
  5
376A
330
3760
100
AcDbEntity
  8
Defpoints
 62
     0
100
AcDbPoint
 10
125.3134725257143
 20
103.0508682835331
 30
0.0
  0
POINT
  5
376B
330
3760
100
AcDbEntity
  8
Defpoints
 62
     0
100
AcDbPoint
 10
173.3134725257143
 20
97.82586828353307
 30
0.0
  0
POINT
  5
389F
330
3760
100
AcDbEntity
  8
Defpoints
 62
     0
100
AcDbPoint
 10
173.3134725257143
 20
113.3045427480987
 30
0.0
  0
ENDBLK
  5
3762
330
3760
100
AcDbEntity
  8
0
100
AcDbBlockEnd
  0
BLOCK
  5
3772
330
3771
100
AcDbEntity
  8
0
100
AcDbBlockBegin
  2
*D15
 70
     1
 10
0.0
 20
0.0
 30
0.0
  3
*D15
  1
*D397
  0
LINE
  5
3774
330
3771
100
AcDbEntity
  8
寸法
  6
Continuous
 62
     0
370
    -2
100
AcDbLine
 10
173.5384725257145
 20
98.22586828353317
 30
0.0
 11
178.9366628113882
 21
98.22586828353317
 31
0.0
  0
LINE
  5
3775
330
3771
100
AcDbEntity
  8
寸法
  6
Continuous
 62
     0
370
    -2
100
AcDbLine
 10
173.5384725257143
 20
97.42586828353316
 30
0.0
 11
178.9366628113882
 21
97.42586828353316
 31
0.0
  0
LINE
  5
3776
330
3771
100
AcDbEntity
  8
寸法
  6
Continuous
 62
     0
370
    -2
100
AcDbLine
 10
177.6866628113882
 20
99.72586828353317
 30
0.0
 11
177.6866628113882
 21
101.2258682835332
 31
0.0
  0
LINE
  5
3777
330
3771
100
AcDbEntity
  8
寸法
  6
Continuous
 62
     0
370
    -2
100
AcDbLine
 10
177.6866628113882
 20
95.92586828353316
 30
0.0
 11
177.6866628113882
 21
94.42586828353316
 31
0.0
  0
SOLID
  5
3778
330
3771
100
AcDbEntity
  8
寸法
 62
     0
100
AcDbTrace
 10
177.4366628113882
 20
99.72586828353317
 30
0.0
 11
177.9366628113882
 21
99.72586828353317
 31
0.0
 12
177.6866628113882
 22
98.22586828353317
 32
0.0
 13
177.6866628113882
 23
98.22586828353317
 33
0.0
  0
SOLID
  5
3779
330
3771
100
AcDbEntity
  8
寸法
 62
     0
100
AcDbTrace
 10
177.9366628113882
 20
95.92586828353316
 30
0.0
 11
177.4366628113882
 21
95.92586828353316
 31
0.0
 12
177.6866628113882
 22
97.42586828353316
 32
0.0
 13
177.6866628113882
 23
97.42586828353316
 33
0.0
  0
MTEXT
  5
377A
330
3771
100
AcDbEntity
  8
寸法
  6
Continuous
 62
     0
100
AcDbMText
 10
181.5944374464869
 20
97.94138673343541
 30
0.0
 40
2.0
 41
0.0
 46
0.0
 71
     5
 72
     1
  1
0.8
 73
     1
 44
1.0
  0
POINT
  5
377B
330
3771
100
AcDbEntity
  8
Defpoints
 62
     0
100
AcDbPoint
 10
172.9134725257145
 20
98.22586828353317
 30
0.0
  0
POINT
  5
377C
330
3771
100
AcDbEntity
  8
Defpoints
 62
     0
100
AcDbPoint
 10
172.9134725257143
 20
97.42586828353316
 30
0.0
  0
POINT
  5
377D
330
3771
100
AcDbEntity
  8
Defpoints
 62
     0
100
AcDbPoint
 10
177.6866628113882
 20
97.42586828353316
 30
0.0
  0
ENDBLK
  5
3773
330
3771
100
AcDbEntity
  8
0
100
AcDbBlockEnd
  0
BLOCK
  5
3784
330
3783
100
AcDbEntity
  8
0
100
AcDbBlockBegin
  2
*D16
 70
     1
 10
0.0
 20
0.0
 30
0.0
  3
*D16
  1
*D398
  0
LINE
  5
3786
330
3783
100
AcDbEntity
  8
寸法
  6
Continuous
 62
     0
370
    -2
100
AcDbLine
 10
124.6884725257143
 20
97.42586828353313
 30
0.0
 11
118.995024743216
 21
97.42586828353313
 31
0.0
  0
LINE
  5
3787
330
3783
100
AcDbEntity
  8
寸法
  6
Continuous
 62
     0
370
    -2
100
AcDbLine
 10
124.6884725257143
 20
93.42586828353313
 30
0.0
 11
118.995024743216
 21
93.42586828353313
 31
0.0
  0
LINE
  5
3788
330
3783
100
AcDbEntity
  8
寸法
  6
Continuous
 62
     0
370
    -2
100
AcDbLine
 10
120.245024743216
 20
98.92586828353313
 30
0.0
 11
120.245024743216
 21
100.4258682835331
 31
0.0
  0
LINE
  5
3789
330
3783
100
AcDbEntity
  8
寸法
  6
Continuous
 62
     0
370
    -2
100
AcDbLine
 10
120.245024743216
 20
91.92586828353313
 30
0.0
 11
120.245024743216
 21
90.42586828353313
 31
0.0
  0
SOLID
  5
378A
330
3783
100
AcDbEntity
  8
寸法
 62
     0
100
AcDbTrace
 10
119.995024743216
 20
98.92586828353313
 30
0.0
 11
120.495024743216
 21
98.92586828353313
 31
0.0
 12
120.245024743216
 22
97.42586828353313
 32
0.0
 13
120.245024743216
 23
97.42586828353313
 33
0.0
  0
SOLID
  5
378B
330
3783
100
AcDbEntity
  8
寸法
 62
     0
100
AcDbTrace
 10
120.495024743216
 20
91.92586828353313
 30
0.0
 11
119.995024743216
 21
91.92586828353313
 31
0.0
 12
120.245024743216
 22
93.42586828353313
 32
0.0
 13
120.245024743216
 23
93.42586828353313
 33
0.0
  0
MTEXT
  5
378C
330
3783
100
AcDbEntity
  8
寸法
  6
Continuous
 62
     0
100
AcDbMText
 10
120.245024743216
 20
95.2125437926219
 30
0.0
 40
2.0
 41
0.0
 46
0.0
 71
     5
 72
     1
  1
4
 73
     1
 44
1.0
  0
POINT
  5
378D
330
3783
100
AcDbEntity
  8
Defpoints
 62
     0
100
AcDbPoint
 10
125.3134725257143
 20
97.42586828353313
 30
0.0
  0
POINT
  5
378E
330
3783
100
AcDbEntity
  8
Defpoints
 62
     0
100
AcDbPoint
 10
125.3134725257143
 20
93.42586828353313
 30
0.0
  0
POINT
  5
378F
330
3783
100
AcDbEntity
  8
Defpoints
 62
     0
100
AcDbPoint
 10
120.245024743216
 20
93.42586828353313
 30
0.0
  0
ENDBLK
  5
3785
330
3783
100
AcDbEntity
  8
0
100
AcDbBlockEnd
  0
BLOCK
  5
37D8
330
37D7
100
AcDbEntity
  8
0
100
AcDbBlockBegin
  2
*D17
 70
     1
 10
0.0
 20
0.0
 30
0.0
  3
*D17
  1
*D399
  0
LINE
  5
37DA
330
37D7
100
AcDbEntity
  8
寸法
  6
Continuous
 62
     0
370
    -2
100
AcDbLine
 10
124.6884725257143
 20
46.66068571428534
 30
0.0
 11
114.512022067596
 21
46.66068571428534
 31
0.0
  0
LINE
  5
37DB
330
37D7
100
AcDbEntity
  8
寸法
  6
Continuous
 62
     0
370
    -2
100
AcDbLine
 10
124.6884725257143
 20
37.66068571428534
 30
0.0
 11
114.512022067596
 21
37.66068571428534
 31
0.0
  0
LINE
  5
37DC
330
37D7
100
AcDbEntity
  8
寸法
  6
Continuous
 62
     0
370
    -2
100
AcDbLine
 10
115.762022067596
 20
45.16068571428534
 30
0.0
 11
115.762022067596
 21
43.92515937019786
 31
0.0
  0
LINE
  5
37DD
330
37D7
100
AcDbEntity
  8
寸法
  6
Continuous
 62
     0
370
    -2
100
AcDbLine
 10
115.762022067596
 20
39.16068571428534
 30
0.0
 11
115.762022067596
 21
40.67515937019786
 31
0.0
  0
SOLID
  5
37DE
330
37D7
100
AcDbEntity
  8
寸法
 62
     0
100
AcDbTrace
 10
116.012022067596
 20
45.16068571428534
 30
0.0
 11
115.512022067596
 21
45.16068571428534
 31
0.0
 12
115.762022067596
 22
46.66068571428534
 32
0.0
 13
115.762022067596
 23
46.66068571428534
 33
0.0
  0
SOLID
  5
37DF
330
37D7
100
AcDbEntity
  8
寸法
 62
     0
100
AcDbTrace
 10
115.512022067596
 20
39.16068571428534
 30
0.0
 11
116.012022067596
 21
39.16068571428534
 31
0.0
 12
115.762022067596
 22
37.66068571428534
 32
0.0
 13
115.762022067596
 23
37.66068571428534
 33
0.0
  0
MTEXT
  5
37E0
330
37D7
100
AcDbEntity
  8
寸法
  6
Continuous
 62
     0
100
AcDbMText
 10
115.762022067596
 20
42.30015937019786
 30
0.0
 40
2.0
 41
0.0
 46
0.0
 71
     5
 72
     1
  1
9
 73
     1
 44
1.0
  0
POINT
  5
37E1
330
37D7
100
AcDbEntity
  8
Defpoints
 62
     0
100
AcDbPoint
 10
125.3134725257143
 20
46.66068571428534
 30
0.0
  0
POINT
  5
37E2
330
37D7
100
AcDbEntity
  8
Defpoints
 62
     0
100
AcDbPoint
 10
125.3134725257143
 20
37.66068571428534
 30
0.0
  0
POINT
  5
37E3
330
37D7
100
AcDbEntity
  8
Defpoints
 62
     0
100
AcDbPoint
 10
115.762022067596
 20
37.66068571428534
 30
0.0
  0
ENDBLK
  5
37D9
330
37D7
100
AcDbEntity
  8
0
100
AcDbBlockEnd
  0
BLOCK
  5
37E5
330
37E4
100
AcDbEntity
  8
0
100
AcDbBlockBegin
  2
*D18
 70
     1
 10
0.0
 20
0.0
 30
0.0
  3
*D18
  1
*D400
  0
LINE
  5
37E7
330
37E4
100
AcDbEntity
  8
寸法
  6
Continuous
 62
     0
370
    -2
100
AcDbLine
 10
125.3134725257143
 20
47.28568571428534
 30
0.0
 11
125.3134725257143
 21
54.24950802695214
 31
0.0
  0
LINE
  5
37E8
330
37E4
100
AcDbEntity
  8
寸法
  6
Continuous
 62
     0
370
    -2
100
AcDbLine
 10
153.3134725257143
 20
47.28568571428534
 30
0.0
 11
153.3134725257143
 21
54.24950802695214
 31
0.0
  0
LINE
  5
37E9
330
37E4
100
AcDbEntity
  8
寸法
  6
Continuous
 62
     0
370
    -2
100
AcDbLine
 10
126.8134725257143
 20
52.99950802695214
 30
0.0
 11
136.3462713691993
 21
52.99950802695214
 31
0.0
  0
LINE
  5
37EA
330
37E4
100
AcDbEntity
  8
寸法
  6
Continuous
 62
     0
370
    -2
100
AcDbLine
 10
151.8134725257143
 20
52.99950802695214
 30
0.0
 11
140.9296047025326
 21
52.99950802695214
 31
0.0
  0
SOLID
  5
37EB
330
37E4
100
AcDbEntity
  8
寸法
 62
     0
100
AcDbTrace
 10
126.8134725257143
 20
53.24950802695214
 30
0.0
 11
126.8134725257143
 21
52.74950802695214
 31
0.0
 12
125.3134725257143
 22
52.99950802695214
 32
0.0
 13
125.3134725257143
 23
52.99950802695214
 33
0.0
  0
SOLID
  5
37EC
330
37E4
100
AcDbEntity
  8
寸法
 62
     0
100
AcDbTrace
 10
151.8134725257143
 20
52.74950802695214
 30
0.0
 11
151.8134725257143
 21
53.24950802695214
 31
0.0
 12
153.3134725257143
 22
52.99950802695214
 32
0.0
 13
153.3134725257143
 23
52.99950802695214
 33
0.0
  0
MTEXT
  5
37ED
330
37E4
100
AcDbEntity
  8
寸法
  6
Continuous
 62
     0
100
AcDbMText
 10
138.637938035866
 20
52.99950802695214
 30
0.0
 40
2.0
 41
0.0
 46
0.0
 71
     5
 72
     1
  1
28
 73
     1
 44
1.0
  0
POINT
  5
37EE
330
37E4
100
AcDbEntity
  8
Defpoints
 62
     0
100
AcDbPoint
 10
125.3134725257143
 20
46.66068571428534
 30
0.0
  0
POINT
  5
37EF
330
37E4
100
AcDbEntity
  8
Defpoints
 62
     0
100
AcDbPoint
 10
153.3134725257143
 20
46.66068571428534
 30
0.0
  0
POINT
  5
37F0
330
37E4
100
AcDbEntity
  8
Defpoints
 62
     0
100
AcDbPoint
 10
153.3134725257143
 20
52.99950802695214
 30
0.0
  0
ENDBLK
  5
37E6
330
37E4
100
AcDbEntity
  8
0
100
AcDbBlockEnd
  0
BLOCK
  5
37F2
330
37F1
100
AcDbEntity
  8
0
100
AcDbBlockBegin
  2
*D19
 70
     1
 10
0.0
 20
0.0
 30
0.0
  3
*D19
  1
*D401
  0
LINE
  5
37F4
330
37F1
100
AcDbEntity
  8
寸法
  6
Continuous
 62
     0
370
    -2
100
AcDbLine
 10
126.5134725257143
 20
37.03568571428534
 30
0.0
 11
126.5134725257143
 21
32.98772509954118
 31
0.0
  0
LINE
  5
37F5
330
37F1
100
AcDbEntity
  8
寸法
  6
Continuous
 62
     0
370
    -2
100
AcDbLine
 10
125.3134725257143
 20
37.03568571428534
 30
0.0
 11
125.3134725257143
 21
32.98772509954118
 31
0.0
  0
LINE
  5
37F6
330
37F1
100
AcDbEntity
  8
寸法
  6
Continuous
 62
     0
370
    -2
100
AcDbLine
 10
128.0134725257143
 20
34.23772509954118
 30
0.0
 11
129.5134725257143
 21
34.23772509954118
 31
0.0
  0
LINE
  5
37F7
330
37F1
100
AcDbEntity
  8
寸法
  6
Continuous
 62
     0
370
    -2
100
AcDbLine
 10
123.8134725257143
 20
34.23772509954118
 30
0.0
 11
122.3134725257143
 21
34.23772509954118
 31
0.0
  0
SOLID
  5
37F8
330
37F1
100
AcDbEntity
  8
寸法
 62
     0
100
AcDbTrace
 10
128.0134725257143
 20
34.48772509954118
 30
0.0
 11
128.0134725257143
 21
33.98772509954118
 31
0.0
 12
126.5134725257143
 22
34.23772509954118
 32
0.0
 13
126.5134725257143
 23
34.23772509954118
 33
0.0
  0
SOLID
  5
37F9
330
37F1
100
AcDbEntity
  8
寸法
 62
     0
100
AcDbTrace
 10
123.8134725257143
 20
33.98772509954118
 30
0.0
 11
123.8134725257143
 21
34.48772509954118
 31
0.0
 12
125.3134725257143
 22
34.23772509954118
 32
0.0
 13
125.3134725257143
 23
34.23772509954118
 33
0.0
  0
MTEXT
  5
37FA
330
37F1
100
AcDbEntity
  8
寸法
  6
Continuous
 62
     0
100
AcDbMText
 10
125.9789932149377
 20
31.68976448479702
 30
0.0
 40
2.0
 41
0.0
 46
0.0
 71
     5
 72
     1
  1
1.2
 73
     1
 44
1.0
  0
POINT
  5
37FB
330
37F1
100
AcDbEntity
  8
Defpoints
 62
     0
100
AcDbPoint
 10
126.5134725257143
 20
37.66068571428534
 30
0.0
  0
POINT
  5
37FC
330
37F1
100
AcDbEntity
  8
Defpoints
 62
     0
100
AcDbPoint
 10
125.3134725257143
 20
37.66068571428534
 30
0.0
  0
POINT
  5
37FD
330
37F1
100
AcDbEntity
  8
Defpoints
 62
     0
100
AcDbPoint
 10
125.3134725257143
 20
34.23772509954118
 30
0.0
  0
ENDBLK
  5
37F3
330
37F1
100
AcDbEntity
  8
0
100
AcDbBlockEnd
  0
BLOCK
  5
37FF
330
37FE
100
AcDbEntity
  8
0
100
AcDbBlockBegin
  2
*D20
 70
     1
 10
0.0
 20
0.0
 30
0.0
  3
*D20
  1
*D402
  0
LINE
  5
3801
330
37FE
100
AcDbEntity
  8
寸法
  6
Continuous
 62
     0
370
    -2
100
AcDbLine
 10
153.9384725257143
 20
46.66068571428534
 30
0.0
 11
158.1084785136397
 21
46.66068571428534
 31
0.0
  0
LINE
  5
3802
330
37FE
100
AcDbEntity
  8
寸法
  6
Continuous
 62
     0
370
    -2
100
AcDbLine
 10
153.7984725257143
 20
43.16068571428536
 30
0.0
 11
158.1084785136397
 21
43.16068571428536
 31
0.0
  0
LINE
  5
3803
330
37FE
100
AcDbEntity
  8
寸法
  6
Continuous
 62
     0
370
    -2
100
AcDbLine
 10
156.8584785136397
 20
48.16068571428534
 30
0.0
 11
156.8584785136397
 21
49.66068571428534
 31
0.0
  0
LINE
  5
3804
330
37FE
100
AcDbEntity
  8
寸法
  6
Continuous
 62
     0
370
    -2
100
AcDbLine
 10
156.8584785136397
 20
41.66068571428536
 30
0.0
 11
156.8584785136397
 21
40.16068571428536
 31
0.0
  0
SOLID
  5
3805
330
37FE
100
AcDbEntity
  8
寸法
 62
     0
100
AcDbTrace
 10
156.6084785136397
 20
48.16068571428534
 30
0.0
 11
157.1084785136397
 21
48.16068571428534
 31
0.0
 12
156.8584785136397
 22
46.66068571428534
 32
0.0
 13
156.8584785136397
 23
46.66068571428534
 33
0.0
  0
SOLID
  5
3806
330
37FE
100
AcDbEntity
  8
寸法
 62
     0
100
AcDbTrace
 10
157.1084785136397
 20
41.66068571428536
 30
0.0
 11
156.6084785136397
 21
41.66068571428536
 31
0.0
 12
156.8584785136397
 22
43.16068571428536
 32
0.0
 13
156.8584785136397
 23
43.16068571428536
 33
0.0
  0
MTEXT
  5
3807
330
37FE
100
AcDbEntity
  8
寸法
  6
Continuous
 62
     0
100
AcDbMText
 10
159.8978587853831
 20
44.82085972531503
 30
0.0
 40
2.0
 41
0.0
 46
0.0
 71
     5
 72
     1
  1
3.5
 73
     1
 44
1.0
  0
POINT
  5
3808
330
37FE
100
AcDbEntity
  8
Defpoints
 62
     0
100
AcDbPoint
 10
153.3134725257143
 20
46.66068571428534
 30
0.0
  0
POINT
  5
3809
330
37FE
100
AcDbEntity
  8
Defpoints
 62
     0
100
AcDbPoint
 10
153.1734725257143
 20
43.16068571428536
 30
0.0
  0
POINT
  5
380A
330
37FE
100
AcDbEntity
  8
Defpoints
 62
     0
100
AcDbPoint
 10
156.8584785136397
 20
43.16068571428536
 30
0.0
  0
ENDBLK
  5
3800
330
37FE
100
AcDbEntity
  8
0
100
AcDbBlockEnd
  0
BLOCK
  5
3826
330
3825
100
AcDbEntity
  8
0
100
AcDbBlockBegin
  2
*D21
 70
     1
 10
0.0
 20
0.0
 30
0.0
  3
*D21
  1
*D405
  0
LINE
  5
3828
330
3825
100
AcDbEntity
  8
寸法
  6
Continuous
 62
     0
370
    -2
100
AcDbLine
 10
153.3134725257143
 20
47.28568571428534
 30
0.0
 11
153.3134725257143
 21
54.24950802695214
 31
0.0
  0
LINE
  5
3829
330
3825
100
AcDbEntity
  8
寸法
  6
Continuous
 62
     0
370
    -2
100
AcDbLine
 10
173.3134725257143
 20
42.68568571428527
 30
0.0
 11
173.3134725257143
 21
54.24950802695214
 31
0.0
  0
LINE
  5
382A
330
3825
100
AcDbEntity
  8
寸法
  6
Continuous
 62
     0
370
    -2
100
AcDbLine
 10
154.8134725257143
 20
52.99950802695214
 30
0.0
 11
161.1884725257143
 21
52.99950802695214
 31
0.0
  0
LINE
  5
382B
330
3825
100
AcDbEntity
  8
寸法
  6
Continuous
 62
     0
370
    -2
100
AcDbLine
 10
171.8134725257143
 20
52.99950802695214
 30
0.0
 11
165.4384725257143
 21
52.99950802695214
 31
0.0
  0
SOLID
  5
382C
330
3825
100
AcDbEntity
  8
寸法
 62
     0
100
AcDbTrace
 10
154.8134725257143
 20
53.24950802695214
 30
0.0
 11
154.8134725257143
 21
52.74950802695214
 31
0.0
 12
153.3134725257143
 22
52.99950802695214
 32
0.0
 13
153.3134725257143
 23
52.99950802695214
 33
0.0
  0
SOLID
  5
382D
330
3825
100
AcDbEntity
  8
寸法
 62
     0
100
AcDbTrace
 10
171.8134725257143
 20
52.74950802695214
 30
0.0
 11
171.8134725257143
 21
53.24950802695214
 31
0.0
 12
173.3134725257143
 22
52.99950802695214
 32
0.0
 13
173.3134725257143
 23
52.99950802695214
 33
0.0
  0
MTEXT
  5
382E
330
3825
100
AcDbEntity
  8
寸法
  6
Continuous
 62
     0
100
AcDbMText
 10
163.3134725257143
 20
52.99950802695214
 30
0.0
 40
2.0
 41
0.0
 46
0.0
 71
     5
 72
     1
  1
20
 73
     1
 44
1.0
  0
POINT
  5
382F
330
3825
100
AcDbEntity
  8
Defpoints
 62
     0
100
AcDbPoint
 10
153.3134725257143
 20
46.66068571428534
 30
0.0
  0
POINT
  5
3830
330
3825
100
AcDbEntity
  8
Defpoints
 62
     0
100
AcDbPoint
 10
173.3134725257143
 20
42.06068571428527
 30
0.0
  0
POINT
  5
38A2
330
3825
100
AcDbEntity
  8
Defpoints
 62
     0
100
AcDbPoint
 10
173.3134725257143
 20
52.99950802695214
 30
0.0
  0
ENDBLK
  5
3827
330
3825
100
AcDbEntity
  8
0
100
AcDbBlockEnd
  0
BLOCK
  5
3833
330
3832
100
AcDbEntity
  8
0
100
AcDbBlockBegin
  2
*D22
 70
     1
 10
0.0
 20
0.0
 30
0.0
  3
*D22
  1
*D406
  0
LINE
  5
3835
330
3832
100
AcDbEntity
  8
寸法
  6
Continuous
 62
     0
370
    -2
100
AcDbLine
 10
125.3134725257143
 20
47.91068571428534
 30
0.0
 11
125.3134725257143
 21
58.78936017885087
 31
0.0
  0
LINE
  5
3836
330
3832
100
AcDbEntity
  8
寸法
  6
Continuous
 62
     0
370
    -2
100
AcDbLine
 10
173.3134725257143
 20
42.68568571428527
 30
0.0
 11
173.3134725257143
 21
58.78936017885087
 31
0.0
  0
LINE
  5
3837
330
3832
100
AcDbEntity
  8
寸法
  6
Continuous
 62
     0
370
    -2
100
AcDbLine
 10
126.8134725257143
 20
57.53936017885087
 30
0.0
 11
147.0218058590477
 21
57.53936017885087
 31
0.0
  0
LINE
  5
3838
330
3832
100
AcDbEntity
  8
寸法
  6
Continuous
 62
     0
370
    -2
100
AcDbLine
 10
171.8134725257143
 20
57.53936017885087
 30
0.0
 11
151.605139192381
 21
57.53936017885087
 31
0.0
  0
SOLID
  5
3839
330
3832
100
AcDbEntity
  8
寸法
 62
     0
100
AcDbTrace
 10
126.8134725257143
 20
57.78936017885087
 30
0.0
 11
126.8134725257143
 21
57.28936017885087
 31
0.0
 12
125.3134725257143
 22
57.53936017885087
 32
0.0
 13
125.3134725257143
 23
57.53936017885087
 33
0.0
  0
SOLID
  5
383A
330
3832
100
AcDbEntity
  8
寸法
 62
     0
100
AcDbTrace
 10
171.8134725257143
 20
57.28936017885087
 30
0.0
 11
171.8134725257143
 21
57.78936017885087
 31
0.0
 12
173.3134725257143
 22
57.53936017885087
 32
0.0
 13
173.3134725257143
 23
57.53936017885087
 33
0.0
  0
MTEXT
  5
383B
330
3832
100
AcDbEntity
  8
寸法
  6
Continuous
 62
     0
100
AcDbMText
 10
149.3134725257143
 20
57.53936017885087
 30
0.0
 40
2.0
 41
0.0
 46
0.0
 71
     5
 72
     1
  1
48
 73
     1
 44
1.0
  0
POINT
  5
383C
330
3832
100
AcDbEntity
  8
Defpoints
 62
     0
100
AcDbPoint
 10
125.3134725257143
 20
47.28568571428534
 30
0.0
  0
POINT
  5
383D
330
3832
100
AcDbEntity
  8
Defpoints
 62
     0
100
AcDbPoint
 10
173.3134725257143
 20
42.06068571428527
 30
0.0
  0
POINT
  5
38A1
330
3832
100
AcDbEntity
  8
Defpoints
 62
     0
100
AcDbPoint
 10
173.3134725257143
 20
57.53936017885087
 30
0.0
  0
ENDBLK
  5
3834
330
3832
100
AcDbEntity
  8
0
100
AcDbBlockEnd
  0
BLOCK
  5
3840
330
383F
100
AcDbEntity
  8
0
100
AcDbBlockBegin
  2
*D23
 70
     1
 10
0.0
 20
0.0
 30
0.0
  3
*D23
  1
*D407
  0
LINE
  5
3842
330
383F
100
AcDbEntity
  8
寸法
  6
Continuous
 62
     0
370
    -2
100
AcDbLine
 10
173.5384725257143
 20
41.66068571428537
 30
0.0
 11
178.9366628113882
 21
41.66068571428537
 31
0.0
  0
LINE
  5
3843
330
383F
100
AcDbEntity
  8
寸法
  6
Continuous
 62
     0
370
    -2
100
AcDbLine
 10
173.5384725257145
 20
42.46068571428537
 30
0.0
 11
178.9366628113882
 21
42.46068571428537
 31
0.0
  0
LINE
  5
3844
330
383F
100
AcDbEntity
  8
寸法
  6
Continuous
 62
     0
370
    -2
100
AcDbLine
 10
177.6866628113882
 20
40.16068571428537
 30
0.0
 11
177.6866628113882
 21
38.66068571428537
 31
0.0
  0
LINE
  5
3845
330
383F
100
AcDbEntity
  8
寸法
  6
Continuous
 62
     0
370
    -2
100
AcDbLine
 10
177.6866628113882
 20
43.96068571428537
 30
0.0
 11
177.6866628113882
 21
45.46068571428537
 31
0.0
  0
SOLID
  5
3846
330
383F
100
AcDbEntity
  8
寸法
 62
     0
100
AcDbTrace
 10
177.9366628113882
 20
40.16068571428537
 30
0.0
 11
177.4366628113882
 21
40.16068571428537
 31
0.0
 12
177.6866628113882
 22
41.66068571428537
 32
0.0
 13
177.6866628113882
 23
41.66068571428537
 33
0.0
  0
SOLID
  5
3847
330
383F
100
AcDbEntity
  8
寸法
 62
     0
100
AcDbTrace
 10
177.4366628113882
 20
43.96068571428537
 30
0.0
 11
177.9366628113882
 21
43.96068571428537
 31
0.0
 12
177.6866628113882
 22
42.46068571428537
 32
0.0
 13
177.6866628113882
 23
42.46068571428537
 33
0.0
  0
MTEXT
  5
3848
330
383F
100
AcDbEntity
  8
寸法
  6
Continuous
 62
     0
100
AcDbMText
 10
181.5944374464869
 20
41.94516726438313
 30
0.0
 40
2.0
 41
0.0
 46
0.0
 71
     5
 72
     1
  1
0.8
 73
     1
 44
1.0
  0
POINT
  5
3849
330
383F
100
AcDbEntity
  8
Defpoints
 62
     0
100
AcDbPoint
 10
172.9134725257143
 20
41.66068571428537
 30
0.0
  0
POINT
  5
384A
330
383F
100
AcDbEntity
  8
Defpoints
 62
     0
100
AcDbPoint
 10
172.9134725257145
 20
42.46068571428537
 30
0.0
  0
POINT
  5
384B
330
383F
100
AcDbEntity
  8
Defpoints
 62
     0
100
AcDbPoint
 10
177.6866628113882
 20
42.46068571428537
 30
0.0
  0
ENDBLK
  5
3841
330
383F
100
AcDbEntity
  8
0
100
AcDbBlockEnd
  0
BLOCK
  5
384D
330
384C
100
AcDbEntity
  8
0
100
AcDbBlockBegin
  2
*D24
 70
     1
 10
0.0
 20
0.0
 30
0.0
  3
*D24
  1
*D408
  0
LINE
  5
384F
330
384C
100
AcDbEntity
  8
寸法
  6
Continuous
 62
     0
370
    -2
100
AcDbLine
 10
124.6884725257143
 20
41.66068571428534
 30
0.0
 11
118.995024743216
 21
41.66068571428534
 31
0.0
  0
LINE
  5
3850
330
384C
100
AcDbEntity
  8
寸法
  6
Continuous
 62
     0
370
    -2
100
AcDbLine
 10
124.6884725257143
 20
37.66068571428534
 30
0.0
 11
118.995024743216
 21
37.66068571428534
 31
0.0
  0
LINE
  5
3851
330
384C
100
AcDbEntity
  8
寸法
  6
Continuous
 62
     0
370
    -2
100
AcDbLine
 10
120.245024743216
 20
43.16068571428534
 30
0.0
 11
120.245024743216
 21
44.66068571428534
 31
0.0
  0
LINE
  5
3852
330
384C
100
AcDbEntity
  8
寸法
  6
Continuous
 62
     0
370
    -2
100
AcDbLine
 10
120.245024743216
 20
36.16068571428534
 30
0.0
 11
120.245024743216
 21
34.66068571428534
 31
0.0
  0
SOLID
  5
3853
330
384C
100
AcDbEntity
  8
寸法
 62
     0
100
AcDbTrace
 10
119.995024743216
 20
43.16068571428534
 30
0.0
 11
120.495024743216
 21
43.16068571428534
 31
0.0
 12
120.245024743216
 22
41.66068571428534
 32
0.0
 13
120.245024743216
 23
41.66068571428534
 33
0.0
  0
SOLID
  5
3854
330
384C
100
AcDbEntity
  8
寸法
 62
     0
100
AcDbTrace
 10
120.495024743216
 20
36.16068571428534
 30
0.0
 11
119.995024743216
 21
36.16068571428534
 31
0.0
 12
120.245024743216
 22
37.66068571428534
 32
0.0
 13
120.245024743216
 23
37.66068571428534
 33
0.0
  0
MTEXT
  5
3855
330
384C
100
AcDbEntity
  8
寸法
  6
Continuous
 62
     0
100
AcDbMText
 10
120.245024743216
 20
39.4473612233741
 30
0.0
 40
2.0
 41
0.0
 46
0.0
 71
     5
 72
     1
  1
4
 73
     1
 44
1.0
  0
POINT
  5
3856
330
384C
100
AcDbEntity
  8
Defpoints
 62
     0
100
AcDbPoint
 10
125.3134725257143
 20
41.66068571428534
 30
0.0
  0
POINT
  5
3857
330
384C
100
AcDbEntity
  8
Defpoints
 62
     0
100
AcDbPoint
 10
125.3134725257143
 20
37.66068571428534
 30
0.0
  0
POINT
  5
3858
330
384C
100
AcDbEntity
  8
Defpoints
 62
     0
100
AcDbPoint
 10
120.245024743216
 20
37.66068571428534
 30
0.0
  0
ENDBLK
  5
384E
330
384C
100
AcDbEntity
  8
0
100
AcDbBlockEnd
  0
BLOCK
  5
385D
330
385C
100
AcDbEntity
  8
0
100
AcDbBlockBegin
  2
*D25
 70
     1
 10
0.0
 20
0.0
 30
0.0
  3
*D25
  1
*D409
  0
LINE
  5
385F
330
385C
100
AcDbEntity
  8
寸法
  6
Continuous
 62
     0
370
    -2
100
AcDbLine
 10
125.3134725257143
 20
47.28568571428534
 30
0.0
 11
125.3134725257143
 21
50.73900175512286
 31
0.0
  0
LINE
  5
3860
330
385C
100
AcDbEntity
  8
寸法
  6
Continuous
 62
     0
370
    -2
100
AcDbLine
 10
127.3134725257143
 20
47.28568571428534
 30
0.0
 11
127.3134725257143
 21
50.73900175512286
 31
0.0
  0
LINE
  5
3861
330
385C
100
AcDbEntity
  8
寸法
  6
Continuous
 62
     0
370
    -2
100
AcDbLine
 10
123.8134725257143
 20
49.48900175512286
 30
0.0
 11
122.3134725257143
 21
49.48900175512286
 31
0.0
  0
LINE
  5
3862
330
385C
100
AcDbEntity
  8
寸法
  6
Continuous
 62
     0
370
    -2
100
AcDbLine
 10
128.8134725257143
 20
49.48900175512286
 30
0.0
 11
130.3134725257143
 21
49.48900175512286
 31
0.0
  0
SOLID
  5
3863
330
385C
100
AcDbEntity
  8
寸法
 62
     0
100
AcDbTrace
 10
123.8134725257143
 20
49.23900175512286
 30
0.0
 11
123.8134725257143
 21
49.73900175512286
 31
0.0
 12
125.3134725257143
 22
49.48900175512286
 32
0.0
 13
125.3134725257143
 23
49.48900175512286
 33
0.0
  0
SOLID
  5
3864
330
385C
100
AcDbEntity
  8
寸法
 62
     0
100
AcDbTrace
 10
128.8134725257143
 20
49.73900175512286
 30
0.0
 11
128.8134725257143
 21
49.23900175512286
 31
0.0
 12
127.3134725257143
 22
49.48900175512286
 32
0.0
 13
127.3134725257143
 23
49.48900175512286
 33
0.0
  0
MTEXT
  5
3865
330
385C
100
AcDbEntity
  8
寸法
  6
Continuous
 62
     0
100
AcDbMText
 10
126.3264204042657
 20
49.48900175512286
 30
0.0
 40
2.0
 41
0.0
 46
0.0
 71
     5
 72
     1
  1
2
 73
     1
 44
1.0
  0
POINT
  5
3866
330
385C
100
AcDbEntity
  8
Defpoints
 62
     0
100
AcDbPoint
 10
125.3134725257143
 20
46.66068571428534
 30
0.0
  0
POINT
  5
3867
330
385C
100
AcDbEntity
  8
Defpoints
 62
     0
100
AcDbPoint
 10
127.3134725257143
 20
46.66068571428534
 30
0.0
  0
POINT
  5
3868
330
385C
100
AcDbEntity
  8
Defpoints
 62
     0
100
AcDbPoint
 10
127.3134725257143
 20
49.48900175512286
 30
0.0
  0
ENDBLK
  5
385E
330
385C
100
AcDbEntity
  8
0
100
AcDbBlockEnd
  0
BLOCK
  5
386D
330
386C
100
AcDbEntity
  8
0
100
AcDbBlockBegin
  2
*D26
 70
     1
 10
0.0
 20
0.0
 30
0.0
  3
*D26
  1
*D410
  0
LINE
  5
386F
330
386C
100
AcDbEntity
  8
寸法
  6
Continuous
 62
     0
370
    -2
100
AcDbLine
 10
153.3134725257143
 20
47.28568571428534
 30
0.0
 11
153.3134725257143
 21
51.08438587691188
 31
0.0
  0
LINE
  5
3870
330
386C
100
AcDbEntity
  8
寸法
  6
Continuous
 62
     0
370
    -2
100
AcDbLine
 10
151.3134725257143
 20
47.28568571428534
 30
0.0
 11
151.3134725257143
 21
51.08438587691188
 31
0.0
  0
LINE
  5
3871
330
386C
100
AcDbEntity
  8
寸法
  6
Continuous
 62
     0
370
    -2
100
AcDbLine
 10
154.8134725257143
 20
49.83438587691188
 30
0.0
 11
156.3134725257143
 21
49.83438587691188
 31
0.0
  0
LINE
  5
3872
330
386C
100
AcDbEntity
  8
寸法
  6
Continuous
 62
     0
370
    -2
100
AcDbLine
 10
149.8134725257143
 20
49.83438587691188
 30
0.0
 11
148.3134725257143
 21
49.83438587691188
 31
0.0
  0
SOLID
  5
3873
330
386C
100
AcDbEntity
  8
寸法
 62
     0
100
AcDbTrace
 10
154.8134725257143
 20
50.08438587691188
 30
0.0
 11
154.8134725257143
 21
49.58438587691188
 31
0.0
 12
153.3134725257143
 22
49.83438587691188
 32
0.0
 13
153.3134725257143
 23
49.83438587691188
 33
0.0
  0
SOLID
  5
3874
330
386C
100
AcDbEntity
  8
寸法
 62
     0
100
AcDbTrace
 10
149.8134725257143
 20
49.58438587691188
 30
0.0
 11
149.8134725257143
 21
50.08438587691188
 31
0.0
 12
151.3134725257143
 22
49.83438587691188
 32
0.0
 13
151.3134725257143
 23
49.83438587691188
 33
0.0
  0
MTEXT
  5
3875
330
386C
100
AcDbEntity
  8
寸法
  6
Continuous
 62
     0
100
AcDbMText
 10
152.2795701272699
 20
49.83438587691188
 30
0.0
 40
2.0
 41
0.0
 46
0.0
 71
     5
 72
     1
  1
2
 73
     1
 44
1.0
  0
POINT
  5
3876
330
386C
100
AcDbEntity
  8
Defpoints
 62
     0
100
AcDbPoint
 10
153.3134725257143
 20
46.66068571428534
 30
0.0
  0
POINT
  5
3877
330
386C
100
AcDbEntity
  8
Defpoints
 62
     0
100
AcDbPoint
 10
151.3134725257143
 20
46.66068571428534
 30
0.0
  0
POINT
  5
3878
330
386C
100
AcDbEntity
  8
Defpoints
 62
     0
100
AcDbPoint
 10
151.3134725257143
 20
49.83438587691188
 30
0.0
  0
ENDBLK
  5
386E
330
386C
100
AcDbEntity
  8
0
100
AcDbBlockEnd
  0
BLOCK
  5
387D
330
387C
100
AcDbEntity
  8
0
100
AcDbBlockBegin
  2
*D27
 70
     1
 10
0.0
 20
0.0
 30
0.0
  3
*D27
  1
*D411
  0
LINE
  5
387F
330
387C
100
AcDbEntity
  8
寸法
  6
Continuous
 62
     0
370
    -2
100
AcDbLine
 10
127.0605259536058
 20
41.99732608457937
 30
0.0
 11
126.3087580103407
 21
40.69931030675579
 31
0.0
  0
MTEXT
  5
3880
330
387C
100
AcDbEntity
  8
寸法
  6
Continuous
 62
     0
100
AcDbMText
 10
129.582899266848
 20
44.45626169476843
 30
0.0
 40
2.0
 41
0.0
 46
0.0
 71
     5
 72
     1
  1
R1
 73
     1
 44
1.0
  0
SOLID
  5
3881
330
387C
100
AcDbEntity
  8
寸法
 62
     0
100
AcDbTrace
 10
127.2768619165764
 20
41.87203142736852
 30
0.0
 11
126.8441899906352
 21
42.12262074179022
 31
0.0
 12
127.8122938968709
 22
43.29534186240295
 32
0.0
 13
127.8122938968709
 23
43.29534186240295
 33
0.0
  0
POINT
  5
3882
330
387C
100
AcDbEntity
  8
Defpoints
 62
     0
100
AcDbPoint
 10
127.8122938968709
 20
43.29534186240295
 30
0.0
  0
POINT
  5
3883
330
387C
100
AcDbEntity
  8
Defpoints
 62
     0
100
AcDbPoint
 10
128.3134725257143
 20
44.16068571428534
 30
0.0
  0
ENDBLK
  5
387E
330
387C
100
AcDbEntity
  8
0
100
AcDbBlockEnd
  0
BLOCK
  5
3888
330
3887
100
AcDbEntity
  8
0
100
AcDbBlockBegin
  2
*D28
 70
     1
 10
0.0
 20
0.0
 30
0.0
  3
*D28
  1
*D412
  0
LINE
  5
388A
330
3887
100
AcDbEntity
  8
寸法
  6
Continuous
 62
     0
370
    -2
100
AcDbLine
 10
152.2572186192101
 20
42.58847353903031
 30
0.0
 11
153.4234662753075
 21
41.6451462338773
 31
0.0
  0
MTEXT
  5
388B
330
3887
100
AcDbEntity
  8
寸法
  6
Continuous
 62
     0
100
AcDbMText
 10
149.4178159753036
 20
45.2950517048275
 30
0.0
 40
2.0
 41
0.0
 46
0.0
 71
     5
 72
     1
  1
R1
 73
     1
 44
1.0
  0
SOLID
  5
388C
330
3887
100
AcDbEntity
  8
寸法
 62
     0
100
AcDbTrace
 10
152.4144398367355
 20
42.78284814837988
 30
0.0
 11
152.0999974016846
 21
42.39409892968074
 31
0.0
 12
151.0909709631126
 22
43.53180084418332
 32
0.0
 13
151.0909709631126
 23
43.53180084418332
 33
0.0
  0
POINT
  5
388D
330
3887
100
AcDbEntity
  8
Defpoints
 62
     0
100
AcDbPoint
 10
151.0909709631126
 20
43.53180084418332
 30
0.0
  0
POINT
  5
388E
330
3887
100
AcDbEntity
  8
Defpoints
 62
     0
100
AcDbPoint
 10
150.3134725257143
 20
44.16068571428534
 30
0.0
  0
ENDBLK
  5
3889
330
3887
100
AcDbEntity
  8
0
100
AcDbBlockEnd
  0
BLOCK
  5
38B0
330
38AF
100
AcDbEntity
  8
0
100
AcDbBlockBegin
  2
*D29
 70
     1
 10
0.0
 20
0.0
 30
0.0
  3
*D29
  1
*D414
  0
LINE
  5
38B2
330
38AF
100
AcDbEntity
  8
TOS_M1
  6
Continuous
 62
     0
370
    -2
100
AcDbLine
 10
163.3134725257143
 20
94.80086828353316
 30
0.0
 11
163.3134725257143
 21
92.83266754558821
 31
0.0
  0
LINE
  5
38B3
330
38AF
100
AcDbEntity
  8
TOS_M1
  6
Continuous
 62
     0
370
    -2
100
AcDbLine
 10
173.3134725257143
 20
97.20086828353307
 30
0.0
 11
173.3134725257143
 21
92.83266754558821
 31
0.0
  0
LINE
  5
38B4
330
38AF
100
AcDbEntity
  8
TOS_M1
  6
Continuous
 62
     0
370
    -2
100
AcDbLine
 10
164.8134725257143
 20
94.08266754558821
 30
0.0
 11
166.2411652958112
 21
94.08266754558821
 31
0.0
  0
LINE
  5
38B5
330
38AF
100
AcDbEntity
  8
TOS_M1
  6
Continuous
 62
     0
370
    -2
100
AcDbLine
 10
171.8134725257143
 20
94.08266754558821
 30
0.0
 11
169.8244986291445
 21
94.08266754558821
 31
0.0
  0
SOLID
  5
38B6
330
38AF
100
AcDbEntity
  8
TOS_M1
 62
     0
100
AcDbTrace
 10
164.8134725257143
 20
94.33266754558821
 30
0.0
 11
164.8134725257143
 21
93.83266754558821
 31
0.0
 12
163.3134725257143
 22
94.08266754558821
 32
0.0
 13
163.3134725257143
 23
94.08266754558821
 33
0.0
  0
SOLID
  5
38B7
330
38AF
100
AcDbEntity
  8
TOS_M1
 62
     0
100
AcDbTrace
 10
171.8134725257143
 20
93.83266754558821
 30
0.0
 11
171.8134725257143
 21
94.33266754558821
 31
0.0
 12
173.3134725257143
 22
94.08266754558821
 32
0.0
 13
173.3134725257143
 23
94.08266754558821
 33
0.0
  0
MTEXT
  5
38B8
330
38AF
100
AcDbEntity
  8
TOS_M1
  6
Continuous
 62
     0
100
AcDbMText
 10
168.0328319624778
 20
94.08266754558821
 30
0.0
 40
2.0
 41
0.0
 46
0.0
 71
     5
 72
     1
  1
10
 73
     1
 44
1.0
  0
POINT
  5
38B9
330
38AF
100
AcDbEntity
  8
Defpoints
 62
     0
100
AcDbPoint
 10
163.3134725257143
 20
95.42586828353316
 30
0.0
  0
POINT
  5
38BA
330
38AF
100
AcDbEntity
  8
Defpoints
 62
     0
100
AcDbPoint
 10
173.3134725257143
 20
97.82586828353307
 30
0.0
  0
POINT
  5
38BB
330
38AF
100
AcDbEntity
  8
Defpoints
 62
     0
100
AcDbPoint
 10
173.3134725257143
 20
94.08266754558821
 30
0.0
  0
ENDBLK
  5
38B1
330
38AF
100
AcDbEntity
  8
0
100
AcDbBlockEnd
  0
BLOCK
  5
38C4
330
38C3
100
AcDbEntity
  8
0
100
AcDbBlockBegin
  2
*D30
 70
     1
 10
0.0
 20
0.0
 30
0.0
  3
*D30
  1
*D415
  0
LINE
  5
38C6
330
38C3
100
AcDbEntity
  8
TOS_M1
  6
Continuous
 62
     0
370
    -2
100
AcDbLine
 10
163.3134725257143
 20
39.03568571428536
 30
0.0
 11
163.3134725257143
 21
37.06748497634041
 31
0.0
  0
LINE
  5
38C7
330
38C3
100
AcDbEntity
  8
TOS_M1
  6
Continuous
 62
     0
370
    -2
100
AcDbLine
 10
173.3134725257143
 20
41.43568571428527
 30
0.0
 11
173.3134725257143
 21
37.06748497634041
 31
0.0
  0
LINE
  5
38C8
330
38C3
100
AcDbEntity
  8
TOS_M1
  6
Continuous
 62
     0
370
    -2
100
AcDbLine
 10
164.8134725257143
 20
38.31748497634041
 30
0.0
 11
166.2411652958112
 21
38.31748497634041
 31
0.0
  0
LINE
  5
38C9
330
38C3
100
AcDbEntity
  8
TOS_M1
  6
Continuous
 62
     0
370
    -2
100
AcDbLine
 10
171.8134725257143
 20
38.31748497634041
 30
0.0
 11
169.8244986291445
 21
38.31748497634041
 31
0.0
  0
SOLID
  5
38CA
330
38C3
100
AcDbEntity
  8
TOS_M1
 62
     0
100
AcDbTrace
 10
164.8134725257143
 20
38.56748497634041
 30
0.0
 11
164.8134725257143
 21
38.06748497634041
 31
0.0
 12
163.3134725257143
 22
38.31748497634041
 32
0.0
 13
163.3134725257143
 23
38.31748497634041
 33
0.0
  0
SOLID
  5
38CB
330
38C3
100
AcDbEntity
  8
TOS_M1
 62
     0
100
AcDbTrace
 10
171.8134725257143
 20
38.06748497634041
 30
0.0
 11
171.8134725257143
 21
38.56748497634041
 31
0.0
 12
173.3134725257143
 22
38.31748497634041
 32
0.0
 13
173.3134725257143
 23
38.31748497634041
 33
0.0
  0
MTEXT
  5
38CC
330
38C3
100
AcDbEntity
  8
TOS_M1
  6
Continuous
 62
     0
100
AcDbMText
 10
168.0328319624778
 20
38.31748497634041
 30
0.0
 40
2.0
 41
0.0
 46
0.0
 71
     5
 72
     1
  1
10
 73
     1
 44
1.0
  0
POINT
  5
38CD
330
38C3
100
AcDbEntity
  8
Defpoints
 62
     0
100
AcDbPoint
 10
163.3134725257143
 20
39.66068571428536
 30
0.0
  0
POINT
  5
38CE
330
38C3
100
AcDbEntity
  8
Defpoints
 62
     0
100
AcDbPoint
 10
173.3134725257143
 20
42.06068571428527
 30
0.0
  0
POINT
  5
38CF
330
38C3
100
AcDbEntity
  8
Defpoints
 62
     0
100
AcDbPoint
 10
173.3134725257143
 20
38.31748497634041
 30
0.0
  0
ENDBLK
  5
38C5
330
38C3
100
AcDbEntity
  8
0
100
AcDbBlockEnd
  0
BLOCK
  5
38D5
330
38D4
100
AcDbEntity
  8
0
100
AcDbBlockBegin
  2
*D31
 70
     1
 10
0.0
 20
0.0
 30
0.0
  3
*D31
  1
*D416
  0
LINE
  5
38D7
330
38D4
100
AcDbEntity
  8
寸法
  6
Continuous
 62
     0
370
    -2
100
AcDbLine
 10
127.1384725257143
 20
93.42586828353313
 30
0.0
 11
129.876319082423
 21
93.42586828353313
 31
0.0
  0
LINE
  5
38D8
330
38D4
100
AcDbEntity
  8
寸法
  6
Continuous
 62
     0
370
    -2
100
AcDbLine
 10
128.5384725257143
 20
97.42586828353313
 30
0.0
 11
129.876319082423
 21
97.42586828353313
 31
0.0
  0
SOLID
  5
38D9
330
38D4
100
AcDbEntity
  8
寸法
 62
     0
100
AcDbTrace
 10
128.376319082423
 20
94.92586828353313
 30
0.0
 11
128.876319082423
 21
94.92586828353313
 31
0.0
 12
128.626319082423
 22
93.42586828353313
 32
0.0
 13
128.626319082423
 23
93.42586828353313
 33
0.0
  0
SOLID
  5
38DA
330
38D4
100
AcDbEntity
  8
寸法
 62
     0
100
AcDbTrace
 10
128.876319082423
 20
95.92586828353313
 30
0.0
 11
128.376319082423
 21
95.92586828353313
 31
0.0
 12
128.626319082423
 22
97.42586828353313
 32
0.0
 13
128.626319082423
 23
97.42586828353313
 33
0.0
  0
MTEXT
  5
38DB
330
38D4
100
AcDbEntity
  8
寸法
  6
Continuous
 62
     0
100
AcDbMText
 10
129.8841309333944
 20
95.38428775058276
 30
0.0
 40
2.0
 41
0.0
 46
0.0
 71
     5
 72
     1
  1
4
 73
     1
 44
1.0
  0
POINT
  5
38DC
330
38D4
100
AcDbEntity
  8
Defpoints
 62
     0
100
AcDbPoint
 10
126.5134725257143
 20
93.42586828353313
 30
0.0
  0
POINT
  5
38DD
330
38D4
100
AcDbEntity
  8
Defpoints
 62
     0
100
AcDbPoint
 10
127.9134725257143
 20
97.42586828353313
 30
0.0
  0
POINT
  5
38DE
330
38D4
100
AcDbEntity
  8
Defpoints
 62
     0
100
AcDbPoint
 10
128.626319082423
 20
97.42586828353313
 30
0.0
  0
ENDBLK
  5
38D6
330
38D4
100
AcDbEntity
  8
0
100
AcDbBlockEnd
  0
BLOCK
  5
38E5
330
38E4
100
AcDbEntity
  8
0
100
AcDbBlockBegin
  2
*D32
 70
     1
 10
0.0
 20
0.0
 30
0.0
  3
*D32
  1
*D417
  0
LINE
  5
38E7
330
38E4
100
AcDbEntity
  8
寸法
  6
Continuous
 62
     0
370
    -2
100
AcDbLine
 10
126.5134725257143
 20
92.80086828353313
 30
0.0
 11
126.5134725257143
 21
89.32080823588558
 31
0.0
  0
LINE
  5
38E8
330
38E4
100
AcDbEntity
  8
寸法
  6
Continuous
 62
     0
370
    -2
100
AcDbLine
 10
163.3134725257143
 20
94.80086828353316
 30
0.0
 11
163.3134725257143
 21
89.32080823588558
 31
0.0
  0
LINE
  5
38E9
330
38E4
100
AcDbEntity
  8
寸法
  6
Continuous
 62
     0
370
    -2
100
AcDbLine
 10
128.0134725257143
 20
90.57080823588558
 30
0.0
 11
148.2742008839316
 21
90.57080823588558
 31
0.0
  0
LINE
  5
38EA
330
38E4
100
AcDbEntity
  8
寸法
  6
Continuous
 62
     0
370
    -2
100
AcDbLine
 10
161.8134725257143
 20
90.57080823588558
 30
0.0
 11
155.5242008839316
 21
90.57080823588558
 31
0.0
  0
SOLID
  5
38EB
330
38E4
100
AcDbEntity
  8
寸法
 62
     0
100
AcDbTrace
 10
128.0134725257143
 20
90.82080823588558
 30
0.0
 11
128.0134725257143
 21
90.32080823588558
 31
0.0
 12
126.5134725257143
 22
90.57080823588558
 32
0.0
 13
126.5134725257143
 23
90.57080823588558
 33
0.0
  0
SOLID
  5
38EC
330
38E4
100
AcDbEntity
  8
寸法
 62
     0
100
AcDbTrace
 10
161.8134725257143
 20
90.32080823588558
 30
0.0
 11
161.8134725257143
 21
90.82080823588558
 31
0.0
 12
163.3134725257143
 22
90.57080823588558
 32
0.0
 13
163.3134725257143
 23
90.57080823588558
 33
0.0
  0
MTEXT
  5
38ED
330
38E4
100
AcDbEntity
  8
寸法
  6
Continuous
 62
     0
100
AcDbMText
 10
151.8992008839316
 20
90.57080823588558
 30
0.0
 40
2.0
 41
0.0
 46
0.0
 71
     5
 72
     1
  1
36.8
 73
     1
 44
1.0
  0
POINT
  5
38EE
330
38E4
100
AcDbEntity
  8
Defpoints
 62
     0
100
AcDbPoint
 10
126.5134725257143
 20
93.42586828353313
 30
0.0
  0
POINT
  5
38EF
330
38E4
100
AcDbEntity
  8
Defpoints
 62
     0
100
AcDbPoint
 10
163.3134725257143
 20
95.42586828353316
 30
0.0
  0
POINT
  5
38F0
330
38E4
100
AcDbEntity
  8
Defpoints
 62
     0
100
AcDbPoint
 10
163.3134725257143
 20
90.57080823588558
 30
0.0
  0
ENDBLK
  5
38E6
330
38E4
100
AcDbEntity
  8
0
100
AcDbBlockEnd
  0
BLOCK
  5
3936
330
3935
100
AcDbEntity
  8
0
100
AcDbBlockBegin
  2
*D33
 70
     1
 10
0.0
 20
0.0
 30
0.0
  3
*D33
  1
*D284
  0
LINE
  5
3937
330
3935
100
AcDbEntity
  8
寸法
  6
Continuous
 62
     0
370
    -2
100
AcDbLine
 10
6.338225229059205
 20
15.97092122948828
 30
0.0
 11
0.0000000000000004
 21
15.97092122948828
 31
0.0
  0
LINE
  5
3938
330
3935
100
AcDbEntity
  8
寸法
  6
Continuous
 62
     0
370
    -2
100
AcDbLine
 10
6.338225229059205
 20
6.970921229488312
 30
0.0
 11
0.0
 21
6.970921229488312
 31
0.0
  0
LINE
  5
3939
330
3935
100
AcDbEntity
  8
寸法
  6
Continuous
 62
     0
370
    -2
100
AcDbLine
 10
1.25
 20
14.47092122948828
 30
0.0
 11
1.25
 21
13.09592122948831
 31
0.0
  0
LINE
  5
393A
330
3935
100
AcDbEntity
  8
寸法
  6
Continuous
 62
     0
370
    -2
100
AcDbLine
 10
1.25
 20
8.470921229488312
 30
0.0
 11
1.25
 21
9.845921229488312
 31
0.0
  0
SOLID
  5
393B
330
3935
100
AcDbEntity
  8
寸法
 62
     0
100
AcDbTrace
 10
1.5
 20
14.47092122948828
 30
0.0
 11
1.0
 21
14.47092122948828
 31
0.0
 12
1.25
 22
15.97092122948828
 32
0.0
 13
1.25
 23
15.97092122948828
 33
0.0
  0
SOLID
  5
393C
330
3935
100
AcDbEntity
  8
寸法
 62
     0
100
AcDbTrace
 10
1.0
 20
8.470921229488312
 30
0.0
 11
1.5
 21
8.470921229488312
 31
0.0
 12
1.25
 22
6.970921229488312
 32
0.0
 13
1.25
 23
6.970921229488312
 33
0.0
  0
MTEXT
  5
393D
330
3935
100
AcDbEntity
  8
寸法
  6
Continuous
 62
     0
100
AcDbMText
 10
1.25
 20
11.47092122948831
 30
0.0
 40
2.0
 41
0.0
 46
0.0
 71
     5
 72
     1
  1
9
 73
     1
 44
1.0
  0
POINT
  5
393E
330
3935
100
AcDbEntity
  8
Defpoints
 62
     0
100
AcDbPoint
 10
6.963225229059205
 20
15.97092122948828
 30
0.0
  0
POINT
  5
393F
330
3935
100
AcDbEntity
  8
Defpoints
 62
     0
100
AcDbPoint
 10
6.963225229059205
 20
6.970921229488312
 30
0.0
  0
POINT
  5
3940
330
3935
100
AcDbEntity
  8
Defpoints
 62
     0
100
AcDbPoint
 10
1.25
 20
6.970921229488312
 30
0.0
  0
ENDBLK
  5
3941
330
3935
100
AcDbEntity
  8
0
100
AcDbBlockEnd
  0
BLOCK
  5
3944
330
3943
100
AcDbEntity
  8
0
100
AcDbBlockBegin
  2
*D34
 70
     1
 10
0.0
 20
0.0
 30
0.0
  3
*D34
  1
*D285
  0
LINE
  5
3945
330
3943
100
AcDbEntity
  8
寸法
  6
Continuous
 62
     0
370
    -2
100
AcDbLine
 10
6.963225229059205
 20
16.59592122948828
 30
0.0
 11
6.963225229059205
 21
23.55974354215508
 31
0.0
  0
LINE
  5
3946
330
3943
100
AcDbEntity
  8
寸法
  6
Continuous
 62
     0
370
    -2
100
AcDbLine
 10
34.9632252290592
 20
16.59592122948828
 30
0.0
 11
34.9632252290592
 21
23.55974354215508
 31
0.0
  0
LINE
  5
3947
330
3943
100
AcDbEntity
  8
寸法
  6
Continuous
 62
     0
370
    -2
100
AcDbLine
 10
8.463225229059205
 20
22.30974354215508
 30
0.0
 11
17.99602407254423
 21
22.30974354215508
 31
0.0
  0
LINE
  5
3948
330
3943
100
AcDbEntity
  8
寸法
  6
Continuous
 62
     0
370
    -2
100
AcDbLine
 10
33.4632252290592
 20
22.30974354215508
 30
0.0
 11
22.57935740587757
 21
22.30974354215508
 31
0.0
  0
SOLID
  5
3949
330
3943
100
AcDbEntity
  8
寸法
 62
     0
100
AcDbTrace
 10
8.463225229059205
 20
22.55974354215508
 30
0.0
 11
8.463225229059205
 21
22.05974354215508
 31
0.0
 12
6.963225229059205
 22
22.30974354215508
 32
0.0
 13
6.963225229059205
 23
22.30974354215508
 33
0.0
  0
SOLID
  5
394A
330
3943
100
AcDbEntity
  8
寸法
 62
     0
100
AcDbTrace
 10
33.4632252290592
 20
22.05974354215508
 30
0.0
 11
33.4632252290592
 21
22.55974354215508
 31
0.0
 12
34.9632252290592
 22
22.30974354215508
 32
0.0
 13
34.9632252290592
 23
22.30974354215508
 33
0.0
  0
MTEXT
  5
394B
330
3943
100
AcDbEntity
  8
寸法
  6
Continuous
 62
     0
100
AcDbMText
 10
20.2876907392109
 20
22.30974354215508
 30
0.0
 40
2.0
 41
0.0
 46
0.0
 71
     5
 72
     1
  1
28
 73
     1
 44
1.0
  0
POINT
  5
394C
330
3943
100
AcDbEntity
  8
Defpoints
 62
     0
100
AcDbPoint
 10
6.963225229059205
 20
15.97092122948828
 30
0.0
  0
POINT
  5
394D
330
3943
100
AcDbEntity
  8
Defpoints
 62
     0
100
AcDbPoint
 10
34.9632252290592
 20
15.97092122948828
 30
0.0
  0
POINT
  5
394E
330
3943
100
AcDbEntity
  8
Defpoints
 62
     0
100
AcDbPoint
 10
34.9632252290592
 20
22.30974354215508
 30
0.0
  0
ENDBLK
  5
394F
330
3943
100
AcDbEntity
  8
0
100
AcDbBlockEnd
  0
BLOCK
  5
3952
330
3951
100
AcDbEntity
  8
0
100
AcDbBlockBegin
  2
*D35
 70
     1
 10
0.0
 20
0.0
 30
0.0
  3
*D35
  1
*D286
  0
LINE
  5
3953
330
3951
100
AcDbEntity
  8
寸法
  6
Continuous
 62
     0
370
    -2
100
AcDbLine
 10
8.163225229059208
 20
6.345921229488312
 30
0.0
 11
8.163225229059208
 21
2.297960614744156
 31
0.0
  0
LINE
  5
3954
330
3951
100
AcDbEntity
  8
寸法
  6
Continuous
 62
     0
370
    -2
100
AcDbLine
 10
6.963225229059205
 20
6.345921229488312
 30
0.0
 11
6.963225229059205
 21
2.297960614744156
 31
0.0
  0
LINE
  5
3955
330
3951
100
AcDbEntity
  8
寸法
  6
Continuous
 62
     0
370
    -2
100
AcDbLine
 10
9.663225229059208
 20
3.547960614744156
 30
0.0
 11
11.16322522905921
 21
3.547960614744156
 31
0.0
  0
LINE
  5
3956
330
3951
100
AcDbEntity
  8
寸法
  6
Continuous
 62
     0
370
    -2
100
AcDbLine
 10
5.463225229059205
 20
3.547960614744156
 30
0.0
 11
3.963225229059205
 21
3.547960614744156
 31
0.0
  0
SOLID
  5
3957
330
3951
100
AcDbEntity
  8
寸法
 62
     0
100
AcDbTrace
 10
9.663225229059208
 20
3.797960614744156
 30
0.0
 11
9.663225229059208
 21
3.297960614744156
 31
0.0
 12
8.163225229059208
 22
3.547960614744156
 32
0.0
 13
8.163225229059208
 23
3.547960614744156
 33
0.0
  0
SOLID
  5
3958
330
3951
100
AcDbEntity
  8
寸法
 62
     0
100
AcDbTrace
 10
5.463225229059205
 20
3.297960614744156
 30
0.0
 11
5.463225229059205
 21
3.797960614744156
 31
0.0
 12
6.963225229059205
 22
3.547960614744156
 32
0.0
 13
6.963225229059205
 23
3.547960614744156
 33
0.0
  0
MTEXT
  5
3959
330
3951
100
AcDbEntity
  8
寸法
  6
Continuous
 62
     0
100
AcDbMText
 10
7.628745918282604
 20
1.0
 30
0.0
 40
2.0
 41
0.0
 46
0.0
 71
     5
 72
     1
  1
1.2
 73
     1
 44
1.0
  0
POINT
  5
395A
330
3951
100
AcDbEntity
  8
Defpoints
 62
     0
100
AcDbPoint
 10
8.163225229059208
 20
6.970921229488312
 30
0.0
  0
POINT
  5
395B
330
3951
100
AcDbEntity
  8
Defpoints
 62
     0
100
AcDbPoint
 10
6.963225229059205
 20
6.970921229488312
 30
0.0
  0
POINT
  5
395C
330
3951
100
AcDbEntity
  8
Defpoints
 62
     0
100
AcDbPoint
 10
6.963225229059205
 20
3.547960614744156
 30
0.0
  0
ENDBLK
  5
395D
330
3951
100
AcDbEntity
  8
0
100
AcDbBlockEnd
  0
BLOCK
  5
3960
330
395F
100
AcDbEntity
  8
0
100
AcDbBlockBegin
  2
*D36
 70
     1
 10
0.0
 20
0.0
 30
0.0
  3
*D36
  1
*D289
  0
LINE
  5
3961
330
395F
100
AcDbEntity
  8
寸法
  6
Continuous
 62
     0
370
    -2
100
AcDbLine
 10
35.5882252290592
 20
15.97092122948828
 30
0.0
 11
39.75823121698461
 21
15.97092122948828
 31
0.0
  0
LINE
  5
3962
330
395F
100
AcDbEntity
  8
寸法
  6
Continuous
 62
     0
370
    -2
100
AcDbLine
 10
35.44822522905919
 20
12.47092122948834
 30
0.0
 11
39.75823121698461
 21
12.47092122948834
 31
0.0
  0
LINE
  5
3963
330
395F
100
AcDbEntity
  8
寸法
  6
Continuous
 62
     0
370
    -2
100
AcDbLine
 10
38.50823121698461
 20
17.47092122948828
 30
0.0
 11
38.50823121698461
 21
18.97092122948828
 31
0.0
  0
LINE
  5
3964
330
395F
100
AcDbEntity
  8
寸法
  6
Continuous
 62
     0
370
    -2
100
AcDbLine
 10
38.50823121698461
 20
10.97092122948834
 30
0.0
 11
38.50823121698461
 21
9.47092122948834
 31
0.0
  0
SOLID
  5
3965
330
395F
100
AcDbEntity
  8
寸法
 62
     0
100
AcDbTrace
 10
38.25823121698461
 20
17.47092122948828
 30
0.0
 11
38.75823121698461
 21
17.47092122948828
 31
0.0
 12
38.50823121698461
 22
15.97092122948828
 32
0.0
 13
38.50823121698461
 23
15.97092122948828
 33
0.0
  0
SOLID
  5
3966
330
395F
100
AcDbEntity
  8
寸法
 62
     0
100
AcDbTrace
 10
38.75823121698461
 20
10.97092122948834
 30
0.0
 11
38.25823121698461
 21
10.97092122948834
 31
0.0
 12
38.50823121698461
 22
12.47092122948834
 32
0.0
 13
38.50823121698461
 23
12.47092122948834
 33
0.0
  0
MTEXT
  5
3967
330
395F
100
AcDbEntity
  8
寸法
  6
Continuous
 62
     0
100
AcDbMText
 10
41.54761148872801
 20
14.13109524051798
 30
0.0
 40
2.0
 41
0.0
 46
0.0
 71
     5
 72
     1
  1
3.5
 73
     1
 44
1.0
  0
POINT
  5
3968
330
395F
100
AcDbEntity
  8
Defpoints
 62
     0
100
AcDbPoint
 10
34.9632252290592
 20
15.97092122948828
 30
0.0
  0
POINT
  5
3969
330
395F
100
AcDbEntity
  8
Defpoints
 62
     0
100
AcDbPoint
 10
34.82322522905919
 20
12.47092122948834
 30
0.0
  0
POINT
  5
396A
330
395F
100
AcDbEntity
  8
Defpoints
 62
     0
100
AcDbPoint
 10
38.50823121698461
 20
12.47092122948834
 30
0.0
  0
ENDBLK
  5
396B
330
395F
100
AcDbEntity
  8
0
100
AcDbBlockEnd
  0
BLOCK
  5
3999
330
3998
100
AcDbEntity
  8
0
100
AcDbBlockBegin
  2
*D37
 70
     1
 10
0.0
 20
0.0
 30
0.0
  3
*D37
  1
*D395
  0
LINE
  5
399A
330
3998
100
AcDbEntity
  8
寸法
  6
Continuous
 62
     0
370
    -2
100
AcDbLine
 10
34.9632252290592
 20
16.59592122948828
 30
0.0
 11
34.9632252290592
 21
23.55974354215508
 31
0.0
  0
LINE
  5
399B
330
3998
100
AcDbEntity
  8
寸法
  6
Continuous
 62
     0
370
    -2
100
AcDbLine
 10
54.9632252290592
 20
11.99592122948825
 30
0.0
 11
54.9632252290592
 21
23.55974354215508
 31
0.0
  0
LINE
  5
399C
330
3998
100
AcDbEntity
  8
寸法
  6
Continuous
 62
     0
370
    -2
100
AcDbLine
 10
36.4632252290592
 20
22.30974354215508
 30
0.0
 11
42.8382252290592
 21
22.30974354215508
 31
0.0
  0
LINE
  5
399D
330
3998
100
AcDbEntity
  8
寸法
  6
Continuous
 62
     0
370
    -2
100
AcDbLine
 10
53.4632252290592
 20
22.30974354215508
 30
0.0
 11
47.0882252290592
 21
22.30974354215508
 31
0.0
  0
SOLID
  5
399E
330
3998
100
AcDbEntity
  8
寸法
 62
     0
100
AcDbTrace
 10
36.4632252290592
 20
22.55974354215508
 30
0.0
 11
36.4632252290592
 21
22.05974354215508
 31
0.0
 12
34.9632252290592
 22
22.30974354215508
 32
0.0
 13
34.9632252290592
 23
22.30974354215508
 33
0.0
  0
SOLID
  5
399F
330
3998
100
AcDbEntity
  8
寸法
 62
     0
100
AcDbTrace
 10
53.4632252290592
 20
22.05974354215508
 30
0.0
 11
53.4632252290592
 21
22.55974354215508
 31
0.0
 12
54.9632252290592
 22
22.30974354215508
 32
0.0
 13
54.9632252290592
 23
22.30974354215508
 33
0.0
  0
MTEXT
  5
39A0
330
3998
100
AcDbEntity
  8
寸法
  6
Continuous
 62
     0
100
AcDbMText
 10
44.9632252290592
 20
22.30974354215508
 30
0.0
 40
2.0
 41
0.0
 46
0.0
 71
     5
 72
     1
  1
20
 73
     1
 44
1.0
  0
POINT
  5
39A1
330
3998
100
AcDbEntity
  8
Defpoints
 62
     0
100
AcDbPoint
 10
34.9632252290592
 20
15.97092122948828
 30
0.0
  0
POINT
  5
39A2
330
3998
100
AcDbEntity
  8
Defpoints
 62
     0
100
AcDbPoint
 10
54.9632252290592
 20
11.37092122948825
 30
0.0
  0
POINT
  5
39A3
330
3998
100
AcDbEntity
  8
Defpoints
 62
     0
100
AcDbPoint
 10
54.9632252290592
 20
22.30974354215508
 30
0.0
  0
ENDBLK
  5
39A4
330
3998
100
AcDbEntity
  8
0
100
AcDbBlockEnd
  0
BLOCK
  5
39A7
330
39A6
100
AcDbEntity
  8
0
100
AcDbBlockBegin
  2
*D38
 70
     1
 10
0.0
 20
0.0
 30
0.0
  3
*D38
  1
*D396
  0
LINE
  5
39A8
330
39A6
100
AcDbEntity
  8
寸法
  6
Continuous
 62
     0
370
    -2
100
AcDbLine
 10
6.963225229059205
 20
17.22092122948828
 30
0.0
 11
6.963225229059205
 21
28.09959569405387
 31
0.0
  0
LINE
  5
39A9
330
39A6
100
AcDbEntity
  8
寸法
  6
Continuous
 62
     0
370
    -2
100
AcDbLine
 10
54.9632252290592
 20
11.99592122948825
 30
0.0
 11
54.9632252290592
 21
28.09959569405387
 31
0.0
  0
LINE
  5
39AA
330
39A6
100
AcDbEntity
  8
寸法
  6
Continuous
 62
     0
370
    -2
100
AcDbLine
 10
8.463225229059205
 20
26.84959569405387
 30
0.0
 11
28.67155856239254
 21
26.84959569405387
 31
0.0
  0
LINE
  5
39AB
330
39A6
100
AcDbEntity
  8
寸法
  6
Continuous
 62
     0
370
    -2
100
AcDbLine
 10
53.4632252290592
 20
26.84959569405387
 30
0.0
 11
33.25489189572588
 21
26.84959569405387
 31
0.0
  0
SOLID
  5
39AC
330
39A6
100
AcDbEntity
  8
寸法
 62
     0
100
AcDbTrace
 10
8.463225229059205
 20
27.09959569405387
 30
0.0
 11
8.463225229059205
 21
26.59959569405387
 31
0.0
 12
6.963225229059205
 22
26.84959569405387
 32
0.0
 13
6.963225229059205
 23
26.84959569405387
 33
0.0
  0
SOLID
  5
39AD
330
39A6
100
AcDbEntity
  8
寸法
 62
     0
100
AcDbTrace
 10
53.4632252290592
 20
26.59959569405387
 30
0.0
 11
53.4632252290592
 21
27.09959569405387
 31
0.0
 12
54.9632252290592
 22
26.84959569405387
 32
0.0
 13
54.9632252290592
 23
26.84959569405387
 33
0.0
  0
MTEXT
  5
39AE
330
39A6
100
AcDbEntity
  8
寸法
  6
Continuous
 62
     0
100
AcDbMText
 10
30.9632252290592
 20
26.84959569405387
 30
0.0
 40
2.0
 41
0.0
 46
0.0
 71
     5
 72
     1
  1
48
 73
     1
 44
1.0
  0
POINT
  5
39AF
330
39A6
100
AcDbEntity
  8
Defpoints
 62
     0
100
AcDbPoint
 10
6.963225229059205
 20
16.59592122948828
 30
0.0
  0
POINT
  5
39B0
330
39A6
100
AcDbEntity
  8
Defpoints
 62
     0
100
AcDbPoint
 10
54.9632252290592
 20
11.37092122948825
 30
0.0
  0
POINT
  5
39B1
330
39A6
100
AcDbEntity
  8
Defpoints
 62
     0
100
AcDbPoint
 10
54.9632252290592
 20
26.84959569405387
 30
0.0
  0
ENDBLK
  5
39B2
330
39A6
100
AcDbEntity
  8
0
100
AcDbBlockEnd
  0
BLOCK
  5
39B5
330
39B4
100
AcDbEntity
  8
0
100
AcDbBlockBegin
  2
*D39
 70
     1
 10
0.0
 20
0.0
 30
0.0
  3
*D39
  1
*D397
  0
LINE
  5
39B6
330
39B4
100
AcDbEntity
  8
寸法
  6
Continuous
 62
     0
370
    -2
100
AcDbLine
 10
55.1882252290594
 20
11.77092122948835
 30
0.0
 11
60.5864155147331
 21
11.77092122948835
 31
0.0
  0
LINE
  5
39B7
330
39B4
100
AcDbEntity
  8
寸法
  6
Continuous
 62
     0
370
    -2
100
AcDbLine
 10
55.1882252290592
 20
10.97092122948834
 30
0.0
 11
60.5864155147331
 21
10.97092122948834
 31
0.0
  0
LINE
  5
39B8
330
39B4
100
AcDbEntity
  8
寸法
  6
Continuous
 62
     0
370
    -2
100
AcDbLine
 10
59.3364155147331
 20
13.27092122948835
 30
0.0
 11
59.3364155147331
 21
14.77092122948835
 31
0.0
  0
LINE
  5
39B9
330
39B4
100
AcDbEntity
  8
寸法
  6
Continuous
 62
     0
370
    -2
100
AcDbLine
 10
59.3364155147331
 20
9.47092122948834
 30
0.0
 11
59.3364155147331
 21
7.97092122948834
 31
0.0
  0
SOLID
  5
39BA
330
39B4
100
AcDbEntity
  8
寸法
 62
     0
100
AcDbTrace
 10
59.0864155147331
 20
13.27092122948835
 30
0.0
 11
59.5864155147331
 21
13.27092122948835
 31
0.0
 12
59.3364155147331
 22
11.77092122948835
 32
0.0
 13
59.3364155147331
 23
11.77092122948835
 33
0.0
  0
SOLID
  5
39BB
330
39B4
100
AcDbEntity
  8
寸法
 62
     0
100
AcDbTrace
 10
59.5864155147331
 20
9.47092122948834
 30
0.0
 11
59.0864155147331
 21
9.47092122948834
 31
0.0
 12
59.3364155147331
 22
10.97092122948834
 32
0.0
 13
59.3364155147331
 23
10.97092122948834
 33
0.0
  0
MTEXT
  5
39BC
330
39B4
100
AcDbEntity
  8
寸法
  6
Continuous
 62
     0
100
AcDbMText
 10
63.24419014983179
 20
11.48643967939059
 30
0.0
 40
2.0
 41
0.0
 46
0.0
 71
     5
 72
     1
  1
0.8
 73
     1
 44
1.0
  0
POINT
  5
39BD
330
39B4
100
AcDbEntity
  8
Defpoints
 62
     0
100
AcDbPoint
 10
54.5632252290594
 20
11.77092122948835
 30
0.0
  0
POINT
  5
39BE
330
39B4
100
AcDbEntity
  8
Defpoints
 62
     0
100
AcDbPoint
 10
54.5632252290592
 20
10.97092122948834
 30
0.0
  0
POINT
  5
39BF
330
39B4
100
AcDbEntity
  8
Defpoints
 62
     0
100
AcDbPoint
 10
59.3364155147331
 20
10.97092122948834
 30
0.0
  0
ENDBLK
  5
39C0
330
39B4
100
AcDbEntity
  8
0
100
AcDbBlockEnd
  0
BLOCK
  5
39C7
330
39C6
100
AcDbEntity
  8
0
100
AcDbBlockBegin
  2
*D40
 70
     1
 10
0.0
 20
0.0
 30
0.0
  3
*D40
  1
*D416
  0
LINE
  5
39C8
330
39C6
100
AcDbEntity
  8
寸法
  6
Continuous
 62
     0
370
    -2
100
AcDbLine
 10
8.788225229059208
 20
6.970921229488312
 30
0.0
 11
11.52607178576791
 21
6.970921229488312
 31
0.0
  0
LINE
  5
39C9
330
39C6
100
AcDbEntity
  8
寸法
  6
Continuous
 62
     0
370
    -2
100
AcDbLine
 10
10.1882252290592
 20
10.97092122948831
 30
0.0
 11
11.52607178576791
 21
10.97092122948831
 31
0.0
  0
LINE
  5
39CA
330
39C6
100
AcDbEntity
  8
寸法
  6
Continuous
 62
     0
370
    -2
100
AcDbLine
 10
10.27607178576791
 20
6.970921229488312
 30
0.0
 11
10.27607178576791
 21
5.470921229488312
 31
0.0
  0
LINE
  5
39CB
330
39C6
100
AcDbEntity
  8
寸法
  6
Continuous
 62
     0
370
    -2
100
AcDbLine
 10
10.27607178576791
 20
10.97092122948831
 30
0.0
 11
10.27607178576791
 21
12.47092122948831
 31
0.0
  0
SOLID
  5
39CC
330
39C6
100
AcDbEntity
  8
寸法
 62
     0
100
AcDbTrace
 10
10.02607178576791
 20
8.470921229488312
 30
0.0
 11
10.52607178576791
 21
8.470921229488312
 31
0.0
 12
10.27607178576791
 22
6.970921229488312
 32
0.0
 13
10.27607178576791
 23
6.970921229488312
 33
0.0
  0
SOLID
  5
39CD
330
39C6
100
AcDbEntity
  8
寸法
 62
     0
100
AcDbTrace
 10
10.52607178576791
 20
9.470921229488312
 30
0.0
 11
10.02607178576791
 21
9.470921229488312
 31
0.0
 12
10.27607178576791
 22
10.97092122948831
 32
0.0
 13
10.27607178576791
 23
10.97092122948831
 33
0.0
  0
MTEXT
  5
39CE
330
39C6
100
AcDbEntity
  8
寸法
  6
Continuous
 62
     0
100
AcDbMText
 10
11.5338836367393
 20
8.929340696537935
 30
0.0
 40
2.0
 41
0.0
 46
0.0
 71
     5
 72
     1
  1
4
 73
     1
 44
1.0
  0
POINT
  5
39CF
330
39C6
100
AcDbEntity
  8
Defpoints
 62
     0
100
AcDbPoint
 10
8.163225229059208
 20
6.970921229488312
 30
0.0
  0
POINT
  5
39D5
330
39C6
100
AcDbEntity
  8
Defpoints
 62
     0
100
AcDbPoint
 10
9.5632252290592
 20
10.97092122948831
 30
0.0
  0
POINT
  5
39D6
330
39C6
100
AcDbEntity
  8
Defpoints
 62
     0
100
AcDbPoint
 10
10.27607178576791
 20
10.97092122948831
 30
0.0
  0
ENDBLK
  5
39D0
330
39C6
100
AcDbEntity
  8
0
100
AcDbBlockEnd
  0
BLOCK
  5
3A12
330
3A11
100
AcDbEntity
  8
0
100
AcDbBlockBegin
  2
*D41
 70
     1
 10
0.0
 20
0.0
 30
0.0
  3
*D41
  1

  0
LINE
  5
3A14
330
3A11
100
AcDbEntity
  8
寸法
  6
Continuous
 62
     0
370
    -2
100
AcDbLine
 10
135.9038261360888
 20
39.47375286214121
 30
0.0
 11
129.5656009070296
 21
39.47375286214121
 31
0.0
  0
LINE
  5
3A15
330
3A11
100
AcDbEntity
  8
寸法
  6
Continuous
 62
     0
370
    -2
100
AcDbLine
 10
135.9038261360888
 20
30.47375286214124
 30
0.0
 11
129.5656009070296
 21
30.47375286214124
 31
0.0
  0
LINE
  5
3A16
330
3A11
100
AcDbEntity
  8
寸法
  6
Continuous
 62
     0
370
    -2
100
AcDbLine
 10
130.8156009070296
 20
37.97375286214121
 30
0.0
 11
130.8156009070296
 21
36.59875286214124
 31
0.0
  0
LINE
  5
3A17
330
3A11
100
AcDbEntity
  8
寸法
  6
Continuous
 62
     0
370
    -2
100
AcDbLine
 10
130.8156009070296
 20
31.97375286214124
 30
0.0
 11
130.8156009070296
 21
33.34875286214124
 31
0.0
  0
SOLID
  5
3A18
330
3A11
100
AcDbEntity
  8
寸法
 62
     0
100
AcDbTrace
 10
131.0656009070296
 20
37.97375286214121
 30
0.0
 11
130.5656009070296
 21
37.97375286214121
 31
0.0
 12
130.8156009070296
 22
39.47375286214121
 32
0.0
 13
130.8156009070296
 23
39.47375286214121
 33
0.0
  0
SOLID
  5
3A19
330
3A11
100
AcDbEntity
  8
寸法
 62
     0
100
AcDbTrace
 10
130.5656009070296
 20
31.97375286214124
 30
0.0
 11
131.0656009070296
 21
31.97375286214124
 31
0.0
 12
130.8156009070296
 22
30.47375286214124
 32
0.0
 13
130.8156009070296
 23
30.47375286214124
 33
0.0
  0
MTEXT
  5
3A1A
330
3A11
100
AcDbEntity
  8
寸法
  6
Continuous
 62
     0
100
AcDbMText
 10
130.8156009070296
 20
34.97375286214124
 30
0.0
 40
2.0
 41
0.0
 46
0.0
 71
     5
 72
     1
  1
9
 73
     1
 44
1.0
  0
POINT
  5
3A1B
330
3A11
100
AcDbEntity
  8
Defpoints
 62
     0
100
AcDbPoint
 10
136.5288261360888
 20
39.47375286214121
 30
0.0
  0
POINT
  5
3A1C
330
3A11
100
AcDbEntity
  8
Defpoints
 62
     0
100
AcDbPoint
 10
136.5288261360888
 20
30.47375286214124
 30
0.0
  0
POINT
  5
3A1D
330
3A11
100
AcDbEntity
  8
Defpoints
 62
     0
100
AcDbPoint
 10
130.8156009070296
 20
30.47375286214124
 30
0.0
  0
ENDBLK
  5
3A13
330
3A11
100
AcDbEntity
  8
0
100
AcDbBlockEnd
  0
BLOCK
  5
3A1F
330
3A1E
100
AcDbEntity
  8
0
100
AcDbBlockBegin
  2
*D42
 70
     1
 10
0.0
 20
0.0
 30
0.0
  3
*D42
  1

  0
LINE
  5
3A21
330
3A1E
100
AcDbEntity
  8
寸法
  6
Continuous
 62
     0
370
    -2
100
AcDbLine
 10
136.5288261360888
 20
40.09875286214121
 30
0.0
 11
136.5288261360888
 21
47.062575174808
 31
0.0
  0
LINE
  5
3A22
330
3A1E
100
AcDbEntity
  8
寸法
  6
Continuous
 62
     0
370
    -2
100
AcDbLine
 10
164.5288261360888
 20
40.09875286214121
 30
0.0
 11
164.5288261360888
 21
47.062575174808
 31
0.0
  0
LINE
  5
3A23
330
3A1E
100
AcDbEntity
  8
寸法
  6
Continuous
 62
     0
370
    -2
100
AcDbLine
 10
138.0288261360888
 20
45.812575174808
 30
0.0
 11
147.5616249795738
 21
45.812575174808
 31
0.0
  0
LINE
  5
3A24
330
3A1E
100
AcDbEntity
  8
寸法
  6
Continuous
 62
     0
370
    -2
100
AcDbLine
 10
163.0288261360888
 20
45.812575174808
 30
0.0
 11
152.1449583129071
 21
45.812575174808
 31
0.0
  0
SOLID
  5
3A25
330
3A1E
100
AcDbEntity
  8
寸法
 62
     0
100
AcDbTrace
 10
138.0288261360888
 20
46.062575174808
 30
0.0
 11
138.0288261360888
 21
45.562575174808
 31
0.0
 12
136.5288261360888
 22
45.812575174808
 32
0.0
 13
136.5288261360888
 23
45.812575174808
 33
0.0
  0
SOLID
  5
3A26
330
3A1E
100
AcDbEntity
  8
寸法
 62
     0
100
AcDbTrace
 10
163.0288261360888
 20
45.562575174808
 30
0.0
 11
163.0288261360888
 21
46.062575174808
 31
0.0
 12
164.5288261360888
 22
45.812575174808
 32
0.0
 13
164.5288261360888
 23
45.812575174808
 33
0.0
  0
MTEXT
  5
3A27
330
3A1E
100
AcDbEntity
  8
寸法
  6
Continuous
 62
     0
100
AcDbMText
 10
149.8532916462405
 20
45.812575174808
 30
0.0
 40
2.0
 41
0.0
 46
0.0
 71
     5
 72
     1
  1
28
 73
     1
 44
1.0
  0
POINT
  5
3A28
330
3A1E
100
AcDbEntity
  8
Defpoints
 62
     0
100
AcDbPoint
 10
136.5288261360888
 20
39.47375286214121
 30
0.0
  0
POINT
  5
3A29
330
3A1E
100
AcDbEntity
  8
Defpoints
 62
     0
100
AcDbPoint
 10
164.5288261360888
 20
39.47375286214121
 30
0.0
  0
POINT
  5
3A2A
330
3A1E
100
AcDbEntity
  8
Defpoints
 62
     0
100
AcDbPoint
 10
164.5288261360888
 20
45.812575174808
 30
0.0
  0
ENDBLK
  5
3A20
330
3A1E
100
AcDbEntity
  8
0
100
AcDbBlockEnd
  0
BLOCK
  5
3A2C
330
3A2B
100
AcDbEntity
  8
0
100
AcDbBlockBegin
  2
*D43
 70
     1
 10
0.0
 20
0.0
 30
0.0
  3
*D43
  1

  0
LINE
  5
3A2E
330
3A2B
100
AcDbEntity
  8
寸法
  6
Continuous
 62
     0
370
    -2
100
AcDbLine
 10
137.7288261360888
 20
29.84875286214124
 30
0.0
 11
137.7288261360888
 21
25.80079224739708
 31
0.0
  0
LINE
  5
3A2F
330
3A2B
100
AcDbEntity
  8
寸法
  6
Continuous
 62
     0
370
    -2
100
AcDbLine
 10
136.5288261360888
 20
29.84875286214124
 30
0.0
 11
136.5288261360888
 21
25.80079224739708
 31
0.0
  0
LINE
  5
3A30
330
3A2B
100
AcDbEntity
  8
寸法
  6
Continuous
 62
     0
370
    -2
100
AcDbLine
 10
139.2288261360888
 20
27.05079224739708
 30
0.0
 11
140.7288261360888
 21
27.05079224739708
 31
0.0
  0
LINE
  5
3A31
330
3A2B
100
AcDbEntity
  8
寸法
  6
Continuous
 62
     0
370
    -2
100
AcDbLine
 10
135.0288261360888
 20
27.05079224739708
 30
0.0
 11
133.5288261360888
 21
27.05079224739708
 31
0.0
  0
SOLID
  5
3A32
330
3A2B
100
AcDbEntity
  8
寸法
 62
     0
100
AcDbTrace
 10
139.2288261360888
 20
27.30079224739708
 30
0.0
 11
139.2288261360888
 21
26.80079224739708
 31
0.0
 12
137.7288261360888
 22
27.05079224739708
 32
0.0
 13
137.7288261360888
 23
27.05079224739708
 33
0.0
  0
SOLID
  5
3A33
330
3A2B
100
AcDbEntity
  8
寸法
 62
     0
100
AcDbTrace
 10
135.0288261360888
 20
26.80079224739708
 30
0.0
 11
135.0288261360888
 21
27.30079224739708
 31
0.0
 12
136.5288261360888
 22
27.05079224739708
 32
0.0
 13
136.5288261360888
 23
27.05079224739708
 33
0.0
  0
MTEXT
  5
3A34
330
3A2B
100
AcDbEntity
  8
寸法
  6
Continuous
 62
     0
100
AcDbMText
 10
137.1943468253122
 20
24.50283163265293
 30
0.0
 40
2.0
 41
0.0
 46
0.0
 71
     5
 72
     1
  1
1.2
 73
     1
 44
1.0
  0
POINT
  5
3A35
330
3A2B
100
AcDbEntity
  8
Defpoints
 62
     0
100
AcDbPoint
 10
137.7288261360888
 20
30.47375286214124
 30
0.0
  0
POINT
  5
3A36
330
3A2B
100
AcDbEntity
  8
Defpoints
 62
     0
100
AcDbPoint
 10
136.5288261360888
 20
30.47375286214124
 30
0.0
  0
POINT
  5
3A37
330
3A2B
100
AcDbEntity
  8
Defpoints
 62
     0
100
AcDbPoint
 10
136.5288261360888
 20
27.05079224739708
 30
0.0
  0
ENDBLK
  5
3A2D
330
3A2B
100
AcDbEntity
  8
0
100
AcDbBlockEnd
  0
BLOCK
  5
3A39
330
3A38
100
AcDbEntity
  8
0
100
AcDbBlockBegin
  2
*D44
 70
     1
 10
0.0
 20
0.0
 30
0.0
  3
*D44
  1

  0
LINE
  5
3A3B
330
3A38
100
AcDbEntity
  8
寸法
  6
Continuous
 62
     0
370
    -2
100
AcDbLine
 10
165.1538261360888
 20
39.47375286214121
 30
0.0
 11
169.3238321240142
 21
39.47375286214121
 31
0.0
  0
LINE
  5
3A3C
330
3A38
100
AcDbEntity
  8
寸法
  6
Continuous
 62
     0
370
    -2
100
AcDbLine
 10
165.0138261360888
 20
35.97375286214127
 30
0.0
 11
169.3238321240142
 21
35.97375286214127
 31
0.0
  0
LINE
  5
3A3D
330
3A38
100
AcDbEntity
  8
寸法
  6
Continuous
 62
     0
370
    -2
100
AcDbLine
 10
168.0738321240142
 20
40.97375286214121
 30
0.0
 11
168.0738321240142
 21
42.47375286214121
 31
0.0
  0
LINE
  5
3A3E
330
3A38
100
AcDbEntity
  8
寸法
  6
Continuous
 62
     0
370
    -2
100
AcDbLine
 10
168.0738321240142
 20
34.47375286214127
 30
0.0
 11
168.0738321240142
 21
32.97375286214127
 31
0.0
  0
SOLID
  5
3A3F
330
3A38
100
AcDbEntity
  8
寸法
 62
     0
100
AcDbTrace
 10
167.8238321240142
 20
40.97375286214121
 30
0.0
 11
168.3238321240142
 21
40.97375286214121
 31
0.0
 12
168.0738321240142
 22
39.47375286214121
 32
0.0
 13
168.0738321240142
 23
39.47375286214121
 33
0.0
  0
SOLID
  5
3A40
330
3A38
100
AcDbEntity
  8
寸法
 62
     0
100
AcDbTrace
 10
168.3238321240142
 20
34.47375286214127
 30
0.0
 11
167.8238321240142
 21
34.47375286214127
 31
0.0
 12
168.0738321240142
 22
35.97375286214127
 32
0.0
 13
168.0738321240142
 23
35.97375286214127
 33
0.0
  0
MTEXT
  5
3A41
330
3A38
100
AcDbEntity
  8
寸法
  6
Continuous
 62
     0
100
AcDbMText
 10
171.1132123957576
 20
37.63392687317091
 30
0.0
 40
2.0
 41
0.0
 46
0.0
 71
     5
 72
     1
  1
3.5
 73
     1
 44
1.0
  0
POINT
  5
3A42
330
3A38
100
AcDbEntity
  8
Defpoints
 62
     0
100
AcDbPoint
 10
164.5288261360888
 20
39.47375286214121
 30
0.0
  0
POINT
  5
3A43
330
3A38
100
AcDbEntity
  8
Defpoints
 62
     0
100
AcDbPoint
 10
164.3888261360888
 20
35.97375286214127
 30
0.0
  0
POINT
  5
3A44
330
3A38
100
AcDbEntity
  8
Defpoints
 62
     0
100
AcDbPoint
 10
168.0738321240142
 20
35.97375286214127
 30
0.0
  0
ENDBLK
  5
3A3A
330
3A38
100
AcDbEntity
  8
0
100
AcDbBlockEnd
  0
BLOCK
  5
3A46
330
3A45
100
AcDbEntity
  8
0
100
AcDbBlockBegin
  2
*D45
 70
     1
 10
0.0
 20
0.0
 30
0.0
  3
*D45
  1

  0
LINE
  5
3A48
330
3A45
100
AcDbEntity
  8
寸法
  6
Continuous
 62
     0
370
    -2
100
AcDbLine
 10
164.5288261360888
 20
40.09875286214121
 30
0.0
 11
164.5288261360888
 21
47.062575174808
 31
0.0
  0
LINE
  5
3A49
330
3A45
100
AcDbEntity
  8
寸法
  6
Continuous
 62
     0
370
    -2
100
AcDbLine
 10
184.5288261360888
 20
35.49875286214117
 30
0.0
 11
184.5288261360888
 21
47.062575174808
 31
0.0
  0
LINE
  5
3A4A
330
3A45
100
AcDbEntity
  8
寸法
  6
Continuous
 62
     0
370
    -2
100
AcDbLine
 10
166.0288261360888
 20
45.812575174808
 30
0.0
 11
172.4038261360888
 21
45.812575174808
 31
0.0
  0
LINE
  5
3A4B
330
3A45
100
AcDbEntity
  8
寸法
  6
Continuous
 62
     0
370
    -2
100
AcDbLine
 10
183.0288261360888
 20
45.812575174808
 30
0.0
 11
176.6538261360888
 21
45.812575174808
 31
0.0
  0
SOLID
  5
3A4C
330
3A45
100
AcDbEntity
  8
寸法
 62
     0
100
AcDbTrace
 10
166.0288261360888
 20
46.062575174808
 30
0.0
 11
166.0288261360888
 21
45.562575174808
 31
0.0
 12
164.5288261360888
 22
45.812575174808
 32
0.0
 13
164.5288261360888
 23
45.812575174808
 33
0.0
  0
SOLID
  5
3A4D
330
3A45
100
AcDbEntity
  8
寸法
 62
     0
100
AcDbTrace
 10
183.0288261360888
 20
45.562575174808
 30
0.0
 11
183.0288261360888
 21
46.062575174808
 31
0.0
 12
184.5288261360888
 22
45.812575174808
 32
0.0
 13
184.5288261360888
 23
45.812575174808
 33
0.0
  0
MTEXT
  5
3A4E
330
3A45
100
AcDbEntity
  8
寸法
  6
Continuous
 62
     0
100
AcDbMText
 10
174.5288261360888
 20
45.812575174808
 30
0.0
 40
2.0
 41
0.0
 46
0.0
 71
     5
 72
     1
  1
20
 73
     1
 44
1.0
  0
POINT
  5
3A4F
330
3A45
100
AcDbEntity
  8
Defpoints
 62
     0
100
AcDbPoint
 10
164.5288261360888
 20
39.47375286214121
 30
0.0
  0
POINT
  5
3A50
330
3A45
100
AcDbEntity
  8
Defpoints
 62
     0
100
AcDbPoint
 10
184.5288261360888
 20
34.87375286214117
 30
0.0
  0
POINT
  5
3A51
330
3A45
100
AcDbEntity
  8
Defpoints
 62
     0
100
AcDbPoint
 10
184.5288261360888
 20
45.812575174808
 30
0.0
  0
ENDBLK
  5
3A47
330
3A45
100
AcDbEntity
  8
0
100
AcDbBlockEnd
  0
BLOCK
  5
3A53
330
3A52
100
AcDbEntity
  8
0
100
AcDbBlockBegin
  2
*D46
 70
     1
 10
0.0
 20
0.0
 30
0.0
  3
*D46
  1

  0
LINE
  5
3A55
330
3A52
100
AcDbEntity
  8
寸法
  6
Continuous
 62
     0
370
    -2
100
AcDbLine
 10
136.5288261360888
 20
40.72375286214121
 30
0.0
 11
136.5288261360888
 21
51.6024273267068
 31
0.0
  0
LINE
  5
3A56
330
3A52
100
AcDbEntity
  8
寸法
  6
Continuous
 62
     0
370
    -2
100
AcDbLine
 10
184.5288261360888
 20
35.49875286214117
 30
0.0
 11
184.5288261360888
 21
51.6024273267068
 31
0.0
  0
LINE
  5
3A57
330
3A52
100
AcDbEntity
  8
寸法
  6
Continuous
 62
     0
370
    -2
100
AcDbLine
 10
138.0288261360888
 20
50.3524273267068
 30
0.0
 11
158.2371594694221
 21
50.3524273267068
 31
0.0
  0
LINE
  5
3A58
330
3A52
100
AcDbEntity
  8
寸法
  6
Continuous
 62
     0
370
    -2
100
AcDbLine
 10
183.0288261360888
 20
50.3524273267068
 30
0.0
 11
162.8204928027554
 21
50.3524273267068
 31
0.0
  0
SOLID
  5
3A59
330
3A52
100
AcDbEntity
  8
寸法
 62
     0
100
AcDbTrace
 10
138.0288261360888
 20
50.6024273267068
 30
0.0
 11
138.0288261360888
 21
50.1024273267068
 31
0.0
 12
136.5288261360888
 22
50.3524273267068
 32
0.0
 13
136.5288261360888
 23
50.3524273267068
 33
0.0
  0
SOLID
  5
3A5A
330
3A52
100
AcDbEntity
  8
寸法
 62
     0
100
AcDbTrace
 10
183.0288261360888
 20
50.1024273267068
 30
0.0
 11
183.0288261360888
 21
50.6024273267068
 31
0.0
 12
184.5288261360888
 22
50.3524273267068
 32
0.0
 13
184.5288261360888
 23
50.3524273267068
 33
0.0
  0
MTEXT
  5
3A5B
330
3A52
100
AcDbEntity
  8
寸法
  6
Continuous
 62
     0
100
AcDbMText
 10
160.5288261360888
 20
50.3524273267068
 30
0.0
 40
2.0
 41
0.0
 46
0.0
 71
     5
 72
     1
  1
48
 73
     1
 44
1.0
  0
POINT
  5
3A5C
330
3A52
100
AcDbEntity
  8
Defpoints
 62
     0
100
AcDbPoint
 10
136.5288261360888
 20
40.09875286214121
 30
0.0
  0
POINT
  5
3A5D
330
3A52
100
AcDbEntity
  8
Defpoints
 62
     0
100
AcDbPoint
 10
184.5288261360888
 20
34.87375286214117
 30
0.0
  0
POINT
  5
3A5E
330
3A52
100
AcDbEntity
  8
Defpoints
 62
     0
100
AcDbPoint
 10
184.5288261360888
 20
50.3524273267068
 30
0.0
  0
ENDBLK
  5
3A54
330
3A52
100
AcDbEntity
  8
0
100
AcDbBlockEnd
  0
BLOCK
  5
3A60
330
3A5F
100
AcDbEntity
  8
0
100
AcDbBlockBegin
  2
*D47
 70
     1
 10
0.0
 20
0.0
 30
0.0
  3
*D47
  1

  0
LINE
  5
3A62
330
3A5F
100
AcDbEntity
  8
寸法
  6
Continuous
 62
     0
370
    -2
100
AcDbLine
 10
184.7538261360889
 20
35.27375286214128
 30
0.0
 11
190.1520164217627
 21
35.27375286214128
 31
0.0
  0
LINE
  5
3A63
330
3A5F
100
AcDbEntity
  8
寸法
  6
Continuous
 62
     0
370
    -2
100
AcDbLine
 10
184.7538261360888
 20
34.47375286214127
 30
0.0
 11
190.1520164217627
 21
34.47375286214127
 31
0.0
  0
LINE
  5
3A64
330
3A5F
100
AcDbEntity
  8
寸法
  6
Continuous
 62
     0
370
    -2
100
AcDbLine
 10
188.9020164217627
 20
36.77375286214128
 30
0.0
 11
188.9020164217627
 21
38.27375286214128
 31
0.0
  0
LINE
  5
3A65
330
3A5F
100
AcDbEntity
  8
寸法
  6
Continuous
 62
     0
370
    -2
100
AcDbLine
 10
188.9020164217627
 20
32.97375286214127
 30
0.0
 11
188.9020164217627
 21
31.47375286214127
 31
0.0
  0
SOLID
  5
3A66
330
3A5F
100
AcDbEntity
  8
寸法
 62
     0
100
AcDbTrace
 10
188.6520164217627
 20
36.77375286214128
 30
0.0
 11
189.1520164217627
 21
36.77375286214128
 31
0.0
 12
188.9020164217627
 22
35.27375286214128
 32
0.0
 13
188.9020164217627
 23
35.27375286214128
 33
0.0
  0
SOLID
  5
3A67
330
3A5F
100
AcDbEntity
  8
寸法
 62
     0
100
AcDbTrace
 10
189.1520164217627
 20
32.97375286214127
 30
0.0
 11
188.6520164217627
 21
32.97375286214127
 31
0.0
 12
188.9020164217627
 22
34.47375286214127
 32
0.0
 13
188.9020164217627
 23
34.47375286214127
 33
0.0
  0
MTEXT
  5
3A68
330
3A5F
100
AcDbEntity
  8
寸法
  6
Continuous
 62
     0
100
AcDbMText
 10
192.8097910568613
 20
34.98927131204351
 30
0.0
 40
2.0
 41
0.0
 46
0.0
 71
     5
 72
     1
  1
0.8
 73
     1
 44
1.0
  0
POINT
  5
3A69
330
3A5F
100
AcDbEntity
  8
Defpoints
 62
     0
100
AcDbPoint
 10
184.1288261360889
 20
35.27375286214128
 30
0.0
  0
POINT
  5
3A6A
330
3A5F
100
AcDbEntity
  8
Defpoints
 62
     0
100
AcDbPoint
 10
184.1288261360888
 20
34.47375286214127
 30
0.0
  0
POINT
  5
3A6B
330
3A5F
100
AcDbEntity
  8
Defpoints
 62
     0
100
AcDbPoint
 10
188.9020164217627
 20
34.47375286214127
 30
0.0
  0
ENDBLK
  5
3A61
330
3A5F
100
AcDbEntity
  8
0
100
AcDbBlockEnd
  0
BLOCK
  5
3A6D
330
3A6C
100
AcDbEntity
  8
0
100
AcDbBlockBegin
  2
*D48
 70
     1
 10
0.0
 20
0.0
 30
0.0
  3
*D48
  1

  0
LINE
  5
3A6F
330
3A6C
100
AcDbEntity
  8
寸法
  6
Continuous
 62
     0
370
    -2
100
AcDbLine
 10
138.3538261360888
 20
30.47375286214124
 30
0.0
 11
141.0916726927975
 21
30.47375286214124
 31
0.0
  0
LINE
  5
3A70
330
3A6C
100
AcDbEntity
  8
寸法
  6
Continuous
 62
     0
370
    -2
100
AcDbLine
 10
139.7538261360888
 20
34.47375286214124
 30
0.0
 11
141.0916726927975
 21
34.47375286214124
 31
0.0
  0
LINE
  5
3A71
330
3A6C
100
AcDbEntity
  8
寸法
  6
Continuous
 62
     0
370
    -2
100
AcDbLine
 10
139.8416726927975
 20
30.47375286214124
 30
0.0
 11
139.8416726927975
 21
28.97375286214124
 31
0.0
  0
LINE
  5
3A72
330
3A6C
100
AcDbEntity
  8
寸法
  6
Continuous
 62
     0
370
    -2
100
AcDbLine
 10
139.8416726927975
 20
34.47375286214124
 30
0.0
 11
139.8416726927975
 21
35.97375286214124
 31
0.0
  0
SOLID
  5
3A73
330
3A6C
100
AcDbEntity
  8
寸法
 62
     0
100
AcDbTrace
 10
139.5916726927975
 20
31.97375286214124
 30
0.0
 11
140.0916726927975
 21
31.97375286214124
 31
0.0
 12
139.8416726927975
 22
30.47375286214124
 32
0.0
 13
139.8416726927975
 23
30.47375286214124
 33
0.0
  0
SOLID
  5
3A74
330
3A6C
100
AcDbEntity
  8
寸法
 62
     0
100
AcDbTrace
 10
140.0916726927975
 20
32.97375286214124
 30
0.0
 11
139.5916726927975
 21
32.97375286214124
 31
0.0
 12
139.8416726927975
 22
34.47375286214124
 32
0.0
 13
139.8416726927975
 23
34.47375286214124
 33
0.0
  0
MTEXT
  5
3A75
330
3A6C
100
AcDbEntity
  8
寸法
  6
Continuous
 62
     0
100
AcDbMText
 10
141.0994845437689
 20
32.43217232919086
 30
0.0
 40
2.0
 41
0.0
 46
0.0
 71
     5
 72
     1
  1
4
 73
     1
 44
1.0
  0
POINT
  5
3A76
330
3A6C
100
AcDbEntity
  8
Defpoints
 62
     0
100
AcDbPoint
 10
137.7288261360888
 20
30.47375286214124
 30
0.0
  0
POINT
  5
3A77
330
3A6C
100
AcDbEntity
  8
Defpoints
 62
     0
100
AcDbPoint
 10
139.1288261360888
 20
34.47375286214124
 30
0.0
  0
POINT
  5
3A78
330
3A6C
100
AcDbEntity
  8
Defpoints
 62
     0
100
AcDbPoint
 10
139.8416726927975
 20
34.47375286214124
 30
0.0
  0
ENDBLK
  5
3A6E
330
3A6C
100
AcDbEntity
  8
0
100
AcDbBlockEnd
  0
BLOCK
  5
3A8E
330
3A8D
100
AcDbEntity
  8
0
100
AcDbBlockBegin
  2
*D49
 70
     1
 10
0.0
 20
0.0
 30
0.0
  3
*D49
  1
*D284
  0
LINE
  5
3A8F
330
3A8D
100
AcDbEntity
  8
寸法
  6
Continuous
 62
     0
370
    -2
100
AcDbLine
 10
6.338225229059205
 20
15.97092122948828
 30
0.0
 11
0.0000000000000004
 21
15.97092122948828
 31
0.0
  0
LINE
  5
3A90
330
3A8D
100
AcDbEntity
  8
寸法
  6
Continuous
 62
     0
370
    -2
100
AcDbLine
 10
6.338225229059205
 20
6.970921229488312
 30
0.0
 11
0.0
 21
6.970921229488312
 31
0.0
  0
LINE
  5
3A91
330
3A8D
100
AcDbEntity
  8
寸法
  6
Continuous
 62
     0
370
    -2
100
AcDbLine
 10
1.25
 20
14.47092122948828
 30
0.0
 11
1.25
 21
13.09592122948831
 31
0.0
  0
LINE
  5
3A92
330
3A8D
100
AcDbEntity
  8
寸法
  6
Continuous
 62
     0
370
    -2
100
AcDbLine
 10
1.25
 20
8.470921229488312
 30
0.0
 11
1.25
 21
9.845921229488312
 31
0.0
  0
SOLID
  5
3A93
330
3A8D
100
AcDbEntity
  8
寸法
 62
     0
100
AcDbTrace
 10
1.5
 20
14.47092122948828
 30
0.0
 11
1.0
 21
14.47092122948828
 31
0.0
 12
1.25
 22
15.97092122948828
 32
0.0
 13
1.25
 23
15.97092122948828
 33
0.0
  0
SOLID
  5
3A94
330
3A8D
100
AcDbEntity
  8
寸法
 62
     0
100
AcDbTrace
 10
1.0
 20
8.470921229488312
 30
0.0
 11
1.5
 21
8.470921229488312
 31
0.0
 12
1.25
 22
6.970921229488312
 32
0.0
 13
1.25
 23
6.970921229488312
 33
0.0
  0
MTEXT
  5
3A95
330
3A8D
100
AcDbEntity
  8
寸法
  6
Continuous
 62
     0
100
AcDbMText
 10
1.25
 20
11.47092122948831
 30
0.0
 40
2.0
 41
0.0
 46
0.0
 71
     5
 72
     1
  1
9
 73
     1
 44
1.0
  0
POINT
  5
3A96
330
3A8D
100
AcDbEntity
  8
Defpoints
 62
     0
100
AcDbPoint
 10
6.963225229059205
 20
15.97092122948828
 30
0.0
  0
POINT
  5
3A97
330
3A8D
100
AcDbEntity
  8
Defpoints
 62
     0
100
AcDbPoint
 10
6.963225229059205
 20
6.970921229488312
 30
0.0
  0
POINT
  5
3A98
330
3A8D
100
AcDbEntity
  8
Defpoints
 62
     0
100
AcDbPoint
 10
1.25
 20
6.970921229488312
 30
0.0
  0
ENDBLK
  5
3A99
330
3A8D
100
AcDbEntity
  8
0
100
AcDbBlockEnd
  0
BLOCK
  5
3A9C
330
3A9B
100
AcDbEntity
  8
0
100
AcDbBlockBegin
  2
*D50
 70
     1
 10
0.0
 20
0.0
 30
0.0
  3
*D50
  1
*D285
  0
LINE
  5
3A9D
330
3A9B
100
AcDbEntity
  8
寸法
  6
Continuous
 62
     0
370
    -2
100
AcDbLine
 10
6.963225229059205
 20
16.59592122948828
 30
0.0
 11
6.963225229059205
 21
23.55974354215508
 31
0.0
  0
LINE
  5
3A9E
330
3A9B
100
AcDbEntity
  8
寸法
  6
Continuous
 62
     0
370
    -2
100
AcDbLine
 10
34.9632252290592
 20
16.59592122948828
 30
0.0
 11
34.9632252290592
 21
23.55974354215508
 31
0.0
  0
LINE
  5
3A9F
330
3A9B
100
AcDbEntity
  8
寸法
  6
Continuous
 62
     0
370
    -2
100
AcDbLine
 10
8.463225229059205
 20
22.30974354215508
 30
0.0
 11
17.99602407254423
 21
22.30974354215508
 31
0.0
  0
LINE
  5
3AA0
330
3A9B
100
AcDbEntity
  8
寸法
  6
Continuous
 62
     0
370
    -2
100
AcDbLine
 10
33.4632252290592
 20
22.30974354215508
 30
0.0
 11
22.57935740587757
 21
22.30974354215508
 31
0.0
  0
SOLID
  5
3AA1
330
3A9B
100
AcDbEntity
  8
寸法
 62
     0
100
AcDbTrace
 10
8.463225229059205
 20
22.55974354215508
 30
0.0
 11
8.463225229059205
 21
22.05974354215508
 31
0.0
 12
6.963225229059205
 22
22.30974354215508
 32
0.0
 13
6.963225229059205
 23
22.30974354215508
 33
0.0
  0
SOLID
  5
3AA2
330
3A9B
100
AcDbEntity
  8
寸法
 62
     0
100
AcDbTrace
 10
33.4632252290592
 20
22.05974354215508
 30
0.0
 11
33.4632252290592
 21
22.55974354215508
 31
0.0
 12
34.9632252290592
 22
22.30974354215508
 32
0.0
 13
34.9632252290592
 23
22.30974354215508
 33
0.0
  0
MTEXT
  5
3AA3
330
3A9B
100
AcDbEntity
  8
寸法
  6
Continuous
 62
     0
100
AcDbMText
 10
20.2876907392109
 20
22.30974354215508
 30
0.0
 40
2.0
 41
0.0
 46
0.0
 71
     5
 72
     1
  1
28
 73
     1
 44
1.0
  0
POINT
  5
3AA4
330
3A9B
100
AcDbEntity
  8
Defpoints
 62
     0
100
AcDbPoint
 10
6.963225229059205
 20
15.97092122948828
 30
0.0
  0
POINT
  5
3AA5
330
3A9B
100
AcDbEntity
  8
Defpoints
 62
     0
100
AcDbPoint
 10
34.9632252290592
 20
15.97092122948828
 30
0.0
  0
POINT
  5
3AA6
330
3A9B
100
AcDbEntity
  8
Defpoints
 62
     0
100
AcDbPoint
 10
34.9632252290592
 20
22.30974354215508
 30
0.0
  0
ENDBLK
  5
3AA7
330
3A9B
100
AcDbEntity
  8
0
100
AcDbBlockEnd
  0
BLOCK
  5
3AAA
330
3AA9
100
AcDbEntity
  8
0
100
AcDbBlockBegin
  2
*D51
 70
     1
 10
0.0
 20
0.0
 30
0.0
  3
*D51
  1
*D286
  0
LINE
  5
3AAB
330
3AA9
100
AcDbEntity
  8
寸法
  6
Continuous
 62
     0
370
    -2
100
AcDbLine
 10
8.163225229059208
 20
6.345921229488312
 30
0.0
 11
8.163225229059208
 21
2.297960614744156
 31
0.0
  0
LINE
  5
3AAC
330
3AA9
100
AcDbEntity
  8
寸法
  6
Continuous
 62
     0
370
    -2
100
AcDbLine
 10
6.963225229059205
 20
6.345921229488312
 30
0.0
 11
6.963225229059205
 21
2.297960614744156
 31
0.0
  0
LINE
  5
3AAD
330
3AA9
100
AcDbEntity
  8
寸法
  6
Continuous
 62
     0
370
    -2
100
AcDbLine
 10
9.663225229059208
 20
3.547960614744156
 30
0.0
 11
11.16322522905921
 21
3.547960614744156
 31
0.0
  0
LINE
  5
3AAE
330
3AA9
100
AcDbEntity
  8
寸法
  6
Continuous
 62
     0
370
    -2
100
AcDbLine
 10
5.463225229059205
 20
3.547960614744156
 30
0.0
 11
3.963225229059205
 21
3.547960614744156
 31
0.0
  0
SOLID
  5
3AAF
330
3AA9
100
AcDbEntity
  8
寸法
 62
     0
100
AcDbTrace
 10
9.663225229059208
 20
3.797960614744156
 30
0.0
 11
9.663225229059208
 21
3.297960614744156
 31
0.0
 12
8.163225229059208
 22
3.547960614744156
 32
0.0
 13
8.163225229059208
 23
3.547960614744156
 33
0.0
  0
SOLID
  5
3AB0
330
3AA9
100
AcDbEntity
  8
寸法
 62
     0
100
AcDbTrace
 10
5.463225229059205
 20
3.297960614744156
 30
0.0
 11
5.463225229059205
 21
3.797960614744156
 31
0.0
 12
6.963225229059205
 22
3.547960614744156
 32
0.0
 13
6.963225229059205
 23
3.547960614744156
 33
0.0
  0
MTEXT
  5
3AB1
330
3AA9
100
AcDbEntity
  8
寸法
  6
Continuous
 62
     0
100
AcDbMText
 10
7.628745918282604
 20
1.0
 30
0.0
 40
2.0
 41
0.0
 46
0.0
 71
     5
 72
     1
  1
1.2
 73
     1
 44
1.0
  0
POINT
  5
3AB2
330
3AA9
100
AcDbEntity
  8
Defpoints
 62
     0
100
AcDbPoint
 10
8.163225229059208
 20
6.970921229488312
 30
0.0
  0
POINT
  5
3AB3
330
3AA9
100
AcDbEntity
  8
Defpoints
 62
     0
100
AcDbPoint
 10
6.963225229059205
 20
6.970921229488312
 30
0.0
  0
POINT
  5
3AB4
330
3AA9
100
AcDbEntity
  8
Defpoints
 62
     0
100
AcDbPoint
 10
6.963225229059205
 20
3.547960614744156
 30
0.0
  0
ENDBLK
  5
3AB5
330
3AA9
100
AcDbEntity
  8
0
100
AcDbBlockEnd
  0
BLOCK
  5
3AB8
330
3AB7
100
AcDbEntity
  8
0
100
AcDbBlockBegin
  2
*D52
 70
     1
 10
0.0
 20
0.0
 30
0.0
  3
*D52
  1
*D289
  0
LINE
  5
3AB9
330
3AB7
100
AcDbEntity
  8
寸法
  6
Continuous
 62
     0
370
    -2
100
AcDbLine
 10
35.5882252290592
 20
15.97092122948828
 30
0.0
 11
39.75823121698461
 21
15.97092122948828
 31
0.0
  0
LINE
  5
3ABA
330
3AB7
100
AcDbEntity
  8
寸法
  6
Continuous
 62
     0
370
    -2
100
AcDbLine
 10
35.44822522905919
 20
12.47092122948834
 30
0.0
 11
39.75823121698461
 21
12.47092122948834
 31
0.0
  0
LINE
  5
3ABB
330
3AB7
100
AcDbEntity
  8
寸法
  6
Continuous
 62
     0
370
    -2
100
AcDbLine
 10
38.50823121698461
 20
17.47092122948828
 30
0.0
 11
38.50823121698461
 21
18.97092122948828
 31
0.0
  0
LINE
  5
3ABC
330
3AB7
100
AcDbEntity
  8
寸法
  6
Continuous
 62
     0
370
    -2
100
AcDbLine
 10
38.50823121698461
 20
10.97092122948834
 30
0.0
 11
38.50823121698461
 21
9.47092122948834
 31
0.0
  0
SOLID
  5
3ABD
330
3AB7
100
AcDbEntity
  8
寸法
 62
     0
100
AcDbTrace
 10
38.25823121698461
 20
17.47092122948828
 30
0.0
 11
38.75823121698461
 21
17.47092122948828
 31
0.0
 12
38.50823121698461
 22
15.97092122948828
 32
0.0
 13
38.50823121698461
 23
15.97092122948828
 33
0.0
  0
SOLID
  5
3ABE
330
3AB7
100
AcDbEntity
  8
寸法
 62
     0
100
AcDbTrace
 10
38.75823121698461
 20
10.97092122948834
 30
0.0
 11
38.25823121698461
 21
10.97092122948834
 31
0.0
 12
38.50823121698461
 22
12.47092122948834
 32
0.0
 13
38.50823121698461
 23
12.47092122948834
 33
0.0
  0
MTEXT
  5
3ABF
330
3AB7
100
AcDbEntity
  8
寸法
  6
Continuous
 62
     0
100
AcDbMText
 10
41.54761148872801
 20
14.13109524051798
 30
0.0
 40
2.0
 41
0.0
 46
0.0
 71
     5
 72
     1
  1
3.5
 73
     1
 44
1.0
  0
POINT
  5
3AC0
330
3AB7
100
AcDbEntity
  8
Defpoints
 62
     0
100
AcDbPoint
 10
34.9632252290592
 20
15.97092122948828
 30
0.0
  0
POINT
  5
3AC1
330
3AB7
100
AcDbEntity
  8
Defpoints
 62
     0
100
AcDbPoint
 10
34.82322522905919
 20
12.47092122948834
 30
0.0
  0
POINT
  5
3AC2
330
3AB7
100
AcDbEntity
  8
Defpoints
 62
     0
100
AcDbPoint
 10
38.50823121698461
 20
12.47092122948834
 30
0.0
  0
ENDBLK
  5
3AC3
330
3AB7
100
AcDbEntity
  8
0
100
AcDbBlockEnd
  0
BLOCK
  5
3AF1
330
3AF0
100
AcDbEntity
  8
0
100
AcDbBlockBegin
  2
*D53
 70
     1
 10
0.0
 20
0.0
 30
0.0
  3
*D53
  1
*D395
  0
LINE
  5
3AF2
330
3AF0
100
AcDbEntity
  8
寸法
  6
Continuous
 62
     0
370
    -2
100
AcDbLine
 10
34.9632252290592
 20
16.59592122948828
 30
0.0
 11
34.9632252290592
 21
23.55974354215508
 31
0.0
  0
LINE
  5
3AF3
330
3AF0
100
AcDbEntity
  8
寸法
  6
Continuous
 62
     0
370
    -2
100
AcDbLine
 10
54.9632252290592
 20
11.99592122948825
 30
0.0
 11
54.9632252290592
 21
23.55974354215508
 31
0.0
  0
LINE
  5
3AF4
330
3AF0
100
AcDbEntity
  8
寸法
  6
Continuous
 62
     0
370
    -2
100
AcDbLine
 10
36.4632252290592
 20
22.30974354215508
 30
0.0
 11
42.8382252290592
 21
22.30974354215508
 31
0.0
  0
LINE
  5
3AF5
330
3AF0
100
AcDbEntity
  8
寸法
  6
Continuous
 62
     0
370
    -2
100
AcDbLine
 10
53.4632252290592
 20
22.30974354215508
 30
0.0
 11
47.0882252290592
 21
22.30974354215508
 31
0.0
  0
SOLID
  5
3AF6
330
3AF0
100
AcDbEntity
  8
寸法
 62
     0
100
AcDbTrace
 10
36.4632252290592
 20
22.55974354215508
 30
0.0
 11
36.4632252290592
 21
22.05974354215508
 31
0.0
 12
34.9632252290592
 22
22.30974354215508
 32
0.0
 13
34.9632252290592
 23
22.30974354215508
 33
0.0
  0
SOLID
  5
3AF7
330
3AF0
100
AcDbEntity
  8
寸法
 62
     0
100
AcDbTrace
 10
53.4632252290592
 20
22.05974354215508
 30
0.0
 11
53.4632252290592
 21
22.55974354215508
 31
0.0
 12
54.9632252290592
 22
22.30974354215508
 32
0.0
 13
54.9632252290592
 23
22.30974354215508
 33
0.0
  0
MTEXT
  5
3AF8
330
3AF0
100
AcDbEntity
  8
寸法
  6
Continuous
 62
     0
100
AcDbMText
 10
44.9632252290592
 20
22.30974354215508
 30
0.0
 40
2.0
 41
0.0
 46
0.0
 71
     5
 72
     1
  1
20
 73
     1
 44
1.0
  0
POINT
  5
3AF9
330
3AF0
100
AcDbEntity
  8
Defpoints
 62
     0
100
AcDbPoint
 10
34.9632252290592
 20
15.97092122948828
 30
0.0
  0
POINT
  5
3AFA
330
3AF0
100
AcDbEntity
  8
Defpoints
 62
     0
100
AcDbPoint
 10
54.9632252290592
 20
11.37092122948825
 30
0.0
  0
POINT
  5
3AFB
330
3AF0
100
AcDbEntity
  8
Defpoints
 62
     0
100
AcDbPoint
 10
54.9632252290592
 20
22.30974354215508
 30
0.0
  0
ENDBLK
  5
3AFC
330
3AF0
100
AcDbEntity
  8
0
100
AcDbBlockEnd
  0
BLOCK
  5
3AFF
330
3AFE
100
AcDbEntity
  8
0
100
AcDbBlockBegin
  2
*D54
 70
     1
 10
0.0
 20
0.0
 30
0.0
  3
*D54
  1
*D396
  0
LINE
  5
3B00
330
3AFE
100
AcDbEntity
  8
寸法
  6
Continuous
 62
     0
370
    -2
100
AcDbLine
 10
6.963225229059205
 20
17.22092122948828
 30
0.0
 11
6.963225229059205
 21
28.09959569405387
 31
0.0
  0
LINE
  5
3B01
330
3AFE
100
AcDbEntity
  8
寸法
  6
Continuous
 62
     0
370
    -2
100
AcDbLine
 10
54.9632252290592
 20
11.99592122948825
 30
0.0
 11
54.9632252290592
 21
28.09959569405387
 31
0.0
  0
LINE
  5
3B02
330
3AFE
100
AcDbEntity
  8
寸法
  6
Continuous
 62
     0
370
    -2
100
AcDbLine
 10
8.463225229059205
 20
26.84959569405387
 30
0.0
 11
28.67155856239254
 21
26.84959569405387
 31
0.0
  0
LINE
  5
3B03
330
3AFE
100
AcDbEntity
  8
寸法
  6
Continuous
 62
     0
370
    -2
100
AcDbLine
 10
53.4632252290592
 20
26.84959569405387
 30
0.0
 11
33.25489189572588
 21
26.84959569405387
 31
0.0
  0
SOLID
  5
3B04
330
3AFE
100
AcDbEntity
  8
寸法
 62
     0
100
AcDbTrace
 10
8.463225229059205
 20
27.09959569405387
 30
0.0
 11
8.463225229059205
 21
26.59959569405387
 31
0.0
 12
6.963225229059205
 22
26.84959569405387
 32
0.0
 13
6.963225229059205
 23
26.84959569405387
 33
0.0
  0
SOLID
  5
3B05
330
3AFE
100
AcDbEntity
  8
寸法
 62
     0
100
AcDbTrace
 10
53.4632252290592
 20
26.59959569405387
 30
0.0
 11
53.4632252290592
 21
27.09959569405387
 31
0.0
 12
54.9632252290592
 22
26.84959569405387
 32
0.0
 13
54.9632252290592
 23
26.84959569405387
 33
0.0
  0
MTEXT
  5
3B06
330
3AFE
100
AcDbEntity
  8
寸法
  6
Continuous
 62
     0
100
AcDbMText
 10
30.9632252290592
 20
26.84959569405387
 30
0.0
 40
2.0
 41
0.0
 46
0.0
 71
     5
 72
     1
  1
48
 73
     1
 44
1.0
  0
POINT
  5
3B07
330
3AFE
100
AcDbEntity
  8
Defpoints
 62
     0
100
AcDbPoint
 10
6.963225229059205
 20
16.59592122948828
 30
0.0
  0
POINT
  5
3B08
330
3AFE
100
AcDbEntity
  8
Defpoints
 62
     0
100
AcDbPoint
 10
54.9632252290592
 20
11.37092122948825
 30
0.0
  0
POINT
  5
3B09
330
3AFE
100
AcDbEntity
  8
Defpoints
 62
     0
100
AcDbPoint
 10
54.9632252290592
 20
26.84959569405387
 30
0.0
  0
ENDBLK
  5
3B0A
330
3AFE
100
AcDbEntity
  8
0
100
AcDbBlockEnd
  0
BLOCK
  5
3B0D
330
3B0C
100
AcDbEntity
  8
0
100
AcDbBlockBegin
  2
*D55
 70
     1
 10
0.0
 20
0.0
 30
0.0
  3
*D55
  1
*D397
  0
LINE
  5
3B0E
330
3B0C
100
AcDbEntity
  8
寸法
  6
Continuous
 62
     0
370
    -2
100
AcDbLine
 10
55.1882252290594
 20
11.77092122948835
 30
0.0
 11
60.5864155147331
 21
11.77092122948835
 31
0.0
  0
LINE
  5
3B0F
330
3B0C
100
AcDbEntity
  8
寸法
  6
Continuous
 62
     0
370
    -2
100
AcDbLine
 10
55.1882252290592
 20
10.97092122948834
 30
0.0
 11
60.5864155147331
 21
10.97092122948834
 31
0.0
  0
LINE
  5
3B10
330
3B0C
100
AcDbEntity
  8
寸法
  6
Continuous
 62
     0
370
    -2
100
AcDbLine
 10
59.3364155147331
 20
13.27092122948835
 30
0.0
 11
59.3364155147331
 21
14.77092122948835
 31
0.0
  0
LINE
  5
3B11
330
3B0C
100
AcDbEntity
  8
寸法
  6
Continuous
 62
     0
370
    -2
100
AcDbLine
 10
59.3364155147331
 20
9.47092122948834
 30
0.0
 11
59.3364155147331
 21
7.97092122948834
 31
0.0
  0
SOLID
  5
3B12
330
3B0C
100
AcDbEntity
  8
寸法
 62
     0
100
AcDbTrace
 10
59.0864155147331
 20
13.27092122948835
 30
0.0
 11
59.5864155147331
 21
13.27092122948835
 31
0.0
 12
59.3364155147331
 22
11.77092122948835
 32
0.0
 13
59.3364155147331
 23
11.77092122948835
 33
0.0
  0
SOLID
  5
3B13
330
3B0C
100
AcDbEntity
  8
寸法
 62
     0
100
AcDbTrace
 10
59.5864155147331
 20
9.47092122948834
 30
0.0
 11
59.0864155147331
 21
9.47092122948834
 31
0.0
 12
59.3364155147331
 22
10.97092122948834
 32
0.0
 13
59.3364155147331
 23
10.97092122948834
 33
0.0
  0
MTEXT
  5
3B14
330
3B0C
100
AcDbEntity
  8
寸法
  6
Continuous
 62
     0
100
AcDbMText
 10
63.24419014983179
 20
11.48643967939059
 30
0.0
 40
2.0
 41
0.0
 46
0.0
 71
     5
 72
     1
  1
0.8
 73
     1
 44
1.0
  0
POINT
  5
3B15
330
3B0C
100
AcDbEntity
  8
Defpoints
 62
     0
100
AcDbPoint
 10
54.5632252290594
 20
11.77092122948835
 30
0.0
  0
POINT
  5
3B16
330
3B0C
100
AcDbEntity
  8
Defpoints
 62
     0
100
AcDbPoint
 10
54.5632252290592
 20
10.97092122948834
 30
0.0
  0
POINT
  5
3B17
330
3B0C
100
AcDbEntity
  8
Defpoints
 62
     0
100
AcDbPoint
 10
59.3364155147331
 20
10.97092122948834
 30
0.0
  0
ENDBLK
  5
3B18
330
3B0C
100
AcDbEntity
  8
0
100
AcDbBlockEnd
  0
BLOCK
  5
3B1F
330
3B1E
100
AcDbEntity
  8
0
100
AcDbBlockBegin
  2
*D56
 70
     1
 10
0.0
 20
0.0
 30
0.0
  3
*D56
  1
*D416
  0
LINE
  5
3B20
330
3B1E
100
AcDbEntity
  8
寸法
  6
Continuous
 62
     0
370
    -2
100
AcDbLine
 10
8.788225229059208
 20
6.970921229488312
 30
0.0
 11
11.52607178576791
 21
6.970921229488312
 31
0.0
  0
LINE
  5
3B21
330
3B1E
100
AcDbEntity
  8
寸法
  6
Continuous
 62
     0
370
    -2
100
AcDbLine
 10
10.1882252290592
 20
10.97092122948831
 30
0.0
 11
11.52607178576791
 21
10.97092122948831
 31
0.0
  0
LINE
  5
3B22
330
3B1E
100
AcDbEntity
  8
寸法
  6
Continuous
 62
     0
370
    -2
100
AcDbLine
 10
10.27607178576791
 20
6.970921229488312
 30
0.0
 11
10.27607178576791
 21
5.470921229488312
 31
0.0
  0
LINE
  5
3B23
330
3B1E
100
AcDbEntity
  8
寸法
  6
Continuous
 62
     0
370
    -2
100
AcDbLine
 10
10.27607178576791
 20
10.97092122948831
 30
0.0
 11
10.27607178576791
 21
12.47092122948831
 31
0.0
  0
SOLID
  5
3B24
330
3B1E
100
AcDbEntity
  8
寸法
 62
     0
100
AcDbTrace
 10
10.02607178576791
 20
8.470921229488312
 30
0.0
 11
10.52607178576791
 21
8.470921229488312
 31
0.0
 12
10.27607178576791
 22
6.970921229488312
 32
0.0
 13
10.27607178576791
 23
6.970921229488312
 33
0.0
  0
SOLID
  5
3B25
330
3B1E
100
AcDbEntity
  8
寸法
 62
     0
100
AcDbTrace
 10
10.52607178576791
 20
9.470921229488312
 30
0.0
 11
10.02607178576791
 21
9.470921229488312
 31
0.0
 12
10.27607178576791
 22
10.97092122948831
 32
0.0
 13
10.27607178576791
 23
10.97092122948831
 33
0.0
  0
MTEXT
  5
3B26
330
3B1E
100
AcDbEntity
  8
寸法
  6
Continuous
 62
     0
100
AcDbMText
 10
11.5338836367393
 20
8.929340696537935
 30
0.0
 40
2.0
 41
0.0
 46
0.0
 71
     5
 72
     1
  1
4
 73
     1
 44
1.0
  0
POINT
  5
3B27
330
3B1E
100
AcDbEntity
  8
Defpoints
 62
     0
100
AcDbPoint
 10
8.163225229059208
 20
6.970921229488312
 30
0.0
  0
POINT
  5
3B2D
330
3B1E
100
AcDbEntity
  8
Defpoints
 62
     0
100
AcDbPoint
 10
9.5632252290592
 20
10.97092122948831
 30
0.0
  0
POINT
  5
3B2E
330
3B1E
100
AcDbEntity
  8
Defpoints
 62
     0
100
AcDbPoint
 10
10.27607178576791
 20
10.97092122948831
 30
0.0
  0
ENDBLK
  5
3B28
330
3B1E
100
AcDbEntity
  8
0
100
AcDbBlockEnd
  0
BLOCK
  5
3B6A
330
3B69
100
AcDbEntity
  8
0
100
AcDbBlockBegin
  2
*D57
 70
     1
 10
0.0
 20
0.0
 30
0.0
  3
*D57
  1

  0
LINE
  5
3B6C
330
3B69
100
AcDbEntity
  8
寸法
  6
Continuous
 62
     0
370
    -2
100
AcDbLine
 10
109.7581912154538
 20
105.5848583043181
 30
0.0
 11
99.1331912154538
 21
105.5848583043181
 31
0.0
  0
LINE
  5
3B6D
330
3B69
100
AcDbEntity
  8
寸法
  6
Continuous
 62
     0
370
    -2
100
AcDbLine
 10
109.7581912154538
 20
96.58485830431816
 30
0.0
 11
99.1331912154538
 21
96.58485830431816
 31
0.0
  0
LINE
  5
3B6E
330
3B69
100
AcDbEntity
  8
寸法
  6
Continuous
 62
     0
370
    -2
100
AcDbLine
 10
100.3831912154538
 20
104.0848583043181
 30
0.0
 11
100.3831912154538
 21
102.7098583043182
 31
0.0
  0
LINE
  5
3B6F
330
3B69
100
AcDbEntity
  8
寸法
  6
Continuous
 62
     0
370
    -2
100
AcDbLine
 10
100.3831912154538
 20
98.08485830431816
 30
0.0
 11
100.3831912154538
 21
99.4598583043182
 31
0.0
  0
SOLID
  5
3B70
330
3B69
100
AcDbEntity
  8
寸法
 62
     0
100
AcDbTrace
 10
100.6331912154538
 20
104.0848583043181
 30
0.0
 11
100.1331912154538
 21
104.0848583043181
 31
0.0
 12
100.3831912154538
 22
105.5848583043181
 32
0.0
 13
100.3831912154538
 23
105.5848583043181
 33
0.0
  0
SOLID
  5
3B71
330
3B69
100
AcDbEntity
  8
寸法
 62
     0
100
AcDbTrace
 10
100.1331912154538
 20
98.08485830431816
 30
0.0
 11
100.6331912154538
 21
98.08485830431816
 31
0.0
 12
100.3831912154538
 22
96.58485830431816
 32
0.0
 13
100.3831912154538
 23
96.58485830431816
 33
0.0
  0
MTEXT
  5
3B72
330
3B69
100
AcDbEntity
  8
寸法
  6
Continuous
 62
     0
100
AcDbMText
 10
100.3831912154538
 20
101.0848583043182
 30
0.0
 40
2.0
 41
0.0
 46
0.0
 71
     5
 72
     1
  1
9
 73
     1
 44
1.0
  0
POINT
  5
3B73
330
3B69
100
AcDbEntity
  8
Defpoints
 62
     0
100
AcDbPoint
 10
110.3831912154538
 20
105.5848583043181
 30
0.0
  0
POINT
  5
3B74
330
3B69
100
AcDbEntity
  8
Defpoints
 62
     0
100
AcDbPoint
 10
110.3831912154538
 20
96.58485830431816
 30
0.0
  0
POINT
  5
3B75
330
3B69
100
AcDbEntity
  8
Defpoints
 62
     0
100
AcDbPoint
 10
100.3831912154538
 20
96.58485830431816
 30
0.0
  0
ENDBLK
  5
3B6B
330
3B69
100
AcDbEntity
  8
0
100
AcDbBlockEnd
  0
BLOCK
  5
3B77
330
3B76
100
AcDbEntity
  8
0
100
AcDbBlockBegin
  2
*D58
 70
     1
 10
0.0
 20
0.0
 30
0.0
  3
*D58
  1

  0
LINE
  5
3B79
330
3B76
100
AcDbEntity
  8
寸法
  6
Continuous
 62
     0
370
    -2
100
AcDbLine
 10
110.3831912154538
 20
106.2098583043181
 30
0.0
 11
110.3831912154538
 21
111.8348583043181
 31
0.0
  0
LINE
  5
3B7A
330
3B76
100
AcDbEntity
  8
寸法
  6
Continuous
 62
     0
370
    -2
100
AcDbLine
 10
138.3831912154538
 20
106.2098583043181
 30
0.0
 11
138.3831912154538
 21
111.8348583043181
 31
0.0
  0
LINE
  5
3B7B
330
3B76
100
AcDbEntity
  8
寸法
  6
Continuous
 62
     0
370
    -2
100
AcDbLine
 10
111.8831912154538
 20
110.5848583043181
 30
0.0
 11
121.4159900589388
 21
110.5848583043181
 31
0.0
  0
LINE
  5
3B7C
330
3B76
100
AcDbEntity
  8
寸法
  6
Continuous
 62
     0
370
    -2
100
AcDbLine
 10
136.8831912154538
 20
110.5848583043181
 30
0.0
 11
125.9993233922722
 21
110.5848583043181
 31
0.0
  0
SOLID
  5
3B7D
330
3B76
100
AcDbEntity
  8
寸法
 62
     0
100
AcDbTrace
 10
111.8831912154538
 20
110.8348583043181
 30
0.0
 11
111.8831912154538
 21
110.3348583043181
 31
0.0
 12
110.3831912154538
 22
110.5848583043181
 32
0.0
 13
110.3831912154538
 23
110.5848583043181
 33
0.0
  0
SOLID
  5
3B7E
330
3B76
100
AcDbEntity
  8
寸法
 62
     0
100
AcDbTrace
 10
136.8831912154538
 20
110.3348583043181
 30
0.0
 11
136.8831912154538
 21
110.8348583043181
 31
0.0
 12
138.3831912154538
 22
110.5848583043181
 32
0.0
 13
138.3831912154538
 23
110.5848583043181
 33
0.0
  0
MTEXT
  5
3B7F
330
3B76
100
AcDbEntity
  8
寸法
  6
Continuous
 62
     0
100
AcDbMText
 10
123.7076567256055
 20
110.5848583043181
 30
0.0
 40
2.0
 41
0.0
 46
0.0
 71
     5
 72
     1
  1
28
 73
     1
 44
1.0
  0
POINT
  5
3B80
330
3B76
100
AcDbEntity
  8
Defpoints
 62
     0
100
AcDbPoint
 10
110.3831912154538
 20
105.5848583043181
 30
0.0
  0
POINT
  5
3B81
330
3B76
100
AcDbEntity
  8
Defpoints
 62
     0
100
AcDbPoint
 10
138.3831912154538
 20
105.5848583043181
 30
0.0
  0
POINT
  5
3B82
330
3B76
100
AcDbEntity
  8
Defpoints
 62
     0
100
AcDbPoint
 10
138.3831912154538
 20
110.5848583043181
 30
0.0
  0
ENDBLK
  5
3B78
330
3B76
100
AcDbEntity
  8
0
100
AcDbBlockEnd
  0
BLOCK
  5
3B84
330
3B83
100
AcDbEntity
  8
0
100
AcDbBlockBegin
  2
*D59
 70
     1
 10
0.0
 20
0.0
 30
0.0
  3
*D59
  1

  0
LINE
  5
3B86
330
3B83
100
AcDbEntity
  8
寸法
  6
Continuous
 62
     0
370
    -2
100
AcDbLine
 10
111.5831912154538
 20
95.95985830431816
 30
0.0
 11
111.5831912154538
 21
90.33485830431816
 31
0.0
  0
LINE
  5
3B87
330
3B83
100
AcDbEntity
  8
寸法
  6
Continuous
 62
     0
370
    -2
100
AcDbLine
 10
110.3831912154538
 20
95.95985830431816
 30
0.0
 11
110.3831912154538
 21
90.33485830431816
 31
0.0
  0
LINE
  5
3B88
330
3B83
100
AcDbEntity
  8
寸法
  6
Continuous
 62
     0
370
    -2
100
AcDbLine
 10
113.0831912154538
 20
91.58485830431816
 30
0.0
 11
114.5831912154538
 21
91.58485830431816
 31
0.0
  0
LINE
  5
3B89
330
3B83
100
AcDbEntity
  8
寸法
  6
Continuous
 62
     0
370
    -2
100
AcDbLine
 10
108.8831912154538
 20
91.58485830431816
 30
0.0
 11
107.3831912154538
 21
91.58485830431816
 31
0.0
  0
SOLID
  5
3B8A
330
3B83
100
AcDbEntity
  8
寸法
 62
     0
100
AcDbTrace
 10
113.0831912154538
 20
91.83485830431816
 30
0.0
 11
113.0831912154538
 21
91.33485830431816
 31
0.0
 12
111.5831912154538
 22
91.58485830431816
 32
0.0
 13
111.5831912154538
 23
91.58485830431816
 33
0.0
  0
SOLID
  5
3B8B
330
3B83
100
AcDbEntity
  8
寸法
 62
     0
100
AcDbTrace
 10
108.8831912154538
 20
91.33485830431816
 30
0.0
 11
108.8831912154538
 21
91.83485830431816
 31
0.0
 12
110.3831912154538
 22
91.58485830431816
 32
0.0
 13
110.3831912154538
 23
91.58485830431816
 33
0.0
  0
MTEXT
  5
3B8C
330
3B83
100
AcDbEntity
  8
寸法
  6
Continuous
 62
     0
100
AcDbMText
 10
111.0487119046772
 20
89.0009983833193
 30
0.0
 40
2.0
 41
0.0
 46
0.0
 71
     5
 72
     1
  1
1.2
 73
     1
 44
1.0
  0
POINT
  5
3B8D
330
3B83
100
AcDbEntity
  8
Defpoints
 62
     0
100
AcDbPoint
 10
111.5831912154538
 20
96.58485830431816
 30
0.0
  0
POINT
  5
3B8E
330
3B83
100
AcDbEntity
  8
Defpoints
 62
     0
100
AcDbPoint
 10
110.3831912154538
 20
96.58485830431816
 30
0.0
  0
POINT
  5
3B8F
330
3B83
100
AcDbEntity
  8
Defpoints
 62
     0
100
AcDbPoint
 10
110.3831912154538
 20
91.58485830431816
 30
0.0
  0
ENDBLK
  5
3B85
330
3B83
100
AcDbEntity
  8
0
100
AcDbBlockEnd
  0
BLOCK
  5
3B91
330
3B90
100
AcDbEntity
  8
0
100
AcDbBlockBegin
  2
*D60
 70
     1
 10
0.0
 20
0.0
 30
0.0
  3
*D60
  1

  0
LINE
  5
3B93
330
3B90
100
AcDbEntity
  8
寸法
  6
Continuous
 62
     0
370
    -2
100
AcDbLine
 10
139.0081912154538
 20
105.5848583043181
 30
0.0
 11
144.6331912154538
 21
105.5848583043181
 31
0.0
  0
LINE
  5
3B94
330
3B90
100
AcDbEntity
  8
寸法
  6
Continuous
 62
     0
370
    -2
100
AcDbLine
 10
138.8681912154538
 20
102.0848583043182
 30
0.0
 11
144.6331912154538
 21
102.0848583043182
 31
0.0
  0
LINE
  5
3B95
330
3B90
100
AcDbEntity
  8
寸法
  6
Continuous
 62
     0
370
    -2
100
AcDbLine
 10
143.3831912154538
 20
107.0848583043181
 30
0.0
 11
143.3831912154538
 21
108.5848583043181
 31
0.0
  0
LINE
  5
3B96
330
3B90
100
AcDbEntity
  8
寸法
  6
Continuous
 62
     0
370
    -2
100
AcDbLine
 10
143.3831912154538
 20
100.5848583043182
 30
0.0
 11
143.3831912154538
 21
99.0848583043182
 31
0.0
  0
SOLID
  5
3B97
330
3B90
100
AcDbEntity
  8
寸法
 62
     0
100
AcDbTrace
 10
143.1331912154538
 20
107.0848583043181
 30
0.0
 11
143.6331912154538
 21
107.0848583043181
 31
0.0
 12
143.3831912154538
 22
105.5848583043181
 32
0.0
 13
143.3831912154538
 23
105.5848583043181
 33
0.0
  0
SOLID
  5
3B98
330
3B90
100
AcDbEntity
  8
寸法
 62
     0
100
AcDbTrace
 10
143.6331912154538
 20
100.5848583043182
 30
0.0
 11
143.1331912154538
 21
100.5848583043182
 31
0.0
 12
143.3831912154538
 22
102.0848583043182
 32
0.0
 13
143.3831912154538
 23
102.0848583043182
 33
0.0
  0
MTEXT
  5
3B99
330
3B90
100
AcDbEntity
  8
寸法
  6
Continuous
 62
     0
100
AcDbMText
 10
143.3831912154538
 20
103.7450323153478
 30
0.0
 40
2.0
 41
0.0
 46
0.0
 71
     5
 72
     1
  1
3.5
 73
     1
 44
1.0
  0
POINT
  5
3B9A
330
3B90
100
AcDbEntity
  8
Defpoints
 62
     0
100
AcDbPoint
 10
138.3831912154538
 20
105.5848583043181
 30
0.0
  0
POINT
  5
3B9B
330
3B90
100
AcDbEntity
  8
Defpoints
 62
     0
100
AcDbPoint
 10
138.2431912154538
 20
102.0848583043182
 30
0.0
  0
POINT
  5
3B9C
330
3B90
100
AcDbEntity
  8
Defpoints
 62
     0
100
AcDbPoint
 10
143.3831912154538
 20
102.0848583043182
 30
0.0
  0
ENDBLK
  5
3B92
330
3B90
100
AcDbEntity
  8
0
100
AcDbBlockEnd
  0
BLOCK
  5
3B9E
330
3B9D
100
AcDbEntity
  8
0
100
AcDbBlockBegin
  2
*D61
 70
     1
 10
0.0
 20
0.0
 30
0.0
  3
*D61
  1

  0
LINE
  5
3BA0
330
3B9D
100
AcDbEntity
  8
寸法
  6
Continuous
 62
     0
370
    -2
100
AcDbLine
 10
138.3831912154538
 20
106.2098583043181
 30
0.0
 11
138.3831912154538
 21
111.8348583043181
 31
0.0
  0
LINE
  5
3BA1
330
3B9D
100
AcDbEntity
  8
寸法
  6
Continuous
 62
     0
370
    -2
100
AcDbLine
 10
158.3831912154538
 20
101.6098583043181
 30
0.0
 11
158.3831912154538
 21
111.8348583043181
 31
0.0
  0
LINE
  5
3BA2
330
3B9D
100
AcDbEntity
  8
寸法
  6
Continuous
 62
     0
370
    -2
100
AcDbLine
 10
139.8831912154538
 20
110.5848583043181
 30
0.0
 11
146.2581912154538
 21
110.5848583043181
 31
0.0
  0
LINE
  5
3BA3
330
3B9D
100
AcDbEntity
  8
寸法
  6
Continuous
 62
     0
370
    -2
100
AcDbLine
 10
156.8831912154538
 20
110.5848583043181
 30
0.0
 11
150.5081912154538
 21
110.5848583043181
 31
0.0
  0
SOLID
  5
3BA4
330
3B9D
100
AcDbEntity
  8
寸法
 62
     0
100
AcDbTrace
 10
139.8831912154538
 20
110.8348583043181
 30
0.0
 11
139.8831912154538
 21
110.3348583043181
 31
0.0
 12
138.3831912154538
 22
110.5848583043181
 32
0.0
 13
138.3831912154538
 23
110.5848583043181
 33
0.0
  0
SOLID
  5
3BA5
330
3B9D
100
AcDbEntity
  8
寸法
 62
     0
100
AcDbTrace
 10
156.8831912154538
 20
110.3348583043181
 30
0.0
 11
156.8831912154538
 21
110.8348583043181
 31
0.0
 12
158.3831912154538
 22
110.5848583043181
 32
0.0
 13
158.3831912154538
 23
110.5848583043181
 33
0.0
  0
MTEXT
  5
3BA6
330
3B9D
100
AcDbEntity
  8
寸法
  6
Continuous
 62
     0
100
AcDbMText
 10
148.3831912154538
 20
110.5848583043181
 30
0.0
 40
2.0
 41
0.0
 46
0.0
 71
     5
 72
     1
  1
20
 73
     1
 44
1.0
  0
POINT
  5
3BA7
330
3B9D
100
AcDbEntity
  8
Defpoints
 62
     0
100
AcDbPoint
 10
138.3831912154538
 20
105.5848583043181
 30
0.0
  0
POINT
  5
3BA8
330
3B9D
100
AcDbEntity
  8
Defpoints
 62
     0
100
AcDbPoint
 10
158.3831912154538
 20
100.9848583043181
 30
0.0
  0
POINT
  5
3BA9
330
3B9D
100
AcDbEntity
  8
Defpoints
 62
     0
100
AcDbPoint
 10
158.3831912154538
 20
110.5848583043181
 30
0.0
  0
ENDBLK
  5
3B9F
330
3B9D
100
AcDbEntity
  8
0
100
AcDbBlockEnd
  0
BLOCK
  5
3BAB
330
3BAA
100
AcDbEntity
  8
0
100
AcDbBlockBegin
  2
*D62
 70
     1
 10
0.0
 20
0.0
 30
0.0
  3
*D62
  1

  0
LINE
  5
3BAD
330
3BAA
100
AcDbEntity
  8
寸法
  6
Continuous
 62
     0
370
    -2
100
AcDbLine
 10
110.3831912154538
 20
106.8348583043181
 30
0.0
 11
110.3831912154538
 21
116.8348583043181
 31
0.0
  0
LINE
  5
3BAE
330
3BAA
100
AcDbEntity
  8
寸法
  6
Continuous
 62
     0
370
    -2
100
AcDbLine
 10
158.3831912154538
 20
101.6098583043181
 30
0.0
 11
158.3831912154538
 21
116.8348583043181
 31
0.0
  0
LINE
  5
3BAF
330
3BAA
100
AcDbEntity
  8
寸法
  6
Continuous
 62
     0
370
    -2
100
AcDbLine
 10
111.8831912154538
 20
115.5848583043181
 30
0.0
 11
132.0915245487871
 21
115.5848583043181
 31
0.0
  0
LINE
  5
3BB0
330
3BAA
100
AcDbEntity
  8
寸法
  6
Continuous
 62
     0
370
    -2
100
AcDbLine
 10
156.8831912154538
 20
115.5848583043181
 30
0.0
 11
136.6748578821204
 21
115.5848583043181
 31
0.0
  0
SOLID
  5
3BB1
330
3BAA
100
AcDbEntity
  8
寸法
 62
     0
100
AcDbTrace
 10
111.8831912154538
 20
115.8348583043181
 30
0.0
 11
111.8831912154538
 21
115.3348583043181
 31
0.0
 12
110.3831912154538
 22
115.5848583043181
 32
0.0
 13
110.3831912154538
 23
115.5848583043181
 33
0.0
  0
SOLID
  5
3BB2
330
3BAA
100
AcDbEntity
  8
寸法
 62
     0
100
AcDbTrace
 10
156.8831912154538
 20
115.3348583043181
 30
0.0
 11
156.8831912154538
 21
115.8348583043181
 31
0.0
 12
158.3831912154538
 22
115.5848583043181
 32
0.0
 13
158.3831912154538
 23
115.5848583043181
 33
0.0
  0
MTEXT
  5
3BB3
330
3BAA
100
AcDbEntity
  8
寸法
  6
Continuous
 62
     0
100
AcDbMText
 10
134.3831912154538
 20
115.5848583043181
 30
0.0
 40
2.0
 41
0.0
 46
0.0
 71
     5
 72
     1
  1
48
 73
     1
 44
1.0
  0
POINT
  5
3BB4
330
3BAA
100
AcDbEntity
  8
Defpoints
 62
     0
100
AcDbPoint
 10
110.3831912154538
 20
106.2098583043181
 30
0.0
  0
POINT
  5
3BB5
330
3BAA
100
AcDbEntity
  8
Defpoints
 62
     0
100
AcDbPoint
 10
158.3831912154538
 20
100.9848583043181
 30
0.0
  0
POINT
  5
3BB6
330
3BAA
100
AcDbEntity
  8
Defpoints
 62
     0
100
AcDbPoint
 10
158.3831912154538
 20
115.5848583043181
 30
0.0
  0
ENDBLK
  5
3BAC
330
3BAA
100
AcDbEntity
  8
0
100
AcDbBlockEnd
  0
BLOCK
  5
3BB8
330
3BB7
100
AcDbEntity
  8
0
100
AcDbBlockBegin
  2
*D63
 70
     1
 10
0.0
 20
0.0
 30
0.0
  3
*D63
  1

  0
LINE
  5
3BBA
330
3BB7
100
AcDbEntity
  8
寸法
  6
Continuous
 62
     0
370
    -2
100
AcDbLine
 10
158.608191215454
 20
101.3848583043182
 30
0.0
 11
164.2331912154538
 21
101.3848583043182
 31
0.0
  0
LINE
  5
3BBB
330
3BB7
100
AcDbEntity
  8
寸法
  6
Continuous
 62
     0
370
    -2
100
AcDbLine
 10
158.6081912154538
 20
100.5848583043182
 30
0.0
 11
164.2331912154538
 21
100.5848583043182
 31
0.0
  0
LINE
  5
3BBC
330
3BB7
100
AcDbEntity
  8
寸法
  6
Continuous
 62
     0
370
    -2
100
AcDbLine
 10
162.9831912154538
 20
102.8848583043182
 30
0.0
 11
162.9831912154538
 21
104.3848583043182
 31
0.0
  0
LINE
  5
3BBD
330
3BB7
100
AcDbEntity
  8
寸法
  6
Continuous
 62
     0
370
    -2
100
AcDbLine
 10
162.9831912154538
 20
99.0848583043182
 30
0.0
 11
162.9831912154538
 21
97.5848583043182
 31
0.0
  0
SOLID
  5
3BBE
330
3BB7
100
AcDbEntity
  8
寸法
 62
     0
100
AcDbTrace
 10
162.7331912154538
 20
102.8848583043182
 30
0.0
 11
163.2331912154538
 21
102.8848583043182
 31
0.0
 12
162.9831912154538
 22
101.3848583043182
 32
0.0
 13
162.9831912154538
 23
101.3848583043182
 33
0.0
  0
SOLID
  5
3BBF
330
3BB7
100
AcDbEntity
  8
寸法
 62
     0
100
AcDbTrace
 10
163.2331912154538
 20
99.0848583043182
 30
0.0
 11
162.7331912154538
 21
99.0848583043182
 31
0.0
 12
162.9831912154538
 22
100.5848583043182
 32
0.0
 13
162.9831912154538
 23
100.5848583043182
 33
0.0
  0
MTEXT
  5
3BC0
330
3BB7
100
AcDbEntity
  8
寸法
  6
Continuous
 62
     0
100
AcDbMText
 10
166.6641561362264
 20
101.1003767542204
 30
0.0
 40
2.0
 41
0.0
 46
0.0
 71
     5
 72
     1
  1
0.8
 73
     1
 44
1.0
  0
POINT
  5
3BC1
330
3BB7
100
AcDbEntity
  8
Defpoints
 62
     0
100
AcDbPoint
 10
157.983191215454
 20
101.3848583043182
 30
0.0
  0
POINT
  5
3BC2
330
3BB7
100
AcDbEntity
  8
Defpoints
 62
     0
100
AcDbPoint
 10
157.9831912154538
 20
100.5848583043182
 30
0.0
  0
POINT
  5
3BC3
330
3BB7
100
AcDbEntity
  8
Defpoints
 62
     0
100
AcDbPoint
 10
162.9831912154538
 20
100.5848583043182
 30
0.0
  0
ENDBLK
  5
3BB9
330
3BB7
100
AcDbEntity
  8
0
100
AcDbBlockEnd
  0
BLOCK
  5
3BC5
330
3BC4
100
AcDbEntity
  8
0
100
AcDbBlockBegin
  2
*D64
 70
     1
 10
0.0
 20
0.0
 30
0.0
  3
*D64
  1

  0
LINE
  5
3BC7
330
3BC4
100
AcDbEntity
  8
寸法
  6
Continuous
 62
     0
370
    -2
100
AcDbLine
 10
109.7581912154538
 20
96.58485830431816
 30
0.0
 11
104.1331912154538
 21
96.58485830431816
 31
0.0
  0
LINE
  5
3BC8
330
3BC4
100
AcDbEntity
  8
寸法
  6
Continuous
 62
     0
370
    -2
100
AcDbLine
 10
110.9581912154538
 20
100.5848583043182
 30
0.0
 11
104.1331912154538
 21
100.5848583043182
 31
0.0
  0
LINE
  5
3BC9
330
3BC4
100
AcDbEntity
  8
寸法
  6
Continuous
 62
     0
370
    -2
100
AcDbLine
 10
105.3831912154538
 20
95.08485830431816
 30
0.0
 11
105.3831912154538
 21
93.58485830431816
 31
0.0
  0
LINE
  5
3BCA
330
3BC4
100
AcDbEntity
  8
寸法
  6
Continuous
 62
     0
370
    -2
100
AcDbLine
 10
105.3831912154538
 20
102.0848583043182
 30
0.0
 11
105.3831912154538
 21
103.5848583043182
 31
0.0
  0
SOLID
  5
3BCB
330
3BC4
100
AcDbEntity
  8
寸法
 62
     0
100
AcDbTrace
 10
105.6331912154538
 20
95.08485830431816
 30
0.0
 11
105.1331912154538
 21
95.08485830431816
 31
0.0
 12
105.3831912154538
 22
96.58485830431816
 32
0.0
 13
105.3831912154538
 23
96.58485830431816
 33
0.0
  0
SOLID
  5
3BCC
330
3BC4
100
AcDbEntity
  8
寸法
 62
     0
100
AcDbTrace
 10
105.1331912154538
 20
102.0848583043182
 30
0.0
 11
105.6331912154538
 21
102.0848583043182
 31
0.0
 12
105.3831912154538
 22
100.5848583043182
 32
0.0
 13
105.3831912154538
 23
100.5848583043182
 33
0.0
  0
MTEXT
  5
3BCD
330
3BC4
100
AcDbEntity
  8
寸法
  6
Continuous
 62
     0
100
AcDbMText
 10
105.3831912154538
 20
98.54327777136778
 30
0.0
 40
2.0
 41
0.0
 46
0.0
 71
     5
 72
     1
  1
4
 73
     1
 44
1.0
  0
POINT
  5
3BCE
330
3BC4
100
AcDbEntity
  8
Defpoints
 62
     0
100
AcDbPoint
 10
110.3831912154538
 20
96.58485830431816
 30
0.0
  0
POINT
  5
3BCF
330
3BC4
100
AcDbEntity
  8
Defpoints
 62
     0
100
AcDbPoint
 10
111.5831912154538
 20
100.5848583043182
 30
0.0
  0
POINT
  5
3BD0
330
3BC4
100
AcDbEntity
  8
Defpoints
 62
     0
100
AcDbPoint
 10
105.3831912154538
 20
100.5848583043182
 30
0.0
  0
ENDBLK
  5
3BC6
330
3BC4
100
AcDbEntity
  8
0
100
AcDbBlockEnd
  0
ENDSEC
  0
SECTION
  2
ENTITIES
  0
LINE
  5
664
330
1F
100
AcDbEntity
  8
用紙範囲
  6
HIDDEN
100
AcDbLine
 10
0.0
 20
205.0
 30
0.0
 11
0.0
 21
0.0
 31
0.0
  0
LINE
  5
665
330
1F
100
AcDbEntity
  8
用紙範囲
  6
HIDDEN
100
AcDbLine
 10
292.0
 20
205.0
 30
0.0
 11
292.0
 21
0.0
 31
0.0
  0
LINE
  5
666
330
1F
100
AcDbEntity
  8
用紙範囲
  6
HIDDEN
100
AcDbLine
 10
0.0
 20
205.0
 30
0.0
 11
292.0
 21
205.0
 31
0.0
  0
LINE
  5
667
330
1F
100
AcDbEntity
  8
用紙範囲
  6
HIDDEN
100
AcDbLine
 10
0.0
 20
0.0
 30
0.0
 11
292.0
 21
0.0
 31
0.0
  0
LINE
  5
668
330
1F
100
AcDbEntity
  8
枠
  6
Continuous
100
AcDbLine
 10
11.00000000000003
 20
193.5
 30
0.0
 11
281.0
 21
193.5
 31
0.0
  0
LINE
  5
669
330
1F
100
AcDbEntity
  8
枠
  6
Continuous
100
AcDbLine
 10
11.00000000000003
 20
11.5
 30
0.0
 11
281.0
 21
11.5
 31
0.0
  0
LINE
  5
66A
330
1F
100
AcDbEntity
  8
枠
  6
Continuous
100
AcDbLine
 10
11.00000000000003
 20
193.5
 30
0.0
 11
11.00000000000003
 21
11.5
 31
0.0
  0
LINE
  5
66B
330
1F
100
AcDbEntity
  8
枠
  6
Continuous
100
AcDbLine
 10
281.0
 20
193.5
 30
0.0
 11
281.0
 21
11.5
 31
0.0
  0
LINE
  5
673
330
1F
100
AcDbEntity
  8
枠
  6
Continuous
100
AcDbLine
 10
10.00000000000003
 20
194.5
 30
0.0
 11
282.0
 21
194.5
 31
0.0
  0
LINE
  5
674
330
1F
100
AcDbEntity
  8
枠
  6
Continuous
100
AcDbLine
 10
10.00000000000003
 20
194.5
 30
0.0
 11
10.00000000000003
 21
10.5
 31
0.0
  0
LINE
  5
675
330
1F
100
AcDbEntity
  8
枠
  6
Continuous
100
AcDbLine
 10
10.00000000000003
 20
10.5
 30
0.0
 11
282.0
 21
10.5
 31
0.0
  0
LINE
  5
676
330
1F
100
AcDbEntity
  8
枠
  6
Continuous
100
AcDbLine
 10
282.0
 20
194.5
 30
0.0
 11
282.0
 21
10.5
 31
0.0
  0
LINE
  5
677
330
1F
100
AcDbEntity
  8
枠
  6
Continuous
100
AcDbLine
 10
236.0
 20
193.5
 30
0.0
 11
236.0
 21
11.5
 31
0.0
  0
LINE
  5
678
330
1F
100
AcDbEntity
  8
枠
  6
Continuous
100
AcDbLine
 10
236.0
 20
171.3660465293556
 30
0.0
 11
281.0
 21
171.3660465293556
 31
0.0
  0
LINE
  5
679
330
1F
100
AcDbEntity
  8
枠
  6
Continuous
100
AcDbLine
 10
236.0
 20
149.2320930587111
 30
0.0
 11
281.0
 21
149.2320930587111
 31
0.0
  0
LINE
  5
67A
330
1F
100
AcDbEntity
  8
枠
  6
Continuous
100
AcDbLine
 10
236.0
 20
31.87291584484291
 30
0.0
 11
281.0
 21
31.87291584484291
 31
0.0
  0
LINE
  5
67B
330
1F
100
AcDbEntity
  8
枠
  6
Continuous
100
AcDbLine
 10
236.0
 20
41.88960476803794
 30
0.0
 11
281.0
 21
41.88960476803794
 31
0.0
  0
LINE
  5
67D
330
1F
100
AcDbEntity
  8
枠
  6
Continuous
100
AcDbLine
 10
235.0
 20
193.5
 30
0.0
 11
235.0
 21
11.5
 31
0.0
  0
MTEXT
  5
A15
330
1F
100
AcDbEntity
  8
文字
100
AcDbMText
 10
238.0774350305441
 20
192.0038694137743
 30
0.0
 40
2.5
 41
19.50744578598591
 46
2.8275
 71
     1
 72
     5
  1
{\fＭＳ Ｐゴシック|b0|i0|c0|p0;名称}
 73
     1
 44
1.0
1001
ACAD
1000
ACAD_MTEXT_DEFINED_HEIGHT_BEGIN
1070
    46
1040
2.8275
1000
ACAD_MTEXT_DEFINED_HEIGHT_END
  0
MTEXT
  5
A17
330
1F
100
AcDbEntity
  8
文字
100
AcDbMText
 10
236.0
 20
183.859332666015
 30
0.0
 40
2.5
 41
45.0
 46
6.964166666666667
 71
     1
 72
     5
  1
\fＭＳ Ｐゴシック|b0|i0|c0|p0;Ｐｒｅｖｉｏ T\P塩ビタイル用}
 73
     1
 44
1.0
1001
ACAD
1000
ACAD_MTEXT_DEFINED_HEIGHT_BEGIN
1070
    46
1040
6.964166666666667
1000
ACAD_MTEXT_DEFINED_HEIGHT_END
  0
MTEXT
  5
A18
330
1F
100
AcDbEntity
  8
文字
100
AcDbMText
 10
238.0774350305441
 20
169.6766048811238
 30
0.0
 40
2.5
 41
12.9189203585147
 46
2.84
 71
     1
 72
     5
  1
{\fＭＳ Ｐゴシック|b0|i0|c0|p0;品番}
 73
     1
 44
1.0
1001
ACAD
1000
ACAD_MTEXT_DEFINED_HEIGHT_BEGIN
1070
    46
1040
2.84
1000
ACAD_MTEXT_DEFINED_HEIGHT_END
  0
MTEXT
  5
A1C
330
1F
100
AcDbEntity
  8
文字
100
AcDbMText
 10
238.0774350305441
 20
148.0690084662711
 30
0.0
 40
2.5
 41
9.970036363636382
 46
2.8125
 71
     1
 72
     5
  1
{\fＭＳ Ｐゴシック|b0|i0|c0|p0;仕様}
 73
     1
 44
1.0
1001
ACAD
1000
ACAD_MTEXT_DEFINED_HEIGHT_BEGIN
1070
    46
1040
2.8125
1000
ACAD_MTEXT_DEFINED_HEIGHT_END
  0
MTEXT
  5
A1D
330
1F
100
AcDbEntity
  8
文字
100
AcDbMText
 10
245.3794334940524
 20
138.8428917133901
 30
0.0
 40
2.0
 41
31.03349346991041
 46
2.33
 71
     1
 72
     5
  1
{\fＭＳ Ｐゴシック|b0|i0|c0|p0;材質：アルミ製}
 73
     1
 44
1.0
1001
ACAD
1000
ACAD_MTEXT_DEFINED_HEIGHT_BEGIN
1070
    46
1040
2.33
1000
ACAD_MTEXT_DEFINED_HEIGHT_END
  0
MTEXT
  5
A1E
330
1F
100
AcDbEntity
  8
文字
100
AcDbMText
 10
245.3794334940524
 20
130.5090576528301
 30
0.0
 40
2.0
 41
31.03349346991044
 46
2.181818181818182
 71
     1
 72
     5
  1
{\fＭＳ Ｐゴシック|b0|i0|c0|p0;仕上：2色}
 73
     1
 44
1.0
1001
ACAD
1000
ACAD_MTEXT_DEFINED_HEIGHT_BEGIN
1070
    46
1040
2.181818181818182
1000
ACAD_MTEXT_DEFINED_HEIGHT_END
  0
MTEXT
  5
A22
330
1F
100
AcDbEntity
  8
社名
100
AcDbMText
 10
236.0
 20
27.36191229983774
 30
0.0
 40
3.0
 41
46.0
 46
3.375
 71
     1
 72
     5
  1
\fＭＳ Ｐゴシック|b0|i0|c0|p0;株式会社ＡＳＳＩＳＴ}
 73
     1
 44
1.0
1001
ACAD
1000
ACAD_MTEXT_DEFINED_HEIGHT_BEGIN
1070
    46
1040
3.375
1000
ACAD_MTEXT_DEFINED_HEIGHT_END
  0
MTEXT
  5
A24
330
1F
100
AcDbEntity
  8
文字
100
AcDbMText
 10
238.0774350305441
 20
40.58955921885172
 30
0.0
 40
2.5
 41
9.970036363636382
 46
2.8275
 71
     1
 72
     5
  1
{\fＭＳ Ｐゴシック|b0|i0|c0|p0;縮尺}
 73
     1
 44
1.0
1001
ACAD
1000
ACAD_MTEXT_DEFINED_HEIGHT_BEGIN
1070
    46
1040
2.8275
1000
ACAD_MTEXT_DEFINED_HEIGHT_END
  0
MTEXT
  5
A25
330
1F
100
AcDbEntity
  8
文字
100
AcDbMText
 10
251.2855836701089
 20
36.15844413562513
 30
0.0
 40
2.5
 41
28.36545556978234
 46
2.5
 71
     1
 72
     5
  1
{\fＭＳ Ｐゴシック|b0|i0|c0|p0;１：１ }
 73
     1
 44
1.0
1001
ACAD
1000
ACAD_MTEXT_DEFINED_HEIGHT_BEGIN
1070
    46
1040
2.5
1000
ACAD_MTEXT_DEFINED_HEIGHT_END
  0
MTEXT
  5
DF8
330
1F
100
AcDbEntity
  8
文字
100
AcDbMText
 10
253.810188672227
 20
134.80617212146
 30
0.0
 40
2.0
 41
31.03349346991041
 46
2.228
 71
     1
 72
     5
  1
{\fＭＳ Ｐゴシック|b0|i0|c0|p0;（A6063S-T5)}
 73
     1
 44
1.0
1001
ACAD
1000
ACAD_MTEXT_DEFINED_HEIGHT_BEGIN
1070
    46
1040
2.228
1000
ACAD_MTEXT_DEFINED_HEIGHT_END
  0
MTEXT
  5
13F5
330
1F
100
AcDbEntity
  8
文字
100
AcDbMText
 10
239.5379477351412
 20
143.0699637133901
 30
0.0
 40
2.0
 41
31.03349346991041
 46
2.25
 71
     1
 72
     5
  1
{\fＭＳ Ｐゴシック|b0|i0|c0|p0;ベース部分}
 73
     1
 44
1.0
1001
ACAD
1000
ACAD_MTEXT_DEFINED_HEIGHT_BEGIN
1070
    46
1040
2.25
1000
ACAD_MTEXT_DEFINED_HEIGHT_END
  0
MTEXT
  5
27D9
330
1F
100
AcDbEntity
  8
文字
100
AcDbMText
 10
245.3794334940524
 20
112.9753845792882
 30
0.0
 40
2.0
 41
31.03349346991044
 46
2.272727272727272
 71
     1
 72
     5
  1
{\fＭＳ Ｐゴシック|b0|i0|c0|p0;材質：軟質PVC}
 73
     1
 44
1.0
1001
ACAD
1000
ACAD_MTEXT_DEFINED_HEIGHT_BEGIN
1070
    46
1040
2.272727272727272
1000
ACAD_MTEXT_DEFINED_HEIGHT_END
  0
MTEXT
  5
27DB
330
1F
100
AcDbEntity
  8
文字
100
AcDbMText
 10
239.5379477351412
 20
117.3463532965296
 30
0.0
 40
2.0
 41
31.03349346991041
 46
2.25
 71
     1
 72
     5
  1
{\fＭＳ Ｐゴシック|b0|i0|c0|p0;タイヤ部分}
 73
     1
 44
1.0
1001
ACAD
1000
ACAD_MTEXT_DEFINED_HEIGHT_BEGIN
1070
    46
1040
2.25
1000
ACAD_MTEXT_DEFINED_HEIGHT_END
  0
MTEXT
  5
27DC
330
1F
100
AcDbEntity
  8
文字
100
AcDbMText
 10
243.6094939751414
 20
106.1235957792882
 30
0.0
 40
2.0
 41
31.03349346991041
 46
2.182
 71
     1
 72
     5
  1
{\fＭＳ Ｐゴシック|b0|i0|c0|p0;カラー：３色}
 73
     1
 44
1.0
1001
ACAD
1000
ACAD_MTEXT_DEFINED_HEIGHT_BEGIN
1070
    46
1040
2.182
1000
ACAD_MTEXT_DEFINED_HEIGHT_END
  0
MTEXT
  5
27DD
330
1F
100
AcDbEntity
  8
文字
100
AcDbMText
 10
254.0
 20
102.3432985103227
 30
0.0
 40
2.0
 41
31.03349346991041
 46
9.725204243257888
 71
     1
 72
     5
  1
{\fＭＳ Ｐゴシック|b0|i0|c0|p0;BL　ブラック\PCH　チャコール\PAS　アッシュ}
 73
     1
 44
1.0
1001
ACAD
1000
ACAD_MTEXT_DEFINED_HEIGHT_BEGIN
1070
    46
1040
9.725204243257888
1000
ACAD_MTEXT_DEFINED_HEIGHT_END
  0
LINE
  5
27E4
330
1F
100
AcDbEntity
  8
枠
  6
Continuous
100
AcDbLine
 10
236.0
 20
51.88960476803794
 30
0.0
 11
281.0
 21
51.88960476803794
 31
0.0
  0
MTEXT
  5
27E5
330
1F
100
AcDbEntity
  8
文字
100
AcDbMText
 10
238.0774350305441
 20
50.58955921885172
 30
0.0
 40
2.5
 41
9.970036363636382
 46
2.5
 71
     1
 72
     5
  1
{\fＭＳ Ｐゴシック|b0|i0|c0|p0;Date}
 73
     1
 44
1.0
1001
ACAD
1000
ACAD_MTEXT_DEFINED_HEIGHT_BEGIN
1070
    46
1040
2.5
1000
ACAD_MTEXT_DEFINED_HEIGHT_END
  0
MTEXT
  5
27E6
330
1F
100
AcDbEntity
  8
文字
100
AcDbMText
 10
246.1251641599999
 20
46.15844413562513
 30
0.0
 40
2.5
 41
33.67544957839678
 46
2.627860447667875
 71
     1
 72
     5
  1
{\fＭＳ Ｐゴシック|b0|i0|c0|p0;2022年6月24日}
 73
     1
 44
1.0
1001
ACAD
1000
ACAD_MTEXT_DEFINED_HEIGHT_BEGIN
1070
    46
1040
2.627860447667875
1000
ACAD_MTEXT_DEFINED_HEIGHT_END
  0
MTEXT
  5
2C03
330
1F
100
AcDbEntity
  8
文字
100
AcDbMText
 10
236.0
 20
160.4307612374436
 30
0.0
 40
2.5
 41
45.0
 46
2.5
 71
     1
 72
     5
  1
\fＭＳ Ｐゴシック|b0|i0|c0|p0;ＰVT１１１　}
 73
     1
 44
1.0
1001
ACAD
1000
ACAD_MTEXT_DEFINED_HEIGHT_BEGIN
1070
    46
1040
2.5
1000
ACAD_MTEXT_DEFINED_HEIGHT_END
  0
MTEXT
  5
2C09
330
1F
100
AcDbEntity
  8
社名
100
AcDbMText
 10
236.0
 20
19.58027172995764
 30
0.0
 40
5.0
 41
45.0
 46
5.0
 71
     1
 72
     5
  1
{\fＭＳ Ｐゴシック|b0|i0|c0|p0;\T1.15;\W1.3;AFOLA}
 73
     1
 44
1.0
1001
ACAD
1000
ACAD_MTEXT_DEFINED_HEIGHT_BEGIN
1070
    46
1040
5.0
1000
ACAD_MTEXT_DEFINED_HEIGHT_END
  0
DIMENSION
  5
3B30
330
1F
100
AcDbEntity
  8
寸法
  6
Continuous
100
AcDbDimension
280
     0
  2
*D57
 10
100.3831912154538
 20
96.58485830431816
 30
0.0
 11
100.3831912154538
 21
101.0848583043182
 31
0.0
 70
   160
 71
     5
 42
8.999999999999943
 73
     0
 74
     0
 75
     0
  3
ISO-25
100
AcDbAlignedDimension
 13
110.3831912154538
 23
105.5848583043181
 33
0.0
 14
110.3831912154538
 24
96.58485830431816
 34
0.0
 50
90.0
100
AcDbRotatedDimension
  0
DIMENSION
  5
3B31
330
1F
100
AcDbEntity
  8
寸法
  6
Continuous
100
AcDbDimension
280
     0
  2
*D58
 10
138.3831912154538
 20
110.5848583043181
 30
0.0
 11
123.7076567256055
 21
110.5848583043181
 31
0.0
 70
   160
 71
     5
 42
27.99999999999999
 73
     0
 74
     0
 75
     0
  3
ISO-25
100
AcDbAlignedDimension
 13
110.3831912154538
 23
105.5848583043181
 33
0.0
 14
138.3831912154538
 24
105.5848583043181
 34
0.0
100
AcDbRotatedDimension
  0
DIMENSION
  5
3B32
330
1F
100
AcDbEntity
  8
寸法
  6
Continuous
100
AcDbDimension
280
     0
  2
*D59
 10
110.3831912154538
 20
91.58485830431816
 30
0.0
 11
111.0487119046772
 21
89.0009983833193
 31
0.0
 70
   160
 71
     5
 42
1.199999999999989
 73
     0
 74
     0
 75
     0
  3
ISO-25
100
AcDbAlignedDimension
 13
111.5831912154538
 23
96.58485830431816
 33
0.0
 14
110.3831912154538
 24
96.58485830431816
 34
0.0
100
AcDbRotatedDimension
  0
DIMENSION
  5
3B33
330
1F
100
AcDbEntity
  8
寸法
  6
Continuous
100
AcDbDimension
280
     0
  2
*D60
 10
143.3831912154538
 20
102.0848583043182
 30
0.0
 11
143.3831912154538
 21
103.7450323153478
 31
0.0
 70
   160
 71
     5
 42
3.499999999999901
 73
     0
 74
     0
 75
     0
  3
ISO-25
100
AcDbAlignedDimension
 13
138.3831912154538
 23
105.5848583043181
 33
0.0
 14
138.2431912154538
 24
102.0848583043182
 34
0.0
 50
90.0
100
AcDbRotatedDimension
  0
LINE
  5
3B34
330
1F
100
AcDbEntity
  8
金属部分
  6
Continuous
100
AcDbLine
 10
110.3831912154538
 20
96.58485830431816
 30
0.0
 11
110.3831912154538
 21
105.5848583043181
 31
0.0
  0
LINE
  5
3B35
330
1F
100
AcDbEntity
  8
金属部分
  6
Continuous
100
AcDbLine
 10
113.3831912154538
 20
102.0848583043182
 30
0.0
 11
135.3831912154538
 21
102.0848583043182
 31
0.0
  0
LINE
  5
3B36
330
1F
100
AcDbEntity
  8
金属部分
  6
Continuous
100
AcDbLine
 10
110.3831912154538
 20
96.58485830431816
 30
0.0
 11
111.5831912154538
 21
96.58485830431816
 31
0.0
  0
LINE
  5
3B37
330
1F
100
AcDbEntity
  8
金属部分
  6
Continuous
100
AcDbLine
 10
111.5831912154538
 20
96.58485830431816
 30
0.0
 11
111.5831912154538
 21
100.5848583043182
 31
0.0
  0
LINE
  5
3B38
330
1F
100
AcDbEntity
  8
金属部分
  6
Continuous
100
AcDbLine
 10
111.5831912154538
 20
100.5848583043182
 30
0.0
 11
114.3831912154538
 21
100.5848583043182
 31
0.0
  0
LWPOLYLINE
  5
3B39
330
1F
100
AcDbEntity
  8
金属部分
100
AcDbPolyline
 90
        2
 70
     0
 43
0.0
 10
138.1831912154538
 20
100.5848583043182
 10
134.3831912154538
 20
100.5848583043187
  0
ARC
  5
3B3A
330
1F
100
AcDbEntity
  8
金属部分
100
AcDbCircle
 10
124.1331912154538
 20
99.79774099723105
 30
0.0
 40
1.087222909580392
100
AcDbArc
 50
46.38327232990095
 51
133.6167276701059
  0
ARC
  5
3B3B
330
1F
100
AcDbEntity
  8
金属部分
100
AcDbCircle
 10
115.1331912154539
 20
99.79774099723082
 30
0.0
 40
1.087222909580392
100
AcDbArc
 50
46.38327232990149
 51
133.6167276701043
  0
LWPOLYLINE
  5
3B3C
330
1F
100
AcDbEntity
  8
金属部分
100
AcDbPolyline
 90
        2
 70
     0
 43
0.0
 10
120.3831912154538
 20
100.5848583043183
 10
118.8831912154537
 20
100.5848583043183
  0
LWPOLYLINE
  5
3B3D
330
1F
100
AcDbEntity
  8
金属部分
100
AcDbPolyline
 90
        2
 70
     0
 43
0.0
 10
117.3831912154538
 20
100.5848583043182
 10
115.8831912154538
 20
100.5848583043182
  0
ARC
  5
3B3E
330
1F
100
AcDbEntity
  8
金属部分
100
AcDbCircle
 10
118.1331912154538
 20
99.79774099723087
 30
0.0
 40
1.087222909580392
100
AcDbArc
 50
46.38327232989725
 51
133.6167276701027
  0
ARC
  5
3B3F
330
1F
100
AcDbEntity
  8
金属部分
100
AcDbCircle
 10
121.1331912154538
 20
99.79774099723099
 30
0.0
 40
1.087222909580392
100
AcDbArc
 50
46.38327232990095
 51
133.6167276701059
  0
LWPOLYLINE
  5
3B40
330
1F
100
AcDbEntity
  8
金属部分
100
AcDbPolyline
 90
        2
 70
     0
 43
0.0
 10
123.3831912154538
 20
100.5848583043184
 10
121.8831912154538
 20
100.5848583043183
  0
ARC
  5
3B41
330
1F
100
AcDbEntity
  8
金属部分
100
AcDbCircle
 10
127.1331912154538
 20
99.7977409972311
 30
0.0
 40
1.087222909580392
100
AcDbArc
 50
46.38327232990095
 51
133.6167276701059
  0
LWPOLYLINE
  5
3B42
330
1F
100
AcDbEntity
  8
金属部分
100
AcDbPolyline
 90
        2
 70
     0
 43
0.0
 10
126.3831912154538
 20
100.5848583043184
 10
124.8831912154538
 20
100.5848583043184
  0
LWPOLYLINE
  5
3B43
330
1F
100
AcDbEntity
  8
金属部分
100
AcDbPolyline
 90
        2
 70
     0
 43
0.0
 10
129.3831912154538
 20
100.5848583043185
 10
127.8831912154538
 20
100.5848583043184
  0
LINE
  5
3B44
330
1F
100
AcDbEntity
  8
金属部分
  6
Continuous
100
AcDbLine
 10
129.3831912154538
 20
100.5848583043185
 30
0.0
 11
129.3831912154538
 21
100.8848583043185
 31
0.0
  0
LINE
  5
3B45
330
1F
100
AcDbEntity
  8
金属部分
  6
Continuous
100
AcDbLine
 10
129.3831912154538
 20
100.8848583043185
 30
0.0
 11
131.3831912154538
 21
100.8848583043185
 31
0.0
  0
LINE
  5
3B46
330
1F
100
AcDbEntity
  8
金属部分
  6
Continuous
100
AcDbLine
 10
131.3831912154538
 20
100.8848583043185
 30
0.0
 11
131.3831912154538
 21
100.5848583043185
 31
0.0
  0
LWPOLYLINE
  5
3B47
330
1F
100
AcDbEntity
  8
金属部分
100
AcDbPolyline
 90
        2
 70
     0
 43
0.0
 10
132.8831912154537
 20
100.5848583043186
 10
131.3831912154537
 20
100.5848583043185
  0
ARC
  5
3B48
330
1F
100
AcDbEntity
  8
金属部分
100
AcDbCircle
 10
133.6331912154538
 20
99.79774099723127
 30
0.0
 40
1.087222909580392
100
AcDbArc
 50
46.38327232989937
 51
133.6167276701049
  0
LINE
  5
3B49
330
1F
100
AcDbEntity
  8
金属部分
  6
Continuous
100
AcDbLine
 10
138.2431912154538
 20
102.0848583043182
 30
0.0
 11
138.3831912154538
 21
105.5848583043181
 31
0.0
  0
LINE
  5
3B4A
330
1F
100
AcDbEntity
  8
金属部分
  6
Continuous
100
AcDbLine
 10
110.3831912154538
 20
105.5848583043181
 30
0.0
 11
112.3831912154538
 21
105.5848583043181
 31
0.0
  0
LINE
  5
3B4B
330
1F
100
AcDbEntity
  8
金属部分
  6
Continuous
100
AcDbLine
 10
112.3831912154538
 20
105.5848583043181
 30
0.0
 11
112.3831912154538
 21
103.0848583043182
 31
0.0
  0
LINE
  5
3B4C
330
1F
100
AcDbEntity
  8
金属部分
  6
Continuous
100
AcDbLine
 10
138.3831912154538
 20
105.5848583043181
 30
0.0
 11
136.3831912154538
 21
105.5848583043181
 31
0.0
  0
LINE
  5
3B4D
330
1F
100
AcDbEntity
  8
金属部分
  6
Continuous
100
AcDbLine
 10
136.3831912154538
 20
105.5848583043181
 30
0.0
 11
136.3831912154538
 21
103.0848583043182
 31
0.0
  0
ARC
  5
3B4E
330
1F
100
AcDbEntity
  8
金属部分
  6
Continuous
100
AcDbCircle
 10
113.3831912154538
 20
103.0848583043182
 30
0.0
 40
1.0
100
AcDbArc
 50
180.0
 51
270.0
  0
ARC
  5
3B4F
330
1F
100
AcDbEntity
  8
金属部分
  6
Continuous
100
AcDbCircle
 10
135.3831912154538
 20
103.0848583043182
 30
0.0
 40
1.0
100
AcDbArc
 50
270.0
 51
0.0
  0
LINE
  5
3B50
330
1F
100
AcDbEntity
  8
硬質樹脂部分
  6
Continuous
100
AcDbLine
 10
112.4831912154538
 20
105.5848583043181
 30
0.0
 11
136.2831912154538
 21
105.5848583043181
 31
0.0
  0
LINE
  5
3B51
330
1F
100
AcDbEntity
  8
硬質樹脂部分
  6
Continuous
100
AcDbLine
 10
135.2831912154538
 20
102.2848583043181
 30
0.0
 11
113.4831912154538
 21
102.2848583043181
 31
0.0
  0
LINE
  5
3B52
330
1F
100
AcDbEntity
  8
硬質樹脂部分
  6
Continuous
100
AcDbLine
 10
112.4831912154538
 20
105.5848583043181
 30
0.0
 11
112.4831912154538
 21
103.2848583043181
 31
0.0
  0
LINE
  5
3B53
330
1F
100
AcDbEntity
  8
硬質樹脂部分
  6
Continuous
100
AcDbLine
 10
136.2831912154538
 20
105.5848583043181
 30
0.0
 11
136.2831912154538
 21
103.2848583043181
 31
0.0
  0
ARC
  5
3B54
330
1F
100
AcDbEntity
  8
硬質樹脂部分
  6
Continuous
100
AcDbCircle
 10
113.4831912154538
 20
103.2848583043181
 30
0.0
 40
1.0
100
AcDbArc
 50
180.0
 51
270.0
  0
ARC
  5
3B55
330
1F
100
AcDbEntity
  8
硬質樹脂部分
  6
Continuous
100
AcDbCircle
 10
135.2831912154538
 20
103.2848583043181
 30
0.0
 40
1.0
100
AcDbArc
 50
270.0
 51
0.0
  0
LINE
  5
3B56
102
{ACAD_REACTORS
330
3B5A
102
}
330
1F
100
AcDbEntity
  8
両面テープ
  6
Continuous
100
AcDbLine
 10
114.3831912154538
 20
102.2848583043181
 30
0.0
 11
114.3831912154538
 21
102.0848583043182
 31
0.0
  0
LINE
  5
3B57
102
{ACAD_REACTORS
330
3B5A
102
}
330
1F
100
AcDbEntity
  8
両面テープ
  6
Continuous
100
AcDbLine
 10
114.3831912154538
 20
102.0848583043182
 30
0.0
 11
134.3831912154538
 21
102.0848583043182
 31
0.0
  0
LINE
  5
3B58
102
{ACAD_REACTORS
330
3B5A
102
}
330
1F
100
AcDbEntity
  8
両面テープ
  6
Continuous
100
AcDbLine
 10
134.3831912154538
 20
102.0848583043182
 30
0.0
 11
134.3831912154538
 21
102.2848583043181
 31
0.0
  0
LINE
  5
3B59
102
{ACAD_REACTORS
330
3B5A
102
}
330
1F
100
AcDbEntity
  8
両面テープ
  6
Continuous
100
AcDbLine
 10
114.3831912154538
 20
102.2848583043181
 30
0.0
 11
134.3831912154538
 21
102.2848583043181
 31
0.0
  0
HATCH
  5
3B5A
330
1F
100
AcDbEntity
  8
両面テープ
  6
Continuous
100
AcDbHatch
 10
0.0
 20
0.0
 30
0.0
210
0.0
220
0.0
230
1.0
  2
ANSI31
 70
     0
 71
     1
 91
        1
 92
        7
 72
     0
 73
     1
 93
        4
 10
134.3831912154538
 20
102.0848583043182
 10
134.3831912154538
 20
102.2848583043181
 10
114.3831912154538
 20
102.2848583043181
 10
114.3831912154538
 20
102.0848583043182
 97
        4
330
3B58
330
3B59
330
3B56
330
3B57
 75
     0
 76
     1
 52
0.0
 41
0.25
 77
     0
 78
     1
 53
45.0
 43
33.58340334214012
 44
-29.51458468388235
 45
-0.561266007566822
 46
0.5612660075668221
 79
     0
 47
0.0
 98
        1
 10
127.6099450645787
 20
102.193544221031
1001
ACAD
1010
0.0
1020
0.0
1030
0.0
  0
LINE
  5
3B5B
330
1F
100
AcDbEntity
  8
金属部分
  6
Continuous
100
AcDbLine
 10
138.1831912154538
 20
100.5848583043182
 30
0.0
 11
138.9524758016988
 21
100.5848583043182
 31
0.0
  0
LINE
  5
3B5C
330
1F
100
AcDbEntity
  8
金属部分
  6
Continuous
100
AcDbLine
 10
138.3831912154538
 20
100.5848583043182
 30
0.0
 11
157.9831912154538
 21
100.5848583043182
 31
0.0
  0
ARC
  5
3B5D
330
1F
100
AcDbEntity
  8
金属部分
  6
Continuous
100
AcDbCircle
 10
157.9831912154538
 20
100.9848583043182
 30
0.0
 40
0.4
100
AcDbArc
 50
270.0
 51
89.99999999996746
  0
LINE
  5
3B5E
330
1F
100
AcDbEntity
  8
金属部分
  6
Continuous
100
AcDbLine
 10
138.2431912154538
 20
102.0848583043182
 30
0.0
 11
157.983191215454
 21
101.3848583043182
 31
0.0
  0
DIMENSION
  5
3B5F
330
1F
100
AcDbEntity
  8
寸法
  6
Continuous
100
AcDbDimension
280
     0
  2
*D61
 10
158.3831912154538
 20
110.5848583043181
 30
0.0
 11
148.3831912154538
 21
110.5848583043181
 31
0.0
 70
   160
 71
     5
 42
20.0
 73
     0
 74
     0
 75
     0
  3
ISO-25
100
AcDbAlignedDimension
 13
138.3831912154538
 23
105.5848583043181
 33
0.0
 14
158.3831912154538
 24
100.9848583043181
 34
0.0
100
AcDbRotatedDimension
  0
DIMENSION
  5
3B60
330
1F
100
AcDbEntity
  8
寸法
  6
Continuous
100
AcDbDimension
280
     0
  2
*D62
 10
158.3831912154538
 20
115.5848583043181
 30
0.0
 11
134.3831912154538
 21
115.5848583043181
 31
0.0
 70
   160
 71
     5
 42
47.99999999999999
 73
     0
 74
     0
 75
     0
  3
ISO-25
100
AcDbAlignedDimension
 13
110.3831912154538
 23
106.2098583043181
 33
0.0
 14
158.3831912154538
 24
100.9848583043181
 34
0.0
100
AcDbRotatedDimension
  0
DIMENSION
  5
3B61
330
1F
100
AcDbEntity
  8
寸法
  6
Continuous
100
AcDbDimension
280
     0
  2
*D63
 10
162.9831912154538
 20
100.5848583043182
 30
0.0
 11
166.6641561362264
 21
101.1003767542204
 31
0.0
 70
   160
 71
     5
 42
0.7999999999999972
 73
     0
 74
     0
 75
     0
  3
ISO-25
100
AcDbAlignedDimension
 13
157.983191215454
 23
101.3848583043182
 33
0.0
 14
157.9831912154538
 24
100.5848583043182
 34
0.0
 50
90.0
100
AcDbRotatedDimension
  0
LINE
  5
3B62
102
{ACAD_REACTORS
330
3B65
102
}
330
1F
100
AcDbEntity
  8
TOS_M1
  6
Continuous
100
AcDbLine
 10
148.8831912154538
 20
99.58485830431819
 30
0.0
 11
147.8831912154538
 21
99.58485830431819
 31
0.0
  0
LINE
  5
3B63
102
{ACAD_REACTORS
330
3B65
102
}
330
1F
100
AcDbEntity
  8
TOS_M1
  6
Continuous
100
AcDbLine
 10
148.3831912154538
 20
98.58485830431819
 30
0.0
 11
147.8831912154538
 21
99.58485830431819
 31
0.0
  0
LINE
  5
3B64
102
{ACAD_REACTORS
330
3B65
102
}
330
1F
100
AcDbEntity
  8
TOS_M1
  6
Continuous
100
AcDbLine
 10
148.3831912154538
 20
98.58485830431819
 30
0.0
 11
148.8831912154538
 21
99.58485830431819
 31
0.0
  0
HATCH
  5
3B65
330
1F
100
AcDbEntity
  8
TOS_M1
  6
Continuous
100
AcDbHatch
 10
0.0
 20
0.0
 30
0.0
210
0.0
220
0.0
230
1.0
  2
SOLID
 70
     1
 71
     1
 91
        1
 92
        7
 72
     0
 73
     1
 93
        3
 10
148.3831912154538
 20
98.58485830431819
 10
148.8831912154538
 20
99.58485830431819
 10
147.8831912154538
 20
99.58485830431819
 97
        3
330
3B64
330
3B62
330
3B63
 75
     0
 76
     1
 47
0.0
 98
        1
 10
148.322865618526
 20
99.37993771302467
1001
ACAD
1010
0.0
1020
0.0
1030
0.0
  0
DIMENSION
  5
3B66
330
1F
100
AcDbEntity
  8
寸法
  6
Continuous
100
AcDbDimension
280
     0
  2
*D64
 10
105.3831912154538
 20
100.5848583043182
 30
0.0
 11
105.3831912154538
 21
98.54327777136778
 31
0.0
 70
   160
 71
     5
 42
4.000000000000043
 73
     0
 74
     0
 75
     0
  3
ISO-25
100
AcDbAlignedDimension
 13
110.3831912154538
 23
96.58485830431816
 33
0.0
 14
111.5831912154538
 24
100.5848583043182
 34
0.0
 50
90.0
100
AcDbRotatedDimension
  0
LINE
  5
3B67
330
1F
100
AcDbEntity
  8
TOS_M1
  6
ACAD_ISO07W100
 48
0.5
100
AcDbLine
 10
148.3831912154538
 20
96.58485830431816
 30
0.0
 11
111.5831912154538
 21
96.58485830431816
 31
0.0
  0
MTEXT
  5
3B68
330
1F
100
AcDbEntity
  8
TOS_M1
  6
Continuous
100
AcDbMText
 10
126.1288906822425
 20
97.83097537259563
 30
0.0
 40
2.5
 41
5.011594093714308
 46
2.5
 71
     1
 72
     5
  1
{37}
 73
     1
 44
1.0
1001
ACAD
1000
ACAD_MTEXT_DEFINED_HEIGHT_BEGIN
1070
    46
1040
2.5
1000
ACAD_MTEXT_DEFINED_HEIGHT_END
  0
MTEXT
  5
3BED
330
1F
100
AcDbEntity
  8
文字
100
AcDbMText
 10
254.0
 20
126.8726654495099
 30
0.0
 40
2.0
 41
31.03349346991041
 46
6.212319203034471
 71
     1
 72
     5
  1
{\fＭＳ Ｐゴシック|b0|i0|c0|p0;シルバー\Pアルマイトブラック}
 73
     1
 44
1.0
1001
ACAD
1000
ACAD_MTEXT_DEFINED_HEIGHT_BEGIN
1070
    46
1040
6.212319203034471
1000
ACAD_MTEXT_DEFINED_HEIGHT_END
  0
LEADER
  5
3C21
330
1F
100
AcDbEntity
  8
TOS_M1
  6
Continuous
100
AcDbLeader
  3
ISO-25
 76
     2
 10
131.9749311528939
 20
102.2535474052733
 30
0.0
 10
138.1769404383663
 20
91.42130666069457
 30
0.0
  0
MTEXT
  5
3C22
330
1F
100
AcDbEntity
  8
文字
  6
Continuous
100
AcDbMText
 10
138.8737248309821
 20
92.30596631225052
 30
0.0
 40
1.5
 41
12.46447959569809
 46
1.551136363636364
 71
     1
 72
     5
  1
{\fＭＳ Ｐゴシック|b0|i0|c0|p0;\C7;両面テープ}
 73
     1
 44
1.0
1001
ACAD
1000
ACAD_MTEXT_DEFINED_HEIGHT_BEGIN
1070
    46
1040
1.551136363636364
1000
ACAD_MTEXT_DEFINED_HEIGHT_END
  0
ENDSEC
  0
SECTION
  2
OBJECTS
  0
DICTIONARY
  5
C
330
0
100
AcDbDictionary
281
     1
  3
ACAD_DETAILVIEWSTYLE
350
A4E
  3
ACAD_GROUP
350
D
  3
ACAD_IMAGE_VARS
350
96F
  3
ACAD_LAYOUT
350
1A
  3
ACAD_MATERIAL
350
3919
  3
ACAD_MLEADERSTYLE
350
391F
  3
ACAD_MLINESTYLE
350
17
  3
ACAD_PLOTSETTINGS
350
19
  3
ACAD_PLOTSTYLENAME
350
E
  3
ACAD_SCALELIST
350
935
  3
ACAD_SECTIONVIEWSTYLE
350
A4F
  3
ACAD_TABLESTYLE
350
391D
  3
ACAD_VISUALSTYLE
350
3900
  3
ACDB_RECOMPOSE_DATA
350
3C39
  3
AcDbVariableDictionary
350
3E1
  3
APPDATA
350
96E
  3
DimOffsetDictionary
350
14C9
  0
SUN
  5
3BD8
330
934
100
AcDbSun
 90
        1
290
     0
 63
     7
421
 16777215
 40
1.0
291
     1
 91
  2455826
 92
 54000000
292
     0
 70
     2
 71
   256
280
     1
  0
DICTIONARY
  5
970
330
2
100
AcDbDictionary
280
     1
281
     1
  3
ACAD_LAYERSTATES
360
971
  3
ACLYDICTIONARY
360
36E4
  0
DICTIONARY
  5
A87
330
A86
100
AcDbDictionary
280
     1
281
     1
  3
ADSK_XREC_LAYER_RECONCILED
360
A88
  0
DICTIONARY
  5
A8B
330
A8A
100
AcDbDictionary
280
     1
281
     1
  3
ADSK_XREC_LAYER_RECONCILED
360
A8C
  0
DICTIONARY
  5
A4E
102
{ACAD_REACTORS
330
C
102
}
330
C
100
AcDbDictionary
281
     1
  0
DICTIONARY
  5
D
102
{ACAD_REACTORS
330
C
102
}
330
C
100
AcDbDictionary
281
     1
  0
RASTERVARIABLES
  5
96F
102
{ACAD_REACTORS
330
C
102
}
330
C
100
AcDbRasterVariables
 90
        0
 70
     1
 71
     1
 72
     1
  0
DICTIONARY
  5
1A
102
{ACAD_REACTORS
330
C
102
}
330
C
100
AcDbDictionary
281
     1
  3
Model
350
22
  3
ﾚｲｱｳﾄ1
350
1E
  3
ﾚｲｱｳﾄ2
350
26
  0
DICTIONARY
  5
3919
102
{ACAD_REACTORS
330
C
102
}
330
C
100
AcDbDictionary
281
     1
  3
ByBlock
350
391B
  3
ByLayer
350
391A
  3
Global
350
391C
  0
DICTIONARY
  5
391F
102
{ACAD_REACTORS
330
C
102
}
330
C
100
AcDbDictionary
281
     1
  3
Standard
350
3920
  0
DICTIONARY
  5
17
102
{ACAD_REACTORS
330
C
102
}
330
C
100
AcDbDictionary
281
     1
  3
Standard
350
18
  0
DICTIONARY
  5
19
102
{ACAD_REACTORS
330
C
102
}
330
C
100
AcDbDictionary
281
     1
  0
ACDBDICTIONARYWDFLT
  5
E
102
{ACAD_REACTORS
330
C
102
}
330
C
100
AcDbDictionary
281
     1
  3
Normal
350
F
100
AcDbDictionaryWithDefault
340
F
  0
DICTIONARY
  5
935
102
{ACAD_REACTORS
330
C
102
}
330
C
100
AcDbDictionary
281
     1
  3
A0
350
936
  3
A1
350
937
  3
A2
350
938
  3
A3
350
939
  3
A4
350
93A
  3
A5
350
93B
  3
A6
350
93C
  3
A7
350
93D
  3
A8
350
93E
  3
A9
350
93F
  3
B0
350
940
  3
B1
350
941
  3
B2
350
942
  3
B3
350
943
  3
B4
350
944
  3
B5
350
945
  3
B6
350
946
  3
B7
350
947
  3
B8
350
948
  3
B9
350
949
  3
C0
350
94A
  3
C1
350
94B
  3
C2
350
94C
  3
C3
350
94D
  3
C4
350
94E
  3
C5
350
94F
  3
C6
350
950
  3
C7
350
951
  3
C8
350
952
  3
C9
350
953
  3
D0
350
954
  3
D1
350
955
  3
D2
350
956
  0
DICTIONARY
  5
A4F
102
{ACAD_REACTORS
330
C
102
}
330
C
100
AcDbDictionary
281
     1
  0
DICTIONARY
  5
391D
102
{ACAD_REACTORS
330
C
102
}
330
C
100
AcDbDictionary
281
     1
  3
Standard
350
391E
  0
DICTIONARY
  5
3900
102
{ACAD_REACTORS
330
C
102
}
330
C
100
AcDbDictionary
281
     1
  3
2dWireframe
350
3905
  3
Basic
350
3908
  3
Brighten
350
390C
  3
ColorChange
350
3910
  3
Conceptual
350
390A
  3
Dim
350
390B
  3
EdgeColorOff
350
3913
  3
Facepattern
350
390F
  3
Flat
350
3901
  3
FlatWithEdges
350
3902
  3
Gouraud
350
3903
  3
GouraudWithEdges
350
3904
  3
Hidden
350
3907
  3
JitterOff
350
3911
  3
Linepattern
350
390E
  3
OverhangOff
350
3912
  3
Realistic
350
3909
  3
Shaded
350
3918
  3
Shaded with edges
350
3917
  3
Shades of Gray
350
3914
  3
Sketchy
350
3915
  3
Thicken
350
390D
  3
Wireframe
350
3906
  3
X-Ray
350
3916
  0
XRECORD
  5
3C39
102
{ACAD_REACTORS
330
C
102
}
330
C
100
AcDbXrecord
280
     1
 90
        1
330
391E
  0
DICTIONARY
  5
3E1
102
{ACAD_REACTORS
330
C
102
}
330
C
100
AcDbDictionary
281
     1
  3
CANNOSCALE
350
3BD1
  3
CMLEADERSTYLE
350
3BD6
  3
CTABLESTYLE
350
3BD5
  3
HPTRANSPARENCY
350
14C8
  3
MSLTSCALE
350
3BD7
  3
SORTENTS
350
3E2
  0
DICTIONARY
  5
96E
102
{ACAD_REACTORS
330
C
102
}
330
C
100
AcDbDictionary
281
     1
  0
DICTIONARY
  5
14C9
102
{ACAD_REACTORS
330
C
102
}
330
C
100
AcDbDictionary
281
     1
  3
DIMRAILANGLE
350
3708
  3
DIMRAILFIRSTOFFSET
350
3706
  3
DIMRAILOFFSET
350
3707
  3
DIMRAILSENABLED
350
3709
  0
DICTIONARY
  5
971
102
{ACAD_REACTORS
330
970
102
}
330
970
100
AcDbDictionary
281
     1
  0
DICTIONARY
  5
36E4
102
{ACAD_REACTORS
330
970
102
}
330
970
100
AcDbDictionary
281
     1
1001
ACAD
1000
<All
  0
XRECORD
  5
A88
102
{ACAD_REACTORS
330
A87
102
}
330
A87
100
AcDbXrecord
280
     1
290
     1
  0
XRECORD
  5
A8C
102
{ACAD_REACTORS
330
A8B
102
}
330
A8B
100
AcDbXrecord
280
     1
290
     1
  0
LAYOUT
  5
22
102
{ACAD_REACTORS
330
1A
102
}
330
1A
100
AcDbPlotSettings
  1

  2
RICOH IPSiO NX850 RPCS
  4
A4
  6

 40
5.873749732971191
 41
5.873747825622559
 42
5.873748779296875
 43
5.873748779296875
 44
209.9733276367188
 45
296.9259948730469
 46
56.21
 47
68.71
 48
0.0
 49
0.0
140
0.0
141
0.0
142
1.0
143
1.0
 70
 11940
 72
     1
 73
     1
 74
     0
  7

 75
     0
 76
     0
 77
     2
 78
   300
147
1.0
148
-86.56519164515282
149
-171.1912652483589
100
AcDbLayout
  1
Model
 70
     1
 71
     0
 10
0.0
 20
0.0
 11
12.0
 21
9.0
 12
0.0
 22
0.0
 32
0.0
 14
0.0
 24
0.0
 34
0.0
 15
292.0
 25
205.0
 35
0.0
146
0.0
 13
0.0
 23
0.0
 33
0.0
 16
1.0
 26
0.0
 36
0.0
 17
0.0
 27
1.0
 37
0.0
 76
     0
330
1F
331
934
  0
LAYOUT
  5
1E
102
{ACAD_REACTORS
330
1A
102
}
330
1A
100
AcDbPlotSettings
  1

  2
RICOH IPSiO NX850 RPCS
  4

  6

 40
0.0
 41
0.0
 42
0.0
 43
0.0
 44
0.0
 45
0.0
 46
0.0
 47
0.0
 48
0.0
 49
0.0
140
0.0
141
0.0
142
1.0
143
1.0
 70
   688
 72
     0
 73
     0
 74
     5
  7

 75
    16
 76
     0
 77
     2
 78
   300
147
1.0
148
0.0
149
0.0
100
AcDbLayout
  1
ﾚｲｱｳﾄ1
 70
     1
 71
     1
 10
0.0
 20
0.0
 11
420.0
 21
297.0
 12
0.0
 22
0.0
 32
0.0
 14
1.000000000000000E+20
 24
1.000000000000000E+20
 34
1.000000000000000E+20
 15
-1.000000000000000E+20
 25
-1.000000000000000E+20
 35
-1.000000000000000E+20
146
0.0
 13
0.0
 23
0.0
 33
0.0
 16
1.0
 26
0.0
 36
0.0
 17
0.0
 27
1.0
 37
0.0
 76
     0
330
1B
  0
LAYOUT
  5
26
102
{ACAD_REACTORS
330
1A
102
}
330
1A
100
AcDbPlotSettings
  1

  2
RICOH IPSiO NX850 RPCS
  4

  6

 40
0.0
 41
0.0
 42
0.0
 43
0.0
 44
0.0
 45
0.0
 46
0.0
 47
0.0
 48
0.0
 49
0.0
140
0.0
141
0.0
142
1.0
143
1.0
 70
   688
 72
     0
 73
     0
 74
     5
  7

 75
    16
 76
     0
 77
     2
 78
   300
147
1.0
148
0.0
149
0.0
100
AcDbLayout
  1
ﾚｲｱｳﾄ2
 70
     1
 71
     2
 10
0.0
 20
0.0
 11
12.0
 21
9.0
 12
0.0
 22
0.0
 32
0.0
 14
0.0
 24
0.0
 34
0.0
 15
0.0
 25
0.0
 35
0.0
146
0.0
 13
0.0
 23
0.0
 33
0.0
 16
1.0
 26
0.0
 36
0.0
 17
0.0
 27
1.0
 37
0.0
 76
     0
330
23
  0
MATERIAL
  5
391B
102
{ACAD_REACTORS
330
3919
102
}
330
3919
100
AcDbMaterial
  1
ByBlock
 72
     1
 94
      127
  0
MATERIAL
  5
391A
102
{ACAD_REACTORS
330
3919
102
}
330
3919
100
AcDbMaterial
  1
ByLayer
 72
     1
 94
      127
  0
MATERIAL
  5
391C
102
{ACAD_REACTORS
330
3919
102
}
330
3919
100
AcDbMaterial
  1
Global
 72
     1
 94
      127
  0
MLEADERSTYLE
  5
3920
102
{ACAD_REACTORS
330
391F
102
}
330
391F
100
AcDbMLeaderStyle
179
     2
170
     2
171
     1
172
     0
 90
        2
 40
0.0
 41
0.0
173
     1
 91
-1056964608
340
14
 92
       -2
290
     1
 42
2.0
291
     1
 43
8.0
  3
Standard
341
0
 44
4.0
300

342
11
174
     1
178
     1
175
     1
176
     0
 93
-1056964608
 45
4.0
292
     0
297
     0
 46
4.0
343
0
 94
-1056964608
 47
1.0
 49
1.0
140
1.0
293
     1
141
0.0
294
     1
177
     0
142
1.0
295
     0
296
     0
143
3.75
271
     0
272
     9
273
     9
  0
MLINESTYLE
  5
18
102
{ACAD_REACTORS
330
17
102
}
330
17
100
AcDbMlineStyle
  2
STANDARD
 70
     0
  3

 62
   256
 51
90.0
 52
90.0
 71
     2
 49
0.5
 62
   256
  6
BYLAYER
 49
-0.5
 62
   256
  6
BYLAYER
  0
ACDBPLACEHOLDER
  5
F
102
{ACAD_REACTORS
330
E
102
}
330
E
  0
SCALE
  5
936
102
{ACAD_REACTORS
330
935
102
}
330
935
100
AcDbScale
 70
     0
300
1:1
140
1.0
141
1.0
290
     1
  0
SCALE
  5
937
102
{ACAD_REACTORS
330
935
102
}
330
935
100
AcDbScale
 70
     0
300
1:2
140
1.0
141
2.0
290
     0
  0
SCALE
  5
938
102
{ACAD_REACTORS
330
935
102
}
330
935
100
AcDbScale
 70
     0
300
1:4
140
1.0
141
4.0
290
     0
  0
SCALE
  5
939
102
{ACAD_REACTORS
330
935
102
}
330
935
100
AcDbScale
 70
     0
300
1:5
140
1.0
141
5.0
290
     0
  0
SCALE
  5
93A
102
{ACAD_REACTORS
330
935
102
}
330
935
100
AcDbScale
 70
     0
300
1:8
140
1.0
141
8.0
290
     0
  0
SCALE
  5
93B
102
{ACAD_REACTORS
330
935
102
}
330
935
100
AcDbScale
 70
     0
300
1:10
140
1.0
141
10.0
290
     0
  0
SCALE
  5
93C
102
{ACAD_REACTORS
330
935
102
}
330
935
100
AcDbScale
 70
     0
300
1:16
140
1.0
141
16.0
290
     0
  0
SCALE
  5
93D
102
{ACAD_REACTORS
330
935
102
}
330
935
100
AcDbScale
 70
     0
300
1:20
140
1.0
141
20.0
290
     0
  0
SCALE
  5
93E
102
{ACAD_REACTORS
330
935
102
}
330
935
100
AcDbScale
 70
     0
300
1:30
140
1.0
141
30.0
290
     0
  0
SCALE
  5
93F
102
{ACAD_REACTORS
330
935
102
}
330
935
100
AcDbScale
 70
     0
300
1:40
140
1.0
141
40.0
290
     0
  0
SCALE
  5
940
102
{ACAD_REACTORS
330
935
102
}
330
935
100
AcDbScale
 70
     0
300
1:50
140
1.0
141
50.0
290
     0
  0
SCALE
  5
941
102
{ACAD_REACTORS
330
935
102
}
330
935
100
AcDbScale
 70
     0
300
1:100
140
1.0
141
100.0
290
     0
  0
SCALE
  5
942
102
{ACAD_REACTORS
330
935
102
}
330
935
100
AcDbScale
 70
     0
300
2:1
140
2.0
141
1.0
290
     0
  0
SCALE
  5
943
102
{ACAD_REACTORS
330
935
102
}
330
935
100
AcDbScale
 70
     0
300
4:1
140
4.0
141
1.0
290
     0
  0
SCALE
  5
944
102
{ACAD_REACTORS
330
935
102
}
330
935
100
AcDbScale
 70
     0
300
8:1
140
8.0
141
1.0
290
     0
  0
SCALE
  5
945
102
{ACAD_REACTORS
330
935
102
}
330
935
100
AcDbScale
 70
     0
300
10:1
140
10.0
141
1.0
290
     0
  0
SCALE
  5
946
102
{ACAD_REACTORS
330
935
102
}
330
935
100
AcDbScale
 70
     0
300
100:1
140
100.0
141
1.0
290
     0
  0
SCALE
  5
947
102
{ACAD_REACTORS
330
935
102
}
330
935
100
AcDbScale
 70
     0
300
1/128" = 1'-0"
140
0.0078125
141
12.0
290
     0
  0
SCALE
  5
948
102
{ACAD_REACTORS
330
935
102
}
330
935
100
AcDbScale
 70
     0
300
1/64" = 1'-0"
140
0.015625
141
12.0
290
     0
  0
SCALE
  5
949
102
{ACAD_REACTORS
330
935
102
}
330
935
100
AcDbScale
 70
     0
300
1/32" = 1'-0"
140
0.03125
141
12.0
290
     0
  0
SCALE
  5
94A
102
{ACAD_REACTORS
330
935
102
}
330
935
100
AcDbScale
 70
     0
300
1/16" = 1'-0"
140
0.0625
141
12.0
290
     0
  0
SCALE
  5
94B
102
{ACAD_REACTORS
330
935
102
}
330
935
100
AcDbScale
 70
     0
300
3/32" = 1'-0"
140
0.09375
141
12.0
290
     0
  0
SCALE
  5
94C
102
{ACAD_REACTORS
330
935
102
}
330
935
100
AcDbScale
 70
     0
300
1/8" = 1'-0"
140
0.125
141
12.0
290
     0
  0
SCALE
  5
94D
102
{ACAD_REACTORS
330
935
102
}
330
935
100
AcDbScale
 70
     0
300
3/16" = 1'-0"
140
0.1875
141
12.0
290
     0
  0
SCALE
  5
94E
102
{ACAD_REACTORS
330
935
102
}
330
935
100
AcDbScale
 70
     0
300
1/4" = 1'-0"
140
0.25
141
12.0
290
     0
  0
SCALE
  5
94F
102
{ACAD_REACTORS
330
935
102
}
330
935
100
AcDbScale
 70
     0
300
3/8" = 1'-0"
140
0.375
141
12.0
290
     0
  0
SCALE
  5
950
102
{ACAD_REACTORS
330
935
102
}
330
935
100
AcDbScale
 70
     0
300
1/2" = 1'-0"
140
0.5
141
12.0
290
     0
  0
SCALE
  5
951
102
{ACAD_REACTORS
330
935
102
}
330
935
100
AcDbScale
 70
     0
300
3/4" = 1'-0"
140
0.75
141
12.0
290
     0
  0
SCALE
  5
952
102
{ACAD_REACTORS
330
935
102
}
330
935
100
AcDbScale
 70
     0
300
1" = 1'-0"
140
1.0
141
12.0
290
     0
  0
SCALE
  5
953
102
{ACAD_REACTORS
330
935
102
}
330
935
100
AcDbScale
 70
     0
300
1-1/2" = 1'-0"
140
1.5
141
12.0
290
     0
  0
SCALE
  5
954
102
{ACAD_REACTORS
330
935
102
}
330
935
100
AcDbScale
 70
     0
300
3" = 1'-0"
140
3.0
141
12.0
290
     0
  0
SCALE
  5
955
102
{ACAD_REACTORS
330
935
102
}
330
935
100
AcDbScale
 70
     0
300
6" = 1'-0"
140
6.0
141
12.0
290
     0
  0
SCALE
  5
956
102
{ACAD_REACTORS
330
935
102
}
330
935
100
AcDbScale
 70
     0
300
1'-0" = 1'-0"
140
12.0
141
12.0
290
     0
  0
TABLESTYLE
  5
391E
102
{ACAD_REACTORS
330
391D
102
}
102
{ACAD_XDICTIONARY
360
3C37
102
}
330
391D
100
AcDbTableStyle
  3
Standard
 70
     0
 71
     0
 40
0.06
 41
0.06
280
     0
281
     0
  7
Standard
140
4.5
170
     2
 62
     0
 63
   257
283
     0
 90
        4
 91
        0
  1

274
    -2
284
     1
 64
     0
275
    -2
285
     1
 65
     0
276
    -2
286
     1
 66
     0
277
    -2
287
     1
 67
     0
278
    -2
288
     1
 68
     0
279
    -2
289
     1
 69
     0
  7
Standard
140
6.0
170
     5
 62
     0
 63
   257
283
     0
 90
        4
 91
        0
  1

274
    -2
284
     1
 64
     0
275
    -2
285
     1
 65
     0
276
    -2
286
     1
 66
     0
277
    -2
287
     1
 67
     0
278
    -2
288
     1
 68
     0
279
    -2
289
     1
 69
     0
  7
Standard
140
4.5
170
     5
 62
     0
 63
   257
283
     0
 90
        4
 91
        0
  1

274
    -2
284
     1
 64
     0
275
    -2
285
     1
 65
     0
276
    -2
286
     1
 66
     0
277
    -2
287
     1
 67
     0
278
    -2
288
     1
 68
     0
279
    -2
289
     1
 69
     0
  0
VISUALSTYLE
  5
3905
102
{ACAD_REACTORS
330
3900
102
}
330
3900
100
AcDbVisualStyle
  2
2dWireframe
 70
     4
177
     2
291
     0
 71
     0
176
     1
 72
     2
176
     1
 73
     0
176
     1
 90
        0
176
     1
 40
0.6
176
     1
 41
30.0
176
     1
 62
     5
 63
     7
421
 16777215
176
     1
 74
     1
176
     1
 91
        4
176
     1
 64
     7
176
     1
 65
   257
176
     1
 75
     1
176
     1
175
     1
176
     1
 42
1.0
176
     1
 92
        0
176
     1
 66
   257
176
     1
 43
1.0
176
     1
 76
     1
176
     1
 77
     6
176
     1
 78
     2
176
     1
 67
     7
176
     1
 79
     5
176
     1
170
     0
176
     1
171
     0
176
     1
290
     0
176
     1
 93
        1
176
     1
 44
0.0
176
     1
173
     0
176
     1
  0
VISUALSTYLE
  5
3908
102
{ACAD_REACTORS
330
3900
102
}
330
3900
100
AcDbVisualStyle
  2
Basic
 70
     7
177
     2
291
     1
 71
     1
176
     1
 72
     0
176
     1
 73
     1
176
     1
 90
        0
176
     1
 40
0.6
176
     1
 41
30.0
176
     1
 62
     5
 63
     7
421
 16777215
176
     1
 74
     0
176
     1
 91
        4
176
     1
 64
     7
176
     1
 65
   257
176
     1
 75
     1
176
     1
175
     1
176
     1
 42
1.0
176
     1
 92
        8
176
     1
 66
     7
176
     1
 43
1.0
176
     1
 76
     1
176
     1
 77
     6
176
     1
 78
     2
176
     1
 67
     7
176
     1
 79
     5
176
     1
170
     0
176
     1
171
     0
176
     1
290
     0
176
     1
 93
        1
176
     1
 44
0.0
176
     1
173
     0
176
     1
  0
VISUALSTYLE
  5
390C
102
{ACAD_REACTORS
330
3900
102
}
330
3900
100
AcDbVisualStyle
  2
Brighten
 70
    12
177
     2
291
     1
 71
     2
176
     1
 72
     2
176
     1
 73
     0
176
     1
 90
        0
176
     1
 40
0.6
176
     1
 41
30.0
176
     1
 62
     5
 63
     7
421
 16777215
176
     1
 74
     1
176
     1
 91
        4
176
     1
 64
     7
176
     1
 65
   257
176
     1
 75
     1
176
     1
175
     1
176
     1
 42
1.0
176
     1
 92
        8
176
     1
 66
     7
176
     1
 43
1.0
176
     1
 76
     1
176
     1
 77
     6
176
     1
 78
     2
176
     1
 67
     7
176
     1
 79
     5
176
     1
170
     0
176
     1
171
     0
176
     1
290
     0
176
     1
 93
        1
176
     1
 44
50.0
176
     1
173
     0
176
     1
  0
VISUALSTYLE
  5
3910
102
{ACAD_REACTORS
330
3900
102
}
330
3900
100
AcDbVisualStyle
  2
ColorChange
 70
    16
177
     2
291
     1
 71
     2
176
     1
 72
     2
176
     1
 73
     3
176
     1
 90
        0
176
     1
 40
0.6
176
     1
 41
30.0
176
     1
 62
     5
 63
     8
421
  8421504
176
     1
 74
     1
176
     1
 91
        4
176
     1
 64
     7
176
     1
 65
   257
176
     1
 75
     1
176
     1
175
     1
176
     1
 42
1.0
176
     1
 92
        8
176
     1
 66
     8
424
  8421504
176
     1
 43
1.0
176
     1
 76
     1
176
     1
 77
     6
176
     1
 78
     2
176
     1
 67
     7
176
     1
 79
     5
176
     1
170
     0
176
     1
171
     0
176
     1
290
     0
176
     1
 93
        1
176
     1
 44
0.0
176
     1
173
     0
176
     1
  0
VISUALSTYLE
  5
390A
102
{ACAD_REACTORS
330
3900
102
}
330
3900
100
AcDbVisualStyle
  2
Conceptual
 70
     9
177
     2
291
     0
 71
     3
176
     1
 72
     2
176
     1
 73
     0
176
     1
 90
        0
176
     1
 40
0.6
176
     1
 41
30.0
176
     1
 62
     5
 63
     7
421
 16777215
176
     1
 74
     2
176
     1
 91
        2
176
     1
 64
     7
176
     1
 65
   257
176
     1
 75
     1
176
     1
175
     1
176
     1
 42
179.0
176
     1
 92
        8
176
     1
 66
     7
176
     1
 43
1.0
176
     1
 76
     1
176
     1
 77
     6
176
     1
 78
     2
176
     1
 67
     7
176
     1
 79
     3
176
     1
170
     0
176
     1
171
     0
176
     1
290
     0
176
     1
 93
        1
176
     1
 44
0.0
176
     1
173
     0
176
     1
  0
VISUALSTYLE
  5
390B
102
{ACAD_REACTORS
330
3900
102
}
330
3900
100
AcDbVisualStyle
  2
Dim
 70
    11
177
     2
291
     1
 71
     2
176
     1
 72
     2
176
     1
 73
     0
176
     1
 90
        0
176
     1
 40
0.6
176
     1
 41
30.0
176
     1
 62
     5
 63
     7
421
 16777215
176
     1
 74
     1
176
     1
 91
        4
176
     1
 64
     7
176
     1
 65
   257
176
     1
 75
     1
176
     1
175
     1
176
     1
 42
1.0
176
     1
 92
        8
176
     1
 66
     7
176
     1
 43
1.0
176
     1
 76
     1
176
     1
 77
     6
176
     1
 78
     2
176
     1
 67
     7
176
     1
 79
     5
176
     1
170
     0
176
     1
171
     0
176
     1
290
     0
176
     1
 93
        1
176
     1
 44
-50.0
176
     1
173
     0
176
     1
  0
VISUALSTYLE
  5
3913
102
{ACAD_REACTORS
330
3900
102
}
330
3900
100
AcDbVisualStyle
  2
EdgeColorOff
 70
    22
177
     2
291
     1
 71
     2
176
     0
 72
     2
176
     0
 73
     0
176
     0
 90
        0
176
     0
 40
0.6
176
     0
 41
30.0
176
     0
 62
     5
 63
     7
421
 16777215
176
     0
 74
     1
176
     0
 91
        4
176
     0
 64
     7
176
     0
 65
   257
176
     0
 75
     1
176
     0
175
     1
176
     0
 42
1.0
176
     0
 92
        8
176
     2
 66
     7
176
     0
 43
1.0
176
     0
 76
     1
176
     0
 77
     6
176
     0
 78
     2
176
     0
 67
     7
176
     0
 79
     5
176
     0
170
     0
176
     0
171
     0
176
     0
290
     0
176
     0
 93
        1
176
     0
 44
0.0
176
     0
173
     0
176
     0
  0
VISUALSTYLE
  5
390F
102
{ACAD_REACTORS
330
3900
102
}
330
3900
100
AcDbVisualStyle
  2
Facepattern
 70
    15
177
     2
291
     1
 71
     2
176
     1
 72
     2
176
     1
 73
     0
176
     1
 90
        0
176
     1
 40
0.6
176
     1
 41
30.0
176
     1
 62
     5
 63
     7
421
 16777215
176
     1
 74
     1
176
     1
 91
        4
176
     1
 64
     7
176
     1
 65
   257
176
     1
 75
     1
176
     1
175
     1
176
     1
 42
1.0
176
     1
 92
        8
176
     1
 66
     7
176
     1
 43
1.0
176
     1
 76
     1
176
     1
 77
     6
176
     1
 78
     2
176
     1
 67
     7
176
     1
 79
     5
176
     1
170
     0
176
     1
171
     0
176
     1
290
     0
176
     1
 93
        1
176
     1
 44
0.0
176
     1
173
     0
176
     1
  0
VISUALSTYLE
  5
3901
102
{ACAD_REACTORS
330
3900
102
}
330
3900
100
AcDbVisualStyle
  2
Flat
 70
     0
177
     2
291
     1
 71
     2
176
     1
 72
     1
176
     1
 73
     1
176
     1
 90
        2
176
     1
 40
0.6
176
     1
 41
30.0
176
     1
 62
     5
 63
     7
421
 16777215
176
     1
 74
     0
176
     1
 91
        0
176
     1
 64
     7
176
     1
 65
   257
176
     1
 75
     1
176
     1
175
     1
176
     1
 42
1.0
176
     1
 92
        8
176
     1
 66
     7
176
     1
 43
1.0
176
     1
 76
     1
176
     1
 77
     6
176
     1
 78
     2
176
     1
 67
     7
176
     1
 79
     5
176
     1
170
     0
176
     1
171
     0
176
     1
290
     0
176
     1
 93
       13
176
     1
 44
0.0
176
     1
173
     0
176
     1
  0
VISUALSTYLE
  5
3902
102
{ACAD_REACTORS
330
3900
102
}
330
3900
100
AcDbVisualStyle
  2
FlatWithEdges
 70
     1
177
     2
291
     1
 71
     2
176
     1
 72
     1
176
     1
 73
     1
176
     1
 90
        2
176
     1
 40
0.6
176
     1
 41
30.0
176
     1
 62
     5
 63
     7
421
 16777215
176
     1
 74
     1
176
     1
 91
        0
176
     1
 64
     7
176
     1
 65
   257
176
     1
 75
     1
176
     1
175
     1
176
     1
 42
1.0
176
     1
 92
        0
176
     1
 66
   257
176
     1
 43
1.0
176
     1
 76
     1
176
     1
 77
     6
176
     1
 78
     2
176
     1
 67
     7
176
     1
 79
     5
176
     1
170
     0
176
     1
171
     0
176
     1
290
     0
176
     1
 93
       13
176
     1
 44
0.0
176
     1
173
     0
176
     1
  0
VISUALSTYLE
  5
3903
102
{ACAD_REACTORS
330
3900
102
}
330
3900
100
AcDbVisualStyle
  2
Gouraud
 70
     2
177
     2
291
     1
 71
     2
176
     1
 72
     2
176
     1
 73
     1
176
     1
 90
        2
176
     1
 40
0.6
176
     1
 41
30.0
176
     1
 62
     5
 63
     7
421
 16777215
176
     1
 74
     0
176
     1
 91
        0
176
     1
 64
     7
176
     1
 65
   257
176
     1
 75
     1
176
     1
175
     1
176
     1
 42
1.0
176
     1
 92
        0
176
     1
 66
     7
176
     1
 43
1.0
176
     1
 76
     1
176
     1
 77
     6
176
     1
 78
     2
176
     1
 67
     7
176
     1
 79
     5
176
     1
170
     0
176
     1
171
     0
176
     1
290
     0
176
     1
 93
       13
176
     1
 44
0.0
176
     1
173
     0
176
     1
  0
VISUALSTYLE
  5
3904
102
{ACAD_REACTORS
330
3900
102
}
330
3900
100
AcDbVisualStyle
  2
GouraudWithEdges
 70
     3
177
     2
291
     1
 71
     2
176
     1
 72
     2
176
     1
 73
     1
176
     1
 90
        2
176
     1
 40
0.6
176
     1
 41
30.0
176
     1
 62
     5
 63
     7
421
 16777215
176
     1
 74
     1
176
     1
 91
        0
176
     1
 64
     7
176
     1
 65
   257
176
     1
 75
     1
176
     1
175
     1
176
     1
 42
1.0
176
     1
 92
        0
176
     1
 66
   257
176
     1
 43
1.0
176
     1
 76
     1
176
     1
 77
     6
176
     1
 78
     2
176
     1
 67
     7
176
     1
 79
     5
176
     1
170
     0
176
     1
171
     0
176
     1
290
     0
176
     1
 93
       13
176
     1
 44
0.0
176
     1
173
     0
176
     1
  0
VISUALSTYLE
  5
3907
102
{ACAD_REACTORS
330
3900
102
}
330
3900
100
AcDbVisualStyle
  2
Hidden
 70
     6
177
     2
291
     0
 71
     1
176
     1
 72
     2
176
     1
 73
     2
176
     1
 90
        0
176
     1
 40
0.6
176
     1
 41
30.0
176
     1
 62
     5
 63
     7
421
 16777215
176
     1
 74
     2
176
     1
 91
        2
176
     1
 64
     7
176
     1
 65
   257
176
     1
 75
     2
176
     1
175
     1
176
     1
 42
40.0
176
     1
 92
        0
176
     1
 66
   257
176
     1
 43
1.0
176
     1
 76
     1
176
     1
 77
     6
176
     1
 78
     2
176
     1
 67
     7
176
     1
 79
     3
176
     1
170
     0
176
     1
171
     0
176
     1
290
     0
176
     1
 93
        1
176
     1
 44
0.0
176
     1
173
     0
176
     1
  0
VISUALSTYLE
  5
3911
102
{ACAD_REACTORS
330
3900
102
}
330
3900
100
AcDbVisualStyle
  2
JitterOff
 70
    20
177
     2
291
     1
 71
     2
176
     0
 72
     2
176
     0
 73
     0
176
     0
 90
        0
176
     0
 40
0.6
176
     0
 41
30.0
176
     0
 62
     5
 63
     7
421
 16777215
176
     0
 74
     1
176
     0
 91
        4
176
     0
 64
     7
176
     0
 65
   257
176
     0
 75
     1
176
     0
175
     1
176
     0
 42
1.0
176
     0
 92
       10
176
     2
 66
     7
176
     0
 43
1.0
176
     0
 76
     1
176
     0
 77
     6
176
     0
 78
     2
176
     0
 67
     7
176
     0
 79
     5
176
     0
170
     0
176
     0
171
     0
176
     0
290
     0
176
     0
 93
        1
176
     0
 44
0.0
176
     0
173
     0
176
     0
  0
VISUALSTYLE
  5
390E
102
{ACAD_REACTORS
330
3900
102
}
330
3900
100
AcDbVisualStyle
  2
Linepattern
 70
    14
177
     2
291
     1
 71
     2
176
     1
 72
     2
176
     1
 73
     0
176
     1
 90
        0
176
     1
 40
0.6
176
     1
 41
30.0
176
     1
 62
     5
 63
     7
421
 16777215
176
     1
 74
     1
176
     1
 91
        4
176
     1
 64
     7
176
     1
 65
   257
176
     1
 75
     7
176
     1
175
     7
176
     1
 42
1.0
176
     1
 92
        8
176
     1
 66
     7
176
     1
 43
1.0
176
     1
 76
     1
176
     1
 77
     6
176
     1
 78
     2
176
     1
 67
     7
176
     1
 79
     5
176
     1
170
     0
176
     1
171
     0
176
     1
290
     0
176
     1
 93
        1
176
     1
 44
0.0
176
     1
173
     0
176
     1
  0
VISUALSTYLE
  5
3912
102
{ACAD_REACTORS
330
3900
102
}
330
3900
100
AcDbVisualStyle
  2
OverhangOff
 70
    21
177
     2
291
     1
 71
     2
176
     0
 72
     2
176
     0
 73
     0
176
     0
 90
        0
176
     0
 40
0.6
176
     0
 41
30.0
176
     0
 62
     5
 63
     7
421
 16777215
176
     0
 74
     1
176
     0
 91
        4
176
     0
 64
     7
176
     0
 65
   257
176
     0
 75
     1
176
     0
175
     1
176
     0
 42
1.0
176
     0
 92
        9
176
     2
 66
     7
176
     0
 43
1.0
176
     0
 76
     1
176
     0
 77
     6
176
     0
 78
     2
176
     0
 67
     7
176
     0
 79
     5
176
     0
170
     0
176
     0
171
     0
176
     0
290
     0
176
     0
 93
        1
176
     0
 44
0.0
176
     0
173
     0
176
     0
  0
VISUALSTYLE
  5
3909
102
{ACAD_REACTORS
330
3900
102
}
330
3900
100
AcDbVisualStyle
  2
Realistic
 70
     8
177
     2
291
     0
 71
     2
176
     1
 72
     3
176
     1
 73
     0
176
     1
 90
        2
176
     1
 40
0.6
176
     1
 41
30.0
176
     1
 62
     5
 63
     7
421
 16777215
176
     1
 74
     0
176
     1
 91
        0
176
     1
 64
     7
176
     1
 65
   257
176
     1
 75
     1
176
     1
175
     1
176
     1
 42
1.0
176
     1
 92
        8
176
     1
 66
   257
176
     1
 43
1.0
176
     1
 76
     1
176
     1
 77
     6
176
     1
 78
     2
176
     1
 67
     7
176
     1
 79
     3
176
     1
170
     0
176
     1
171
     0
176
     1
290
     0
176
     1
 93
       13
176
     1
 44
0.0
176
     1
173
     0
176
     1
  0
VISUALSTYLE
  5
3918
102
{ACAD_REACTORS
330
3900
102
}
330
3900
100
AcDbVisualStyle
  2
Shaded
 70
    27
177
     2
291
     0
 71
     2
176
     1
 72
     2
176
     1
 73
     1
176
     1
 90
        2
176
     1
 40
0.6
176
     1
 41
30.0
176
     1
 62
     5
 63
     7
421
 16777215
176
     1
 74
     0
176
     1
 91
        4
176
     1
 64
     7
176
     1
 65
   257
176
     1
 75
     1
176
     1
175
     1
176
     1
 42
1.0
176
     1
 92
        8
176
     1
 66
   257
176
     1
 43
1.0
176
     1
 76
     1
176
     1
 77
     6
176
     1
 78
     2
176
     1
 67
     8
425
  7895160
176
     1
 79
     3
176
     1
170
     0
176
     1
171
     0
176
     1
290
     0
176
     1
 93
        5
176
     1
 44
0.0
176
     1
173
     0
176
     1
  0
VISUALSTYLE
  5
3917
102
{ACAD_REACTORS
330
3900
102
}
330
3900
100
AcDbVisualStyle
  2
Shaded with edges
 70
    26
177
     2
291
     0
 71
     2
176
     1
 72
     2
176
     1
 73
     1
176
     1
 90
        2
176
     1
 40
0.6
176
     1
 41
30.0
176
     1
 62
     5
 63
     7
421
 16777215
176
     1
 74
     1
176
     1
 91
       10
176
     1
 64
     7
176
     1
 65
   257
176
     1
 75
     2
176
     1
175
     1
176
     1
 42
1.0
176
     1
 92
        8
176
     1
 66
   257
176
     1
 43
1.0
176
     1
 76
     1
176
     1
 77
     6
176
     1
 78
     2
176
     1
 67
     7
176
     1
 79
     3
176
     1
170
     0
176
     1
171
     0
176
     1
290
     0
176
     1
 93
        5
176
     1
 44
0.0
176
     1
173
     0
176
     1
  0
VISUALSTYLE
  5
3914
102
{ACAD_REACTORS
330
3900
102
}
330
3900
100
AcDbVisualStyle
  2
Shades of Gray
 70
    23
177
     2
291
     0
 71
     2
176
     1
 72
     2
176
     1
 73
     3
176
     1
 90
        0
176
     1
 40
0.6
176
     1
 41
30.0
176
     1
 62
     5
 63
     7
421
 16777215
176
     1
 74
     2
176
     1
 91
        2
176
     1
 64
     7
176
     1
 65
     7
176
     1
 75
     1
176
     1
175
     1
176
     1
 42
40.0
176
     1
 92
        8
176
     1
 66
     7
176
     1
 43
1.0
176
     1
 76
     1
176
     1
 77
     6
176
     1
 78
     2
176
     1
 67
     7
176
     1
 79
     3
176
     1
170
     0
176
     1
171
     0
176
     1
290
     0
176
     1
 93
        1
176
     1
 44
0.0
176
     1
173
     0
176
     1
  0
VISUALSTYLE
  5
3915
102
{ACAD_REACTORS
330
3900
102
}
330
3900
100
AcDbVisualStyle
  2
Sketchy
 70
    24
177
     2
291
     0
 71
     1
176
     1
 72
     2
176
     1
 73
     2
176
     1
 90
        0
176
     1
 40
0.6
176
     1
 41
30.0
176
     1
 62
     5
 63
     7
421
 16777215
176
     1
 74
     2
176
     1
 91
        2
176
     1
 64
     7
176
     1
 65
     7
176
     1
 75
     1
176
     1
175
     1
176
     1
 42
40.0
176
     1
 92
       11
176
     1
 66
     7
176
     1
 43
1.0
176
     1
 76
     1
176
     1
 77
     6
176
     1
 78
     2
176
     1
 67
     7
176
     1
 79
     6
176
     1
170
     0
176
     1
171
     0
176
     1
290
     0
176
     1
 93
        1
176
     1
 44
0.0
176
     1
173
     0
176
     1
  0
VISUALSTYLE
  5
390D
102
{ACAD_REACTORS
330
3900
102
}
330
3900
100
AcDbVisualStyle
  2
Thicken
 70
    13
177
     2
291
     1
 71
     2
176
     1
 72
     2
176
     1
 73
     0
176
     1
 90
        0
176
     1
 40
0.6
176
     1
 41
30.0
176
     1
 62
     5
 63
     7
421
 16777215
176
     1
 74
     1
176
     1
 91
        4
176
     1
 64
     7
176
     1
 65
   257
176
     1
 75
     1
176
     1
175
     1
176
     1
 42
1.0
176
     1
 92
       12
176
     1
 66
     7
176
     1
 43
1.0
176
     1
 76
     1
176
     1
 77
     6
176
     1
 78
     2
176
     1
 67
     7
176
     1
 79
     5
176
     1
170
     0
176
     1
171
     0
176
     1
290
     0
176
     1
 93
        1
176
     1
 44
0.0
176
     1
173
     0
176
     1
  0
VISUALSTYLE
  5
3906
102
{ACAD_REACTORS
330
3900
102
}
330
3900
100
AcDbVisualStyle
  2
Wireframe
 70
     5
177
     2
291
     0
 71
     0
176
     1
 72
     2
176
     1
 73
     0
176
     1
 90
        0
176
     1
 40
0.6
176
     1
 41
30.0
176
     1
 62
     5
 63
     7
421
 16777215
176
     1
 74
     1
176
     1
 91
        4
176
     1
 64
     7
176
     1
 65
   257
176
     1
 75
     1
176
     1
175
     1
176
     1
 42
1.0
176
     1
 92
        0
176
     1
 66
   257
176
     1
 43
1.0
176
     1
 76
     1
176
     1
 77
     6
176
     1
 78
     2
176
     1
 67
     7
176
     1
 79
     3
176
     1
170
     0
176
     1
171
     0
176
     1
290
     0
176
     1
 93
        1
176
     1
 44
0.0
176
     1
173
     0
176
     1
  0
VISUALSTYLE
  5
3916
102
{ACAD_REACTORS
330
3900
102
}
330
3900
100
AcDbVisualStyle
  2
X-Ray
 70
    25
177
     2
291
     0
 71
     2
176
     1
 72
     2
176
     1
 73
     1
176
     1
 90
        1
176
     1
 40
0.5
176
     1
 41
30.0
176
     1
 62
     5
 63
     7
421
 16777215
176
     1
 74
     1
176
     1
 91
        0
176
     1
 64
     7
176
     1
 65
   257
176
     1
 75
     1
176
     1
175
     1
176
     1
 42
1.0
176
     1
 92
        8
176
     1
 66
     7
176
     1
 43
1.0
176
     1
 76
     1
176
     1
 77
     6
176
     1
 78
     2
176
     1
 67
     7
176
     1
 79
     3
176
     1
170
     0
176
     1
171
     0
176
     1
290
     0
176
     1
 93
       13
176
     1
 44
0.0
176
     1
173
     0
176
     1
  0
DICTIONARYVAR
  5
3BD1
102
{ACAD_REACTORS
330
3E1
102
}
330
3E1
100
DictionaryVariables
280
     0
  1
1:1
  0
DICTIONARYVAR
  5
3BD6
102
{ACAD_REACTORS
330
3E1
102
}
330
3E1
100
DictionaryVariables
280
     0
  1
Standard
  0
DICTIONARYVAR
  5
3BD5
102
{ACAD_REACTORS
330
3E1
102
}
330
3E1
100
DictionaryVariables
280
     0
  1
Standard
  0
DICTIONARYVAR
  5
14C8
102
{ACAD_REACTORS
330
3E1
102
}
330
3E1
100
DictionaryVariables
280
     0
  1
ByLayer
  0
DICTIONARYVAR
  5
3BD7
102
{ACAD_REACTORS
330
3E1
102
}
330
3E1
100
DictionaryVariables
280
     0
  1
0
  0
DICTIONARYVAR
  5
3E2
102
{ACAD_REACTORS
330
3E1
102
}
330
3E1
100
DictionaryVariables
280
     0
  1
96
  0
DICTIONARYVAR
  5
3708
102
{ACAD_REACTORS
330
14C9
102
}
330
14C9
100
DictionaryVariables
280
     0
  1
0.261799
  0
DICTIONARYVAR
  5
3706
102
{ACAD_REACTORS
330
14C9
102
}
330
14C9
100
DictionaryVariables
280
     0
  1
10.000000
  0
DICTIONARYVAR
  5
3707
102
{ACAD_REACTORS
330
14C9
102
}
330
14C9
100
DictionaryVariables
280
     0
  1
6.000000
  0
DICTIONARYVAR
  5
3709
102
{ACAD_REACTORS
330
14C9
102
}
330
14C9
100
DictionaryVariables
280
     0
  1
0
  0
DICTIONARY
  5
3C37
330
391E
100
AcDbDictionary
280
     1
281
     1
  3
ACAD_ROUNDTRIP_2008_TABLESTYLE_CELLSTYLEMAP
360
3C38
  0
CELLSTYLEMAP
  5
3C38
102
{ACAD_REACTORS
330
3C37
102
}
330
3C37
100
AcDbCellStyleMap
 90
        3
300
CELLSTYLE
  1
TABLEFORMAT_BEGIN
 90
        5
170
     1
 91
        0
 92
    32768
 62
   257
 93
        1
300
CONTENTFORMAT
  1
CONTENTFORMAT_BEGIN
 90
        0
 91
        0
 92
        4
 93
        0
300

 40
0.0
140
1.0
 94
        5
 62
     0
340
11
144
6.0
309
CONTENTFORMAT_END
171
     1
301
MARGIN
  1
CELLMARGIN_BEGIN
 40
1.5
 40
1.5
 40
1.5
 40
1.5
 40
1.5
 40
1.5
309
CELLMARGIN_END
 94
        6
 95
        1
302
GRIDFORMAT
  1
GRIDFORMAT_BEGIN
 90
        0
 91
        1
 62
     0
 92
       -2
340
14
 93
        0
 40
0.045
309
GRIDFORMAT_END
 95
        2
302
GRIDFORMAT
  1
GRIDFORMAT_BEGIN
 90
        0
 91
        1
 62
     0
 92
       -2
340
14
 93
        0
 40
0.045
309
GRIDFORMAT_END
 95
        4
302
GRIDFORMAT
  1
GRIDFORMAT_BEGIN
 90
        0
 91
        1
 62
     0
 92
       -2
340
14
 93
        0
 40
0.045
309
GRIDFORMAT_END
 95
        8
302
GRIDFORMAT
  1
GRIDFORMAT_BEGIN
 90
        0
 91
        1
 62
     0
 92
       -2
340
14
 93
        0
 40
0.045
309
GRIDFORMAT_END
 95
       16
302
GRIDFORMAT
  1
GRIDFORMAT_BEGIN
 90
        0
 91
        1
 62
     0
 92
       -2
340
14
 93
        0
 40
0.045
309
GRIDFORMAT_END
 95
       32
302
GRIDFORMAT
  1
GRIDFORMAT_BEGIN
 90
        0
 91
        1
 62
     0
 92
       -2
340
14
 93
        0
 40
0.045
309
GRIDFORMAT_END
309
TABLEFORMAT_END
  1
CELLSTYLE_BEGIN
 90
        1
 91
        1
300
_TITLE
309
CELLSTYLE_END
300
CELLSTYLE
  1
TABLEFORMAT_BEGIN
 90
        5
170
     1
 91
        0
 92
        0
 62
   257
 93
        1
300
CONTENTFORMAT
  1
CONTENTFORMAT_BEGIN
 90
        0
 91
        0
 92
        4
 93
        0
300

 40
0.0
140
1.0
 94
        5
 62
     0
340
11
144
4.5
309
CONTENTFORMAT_END
171
     1
301
MARGIN
  1
CELLMARGIN_BEGIN
 40
1.5
 40
1.5
 40
1.5
 40
1.5
 40
1.5
 40
1.5
309
CELLMARGIN_END
 94
        6
 95
        1
302
GRIDFORMAT
  1
GRIDFORMAT_BEGIN
 90
        0
 91
        1
 62
     0
 92
       -2
340
14
 93
        0
 40
0.045
309
GRIDFORMAT_END
 95
        2
302
GRIDFORMAT
  1
GRIDFORMAT_BEGIN
 90
        0
 91
        1
 62
     0
 92
       -2
340
14
 93
        0
 40
0.045
309
GRIDFORMAT_END
 95
        4
302
GRIDFORMAT
  1
GRIDFORMAT_BEGIN
 90
        0
 91
        1
 62
     0
 92
       -2
340
14
 93
        0
 40
0.045
309
GRIDFORMAT_END
 95
        8
302
GRIDFORMAT
  1
GRIDFORMAT_BEGIN
 90
        0
 91
        1
 62
     0
 92
       -2
340
14
 93
        0
 40
0.045
309
GRIDFORMAT_END
 95
       16
302
GRIDFORMAT
  1
GRIDFORMAT_BEGIN
 90
        0
 91
        1
 62
     0
 92
       -2
340
14
 93
        0
 40
0.045
309
GRIDFORMAT_END
 95
       32
302
GRIDFORMAT
  1
GRIDFORMAT_BEGIN
 90
        0
 91
        1
 62
     0
 92
       -2
340
14
 93
        0
 40
0.045
309
GRIDFORMAT_END
309
TABLEFORMAT_END
  1
CELLSTYLE_BEGIN
 90
        2
 91
        1
300
_HEADER
309
CELLSTYLE_END
300
CELLSTYLE
  1
TABLEFORMAT_BEGIN
 90
        5
170
     1
 91
        0
 92
        0
 62
   257
 93
        1
300
CONTENTFORMAT
  1
CONTENTFORMAT_BEGIN
 90
        0
 91
        0
 92
        4
 93
        0
300

 40
0.0
140
1.0
 94
        2
 62
     0
340
11
144
4.5
309
CONTENTFORMAT_END
171
     1
301
MARGIN
  1
CELLMARGIN_BEGIN
 40
1.5
 40
1.5
 40
1.5
 40
1.5
 40
1.5
 40
1.5
309
CELLMARGIN_END
 94
        6
 95
        1
302
GRIDFORMAT
  1
GRIDFORMAT_BEGIN
 90
        0
 91
        1
 62
     0
 92
       -2
340
14
 93
        0
 40
0.045
309
GRIDFORMAT_END
 95
        2
302
GRIDFORMAT
  1
GRIDFORMAT_BEGIN
 90
        0
 91
        1
 62
     0
 92
       -2
340
14
 93
        0
 40
0.045
309
GRIDFORMAT_END
 95
        4
302
GRIDFORMAT
  1
GRIDFORMAT_BEGIN
 90
        0
 91
        1
 62
     0
 92
       -2
340
14
 93
        0
 40
0.045
309
GRIDFORMAT_END
 95
        8
302
GRIDFORMAT
  1
GRIDFORMAT_BEGIN
 90
        0
 91
        1
 62
     0
 92
       -2
340
14
 93
        0
 40
0.045
309
GRIDFORMAT_END
 95
       16
302
GRIDFORMAT
  1
GRIDFORMAT_BEGIN
 90
        0
 91
        1
 62
     0
 92
       -2
340
14
 93
        0
 40
0.045
309
GRIDFORMAT_END
 95
       32
302
GRIDFORMAT
  1
GRIDFORMAT_BEGIN
 90
        0
 91
        1
 62
     0
 92
       -2
340
14
 93
        0
 40
0.045
309
GRIDFORMAT_END
309
TABLEFORMAT_END
  1
CELLSTYLE_BEGIN
 90
        3
 91
        2
300
_DATA
309
CELLSTYLE_END
  0
ENDSEC
  0
EOF
