  0
SECTION
  2
HEADER
  9
$ACADVER
  1
AC1024
  9
$ACADMAINTVER
 70
     6
  9
$DWGCODEPAGE
  3
ANSI_932
  9
$LASTSAVEDBY
  1
営業企画A
  9
$INSBASE
 10
0.0
 20
0.0
 30
0.0
  9
$EXTMIN
 10
0.0
 20
0.0
 30
0.0
  9
$EXTMAX
 10
292.0
 20
205.0
 30
0.0
  9
$LIMMIN
 10
0.0
 20
0.0
  9
$LIMMAX
 10
297.0
 20
210.0
  9
$ORTHOMODE
 70
     1
  9
$REGENMODE
 70
     1
  9
$FILLMODE
 70
     1
  9
$QTEXTMODE
 70
     0
  9
$MIRRTEXT
 70
     1
  9
$LTSCALE
 40
1.0
  9
$ATTMODE
 70
     1
  9
$TEXTSIZE
 40
2.5
  9
$TRACEWID
 40
1.0
  9
$TEXTSTYLE
  7
Standard
  9
$CLAYER
  8
硬質樹脂部分
  9
$CELTYPE
  6
Continuous
  9
$CECOLOR
 62
   256
  9
$CELTSCALE
 40
1.0
  9
$DISPSILH
 70
     0
  9
$DIMSCALE
 40
1.0
  9
$DIMASZ
 40
1.5
  9
$DIMEXO
 40
0.625
  9
$DIMDLI
 40
3.75
  9
$DIMRND
 40
0.0
  9
$DIMDLE
 40
0.0
  9
$DIMEXE
 40
1.25
  9
$DIMTP
 40
0.0
  9
$DIMTM
 40
0.0
  9
$DIMTXT
 40
2.0
  9
$DIMCEN
 40
2.5
  9
$DIMTSZ
 40
0.0
  9
$DIMTOL
 70
     0
  9
$DIMLIM
 70
     0
  9
$DIMTIH
 70
     1
  9
$DIMTOH
 70
     1
  9
$DIMSE1
 70
     0
  9
$DIMSE2
 70
     0
  9
$DIMTAD
 70
     1
  9
$DIMZIN
 70
     8
  9
$DIMBLK
  1

  9
$DIMASO
 70
     1
  9
$DIMSHO
 70
     1
  9
$DIMPOST
  1

  9
$DIMAPOST
  1

  9
$DIMALT
 70
     0
  9
$DIMALTD
 70
     3
  9
$DIMALTF
 40
0.03937007874016
  9
$DIMLFAC
 40
1.0
  9
$DIMTOFL
 70
     0
  9
$DIMTVP
 40
0.0
  9
$DIMTIX
 70
     0
  9
$DIMSOXD
 70
     0
  9
$DIMSAH
 70
     0
  9
$DIMBLK1
  1

  9
$DIMBLK2
  1

  9
$DIMSTYLE
  2
ISO-25
  9
$DIMCLRD
 70
     0
  9
$DIMCLRE
 70
     0
  9
$DIMCLRT
 70
     0
  9
$DIMTFAC
 40
1.0
  9
$DIMGAP
 40
0.625
  9
$DIMJUST
 70
     0
  9
$DIMSD1
 70
     0
  9
$DIMSD2
 70
     0
  9
$DIMTOLJ
 70
     0
  9
$DIMTZIN
 70
     8
  9
$DIMALTZ
 70
     0
  9
$DIMALTTZ
 70
     0
  9
$DIMUPT
 70
     1
  9
$DIMDEC
 70
     2
  9
$DIMTDEC
 70
     2
  9
$DIMALTU
 70
     2
  9
$DIMALTTD
 70
     3
  9
$DIMTXSTY
  7
Standard
  9
$DIMAUNIT
 70
     0
  9
$DIMADEC
 70
     0
  9
$DIMALTRND
 40
0.0
  9
$DIMAZIN
 70
     0
  9
$DIMDSEP
 70
    46
  9
$DIMATFIT
 70
     3
  9
$DIMFRAC
 70
     0
  9
$DIMLDRBLK
  1

  9
$DIMLUNIT
 70
     2
  9
$DIMLWD
 70
    -2
  9
$DIMLWE
 70
    -2
  9
$DIMTMOVE
 70
     2
  9
$DIMFXL
 40
1.0
  9
$DIMFXLON
 70
     0
  9
$DIMJOGANG
 40
0.7853981633974483
  9
$DIMTFILL
 70
     0
  9
$DIMTFILLCLR
 70
     0
  9
$DIMARCSYM
 70
     0
  9
$DIMLTYPE
  6

  9
$DIMLTEX1
  6

  9
$DIMLTEX2
  6

  9
$DIMTXTDIRECTION
 70
     0
  9
$LUNITS
 70
     2
  9
$LUPREC
 70
     4
  9
$SKETCHINC
 40
1.0
  9
$FILLETRAD
 40
0.3
  9
$AUNITS
 70
     0
  9
$AUPREC
 70
     0
  9
$MENU
  1
.
  9
$ELEVATION
 40
0.0
  9
$PELEVATION
 40
0.0
  9
$THICKNESS
 40
0.0
  9
$LIMCHECK
 70
     0
  9
$CHAMFERA
 40
10.0
  9
$CHAMFERB
 40
10.0
  9
$CHAMFERC
 40
20.0
  9
$CHAMFERD
 40
0.0
  9
$SKPOLY
 70
     0
  9
$TDCREATE
 40
2453866.557479954
  9
$TDUCREATE
 40
2453866.182479954
  9
$TDUPDATE
 40
2459762.596508646
  9
$TDUUPDATE
 40
2459762.221508646
  9
$TDINDWG
 40
0.8222979745
  9
$TDUSRTIMER
 40
0.0004117593
  9
$USRTIMER
 70
     1
  9
$ANGBASE
 50
0.0
  9
$ANGDIR
 70
     0
  9
$PDMODE
 70
     0
  9
$PDSIZE
 40
0.0
  9
$PLINEWID
 40
0.0
  9
$SPLFRAME
 70
     0
  9
$SPLINETYPE
 70
     6
  9
$SPLINESEGS
 70
     8
  9
$HANDSEED
  5
3C61
  9
$SURFTAB1
 70
     6
  9
$SURFTAB2
 70
     6
  9
$SURFTYPE
 70
     6
  9
$SURFU
 70
     6
  9
$SURFV
 70
     6
  9
$UCSBASE
  2

  9
$UCSNAME
  2

  9
$UCSORG
 10
0.0
 20
0.0
 30
0.0
  9
$UCSXDIR
 10
1.0
 20
0.0
 30
0.0
  9
$UCSYDIR
 10
0.0
 20
1.0
 30
0.0
  9
$UCSORTHOREF
  2

  9
$UCSORTHOVIEW
 70
     0
  9
$UCSORGTOP
 10
0.0
 20
0.0
 30
0.0
  9
$UCSORGBOTTOM
 10
0.0
 20
0.0
 30
0.0
  9
$UCSORGLEFT
 10
0.0
 20
0.0
 30
0.0
  9
$UCSORGRIGHT
 10
0.0
 20
0.0
 30
0.0
  9
$UCSORGFRONT
 10
0.0
 20
0.0
 30
0.0
  9
$UCSORGBACK
 10
0.0
 20
0.0
 30
0.0
  9
$PUCSBASE
  2

  9
$PUCSNAME
  2

  9
$PUCSORG
 10
0.0
 20
0.0
 30
0.0
  9
$PUCSXDIR
 10
1.0
 20
0.0
 30
0.0
  9
$PUCSYDIR
 10
0.0
 20
1.0
 30
0.0
  9
$PUCSORTHOREF
  2

  9
$PUCSORTHOVIEW
 70
     0
  9
$PUCSORGTOP
 10
0.0
 20
0.0
 30
0.0
  9
$PUCSORGBOTTOM
 10
0.0
 20
0.0
 30
0.0
  9
$PUCSORGLEFT
 10
0.0
 20
0.0
 30
0.0
  9
$PUCSORGRIGHT
 10
0.0
 20
0.0
 30
0.0
  9
$PUCSORGFRONT
 10
0.0
 20
0.0
 30
0.0
  9
$PUCSORGBACK
 10
0.0
 20
0.0
 30
0.0
  9
$USERI1
 70
     0
  9
$USERI2
 70
     0
  9
$USERI3
 70
     0
  9
$USERI4
 70
     0
  9
$USERI5
 70
     0
  9
$USERR1
 40
0.0
  9
$USERR2
 40
0.0
  9
$USERR3
 40
0.0
  9
$USERR4
 40
0.0
  9
$USERR5
 40
0.0
  9
$WORLDVIEW
 70
     1
  9
$SHADEDGE
 70
     3
  9
$SHADEDIF
 70
    70
  9
$TILEMODE
 70
     1
  9
$MAXACTVP
 70
    64
  9
$PINSBASE
 10
0.0
 20
0.0
 30
0.0
  9
$PLIMCHECK
 70
     0
  9
$PEXTMIN
 10
1.000000000000000E+20
 20
1.000000000000000E+20
 30
1.000000000000000E+20
  9
$PEXTMAX
 10
-1.000000000000000E+20
 20
-1.000000000000000E+20
 30
-1.000000000000000E+20
  9
$PLIMMIN
 10
0.0
 20
0.0
  9
$PLIMMAX
 10
0.0
 20
0.0
  9
$UNITMODE
 70
     0
  9
$VISRETAIN
 70
     1
  9
$PLINEGEN
 70
     0
  9
$PSLTSCALE
 70
     1
  9
$TREEDEPTH
 70
  3020
  9
$CMLSTYLE
  2
Standard
  9
$CMLJUST
 70
     0
  9
$CMLSCALE
 40
20.0
  9
$PROXYGRAPHICS
 70
     1
  9
$MEASUREMENT
 70
     1
  9
$CELWEIGHT
370
    -1
  9
$ENDCAPS
280
     0
  9
$JOINSTYLE
280
     0
  9
$LWDISPLAY
290
     0
  9
$INSUNITS
 70
     4
  9
$HYPERLINKBASE
  1

  9
$STYLESHEET
  1

  9
$XEDIT
290
     1
  9
$CEPSNTYPE
380
     0
  9
$PSTYLEMODE
290
     1
  9
$FINGERPRINTGUID
  2
{49B20B3B-064E-400B-9469-2837C497CFA5}
  9
$VERSIONGUID
  2
{CCDC3A7D-9D77-4BF9-B421-98E64B28052D}
  9
$EXTNAMES
290
     1
  9
$PSVPSCALE
 40
0.0
  9
$OLESTARTUP
290
     0
  9
$SORTENTS
280
    96
  9
$INDEXCTL
280
     0
  9
$HIDETEXT
280
     1
  9
$XCLIPFRAME
280
     2
  9
$HALOGAP
280
     0
  9
$OBSCOLOR
 70
   257
  9
$OBSLTYPE
280
     0
  9
$INTERSECTIONDISPLAY
280
     0
  9
$INTERSECTIONCOLOR
 70
   257
  9
$DIMASSOC
280
     2
  9
$PROJECTNAME
  1

  9
$CAMERADISPLAY
290
     0
  9
$LENSLENGTH
 40
50.0
  9
$CAMERAHEIGHT
 40
0.0
  9
$STEPSPERSEC
 40
2.0
  9
$STEPSIZE
 40
6.0
  9
$3DDWFPREC
 40
2.0
  9
$PSOLWIDTH
 40
0.25
  9
$PSOLHEIGHT
 40
4.0
  9
$LOFTANG1
 40
1.570796326794897
  9
$LOFTANG2
 40
1.570796326794897
  9
$LOFTMAG1
 40
0.0
  9
$LOFTMAG2
 40
0.0
  9
$LOFTPARAM
 70
     7
  9
$LOFTNORMALS
280
     1
  9
$LATITUDE
 40
37.795
  9
$LONGITUDE
 40
-122.394
  9
$NORTHDIRECTION
 40
0.0
  9
$TIMEZONE
 70
 -8000
  9
$LIGHTGLYPHDISPLAY
280
     1
  9
$TILEMODELIGHTSYNCH
280
     1
  9
$SOLIDHIST
280
     0
  9
$SHOWHIST
280
     1
  9
$DWFFRAME
280
     2
  9
$DGNFRAME
280
     2
  9
$REALWORLDSCALE
290
     1
  9
$INTERFERECOLOR
 62
   256
  9
$CSHADOW
280
     0
  9
$SHADOWPLANELOCATION
 40
0.0
  0
ENDSEC
  0
SECTION
  2
CLASSES
  0
CLASS
  1
ACDBDICTIONARYWDFLT
  2
AcDbDictionaryWithDefault
  3
ObjectDBX Classes
 90
        0
 91
        3
280
     0
281
     0
  0
CLASS
  1
ACDBPLACEHOLDER
  2
AcDbPlaceHolder
  3
ObjectDBX Classes
 90
        0
 91
        1
280
     0
281
     0
  0
CLASS
  1
LAYOUT
  2
AcDbLayout
  3
ObjectDBX Classes
 90
        0
 91
        1
280
     0
281
     0
  0
CLASS
  1
DICTIONARYVAR
  2
AcDbDictionaryVar
  3
ObjectDBX Classes
 90
        0
 91
        3
280
     0
281
     0
  0
CLASS
  1
SCALE
  2
AcDbScale
  3
ObjectDBX Classes
 90
     1153
 91
        3
280
     0
281
     0
  0
CLASS
  1
MATERIAL
  2
AcDbMaterial
  3
ObjectDBX Classes
 90
     1153
 91
        3
280
     0
281
     0
  0
CLASS
  1
VISUALSTYLE
  2
AcDbVisualStyle
  3
ObjectDBX Classes
 90
     4095
 91
        3
280
     0
281
     0
  0
CLASS
  1
TABLESTYLE
  2
AcDbTableStyle
  3
ObjectDBX Classes
 90
     4095
 91
        3
280
     0
281
     0
  0
CLASS
  1
RASTERVARIABLES
  2
AcDbRasterVariables
  3
ISM
 90
        0
 91
        3
280
     0
281
     0
  0
CLASS
  1
DIMASSOC
  2
AcDbDimAssoc
  3
"AcDbDimAssoc|Product Desc:     AcDim ARX App For Dimension|Company:          Autodesk, Inc.|WEB Address:      www.autodesk.com"
 90
        0
 91
        3
280
     0
281
     0
  0
CLASS
  1
MLEADERSTYLE
  2
AcDbMLeaderStyle
  3
ACDB_MLEADERSTYLE_CLASS
 90
     4095
 91
        3
280
     0
281
     0
  0
CLASS
  1
SUN
  2
AcDbSun
  3
SCENEOE
 90
     1153
 91
        3
280
     0
281
     0
  0
CLASS
  1
CELLSTYLEMAP
  2
AcDbCellStyleMap
  3
ObjectDBX Classes
 90
     1152
 91
        3
280
     0
281
     0
  0
ENDSEC
  0
SECTION
  2
TABLES
  0
TABLE
  2
VPORT
  5
8
330
0
100
AcDbSymbolTable
 70
     1
  0
VPORT
  5
934
330
8
100
AcDbSymbolTableRecord
100
AcDbViewportTableRecord
  2
*Active
 70
     0
 10
0.0
 20
0.0
 11
1.0
 21
1.0
 12
146.0
 22
102.5
 13
0.0
 23
0.0
 14
10.0
 24
10.0
 15
10.0
 25
10.0
 16
0.0
 26
0.0
 36
1.0
 17
0.0
 27
0.0
 37
0.0
 40
209.1
 41
1.737931034482759
 42
50.0
 43
0.0
 44
0.0
 50
0.0
 51
0.0
 71
    16
 72
   100
 73
     1
 74
     3
 75
     0
 76
     0
 77
     0
 78
     0
281
     0
 65
     1
110
0.0
120
0.0
130
0.0
111
1.0
121
0.0
131
0.0
112
0.0
122
1.0
132
0.0
 79
     0
146
0.0
348
39DA
 60
     3
 61
     5
292
     1
282
     1
141
0.0
142
0.0
 63
   256
361
39FA
  0
ENDTAB
  0
TABLE
  2
LTYPE
  5
5
330
0
100
AcDbSymbolTable
 70
     5
  0
LTYPE
  5
14
330
5
100
AcDbSymbolTableRecord
100
AcDbLinetypeTableRecord
  2
ByBlock
 70
     0
  3

 72
    65
 73
     0
 40
0.0
  0
LTYPE
  5
15
330
5
100
AcDbSymbolTableRecord
100
AcDbLinetypeTableRecord
  2
ByLayer
 70
     0
  3

 72
    65
 73
     0
 40
0.0
  0
LTYPE
  5
16
330
5
100
AcDbSymbolTableRecord
100
AcDbLinetypeTableRecord
  2
Continuous
 70
     0
  3
Solid line
 72
    65
 73
     0
 40
0.0
  0
LTYPE
  5
C6
330
5
100
AcDbSymbolTableRecord
100
AcDbLinetypeTableRecord
  2
ACAD_ISO02W100
 70
     0
  3
ISO dash __ __ __ __ __ __ __ __ __ __ __ __ __
 72
    65
 73
     2
 40
15.0
 49
12.0
 74
     0
 49
-3.0
 74
     0
  0
LTYPE
  5
63F
330
5
100
AcDbSymbolTableRecord
100
AcDbLinetypeTableRecord
  2
HIDDEN
 70
     0
  3
Hidden __ __ __ __ __ __ __ __ __ __ __ __ __ _
 72
    65
 73
     2
 40
4.5
 49
3.0
 74
     0
 49
-1.5
 74
     0
  0
LTYPE
  5
7A5
330
5
100
AcDbSymbolTableRecord
100
AcDbLinetypeTableRecord
  2
ACAD_ISO07W100
 70
     0
  3
ISO dot . . . . . . . . . . . . . . . . . . . .
 72
    65
 73
     2
 40
3.0
 49
0.0
 74
     0
 49
-3.0
 74
     0
  0
LTYPE
  5
A8D
330
5
100
AcDbSymbolTableRecord
100
AcDbLinetypeTableRecord
  2
CENTER2
 70
     0
  3
Center (.5x) ___ _ ___ _ ___ _ ___ _ ___ _ ___
 72
    65
 73
     4
 40
28.575
 49
19.05
 74
     0
 49
-3.175
 74
     0
 49
3.175
 74
     0
 49
-3.175
 74
     0
  0
ENDTAB
  0
TABLE
  2
LAYER
  5
2
102
{ACAD_XDICTIONARY
360
970
102
}
330
0
100
AcDbSymbolTable
 70
    18
  0
LAYER
  5
10
330
2
100
AcDbSymbolTableRecord
100
AcDbLayerTableRecord
  2
0
 70
     0
 62
     7
  6
Continuous
370
    -3
390
F
347
39F1
  0
LAYER
  5
110
330
2
100
AcDbSymbolTableRecord
100
AcDbLayerTableRecord
  2
Defpoints
 70
     0
 62
     7
  6
Continuous
290
     0
370
    -3
390
F
347
39F1
  0
LAYER
  5
4E7
330
2
100
AcDbSymbolTableRecord
100
AcDbLayerTableRecord
  2
100
 70
     0
 62
     7
  6
ACAD_ISO07W100
370
    -3
390
F
347
39F1
  0
LAYER
  5
68D
330
2
100
AcDbSymbolTableRecord
100
AcDbLayerTableRecord
  2
用紙範囲
 70
     0
 62
    10
  6
Continuous
370
    -3
390
F
347
39F1
  0
LAYER
  5
68E
330
2
100
AcDbSymbolTableRecord
100
AcDbLayerTableRecord
  2
枠
 70
     0
 62
   112
  6
Continuous
370
    -3
390
F
347
39F1
  0
LAYER
  5
68F
330
2
100
AcDbSymbolTableRecord
100
AcDbLayerTableRecord
  2
寸法
 70
     0
 62
    90
  6
Continuous
370
    -3
390
F
347
39F1
  0
LAYER
  5
690
330
2
100
AcDbSymbolTableRecord
100
AcDbLayerTableRecord
  2
金属部分
 70
     0
 62
   170
  6
Continuous
370
    -3
390
F
347
39F1
  0
LAYER
  5
691
330
2
100
AcDbSymbolTableRecord
100
AcDbLayerTableRecord
  2
品番
 70
     0
 62
   244
  6
Continuous
370
    -3
390
F
347
39F1
  0
LAYER
  5
786
330
2
100
AcDbSymbolTableRecord
100
AcDbLayerTableRecord
  2
文字
 70
     0
 62
    40
  6
Continuous
370
    -3
390
F
347
39F1
  0
LAYER
  5
790
330
2
100
AcDbSymbolTableRecord
100
AcDbLayerTableRecord
  2
社名
 70
     0
 62
     1
  6
Continuous
370
    -3
390
F
347
39F1
  0
LAYER
  5
880
330
2
100
AcDbSymbolTableRecord
100
AcDbLayerTableRecord
  2
軟質樹脂部分
 70
     0
 62
    30
  6
Continuous
370
    -3
390
F
347
39F1
  0
LAYER
  5
896
330
2
100
AcDbSymbolTableRecord
100
AcDbLayerTableRecord
  2
TOS_M1
 70
     0
 62
     7
  6
Continuous
370
    -3
390
F
347
39F1
  0
LAYER
  5
897
330
2
100
AcDbSymbolTableRecord
100
AcDbLayerTableRecord
  2
TOS_S1
 70
     0
 62
     4
  6
Continuous
370
    -3
390
F
347
39F1
  0
LAYER
  5
A57
330
2
100
AcDbSymbolTableRecord
100
AcDbLayerTableRecord
  2
補助
 70
     0
 62
     7
  6
HIDDEN
370
    -3
390
F
347
39F1
1001
AcAecLayerStandard
1000

1000

  0
LAYER
  5
A86
102
{ACAD_XDICTIONARY
360
A87
102
}
330
2
100
AcDbSymbolTableRecord
100
AcDbLayerTableRecord
  2
SCALE
 70
     0
 62
     3
  6
Continuous
370
    -3
390
F
347
39F1
  0
LAYER
  5
A8A
102
{ACAD_XDICTIONARY
360
A8B
102
}
330
2
100
AcDbSymbolTableRecord
100
AcDbLayerTableRecord
  2
Hojo
 70
     0
 62
   111
  6
Continuous
370
    -3
390
F
347
39F1
  0
LAYER
  5
2076
330
2
100
AcDbSymbolTableRecord
100
AcDbLayerTableRecord
  2
硬質樹脂部分
 70
     0
 62
   220
  6
Continuous
370
    -3
390
F
347
39F1
1001
AcAecLayerStandard
1000

1000

  0
LAYER
  5
34A4
330
2
100
AcDbSymbolTableRecord
100
AcDbLayerTableRecord
  2
両面テープ
 70
     0
 62
     7
  6
Continuous
370
    -3
390
F
347
39F1
1001
AcAecLayerStandard
1000

1000

  0
ENDTAB
  0
TABLE
  2
STYLE
  5
3
330
0
100
AcDbSymbolTable
 70
     2
  0
STYLE
  5
11
330
3
100
AcDbSymbolTableRecord
100
AcDbTextStyleTableRecord
  2
Standard
 70
     0
 40
0.0
 41
1.0
 50
0.0
 71
     0
 42
2.5
  3
txt.shx
  4
bigfont.shx
  0
STYLE
  5
C5
330
3
100
AcDbSymbolTableRecord
100
AcDbTextStyleTableRecord
  2

 70
     1
 40
0.0
 41
1.0
 50
0.0
 71
     0
 42
2.5
  3
ltypeshp.shx
  4

  0
ENDTAB
  0
TABLE
  2
VIEW
  5
6
330
0
100
AcDbSymbolTable
 70
     0
  0
ENDTAB
  0
TABLE
  2
UCS
  5
7
330
0
100
AcDbSymbolTable
 70
     0
  0
ENDTAB
  0
TABLE
  2
APPID
  5
9
330
0
100
AcDbSymbolTable
 70
     6
  0
APPID
  5
12
330
9
100
AcDbSymbolTableRecord
100
AcDbRegAppTableRecord
  2
ACAD
 70
     0
  0
APPID
  5
A58
330
9
100
AcDbSymbolTableRecord
100
AcDbRegAppTableRecord
  2
AcAecLayerStandard
 70
     0
  0
APPID
  5
A97
330
9
100
AcDbSymbolTableRecord
100
AcDbRegAppTableRecord
  2
ACAD_NAV_VCDISPLAY
 70
     0
  0
APPID
  5
A98
330
9
100
AcDbSymbolTableRecord
100
AcDbRegAppTableRecord
  2
ACAD_PSEXT
 70
     0
  0
APPID
  5
B15
330
9
100
AcDbSymbolTableRecord
100
AcDbRegAppTableRecord
  2
ACAD_DSTYLE_DIMRADIAL_EXTENSION
 70
     0
  0
APPID
  5
3BF6
330
9
100
AcDbSymbolTableRecord
100
AcDbRegAppTableRecord
  2
PLOTTRANSPARENCY
 70
     0
  0
ENDTAB
  0
TABLE
  2
DIMSTYLE
  5
A
330
0
100
AcDbSymbolTable
 70
     4
100
AcDbDimStyleTable
  0
DIMSTYLE
105
27
102
{ACAD_REACTORS
330
3AD4
330
3AD5
330
3AD6
330
3AD7
330
3AFD
330
3AFE
330
3AFF
330
3BD0
330
3C2A
330
3C3F
102
}
330
A
100
AcDbSymbolTableRecord
100
AcDbDimStyleTableRecord
  2
ISO-25
 70
     0
 41
1.5
 42
0.625
 43
3.75
 44
1.25
 77
     1
 78
     8
140
2.0
141
2.5
143
0.03937007874016
147
0.625
171
     3
178
     0
271
     2
272
     2
274
     3
279
     2
283
     0
284
     8
288
     1
340
11
  0
DIMSTYLE
105
4E8
330
A
100
AcDbSymbolTableRecord
100
AcDbDimStyleTableRecord
  2
Standard
 70
     0
178
     0
340
11
  0
DIMSTYLE
105
14C6
330
A
100
AcDbSymbolTableRecord
100
AcDbDimStyleTableRecord
  2
ISO-1
 70
     0
 41
2.5
 42
0.625
 43
3.75
 44
1.25
 77
     1
 78
     8
140
5.0
141
0.0
143
0.03937007874016
144
0.5
147
0.625
171
     3
178
     0
271
     2
272
     2
274
     3
279
     2
283
     0
284
     8
288
     1
340
11
  0
DIMSTYLE
105
2BCC
330
A
100
AcDbSymbolTableRecord
100
AcDbDimStyleTableRecord
  2
ISO-2
 70
     0
 41
2.5
 42
0.625
 43
3.75
 44
1.25
 77
     1
 78
     8
140
5.0
141
0.0
143
0.03937007874016
144
0.2
147
0.625
171
     3
178
     0
271
     2
272
     2
274
     3
279
     2
283
     0
284
     8
288
     1
340
11
  0
ENDTAB
  0
TABLE
  2
BLOCK_RECORD
  5
1
330
0
100
AcDbSymbolTable
 70
    13
  0
BLOCK_RECORD
  5
1F
330
1
100
AcDbSymbolTableRecord
100
AcDbBlockTableRecord
  2
*Model_Space
340
22
 70
     0
280
     1
281
     0
  0
BLOCK_RECORD
  5
1B
330
1
100
AcDbSymbolTableRecord
100
AcDbBlockTableRecord
  2
*Paper_Space
340
1E
 70
     0
280
     1
281
     0
  0
BLOCK_RECORD
  5
23
330
1
100
AcDbSymbolTableRecord
100
AcDbBlockTableRecord
  2
*Paper_Space0
340
26
 70
     0
280
     1
281
     0
  0
BLOCK_RECORD
  5
A91
330
1
100
AcDbSymbolTableRecord
100
AcDbBlockTableRecord
  2
_OPEN
340
0
 70
     0
280
     1
281
     0
  0
BLOCK_RECORD
  5
3B15
330
1
100
AcDbSymbolTableRecord
100
AcDbBlockTableRecord
  2
*D2
340
0
 70
     0
280
     1
281
     0
  0
BLOCK_RECORD
  5
3B22
330
1
100
AcDbSymbolTableRecord
100
AcDbBlockTableRecord
  2
*D3
340
0
 70
     0
280
     1
281
     0
  0
BLOCK_RECORD
  5
3B2F
330
1
100
AcDbSymbolTableRecord
100
AcDbBlockTableRecord
  2
*D4
340
0
 70
     0
280
     1
281
     0
  0
BLOCK_RECORD
  5
3B3C
330
1
100
AcDbSymbolTableRecord
100
AcDbBlockTableRecord
  2
*D5
340
0
 70
     0
280
     1
281
     0
  0
BLOCK_RECORD
  5
3B49
330
1
100
AcDbSymbolTableRecord
100
AcDbBlockTableRecord
  2
*D6
340
0
 70
     0
280
     1
281
     0
  0
BLOCK_RECORD
  5
3B56
330
1
100
AcDbSymbolTableRecord
100
AcDbBlockTableRecord
  2
*D7
340
0
 70
     0
280
     1
281
     0
  0
BLOCK_RECORD
  5
3B63
330
1
100
AcDbSymbolTableRecord
100
AcDbBlockTableRecord
  2
*D8
340
0
 70
     0
280
     1
281
     0
  0
BLOCK_RECORD
  5
3B70
330
1
100
AcDbSymbolTableRecord
100
AcDbBlockTableRecord
  2
*D9
340
0
 70
     0
280
     1
281
     0
  0
BLOCK_RECORD
  5
3B7D
330
1
100
AcDbSymbolTableRecord
100
AcDbBlockTableRecord
  2
*D10
340
0
 70
     0
280
     1
281
     0
  0
BLOCK_RECORD
  5
3BD3
330
1
100
AcDbSymbolTableRecord
100
AcDbBlockTableRecord
  2
*D11
340
0
 70
     0
280
     1
281
     0
  0
BLOCK_RECORD
  5
3C42
330
1
100
AcDbSymbolTableRecord
100
AcDbBlockTableRecord
  2
*D12
340
0
 70
     0
280
     1
281
     0
  0
ENDTAB
  0
ENDSEC
  0
SECTION
  2
BLOCKS
  0
BLOCK
  5
20
330
1F
100
AcDbEntity
  8
0
100
AcDbBlockBegin
  2
*Model_Space
 70
     0
 10
0.0
 20
0.0
 30
0.0
  3
*Model_Space
  1
*Model_Space
  0
ENDBLK
  5
21
330
1F
100
AcDbEntity
  8
0
100
AcDbBlockEnd
  0
BLOCK
  5
1C
330
1B
100
AcDbEntity
 67
     1
  8
0
100
AcDbBlockBegin
  2
*Paper_Space
 70
     0
 10
0.0
 20
0.0
 30
0.0
  3
*Paper_Space
  1
*Paper_Space
  0
ENDBLK
  5
1D
330
1B
100
AcDbEntity
 67
     1
  8
0
100
AcDbBlockEnd
  0
BLOCK
  5
24
330
23
100
AcDbEntity
  8
0
100
AcDbBlockBegin
  2
*Paper_Space0
 70
     0
 10
0.0
 20
0.0
 30
0.0
  3
*Paper_Space0
  1
*Paper_Space0
  0
ENDBLK
  5
25
330
23
100
AcDbEntity
  8
0
100
AcDbBlockEnd
  0
BLOCK
  5
A92
330
A91
100
AcDbEntity
  8
0
100
AcDbBlockBegin
  2
_OPEN
 70
     0
 10
0.0
 20
0.0
 30
0.0
  3
_OPEN
  1
_OPEN
  0
LINE
  5
A93
330
A91
100
AcDbEntity
  8
0
  6
ByBlock
 62
     0
100
AcDbLine
 10
-1.0
 20
0.1666666666666667
 30
0.0
 11
0.0
 21
0.0
 31
0.0
  0
LINE
  5
A94
330
A91
100
AcDbEntity
  8
0
  6
ByBlock
 62
     0
100
AcDbLine
 10
0.0
 20
0.0
 30
0.0
 11
-1.0
 21
-0.1666666666666667
 31
0.0
  0
LINE
  5
A95
330
A91
100
AcDbEntity
  8
0
  6
ByBlock
 62
     0
100
AcDbLine
 10
0.0
 20
0.0
 30
0.0
 11
-1.0
 21
0.0
 31
0.0
  0
ENDBLK
  5
A96
330
A91
100
AcDbEntity
  8
0
100
AcDbBlockEnd
  0
BLOCK
  5
3B16
330
3B15
100
AcDbEntity
  8
0
100
AcDbBlockBegin
  2
*D2
 70
     1
 10
0.0
 20
0.0
 30
0.0
  3
*D2
  1

  0
LINE
  5
3B18
330
3B15
100
AcDbEntity
  8
寸法
  6
Continuous
 62
     0
370
    -2
100
AcDbLine
 10
98.37500000000003
 20
107.5
 30
0.0
 11
87.75000000000003
 21
107.5
 31
0.0
  0
LINE
  5
3B19
330
3B15
100
AcDbEntity
  8
寸法
  6
Continuous
 62
     0
370
    -2
100
AcDbLine
 10
98.37500000000003
 20
98.50000000000004
 30
0.0
 11
87.75000000000003
 21
98.50000000000004
 31
0.0
  0
LINE
  5
3B1A
330
3B15
100
AcDbEntity
  8
寸法
  6
Continuous
 62
     0
370
    -2
100
AcDbLine
 10
89.00000000000003
 20
106.0
 30
0.0
 11
89.00000000000003
 21
104.625
 31
0.0
  0
LINE
  5
3B1B
330
3B15
100
AcDbEntity
  8
寸法
  6
Continuous
 62
     0
370
    -2
100
AcDbLine
 10
89.00000000000003
 20
100.0
 30
0.0
 11
89.00000000000003
 21
101.375
 31
0.0
  0
SOLID
  5
3B1C
330
3B15
100
AcDbEntity
  8
寸法
 62
     0
100
AcDbTrace
 10
89.25000000000003
 20
106.0
 30
0.0
 11
88.75000000000003
 21
106.0
 31
0.0
 12
89.00000000000003
 22
107.5
 32
0.0
 13
89.00000000000003
 23
107.5
 33
0.0
  0
SOLID
  5
3B1D
330
3B15
100
AcDbEntity
  8
寸法
 62
     0
100
AcDbTrace
 10
88.75000000000003
 20
100.0
 30
0.0
 11
89.25000000000003
 21
100.0
 31
0.0
 12
89.00000000000003
 22
98.50000000000004
 32
0.0
 13
89.00000000000003
 23
98.50000000000004
 33
0.0
  0
MTEXT
  5
3B1E
330
3B15
100
AcDbEntity
  8
寸法
  6
Continuous
 62
     0
100
AcDbMText
 10
89.00000000000003
 20
103.0
 30
0.0
 40
2.0
 41
0.0
 46
0.0
 71
     5
 72
     1
  1
9
 73
     1
 44
1.0
  0
POINT
  5
3B1F
330
3B15
100
AcDbEntity
  8
Defpoints
 62
     0
100
AcDbPoint
 10
99.00000000000003
 20
107.5
 30
0.0
  0
POINT
  5
3B20
330
3B15
100
AcDbEntity
  8
Defpoints
 62
     0
100
AcDbPoint
 10
99.00000000000003
 20
98.50000000000004
 30
0.0
  0
POINT
  5
3B21
330
3B15
100
AcDbEntity
  8
Defpoints
 62
     0
100
AcDbPoint
 10
89.00000000000003
 20
98.50000000000004
 30
0.0
  0
ENDBLK
  5
3B17
330
3B15
100
AcDbEntity
  8
0
100
AcDbBlockEnd
  0
BLOCK
  5
3B23
330
3B22
100
AcDbEntity
  8
0
100
AcDbBlockBegin
  2
*D3
 70
     1
 10
0.0
 20
0.0
 30
0.0
  3
*D3
  1

  0
LINE
  5
3B25
330
3B22
100
AcDbEntity
  8
寸法
  6
Continuous
 62
     0
370
    -2
100
AcDbLine
 10
99.00000000000003
 20
108.125
 30
0.0
 11
99.00000000000003
 21
113.75
 31
0.0
  0
LINE
  5
3B26
330
3B22
100
AcDbEntity
  8
寸法
  6
Continuous
 62
     0
370
    -2
100
AcDbLine
 10
127.0
 20
108.125
 30
0.0
 11
127.0
 21
113.75
 31
0.0
  0
LINE
  5
3B27
330
3B22
100
AcDbEntity
  8
寸法
  6
Continuous
 62
     0
370
    -2
100
AcDbLine
 10
100.5
 20
112.5
 30
0.0
 11
110.032798843485
 21
112.5
 31
0.0
  0
LINE
  5
3B28
330
3B22
100
AcDbEntity
  8
寸法
  6
Continuous
 62
     0
370
    -2
100
AcDbLine
 10
125.5
 20
112.5
 30
0.0
 11
114.6161321768184
 21
112.5
 31
0.0
  0
SOLID
  5
3B29
330
3B22
100
AcDbEntity
  8
寸法
 62
     0
100
AcDbTrace
 10
100.5
 20
112.75
 30
0.0
 11
100.5
 21
112.25
 31
0.0
 12
99.00000000000003
 22
112.5
 32
0.0
 13
99.00000000000003
 23
112.5
 33
0.0
  0
SOLID
  5
3B2A
330
3B22
100
AcDbEntity
  8
寸法
 62
     0
100
AcDbTrace
 10
125.5
 20
112.25
 30
0.0
 11
125.5
 21
112.75
 31
0.0
 12
127.0
 22
112.5
 32
0.0
 13
127.0
 23
112.5
 33
0.0
  0
MTEXT
  5
3B2B
330
3B22
100
AcDbEntity
  8
寸法
  6
Continuous
 62
     0
100
AcDbMText
 10
112.3244655101517
 20
112.5
 30
0.0
 40
2.0
 41
0.0
 46
0.0
 71
     5
 72
     1
  1
28
 73
     1
 44
1.0
  0
POINT
  5
3B2C
330
3B22
100
AcDbEntity
  8
Defpoints
 62
     0
100
AcDbPoint
 10
99.00000000000003
 20
107.5
 30
0.0
  0
POINT
  5
3B2D
330
3B22
100
AcDbEntity
  8
Defpoints
 62
     0
100
AcDbPoint
 10
127.0
 20
107.5
 30
0.0
  0
POINT
  5
3B2E
330
3B22
100
AcDbEntity
  8
Defpoints
 62
     0
100
AcDbPoint
 10
127.0
 20
112.5
 30
0.0
  0
ENDBLK
  5
3B24
330
3B22
100
AcDbEntity
  8
0
100
AcDbBlockEnd
  0
BLOCK
  5
3B30
330
3B2F
100
AcDbEntity
  8
0
100
AcDbBlockBegin
  2
*D4
 70
     1
 10
0.0
 20
0.0
 30
0.0
  3
*D4
  1

  0
LINE
  5
3B32
330
3B2F
100
AcDbEntity
  8
寸法
  6
Continuous
 62
     0
370
    -2
100
AcDbLine
 10
100.2
 20
97.87500000000004
 30
0.0
 11
100.2
 21
92.25000000000004
 31
0.0
  0
LINE
  5
3B33
330
3B2F
100
AcDbEntity
  8
寸法
  6
Continuous
 62
     0
370
    -2
100
AcDbLine
 10
99.00000000000003
 20
97.87500000000004
 30
0.0
 11
99.00000000000003
 21
92.25000000000004
 31
0.0
  0
LINE
  5
3B34
330
3B2F
100
AcDbEntity
  8
寸法
  6
Continuous
 62
     0
370
    -2
100
AcDbLine
 10
101.7
 20
93.50000000000004
 30
0.0
 11
103.2
 21
93.50000000000004
 31
0.0
  0
LINE
  5
3B35
330
3B2F
100
AcDbEntity
  8
寸法
  6
Continuous
 62
     0
370
    -2
100
AcDbLine
 10
97.50000000000003
 20
93.50000000000004
 30
0.0
 11
96.00000000000003
 21
93.50000000000004
 31
0.0
  0
SOLID
  5
3B36
330
3B2F
100
AcDbEntity
  8
寸法
 62
     0
100
AcDbTrace
 10
101.7
 20
93.75000000000004
 30
0.0
 11
101.7
 21
93.25000000000004
 31
0.0
 12
100.2
 22
93.50000000000004
 32
0.0
 13
100.2
 23
93.50000000000004
 33
0.0
  0
SOLID
  5
3B37
330
3B2F
100
AcDbEntity
  8
寸法
 62
     0
100
AcDbTrace
 10
97.50000000000003
 20
93.25000000000004
 30
0.0
 11
97.50000000000003
 21
93.75000000000004
 31
0.0
 12
99.00000000000003
 22
93.50000000000004
 32
0.0
 13
99.00000000000003
 23
93.50000000000004
 33
0.0
  0
MTEXT
  5
3B38
330
3B2F
100
AcDbEntity
  8
寸法
  6
Continuous
 62
     0
100
AcDbMText
 10
99.66552068922343
 20
90.50000000000004
 30
0.0
 40
2.0
 41
0.0
 46
0.0
 71
     5
 72
     1
  1
1.2
 73
     1
 44
1.0
  0
POINT
  5
3B39
330
3B2F
100
AcDbEntity
  8
Defpoints
 62
     0
100
AcDbPoint
 10
100.2
 20
98.50000000000004
 30
0.0
  0
POINT
  5
3B3A
330
3B2F
100
AcDbEntity
  8
Defpoints
 62
     0
100
AcDbPoint
 10
99.00000000000003
 20
98.50000000000004
 30
0.0
  0
POINT
  5
3B3B
330
3B2F
100
AcDbEntity
  8
Defpoints
 62
     0
100
AcDbPoint
 10
99.00000000000003
 20
93.50000000000004
 30
0.0
  0
ENDBLK
  5
3B31
330
3B2F
100
AcDbEntity
  8
0
100
AcDbBlockEnd
  0
BLOCK
  5
3B3D
330
3B3C
100
AcDbEntity
  8
0
100
AcDbBlockBegin
  2
*D5
 70
     1
 10
0.0
 20
0.0
 30
0.0
  3
*D5
  1

  0
LINE
  5
3B3F
330
3B3C
100
AcDbEntity
  8
寸法
  6
Continuous
 62
     0
370
    -2
100
AcDbLine
 10
127.565
 20
107.5
 30
0.0
 11
133.19
 21
107.5
 31
0.0
  0
LINE
  5
3B40
330
3B3C
100
AcDbEntity
  8
寸法
  6
Continuous
 62
     0
370
    -2
100
AcDbLine
 10
127.425
 20
101.5000000000001
 30
0.0
 11
133.19
 21
101.5000000000001
 31
0.0
  0
LINE
  5
3B41
330
3B3C
100
AcDbEntity
  8
寸法
  6
Continuous
 62
     0
370
    -2
100
AcDbLine
 10
131.94
 20
106.0
 30
0.0
 11
131.94
 21
106.1250000000001
 31
0.0
  0
LINE
  5
3B42
330
3B3C
100
AcDbEntity
  8
寸法
  6
Continuous
 62
     0
370
    -2
100
AcDbLine
 10
131.94
 20
103.0000000000001
 30
0.0
 11
131.94
 21
102.8750000000001
 31
0.0
  0
SOLID
  5
3B43
330
3B3C
100
AcDbEntity
  8
寸法
 62
     0
100
AcDbTrace
 10
132.19
 20
106.0
 30
0.0
 11
131.69
 21
106.0
 31
0.0
 12
131.94
 22
107.5
 32
0.0
 13
131.94
 23
107.5
 33
0.0
  0
SOLID
  5
3B44
330
3B3C
100
AcDbEntity
  8
寸法
 62
     0
100
AcDbTrace
 10
131.69
 20
103.0000000000001
 30
0.0
 11
132.19
 21
103.0000000000001
 31
0.0
 12
131.94
 22
101.5000000000001
 32
0.0
 13
131.94
 23
101.5000000000001
 33
0.0
  0
MTEXT
  5
3B45
330
3B3C
100
AcDbEntity
  8
寸法
  6
Continuous
 62
     0
100
AcDbMText
 10
131.94
 20
104.5000000000001
 30
0.0
 40
2.0
 41
0.0
 46
0.0
 71
     5
 72
     1
  1
6
 73
     1
 44
1.0
  0
POINT
  5
3B46
330
3B3C
100
AcDbEntity
  8
Defpoints
 62
     0
100
AcDbPoint
 10
126.94
 20
107.5
 30
0.0
  0
POINT
  5
3B47
330
3B3C
100
AcDbEntity
  8
Defpoints
 62
     0
100
AcDbPoint
 10
126.8
 20
101.5000000000001
 30
0.0
  0
POINT
  5
3B48
330
3B3C
100
AcDbEntity
  8
Defpoints
 62
     0
100
AcDbPoint
 10
131.94
 20
101.5000000000001
 30
0.0
  0
ENDBLK
  5
3B3E
330
3B3C
100
AcDbEntity
  8
0
100
AcDbBlockEnd
  0
BLOCK
  5
3B4A
330
3B49
100
AcDbEntity
  8
0
100
AcDbBlockBegin
  2
*D6
 70
     1
 10
0.0
 20
0.0
 30
0.0
  3
*D6
  1

  0
LINE
  5
3B4C
330
3B49
100
AcDbEntity
  8
寸法
  6
Continuous
 62
     0
370
    -2
100
AcDbLine
 10
127.0
 20
108.125
 30
0.0
 11
127.0
 21
113.75
 31
0.0
  0
LINE
  5
3B4D
330
3B49
100
AcDbEntity
  8
寸法
  6
Continuous
 62
     0
370
    -2
100
AcDbLine
 10
147.0
 20
101.1788705248351
 30
0.0
 11
147.0
 21
113.75
 31
0.0
  0
LINE
  5
3B4E
330
3B49
100
AcDbEntity
  8
寸法
  6
Continuous
 62
     0
370
    -2
100
AcDbLine
 10
128.5
 20
112.5
 30
0.0
 11
134.875
 21
112.5
 31
0.0
  0
LINE
  5
3B4F
330
3B49
100
AcDbEntity
  8
寸法
  6
Continuous
 62
     0
370
    -2
100
AcDbLine
 10
145.5
 20
112.5
 30
0.0
 11
139.125
 21
112.5
 31
0.0
  0
SOLID
  5
3B50
330
3B49
100
AcDbEntity
  8
寸法
 62
     0
100
AcDbTrace
 10
128.5
 20
112.75
 30
0.0
 11
128.5
 21
112.25
 31
0.0
 12
127.0
 22
112.5
 32
0.0
 13
127.0
 23
112.5
 33
0.0
  0
SOLID
  5
3B51
330
3B49
100
AcDbEntity
  8
寸法
 62
     0
100
AcDbTrace
 10
145.5
 20
112.25
 30
0.0
 11
145.5
 21
112.75
 31
0.0
 12
147.0
 22
112.5
 32
0.0
 13
147.0
 23
112.5
 33
0.0
  0
MTEXT
  5
3B52
330
3B49
100
AcDbEntity
  8
寸法
  6
Continuous
 62
     0
100
AcDbMText
 10
137.0
 20
112.5
 30
0.0
 40
2.0
 41
0.0
 46
0.0
 71
     5
 72
     1
  1
20
 73
     1
 44
1.0
  0
POINT
  5
3B53
330
3B49
100
AcDbEntity
  8
Defpoints
 62
     0
100
AcDbPoint
 10
127.0
 20
107.5
 30
0.0
  0
POINT
  5
3B54
330
3B49
100
AcDbEntity
  8
Defpoints
 62
     0
100
AcDbPoint
 10
147.0
 20
100.5538705248351
 30
0.0
  0
POINT
  5
3B55
330
3B49
100
AcDbEntity
  8
Defpoints
 62
     0
100
AcDbPoint
 10
147.0
 20
112.5
 30
0.0
  0
ENDBLK
  5
3B4B
330
3B49
100
AcDbEntity
  8
0
100
AcDbBlockEnd
  0
BLOCK
  5
3B57
330
3B56
100
AcDbEntity
  8
0
100
AcDbBlockBegin
  2
*D7
 70
     1
 10
0.0
 20
0.0
 30
0.0
  3
*D7
  1

  0
LINE
  5
3B59
330
3B56
100
AcDbEntity
  8
寸法
  6
Continuous
 62
     0
370
    -2
100
AcDbLine
 10
99.00000000000003
 20
108.75
 30
0.0
 11
99.00000000000003
 21
118.75
 31
0.0
  0
LINE
  5
3B5A
330
3B56
100
AcDbEntity
  8
寸法
  6
Continuous
 62
     0
370
    -2
100
AcDbLine
 10
147.0
 20
101.1788705248351
 30
0.0
 11
147.0
 21
118.75
 31
0.0
  0
LINE
  5
3B5B
330
3B56
100
AcDbEntity
  8
寸法
  6
Continuous
 62
     0
370
    -2
100
AcDbLine
 10
100.5
 20
117.5
 30
0.0
 11
120.7083333333333
 21
117.5
 31
0.0
  0
LINE
  5
3B5C
330
3B56
100
AcDbEntity
  8
寸法
  6
Continuous
 62
     0
370
    -2
100
AcDbLine
 10
145.5
 20
117.5
 30
0.0
 11
125.2916666666667
 21
117.5
 31
0.0
  0
SOLID
  5
3B5D
330
3B56
100
AcDbEntity
  8
寸法
 62
     0
100
AcDbTrace
 10
100.5
 20
117.75
 30
0.0
 11
100.5
 21
117.25
 31
0.0
 12
99.00000000000003
 22
117.5
 32
0.0
 13
99.00000000000003
 23
117.5
 33
0.0
  0
SOLID
  5
3B5E
330
3B56
100
AcDbEntity
  8
寸法
 62
     0
100
AcDbTrace
 10
145.5
 20
117.25
 30
0.0
 11
145.5
 21
117.75
 31
0.0
 12
147.0
 22
117.5
 32
0.0
 13
147.0
 23
117.5
 33
0.0
  0
MTEXT
  5
3B5F
330
3B56
100
AcDbEntity
  8
寸法
  6
Continuous
 62
     0
100
AcDbMText
 10
123.0
 20
117.5
 30
0.0
 40
2.0
 41
0.0
 46
0.0
 71
     5
 72
     1
  1
48
 73
     1
 44
1.0
  0
POINT
  5
3B60
330
3B56
100
AcDbEntity
  8
Defpoints
 62
     0
100
AcDbPoint
 10
99.00000000000003
 20
108.125
 30
0.0
  0
POINT
  5
3B61
330
3B56
100
AcDbEntity
  8
Defpoints
 62
     0
100
AcDbPoint
 10
147.0
 20
100.5538705248351
 30
0.0
  0
POINT
  5
3B62
330
3B56
100
AcDbEntity
  8
Defpoints
 62
     0
100
AcDbPoint
 10
147.0
 20
117.5
 30
0.0
  0
ENDBLK
  5
3B58
330
3B56
100
AcDbEntity
  8
0
100
AcDbBlockEnd
  0
BLOCK
  5
3B64
330
3B63
100
AcDbEntity
  8
0
100
AcDbBlockBegin
  2
*D8
 70
     1
 10
0.0
 20
0.0
 30
0.0
  3
*D8
  1

  0
LINE
  5
3B66
330
3B63
100
AcDbEntity
  8
寸法
  6
Continuous
 62
     0
370
    -2
100
AcDbLine
 10
147.2250000000002
 20
100.7288705248351
 30
0.0
 11
152.85
 21
100.7288705248351
 31
0.0
  0
LINE
  5
3B67
330
3B63
100
AcDbEntity
  8
寸法
  6
Continuous
 62
     0
370
    -2
100
AcDbLine
 10
147.225
 20
99.92887052483509
 30
0.0
 11
152.85
 21
99.92887052483509
 31
0.0
  0
LINE
  5
3B68
330
3B63
100
AcDbEntity
  8
寸法
  6
Continuous
 62
     0
370
    -2
100
AcDbLine
 10
151.6
 20
102.2288705248351
 30
0.0
 11
151.6
 21
103.7288705248351
 31
0.0
  0
LINE
  5
3B69
330
3B63
100
AcDbEntity
  8
寸法
  6
Continuous
 62
     0
370
    -2
100
AcDbLine
 10
151.6
 20
98.42887052483509
 30
0.0
 11
151.6
 21
96.92887052483509
 31
0.0
  0
SOLID
  5
3B6A
330
3B63
100
AcDbEntity
  8
寸法
 62
     0
100
AcDbTrace
 10
151.35
 20
102.2288705248351
 30
0.0
 11
151.85
 21
102.2288705248351
 31
0.0
 12
151.6
 22
100.7288705248351
 32
0.0
 13
151.6
 23
100.7288705248351
 33
0.0
  0
SOLID
  5
3B6B
330
3B63
100
AcDbEntity
  8
寸法
 62
     0
100
AcDbTrace
 10
151.85
 20
98.42887052483509
 30
0.0
 11
151.35
 21
98.42887052483509
 31
0.0
 12
151.6
 22
99.92887052483509
 32
0.0
 13
151.6
 23
99.92887052483509
 33
0.0
  0
MTEXT
  5
3B6C
330
3B63
100
AcDbEntity
  8
寸法
  6
Continuous
 62
     0
100
AcDbMText
 10
155.1190667872654
 20
100.4443889747373
 30
0.0
 40
2.0
 41
0.0
 46
0.0
 71
     5
 72
     1
  1
0.8
 73
     1
 44
1.0
  0
POINT
  5
3B6D
330
3B63
100
AcDbEntity
  8
Defpoints
 62
     0
100
AcDbPoint
 10
146.6000000000002
 20
100.7288705248351
 30
0.0
  0
POINT
  5
3B6E
330
3B63
100
AcDbEntity
  8
Defpoints
 62
     0
100
AcDbPoint
 10
146.6
 20
99.92887052483509
 30
0.0
  0
POINT
  5
3B6F
330
3B63
100
AcDbEntity
  8
Defpoints
 62
     0
100
AcDbPoint
 10
151.6
 20
99.92887052483509
 30
0.0
  0
ENDBLK
  5
3B65
330
3B63
100
AcDbEntity
  8
0
100
AcDbBlockEnd
  0
BLOCK
  5
3B71
330
3B70
100
AcDbEntity
  8
0
100
AcDbBlockBegin
  2
*D9
 70
     1
 10
0.0
 20
0.0
 30
0.0
  3
*D9
  1

  0
LINE
  5
3B73
330
3B70
100
AcDbEntity
  8
寸法
  6
Continuous
 62
     0
370
    -2
100
AcDbLine
 10
98.37500000000003
 20
107.5
 30
0.0
 11
95.03907470154834
 21
107.5
 31
0.0
  0
LINE
  5
3B74
330
3B70
100
AcDbEntity
  8
寸法
  6
Continuous
 62
     0
370
    -2
100
AcDbLine
 10
99.57500000000002
 20
101.5
 30
0.0
 11
95.03907470154834
 21
101.5
 31
0.0
  0
LINE
  5
3B75
330
3B70
100
AcDbEntity
  8
寸法
  6
Continuous
 62
     0
370
    -2
100
AcDbLine
 10
96.28907470154834
 20
106.0
 30
0.0
 11
96.28907470154834
 21
103.0
 31
0.0
  0
LINE
  5
3B76
330
3B70
100
AcDbEntity
  8
寸法
  6
Continuous
 62
     0
370
    -2
100
AcDbLine
 10
96.28907470154834
 20
103.0
 30
0.0
 11
96.28907470154834
 21
106.0
 31
0.0
  0
SOLID
  5
3B77
330
3B70
100
AcDbEntity
  8
寸法
 62
     0
100
AcDbTrace
 10
96.53907470154834
 20
106.0
 30
0.0
 11
96.03907470154834
 21
106.0
 31
0.0
 12
96.28907470154834
 22
107.5
 32
0.0
 13
96.28907470154834
 23
107.5
 33
0.0
  0
SOLID
  5
3B78
330
3B70
100
AcDbEntity
  8
寸法
 62
     0
100
AcDbTrace
 10
96.03907470154834
 20
103.0
 30
0.0
 11
96.53907470154834
 21
103.0
 31
0.0
 12
96.28907470154834
 22
101.5
 32
0.0
 13
96.28907470154834
 23
101.5
 33
0.0
  0
MTEXT
  5
3B79
330
3B70
100
AcDbEntity
  8
寸法
  6
Continuous
 62
     0
100
AcDbMText
 10
94.25314940309667
 20
104.7709854289432
 30
0.0
 40
2.0
 41
0.0
 46
0.0
 71
     5
 72
     1
  1
6
 73
     1
 44
1.0
  0
POINT
  5
3B7A
330
3B70
100
AcDbEntity
  8
Defpoints
 62
     0
100
AcDbPoint
 10
99.00000000000003
 20
107.5
 30
0.0
  0
POINT
  5
3B7B
330
3B70
100
AcDbEntity
  8
Defpoints
 62
     0
100
AcDbPoint
 10
100.2
 20
101.5
 30
0.0
  0
POINT
  5
3B7C
330
3B70
100
AcDbEntity
  8
Defpoints
 62
     0
100
AcDbPoint
 10
96.28907470154834
 20
101.5
 30
0.0
  0
ENDBLK
  5
3B72
330
3B70
100
AcDbEntity
  8
0
100
AcDbBlockEnd
  0
BLOCK
  5
3B7E
330
3B7D
100
AcDbEntity
  8
0
100
AcDbBlockBegin
  2
*D10
 70
     1
 10
0.0
 20
0.0
 30
0.0
  3
*D10
  1

  0
LINE
  5
3B80
330
3B7D
100
AcDbEntity
  8
寸法
  6
Continuous
 62
     0
370
    -2
100
AcDbLine
 10
98.37500000000003
 20
101.5
 30
0.0
 11
92.75000000000003
 21
101.5
 31
0.0
  0
LINE
  5
3B81
330
3B7D
100
AcDbEntity
  8
寸法
  6
Continuous
 62
     0
370
    -2
100
AcDbLine
 10
98.37500000000003
 20
98.50000000000004
 30
0.0
 11
92.75000000000003
 21
98.50000000000004
 31
0.0
  0
LINE
  5
3B82
330
3B7D
100
AcDbEntity
  8
寸法
  6
Continuous
 62
     0
370
    -2
100
AcDbLine
 10
94.00000000000003
 20
101.5
 30
0.0
 11
94.00000000000003
 21
103.0
 31
0.0
  0
LINE
  5
3B83
330
3B7D
100
AcDbEntity
  8
寸法
  6
Continuous
 62
     0
370
    -2
100
AcDbLine
 10
94.00000000000003
 20
98.50000000000004
 30
0.0
 11
94.00000000000003
 21
97.00000000000004
 31
0.0
  0
SOLID
  5
3B84
330
3B7D
100
AcDbEntity
  8
寸法
 62
     0
100
AcDbTrace
 10
94.25000000000003
 20
100.0
 30
0.0
 11
93.75000000000003
 21
100.0
 31
0.0
 12
94.00000000000003
 22
101.5
 32
0.0
 13
94.00000000000003
 23
101.5
 33
0.0
  0
SOLID
  5
3B85
330
3B7D
100
AcDbEntity
  8
寸法
 62
     0
100
AcDbTrace
 10
93.75000000000003
 20
100.0
 30
0.0
 11
94.25000000000003
 21
100.0
 31
0.0
 12
94.00000000000003
 22
98.50000000000004
 32
0.0
 13
94.00000000000003
 23
98.50000000000004
 33
0.0
  0
MTEXT
  5
3B86
330
3B7D
100
AcDbEntity
  8
寸法
  6
Continuous
 62
     0
100
AcDbMText
 10
94.00000000000003
 20
100.0268307104372
 30
0.0
 40
2.0
 41
0.0
 46
0.0
 71
     5
 72
     1
  1
3
 73
     1
 44
1.0
  0
POINT
  5
3B87
330
3B7D
100
AcDbEntity
  8
Defpoints
 62
     0
100
AcDbPoint
 10
99.00000000000003
 20
101.5
 30
0.0
  0
POINT
  5
3B88
330
3B7D
100
AcDbEntity
  8
Defpoints
 62
     0
100
AcDbPoint
 10
99.00000000000003
 20
98.50000000000004
 30
0.0
  0
POINT
  5
3B89
330
3B7D
100
AcDbEntity
  8
Defpoints
 62
     0
100
AcDbPoint
 10
94.00000000000003
 20
98.50000000000004
 30
0.0
  0
ENDBLK
  5
3B7F
330
3B7D
100
AcDbEntity
  8
0
100
AcDbBlockEnd
  0
BLOCK
  5
3BD4
330
3BD3
100
AcDbEntity
  8
0
100
AcDbBlockBegin
  2
*D11
 70
     1
 10
0.0
 20
0.0
 30
0.0
  3
*D11
  1

  0
LINE
  5
3BD6
330
3BD3
100
AcDbEntity
  8
金属部分
  6
Continuous
 62
     0
370
    -2
100
AcDbLine
 10
106.9697573537092
 20
99.3797227837735
 30
0.0
 11
107.7491079461956
 21
93.07615181513391
 31
0.0
  0
LINE
  5
3BD7
330
3BD3
100
AcDbEntity
  8
金属部分
  6
Continuous
 62
     0
370
    -2
100
AcDbLine
 10
105.9773138077468
 20
99.25702067263633
 30
0.0
 11
106.7566644002332
 21
92.95344970399674
 31
0.0
  0
LINE
  5
3BD8
330
3BD3
100
AcDbEntity
  8
金属部分
  6
Continuous
 62
     0
370
    -2
100
AcDbLine
 10
109.0843956262178
 20
94.50075941429272
 30
0.0
 11
110.5730609451614
 21
94.68481258099848
 31
0.0
  0
LINE
  5
3BD9
330
3BD3
100
AcDbEntity
  8
金属部分
  6
Continuous
 62
     0
370
    -2
100
AcDbLine
 10
105.1146214423681
 20
94.00995096974401
 30
0.0
 11
103.6259561234244
 21
93.82589780303825
 31
0.0
  0
SOLID
  5
3BDA
330
3BD3
100
AcDbEntity
  8
金属部分
 62
     0
100
AcDbTrace
 10
109.0537200984335
 20
94.74887030078332
 30
0.0
 11
109.1150711540021
 21
94.25264852780211
 31
0.0
 12
107.5957303072741
 22
94.31670624758695
 32
0.0
 13
107.5957303072741
 23
94.31670624758695
 33
0.0
  0
SOLID
  5
3BDB
330
3BD3
100
AcDbEntity
  8
金属部分
 62
     0
100
AcDbTrace
 10
105.1452969701524
 20
93.7618400832534
 30
0.0
 11
105.0839459145838
 21
94.25806185623462
 31
0.0
 12
106.6032867613117
 22
94.19400413644978
 32
0.0
 13
106.6032867613117
 23
94.19400413644978
 33
0.0
  0
MTEXT
  5
3BDC
330
3BD3
100
AcDbEntity
  8
金属部分
  6
Continuous
 62
     0
100
AcDbMText
 10
111.3977639970032
 20
94.78677586740801
 30
0.0
 40
2.0
 41
0.0
 46
0.0
 71
     5
 72
     1
  1
1
 73
     1
 44
1.0
  0
POINT
  5
3BDD
330
3BD3
100
AcDbEntity
  8
Defpoints
 62
     0
100
AcDbPoint
 10
106.8930685342485
 20
100.0
 30
0.0
  0
POINT
  5
3BDE
330
3BD3
100
AcDbEntity
  8
Defpoints
 62
     0
100
AcDbPoint
 10
105.9006249882861
 20
99.87729788886284
 30
0.0
  0
POINT
  5
3BDF
330
3BD3
100
AcDbEntity
  8
Defpoints
 62
     0
100
AcDbPoint
 10
106.6032867613117
 20
94.19400413644978
 30
0.0
  0
ENDBLK
  5
3BD5
330
3BD3
100
AcDbEntity
  8
0
100
AcDbBlockEnd
  0
BLOCK
  5
3C43
330
3C42
100
AcDbEntity
  8
0
100
AcDbBlockBegin
  2
*D12
 70
     1
 10
0.0
 20
0.0
 30
0.0
  3
*D12
  1

  0
LINE
  5
3C45
330
3C42
100
AcDbEntity
  8
寸法
  6
Continuous
 62
     0
370
    -2
100
AcDbLine
 10
98.37500000000003
 20
98.50000000000004
 30
0.0
 11
92.75000000000003
 21
98.50000000000004
 31
0.0
  0
LINE
  5
3C46
330
3C42
100
AcDbEntity
  8
寸法
  6
Continuous
 62
     0
370
    -2
100
AcDbLine
 10
99.575
 20
101.5
 30
0.0
 11
92.75000000000003
 21
101.5
 31
0.0
  0
LINE
  5
3C47
330
3C42
100
AcDbEntity
  8
寸法
  6
Continuous
 62
     0
370
    -2
100
AcDbLine
 10
94.00000000000003
 20
97.00000000000004
 30
0.0
 11
94.00000000000003
 21
95.50000000000004
 31
0.0
  0
LINE
  5
3C48
330
3C42
100
AcDbEntity
  8
寸法
  6
Continuous
 62
     0
370
    -2
100
AcDbLine
 10
94.00000000000003
 20
103.0
 30
0.0
 11
94.00000000000003
 21
104.5
 31
0.0
  0
SOLID
  5
3C49
330
3C42
100
AcDbEntity
  8
寸法
 62
     0
100
AcDbTrace
 10
94.25000000000003
 20
97.00000000000004
 30
0.0
 11
93.75000000000003
 21
97.00000000000004
 31
0.0
 12
94.00000000000003
 22
98.50000000000004
 32
0.0
 13
94.00000000000003
 23
98.50000000000004
 33
0.0
  0
SOLID
  5
3C4A
330
3C42
100
AcDbEntity
  8
寸法
 62
     0
100
AcDbTrace
 10
93.75000000000003
 20
103.0
 30
0.0
 11
94.25000000000003
 21
103.0
 31
0.0
 12
94.00000000000003
 22
101.5
 32
0.0
 13
94.00000000000003
 23
101.5
 33
0.0
  0
MTEXT
  5
3C4B
330
3C42
100
AcDbEntity
  8
寸法
  6
Continuous
 62
     0
100
AcDbMText
 10
94.00000000000003
 20
100.0
 30
0.0
 40
2.0
 41
0.0
 46
0.0
 71
     5
 72
     1
  1
3
 73
     1
 44
1.0
  0
POINT
  5
3C4C
330
3C42
100
AcDbEntity
  8
Defpoints
 62
     0
100
AcDbPoint
 10
99.00000000000003
 20
98.50000000000004
 30
0.0
  0
POINT
  5
3C4D
330
3C42
100
AcDbEntity
  8
Defpoints
 62
     0
100
AcDbPoint
 10
100.2
 20
101.5
 30
0.0
  0
POINT
  5
3C4E
330
3C42
100
AcDbEntity
  8
Defpoints
 62
     0
100
AcDbPoint
 10
94.00000000000003
 20
101.5
 30
0.0
  0
ENDBLK
  5
3C44
330
3C42
100
AcDbEntity
  8
0
100
AcDbBlockEnd
  0
ENDSEC
  0
SECTION
  2
ENTITIES
  0
LINE
  5
664
330
1F
100
AcDbEntity
  8
用紙範囲
  6
HIDDEN
100
AcDbLine
 10
0.0
 20
205.0
 30
0.0
 11
0.0
 21
0.0
 31
0.0
  0
LINE
  5
665
330
1F
100
AcDbEntity
  8
用紙範囲
  6
HIDDEN
100
AcDbLine
 10
292.0
 20
205.0
 30
0.0
 11
292.0
 21
0.0
 31
0.0
  0
LINE
  5
666
330
1F
100
AcDbEntity
  8
用紙範囲
  6
HIDDEN
100
AcDbLine
 10
0.0
 20
205.0
 30
0.0
 11
292.0
 21
205.0
 31
0.0
  0
LINE
  5
667
330
1F
100
AcDbEntity
  8
用紙範囲
  6
HIDDEN
100
AcDbLine
 10
0.0
 20
0.0
 30
0.0
 11
292.0
 21
0.0
 31
0.0
  0
LINE
  5
668
330
1F
100
AcDbEntity
  8
枠
  6
Continuous
100
AcDbLine
 10
11.00000000000003
 20
193.5
 30
0.0
 11
281.0
 21
193.5
 31
0.0
  0
LINE
  5
669
330
1F
100
AcDbEntity
  8
枠
  6
Continuous
100
AcDbLine
 10
11.00000000000003
 20
11.5
 30
0.0
 11
281.0
 21
11.5
 31
0.0
  0
LINE
  5
66A
330
1F
100
AcDbEntity
  8
枠
  6
Continuous
100
AcDbLine
 10
11.00000000000003
 20
193.5
 30
0.0
 11
11.00000000000003
 21
11.5
 31
0.0
  0
LINE
  5
66B
330
1F
100
AcDbEntity
  8
枠
  6
Continuous
100
AcDbLine
 10
281.0
 20
193.5
 30
0.0
 11
281.0
 21
11.5
 31
0.0
  0
LINE
  5
673
330
1F
100
AcDbEntity
  8
枠
  6
Continuous
100
AcDbLine
 10
10.00000000000003
 20
194.5
 30
0.0
 11
282.0
 21
194.5
 31
0.0
  0
LINE
  5
674
330
1F
100
AcDbEntity
  8
枠
  6
Continuous
100
AcDbLine
 10
10.00000000000003
 20
194.5
 30
0.0
 11
10.00000000000003
 21
10.5
 31
0.0
  0
LINE
  5
675
330
1F
100
AcDbEntity
  8
枠
  6
Continuous
100
AcDbLine
 10
10.00000000000003
 20
10.5
 30
0.0
 11
282.0
 21
10.5
 31
0.0
  0
LINE
  5
676
330
1F
100
AcDbEntity
  8
枠
  6
Continuous
100
AcDbLine
 10
282.0
 20
194.5
 30
0.0
 11
282.0
 21
10.5
 31
0.0
  0
LINE
  5
677
330
1F
100
AcDbEntity
  8
枠
  6
Continuous
100
AcDbLine
 10
236.0
 20
193.5
 30
0.0
 11
236.0
 21
11.5
 31
0.0
  0
LINE
  5
678
330
1F
100
AcDbEntity
  8
枠
  6
Continuous
100
AcDbLine
 10
236.0
 20
171.3660465293556
 30
0.0
 11
281.0
 21
171.3660465293556
 31
0.0
  0
LINE
  5
679
330
1F
100
AcDbEntity
  8
枠
  6
Continuous
100
AcDbLine
 10
236.0
 20
149.2320930587111
 30
0.0
 11
281.0
 21
149.2320930587111
 31
0.0
  0
LINE
  5
67A
330
1F
100
AcDbEntity
  8
枠
  6
Continuous
100
AcDbLine
 10
236.0
 20
31.87291584484291
 30
0.0
 11
281.0
 21
31.87291584484291
 31
0.0
  0
LINE
  5
67B
330
1F
100
AcDbEntity
  8
枠
  6
Continuous
100
AcDbLine
 10
236.0
 20
41.88960476803794
 30
0.0
 11
281.0
 21
41.88960476803794
 31
0.0
  0
LINE
  5
67D
330
1F
100
AcDbEntity
  8
枠
  6
Continuous
100
AcDbLine
 10
235.0
 20
193.5
 30
0.0
 11
235.0
 21
11.5
 31
0.0
  0
MTEXT
  5
A15
330
1F
100
AcDbEntity
  8
文字
100
AcDbMText
 10
238.0774350305441
 20
192.0038694137743
 30
0.0
 40
2.5
 41
19.50744578598591
 46
2.8275
 71
     1
 72
     5
  1
{\fＭＳ Ｐゴシック|b0|i0|c0|p0;名称}
 73
     1
 44
1.0
1001
ACAD
1000
ACAD_MTEXT_DEFINED_HEIGHT_BEGIN
1070
    46
1040
2.8275
1000
ACAD_MTEXT_DEFINED_HEIGHT_END
  0
MTEXT
  5
A17
330
1F
100
AcDbEntity
  8
文字
100
AcDbMText
 10
236.0
 20
183.859332666015
 30
0.0
 40
2.5
 41
45.0
 46
6.964981659789088
 71
     1
 72
     5
  1
{\fＭＳ Ｐゴシック|b0|i0|c0|p0;　Ｐｒｅｖｉｏ T\P　タイルカーペット用}
 73
     1
 44
1.0
1001
ACAD
1000
ACAD_MTEXT_DEFINED_HEIGHT_BEGIN
1070
    46
1040
6.964981659789088
1000
ACAD_MTEXT_DEFINED_HEIGHT_END
  0
MTEXT
  5
A18
330
1F
100
AcDbEntity
  8
文字
100
AcDbMText
 10
238.0774350305441
 20
169.6766048811238
 30
0.0
 40
2.5
 41
12.9189203585147
 46
2.84
 71
     1
 72
     5
  1
{\fＭＳ Ｐゴシック|b0|i0|c0|p0;品番}
 73
     1
 44
1.0
1001
ACAD
1000
ACAD_MTEXT_DEFINED_HEIGHT_BEGIN
1070
    46
1040
2.84
1000
ACAD_MTEXT_DEFINED_HEIGHT_END
  0
MTEXT
  5
A1C
330
1F
100
AcDbEntity
  8
文字
100
AcDbMText
 10
238.0774350305441
 20
148.0690084662711
 30
0.0
 40
2.5
 41
9.970036363636382
 46
2.8125
 71
     1
 72
     5
  1
{\fＭＳ Ｐゴシック|b0|i0|c0|p0;仕様}
 73
     1
 44
1.0
1001
ACAD
1000
ACAD_MTEXT_DEFINED_HEIGHT_BEGIN
1070
    46
1040
2.8125
1000
ACAD_MTEXT_DEFINED_HEIGHT_END
  0
MTEXT
  5
A1D
330
1F
100
AcDbEntity
  8
文字
100
AcDbMText
 10
245.3794334940524
 20
138.8428917133901
 30
0.0
 40
2.0
 41
31.03349346991041
 46
2.33
 71
     1
 72
     5
  1
{\fＭＳ Ｐゴシック|b0|i0|c0|p0;材質：アルミ製}
 73
     1
 44
1.0
1001
ACAD
1000
ACAD_MTEXT_DEFINED_HEIGHT_BEGIN
1070
    46
1040
2.33
1000
ACAD_MTEXT_DEFINED_HEIGHT_END
  0
MTEXT
  5
A1E
330
1F
100
AcDbEntity
  8
文字
100
AcDbMText
 10
245.3794334940524
 20
130.5090576528301
 30
0.0
 40
2.0
 41
31.03349346991044
 46
2.181818181818182
 71
     1
 72
     5
  1
{\fＭＳ Ｐゴシック|b0|i0|c0|p0;仕上：2色}
 73
     1
 44
1.0
1001
ACAD
1000
ACAD_MTEXT_DEFINED_HEIGHT_BEGIN
1070
    46
1040
2.181818181818182
1000
ACAD_MTEXT_DEFINED_HEIGHT_END
  0
MTEXT
  5
A22
330
1F
100
AcDbEntity
  8
社名
100
AcDbMText
 10
236.0
 20
27.36191229983774
 30
0.0
 40
3.0
 41
46.0
 46
3.375
 71
     1
 72
     5
  1
\fＭＳ Ｐゴシック|b0|i0|c0|p0;株式会社ＡＳＳＩＳＴ}
 73
     1
 44
1.0
1001
ACAD
1000
ACAD_MTEXT_DEFINED_HEIGHT_BEGIN
1070
    46
1040
3.375
1000
ACAD_MTEXT_DEFINED_HEIGHT_END
  0
MTEXT
  5
A24
330
1F
100
AcDbEntity
  8
文字
100
AcDbMText
 10
238.0774350305441
 20
40.58955921885172
 30
0.0
 40
2.5
 41
9.970036363636382
 46
2.8275
 71
     1
 72
     5
  1
{\fＭＳ Ｐゴシック|b0|i0|c0|p0;縮尺}
 73
     1
 44
1.0
1001
ACAD
1000
ACAD_MTEXT_DEFINED_HEIGHT_BEGIN
1070
    46
1040
2.8275
1000
ACAD_MTEXT_DEFINED_HEIGHT_END
  0
MTEXT
  5
A25
330
1F
100
AcDbEntity
  8
文字
100
AcDbMText
 10
251.2855836701089
 20
36.15844413562513
 30
0.0
 40
2.5
 41
28.36545556978234
 46
2.5
 71
     1
 72
     5
  1
{\fＭＳ Ｐゴシック|b0|i0|c0|p0;１：１ }
 73
     1
 44
1.0
1001
ACAD
1000
ACAD_MTEXT_DEFINED_HEIGHT_BEGIN
1070
    46
1040
2.5
1000
ACAD_MTEXT_DEFINED_HEIGHT_END
  0
MTEXT
  5
DF8
330
1F
100
AcDbEntity
  8
文字
100
AcDbMText
 10
253.810188672227
 20
134.80617212146
 30
0.0
 40
2.0
 41
31.03349346991041
 46
2.228
 71
     1
 72
     5
  1
{\fＭＳ Ｐゴシック|b0|i0|c0|p0;（A6063S-T5)}
 73
     1
 44
1.0
1001
ACAD
1000
ACAD_MTEXT_DEFINED_HEIGHT_BEGIN
1070
    46
1040
2.228
1000
ACAD_MTEXT_DEFINED_HEIGHT_END
  0
MTEXT
  5
13F5
330
1F
100
AcDbEntity
  8
文字
100
AcDbMText
 10
239.5379477351412
 20
143.0699637133901
 30
0.0
 40
2.0
 41
31.03349346991041
 46
2.25
 71
     1
 72
     5
  1
{\fＭＳ Ｐゴシック|b0|i0|c0|p0;ベース部分}
 73
     1
 44
1.0
1001
ACAD
1000
ACAD_MTEXT_DEFINED_HEIGHT_BEGIN
1070
    46
1040
2.25
1000
ACAD_MTEXT_DEFINED_HEIGHT_END
  0
MTEXT
  5
27D9
330
1F
100
AcDbEntity
  8
文字
100
AcDbMText
 10
245.3794334940524
 20
112.1153164406629
 30
0.0
 40
2.0
 41
31.03349346991044
 46
2.272727272727272
 71
     1
 72
     5
  1
{\fＭＳ Ｐゴシック|b0|i0|c0|p0;材質：軟質PVC}
 73
     1
 44
1.0
1001
ACAD
1000
ACAD_MTEXT_DEFINED_HEIGHT_BEGIN
1070
    46
1040
2.272727272727272
1000
ACAD_MTEXT_DEFINED_HEIGHT_END
  0
MTEXT
  5
27DB
330
1F
100
AcDbEntity
  8
文字
100
AcDbMText
 10
239.5379477351412
 20
116.3877804626711
 30
0.0
 40
2.0
 41
31.03349346991041
 46
2.25
 71
     1
 72
     5
  1
{\fＭＳ Ｐゴシック|b0|i0|c0|p0;タイヤ部分}
 73
     1
 44
1.0
1001
ACAD
1000
ACAD_MTEXT_DEFINED_HEIGHT_BEGIN
1070
    46
1040
2.25
1000
ACAD_MTEXT_DEFINED_HEIGHT_END
  0
MTEXT
  5
27DC
330
1F
100
AcDbEntity
  8
文字
100
AcDbMText
 10
243.6094939751414
 20
105.3854402474231
 30
0.0
 40
2.0
 41
31.03349346991041
 46
2.182
 71
     1
 72
     5
  1
{\fＭＳ Ｐゴシック|b0|i0|c0|p0;カラー：３色}
 73
     1
 44
1.0
1001
ACAD
1000
ACAD_MTEXT_DEFINED_HEIGHT_BEGIN
1070
    46
1040
2.182
1000
ACAD_MTEXT_DEFINED_HEIGHT_END
  0
MTEXT
  5
27DD
330
1F
100
AcDbEntity
  8
文字
100
AcDbMText
 10
254.0
 20
101.0333526165615
 30
0.0
 40
2.0
 41
31.03349346991041
 46
9.725204243257888
 71
     1
 72
     5
  1
{\fＭＳ Ｐゴシック|b0|i0|c0|p0;BL　ブラック\PCH　チャコール\PAS　アッシュ}
 73
     1
 44
1.0
1001
ACAD
1000
ACAD_MTEXT_DEFINED_HEIGHT_BEGIN
1070
    46
1040
9.725204243257888
1000
ACAD_MTEXT_DEFINED_HEIGHT_END
  0
LINE
  5
27E4
330
1F
100
AcDbEntity
  8
枠
  6
Continuous
100
AcDbLine
 10
236.0
 20
51.88960476803794
 30
0.0
 11
281.0
 21
51.88960476803794
 31
0.0
  0
MTEXT
  5
27E5
330
1F
100
AcDbEntity
  8
文字
100
AcDbMText
 10
238.0774350305441
 20
50.58955921885172
 30
0.0
 40
2.5
 41
9.970036363636382
 46
2.5
 71
     1
 72
     5
  1
{\fＭＳ Ｐゴシック|b0|i0|c0|p0;Date}
 73
     1
 44
1.0
1001
ACAD
1000
ACAD_MTEXT_DEFINED_HEIGHT_BEGIN
1070
    46
1040
2.5
1000
ACAD_MTEXT_DEFINED_HEIGHT_END
  0
MTEXT
  5
27E6
330
1F
100
AcDbEntity
  8
文字
100
AcDbMText
 10
246.1251641599999
 20
46.15844413562513
 30
0.0
 40
2.5
 41
32.59247095787819
 46
2.627860447667875
 71
     1
 72
     5
  1
{\fＭＳ Ｐゴシック|b0|i0|c0|p0;2022年6月24日}
 73
     1
 44
1.0
1001
ACAD
1000
ACAD_MTEXT_DEFINED_HEIGHT_BEGIN
1070
    46
1040
2.627860447667875
1000
ACAD_MTEXT_DEFINED_HEIGHT_END
  0
MTEXT
  5
2C03
330
1F
100
AcDbEntity
  8
文字
100
AcDbMText
 10
236.0
 20
160.4307612374436
 30
0.0
 40
2.5
 41
45.0
 46
2.5
 71
     1
 72
     5
  1
{\fＭＳ Ｐゴシック|b0|i0|c0|p0;　ＰVT106}
 73
     1
 44
1.0
1001
ACAD
1000
ACAD_MTEXT_DEFINED_HEIGHT_BEGIN
1070
    46
1040
2.5
1000
ACAD_MTEXT_DEFINED_HEIGHT_END
  0
MTEXT
  5
2C09
330
1F
100
AcDbEntity
  8
社名
100
AcDbMText
 10
236.0
 20
19.58027172995764
 30
0.0
 40
5.0
 41
45.0
 46
5.0
 71
     1
 72
     5
  1
{\fＭＳ Ｐゴシック|b0|i0|c0|p0;\T1.15;\W1.3;AFOLA}
 73
     1
 44
1.0
1001
ACAD
1000
ACAD_MTEXT_DEFINED_HEIGHT_BEGIN
1070
    46
1040
5.0
1000
ACAD_MTEXT_DEFINED_HEIGHT_END
  0
DIMENSION
  5
3AD4
330
1F
100
AcDbEntity
  8
寸法
  6
Continuous
100
AcDbDimension
280
     0
  2
*D2
 10
89.00000000000003
 20
98.50000000000004
 30
0.0
 11
89.00000000000003
 21
103.0
 31
0.0
 70
   160
 71
     5
 42
8.999999999999957
 73
     0
 74
     0
 75
     0
  3
ISO-25
100
AcDbAlignedDimension
 13
99.00000000000003
 23
107.5
 33
0.0
 14
99.00000000000003
 24
98.50000000000004
 34
0.0
 50
90.0
100
AcDbRotatedDimension
  0
DIMENSION
  5
3AD5
330
1F
100
AcDbEntity
  8
寸法
  6
Continuous
100
AcDbDimension
280
     0
  2
*D3
 10
127.0
 20
112.5
 30
0.0
 11
112.3244655101517
 21
112.5
 31
0.0
 70
   160
 71
     5
 42
27.99999999999997
 73
     0
 74
     0
 75
     0
  3
ISO-25
100
AcDbAlignedDimension
 13
99.00000000000003
 23
107.5
 33
0.0
 14
127.0
 24
107.5
 34
0.0
100
AcDbRotatedDimension
  0
DIMENSION
  5
3AD6
330
1F
100
AcDbEntity
  8
寸法
  6
Continuous
100
AcDbDimension
280
     0
  2
*D4
 10
99.00000000000003
 20
93.50000000000004
 30
0.0
 11
99.66552068922343
 21
90.50000000000004
 31
0.0
 70
   160
 71
     5
 42
1.199999999999974
 73
     0
 74
     0
 75
     0
  3
ISO-25
100
AcDbAlignedDimension
 13
100.2
 23
98.50000000000004
 33
0.0
 14
99.00000000000003
 24
98.50000000000004
 34
0.0
100
AcDbRotatedDimension
  0
DIMENSION
  5
3AD7
330
1F
100
AcDbEntity
  8
寸法
  6
Continuous
100
AcDbDimension
280
     0
  2
*D5
 10
131.94
 20
101.5000000000001
 30
0.0
 11
131.94
 21
104.5000000000001
 31
0.0
 70
   160
 71
     5
 42
5.999999999999901
 73
     0
 74
     0
 75
     0
  3
ISO-25
100
AcDbAlignedDimension
 13
126.94
 23
107.5
 33
0.0
 14
126.8
 24
101.5000000000001
 34
0.0
 50
90.0
100
AcDbRotatedDimension
  0
LINE
  5
3AD8
102
{ACAD_REACTORS
330
3C41
102
}
330
1F
100
AcDbEntity
  8
金属部分
  6
Continuous
100
AcDbLine
 10
99.00000000000003
 20
98.50000000000004
 30
0.0
 11
99.00000000000003
 21
107.5
 31
0.0
  0
LINE
  5
3AD9
330
1F
100
AcDbEntity
  8
金属部分
  6
Continuous
100
AcDbLine
 10
102.0
 20
104.0
 30
0.0
 11
124.0
 21
104.0
 31
0.0
  0
LINE
  5
3ADA
330
1F
100
AcDbEntity
  8
金属部分
  6
Continuous
100
AcDbLine
 10
99.00000000000003
 20
98.50000000000004
 30
0.0
 11
100.2
 21
98.50000000000004
 31
0.0
  0
LINE
  5
3ADB
330
1F
100
AcDbEntity
  8
金属部分
  6
Continuous
100
AcDbLine
 10
100.2
 20
98.50000000000004
 30
0.0
 11
100.2
 21
101.5
 31
0.0
  0
LINE
  5
3ADC
102
{ACAD_REACTORS
330
3BD2
102
}
330
1F
100
AcDbEntity
  8
金属部分
  6
Continuous
100
AcDbLine
 10
106.8930685342485
 20
100.0
 30
0.0
 11
109.45
 21
100.0
 31
0.0
  0
LWPOLYLINE
  5
3ADD
330
1F
100
AcDbEntity
  8
金属部分
100
AcDbPolyline
 90
        2
 70
     0
 43
0.0
 10
133.8
 20
100.0000000000001
 10
130.0
 20
100.0000000000005
  0
ARC
  5
3ADE
330
1F
100
AcDbEntity
  8
金属部分
100
AcDbCircle
 10
119.2
 20
99.21288269291291
 30
0.0
 40
1.087222909580392
100
AcDbArc
 50
46.38327232990469
 51
133.6167276701102
  0
ARC
  5
3ADF
330
1F
100
AcDbEntity
  8
金属部分
100
AcDbCircle
 10
110.2
 20
99.21288269291269
 30
0.0
 40
1.087222909580392
100
AcDbArc
 50
46.38327232989829
 51
133.6167276701027
  0
LWPOLYLINE
  5
3AE0
330
1F
100
AcDbEntity
  8
金属部分
100
AcDbPolyline
 90
        2
 70
     0
 43
0.0
 10
115.45
 20
100.0000000000002
 10
113.9499999999999
 20
100.0000000000001
  0
LWPOLYLINE
  5
3AE1
330
1F
100
AcDbEntity
  8
金属部分
100
AcDbPolyline
 90
        2
 70
     0
 43
0.0
 10
112.45
 20
100.0000000000001
 10
110.95
 20
100.0000000000001
  0
ARC
  5
3AE2
330
1F
100
AcDbEntity
  8
金属部分
100
AcDbCircle
 10
113.2
 20
99.21288269291274
 30
0.0
 40
1.087222909580392
100
AcDbArc
 50
46.38327232989725
 51
133.6167276701027
  0
ARC
  5
3AE3
330
1F
100
AcDbEntity
  8
金属部分
100
AcDbCircle
 10
116.2
 20
99.21288269291286
 30
0.0
 40
1.087222909580392
100
AcDbArc
 50
46.38327232990469
 51
133.6167276701102
  0
LWPOLYLINE
  5
3AE4
330
1F
100
AcDbEntity
  8
金属部分
100
AcDbPolyline
 90
        2
 70
     0
 43
0.0
 10
118.45
 20
100.0000000000002
 10
116.95
 20
100.0000000000002
  0
ARC
  5
3AE5
330
1F
100
AcDbEntity
  8
金属部分
100
AcDbCircle
 10
122.2
 20
99.21288269291297
 30
0.0
 40
1.087222909580392
100
AcDbArc
 50
46.38327232990469
 51
133.6167276701102
  0
LWPOLYLINE
  5
3AE6
330
1F
100
AcDbEntity
  8
金属部分
100
AcDbPolyline
 90
        2
 70
     0
 43
0.0
 10
121.45
 20
100.0000000000003
 10
119.95
 20
100.0000000000003
  0
LINE
  5
3AE7
330
1F
100
AcDbEntity
  8
金属部分
  6
Continuous
100
AcDbLine
 10
126.8
 20
101.5000000000001
 30
0.0
 11
126.94
 21
107.5
 31
0.0
  0
LINE
  5
3AE8
330
1F
100
AcDbEntity
  8
金属部分
  6
Continuous
100
AcDbLine
 10
99.00000000000003
 20
107.5
 30
0.0
 11
101.0
 21
107.5
 31
0.0
  0
LINE
  5
3AE9
330
1F
100
AcDbEntity
  8
金属部分
  6
Continuous
100
AcDbLine
 10
101.0
 20
107.5
 30
0.0
 11
101.0
 21
105.0
 31
0.0
  0
LINE
  5
3AEA
330
1F
100
AcDbEntity
  8
金属部分
  6
Continuous
100
AcDbLine
 10
127.0
 20
107.5
 30
0.0
 11
125.0
 21
107.5
 31
0.0
  0
LINE
  5
3AEB
330
1F
100
AcDbEntity
  8
金属部分
  6
Continuous
100
AcDbLine
 10
125.0
 20
107.5
 30
0.0
 11
125.0
 21
105.0
 31
0.0
  0
ARC
  5
3AEC
330
1F
100
AcDbEntity
  8
金属部分
  6
Continuous
100
AcDbCircle
 10
102.0
 20
105.0
 30
0.0
 40
1.0
100
AcDbArc
 50
180.0
 51
270.0
  0
ARC
  5
3AED
330
1F
100
AcDbEntity
  8
金属部分
  6
Continuous
100
AcDbCircle
 10
124.0
 20
105.0
 30
0.0
 40
1.0
100
AcDbArc
 50
270.0
 51
0.0
  0
LINE
  5
3AEE
330
1F
100
AcDbEntity
  8
軟質樹脂部分
  6
Continuous
100
AcDbLine
 10
101.1
 20
107.5
 30
0.0
 11
124.9000000000001
 21
107.5
 31
0.0
  0
LINE
  5
3AEF
330
1F
100
AcDbEntity
  8
軟質樹脂部分
  6
Continuous
100
AcDbLine
 10
123.9000000000001
 20
104.2
 30
0.0
 11
102.1
 21
104.2
 31
0.0
  0
LINE
  5
3AF0
330
1F
100
AcDbEntity
  8
軟質樹脂部分
  6
Continuous
100
AcDbLine
 10
101.1
 20
107.5
 30
0.0
 11
101.1
 21
105.2
 31
0.0
  0
LINE
  5
3AF1
330
1F
100
AcDbEntity
  8
軟質樹脂部分
  6
Continuous
100
AcDbLine
 10
124.9000000000001
 20
107.5
 30
0.0
 11
124.9000000000001
 21
105.2
 31
0.0
  0
ARC
  5
3AF2
330
1F
100
AcDbEntity
  8
軟質樹脂部分
  6
Continuous
100
AcDbCircle
 10
102.1
 20
105.2
 30
0.0
 40
1.0
100
AcDbArc
 50
180.0
 51
270.0
  0
ARC
  5
3AF3
330
1F
100
AcDbEntity
  8
軟質樹脂部分
  6
Continuous
100
AcDbCircle
 10
123.9000000000001
 20
105.2
 30
0.0
 40
1.0
100
AcDbArc
 50
270.0
 51
0.0
  0
LINE
  5
3AF4
102
{ACAD_REACTORS
330
3AF8
102
}
330
1F
100
AcDbEntity
  8
TOS_M1
  6
Continuous
100
AcDbLine
 10
103.0
 20
104.2
 30
0.0
 11
103.0
 21
104.0
 31
0.0
  0
LINE
  5
3AF5
102
{ACAD_REACTORS
330
3AF8
102
}
330
1F
100
AcDbEntity
  8
金属部分
  6
Continuous
100
AcDbLine
 10
103.0
 20
104.0
 30
0.0
 11
123.0
 21
104.0
 31
0.0
  0
LINE
  5
3AF6
102
{ACAD_REACTORS
330
3AF8
102
}
330
1F
100
AcDbEntity
  8
TOS_M1
  6
Continuous
100
AcDbLine
 10
123.0
 20
104.0
 30
0.0
 11
123.0
 21
104.2
 31
0.0
  0
LINE
  5
3AF7
102
{ACAD_REACTORS
330
3AF8
102
}
330
1F
100
AcDbEntity
  8
軟質樹脂部分
  6
Continuous
100
AcDbLine
 10
103.0
 20
104.2
 30
0.0
 11
123.0
 21
104.2
 31
0.0
  0
HATCH
  5
3AF8
330
1F
100
AcDbEntity
  8
TOS_M1
  6
Continuous
100
AcDbHatch
 10
0.0
 20
0.0
 30
0.0
210
0.0
220
0.0
230
1.0
  2
ANSI31
 70
     0
 71
     1
 91
        1
 92
        7
 72
     0
 73
     1
 93
        4
 10
123.0
 20
104.0
 10
123.0
 20
104.2
 10
103.0
 20
104.2
 10
103.0
 20
104.0
 97
        4
330
3AF6
330
3AF7
330
3AF4
330
3AF5
 75
     0
 76
     1
 52
0.0
 41
0.25
 77
     0
 78
     1
 53
45.0
 43
22.2002121266863
 44
-27.59944298820047
 45
-0.561266007566822
 46
0.5612660075668221
 79
     0
 47
0.0
 98
        1
 10
116.2267538491249
 20
104.1086859167129
1001
ACAD
1010
0.0
1020
0.0
1030
0.0
  0
LINE
  5
3AF9
330
1F
100
AcDbEntity
  8
金属部分
  6
Continuous
100
AcDbLine
 10
133.8
 20
100.0000000000001
 30
0.0
 11
134.569284586245
 21
100.0000000000001
 31
0.0
  0
LINE
  5
3AFA
330
1F
100
AcDbEntity
  8
金属部分
  6
Continuous
100
AcDbLine
 10
122.95
 20
100.0000000000003
 30
0.0
 11
146.6
 21
100.0000000000001
 31
0.0
  0
ARC
  5
3AFB
330
1F
100
AcDbEntity
  8
金属部分
  6
Continuous
100
AcDbCircle
 10
146.6
 20
100.4
 30
0.0
 40
0.4
100
AcDbArc
 50
270.0
 51
89.99999999996746
  0
LINE
  5
3AFC
330
1F
100
AcDbEntity
  8
金属部分
  6
Continuous
100
AcDbLine
 10
126.8
 20
101.5000000000001
 30
0.0
 11
146.6000000000002
 21
100.8000000000001
 31
0.0
  0
DIMENSION
  5
3AFD
330
1F
100
AcDbEntity
  8
寸法
  6
Continuous
100
AcDbDimension
280
     0
  2
*D6
 10
147.0
 20
112.5
 30
0.0
 11
137.0
 21
112.5
 31
0.0
 70
   160
 71
     5
 42
20.0
 73
     0
 74
     0
 75
     0
  3
ISO-25
100
AcDbAlignedDimension
 13
127.0
 23
107.5
 33
0.0
 14
147.0
 24
100.5538705248351
 34
0.0
100
AcDbRotatedDimension
  0
DIMENSION
  5
3AFE
330
1F
100
AcDbEntity
  8
寸法
  6
Continuous
100
AcDbDimension
280
     0
  2
*D7
 10
147.0
 20
117.5
 30
0.0
 11
123.0
 21
117.5
 31
0.0
 70
   160
 71
     5
 42
47.99999999999997
 73
     0
 74
     0
 75
     0
  3
ISO-25
100
AcDbAlignedDimension
 13
99.00000000000003
 23
108.125
 33
0.0
 14
147.0
 24
100.5538705248351
 34
0.0
100
AcDbRotatedDimension
  0
DIMENSION
  5
3AFF
330
1F
100
AcDbEntity
  8
寸法
  6
Continuous
100
AcDbDimension
280
     0
  2
*D8
 10
151.6
 20
99.92887052483509
 30
0.0
 11
155.1190667872654
 21
100.4443889747373
 31
0.0
 70
   160
 71
     5
 42
0.8000000000000114
 73
     0
 74
     0
 75
     0
  3
ISO-25
100
AcDbAlignedDimension
 13
146.6000000000002
 23
100.7288705248351
 33
0.0
 14
146.6
 24
99.92887052483509
 34
0.0
 50
90.0
100
AcDbRotatedDimension
  0
LINE
  5
3B00
330
1F
100
AcDbEntity
  8
金属部分
  6
Continuous
100
AcDbLine
 10
134.5
 20
99.50000000000007
 30
0.0
 11
133.5
 21
99.50000000000007
 31
0.0
  0
LINE
  5
3B01
330
1F
100
AcDbEntity
  8
TOS_M1
  6
Continuous
100
AcDbLine
 10
134.0
 20
98.50000000000007
 30
0.0
 11
133.5
 21
99.50000000000007
 31
0.0
  0
LINE
  5
3B02
330
1F
100
AcDbEntity
  8
TOS_M1
  6
Continuous
100
AcDbLine
 10
134.0
 20
98.50000000000007
 30
0.0
 11
134.5
 21
99.50000000000007
 31
0.0
  0
HATCH
  5
3B03
330
1F
100
AcDbEntity
  8
TOS_M1
  6
Continuous
100
AcDbHatch
 10
0.0
 20
0.0
 30
0.0
210
0.0
220
0.0
230
1.0
  2
SOLID
 70
     1
 71
     0
 91
        1
 92
        7
 72
     0
 73
     1
 93
        3
 10
134.0
 20
98.50000000000007
 10
134.5
 20
99.50000000000007
 10
133.5
 20
99.50000000000007
 97
        0
 75
     0
 76
     1
 47
0.0
 98
        1
 10
133.9396744030721
 20
99.29507940870654
1001
ACAD
1010
0.0
1020
0.0
1030
0.0
  0
LINE
  5
3B04
330
1F
100
AcDbEntity
  8
TOS_M1
  6
ACAD_ISO07W100
 48
0.5
100
AcDbLine
 10
134.0
 20
97.25000000000007
 30
0.0
 11
107.2
 21
97.51746608583336
 31
0.0
  0
MTEXT
  5
3B05
330
1F
100
AcDbEntity
  8
TOS_M1
  6
Continuous
100
AcDbMText
 10
116.2790397276048
 20
98.40811431282756
 30
0.0
 40
2.0
 41
5.011594093714308
 46
2.0
 71
     1
 72
     5
  1
{27}
 73
     1
 44
1.0
1001
ACAD
1000
ACAD_MTEXT_DEFINED_HEIGHT_BEGIN
1070
    46
1040
2.0
1000
ACAD_MTEXT_DEFINED_HEIGHT_END
  0
LINE
  5
3B0F
102
{ACAD_REACTORS
330
3C41
102
}
330
1F
100
AcDbEntity
  8
金属部分
  6
Continuous
100
AcDbLine
 10
100.2
 20
101.5
 30
0.0
 11
105.7
 21
101.5
 31
0.0
  0
LINE
  5
3B10
330
1F
100
AcDbEntity
  8
金属部分
  6
Continuous
100
AcDbLine
 10
100.2
 20
98.50000000000004
 30
0.0
 11
100.2
 21
100.82
 31
0.0
  0
LINE
  5
3B11
102
{ACAD_REACTORS
330
3BD2
102
}
330
1F
100
AcDbEntity
  8
金属部分
  6
Continuous
100
AcDbLine
 10
105.7
 20
101.5
 30
0.0
 11
106.1115216963028
 21
98.17151569166897
 31
0.0
  0
LINE
  5
3B12
330
1F
100
AcDbEntity
  8
金属部分
  6
Continuous
100
AcDbLine
 10
106.8930685342485
 20
100.0
 30
0.0
 11
107.2
 21
97.51746608583336
 31
0.0
  0
LINE
  5
3B13
330
1F
100
AcDbEntity
  8
金属部分
  6
Continuous
100
AcDbLine
 10
107.2
 20
97.50000000000001
 30
0.0
 11
107.0036382219824
 21
97.47572254380877
 31
0.0
  0
ARC
  5
3B14
330
1F
100
AcDbEntity
  8
金属部分
  6
Continuous
100
AcDbCircle
 10
106.9054765330727
 20
98.2696773805787
 30
0.0
 40
0.7999999999999998
100
AcDbArc
 50
187.0480748828249
 51
277.048074882824
  0
DIMENSION
  5
3BD0
102
{ACAD_REACTORS
330
3BD2
102
}
102
{ACAD_XDICTIONARY
360
3BD1
102
}
330
1F
100
AcDbEntity
  8
金属部分
  6
Continuous
 62
     3
100
AcDbDimension
280
     0
  2
*D11
 10
106.6032867613117
 20
94.19400413644978
 30
0.0
 11
111.3977639970032
 21
94.78677586740801
 31
0.0
 70
   161
 71
     5
 42
0.9999999999999869
 73
     0
 74
     0
 75
     0
  3
ISO-25
100
AcDbAlignedDimension
 13
106.8930685342485
 23
100.0
 33
0.0
 14
105.9006249882861
 24
99.87729788886284
 34
0.0
  0
MTEXT
  5
3BF3
330
1F
100
AcDbEntity
  8
文字
100
AcDbMText
 10
254.0
 20
126.2939882536963
 30
0.0
 40
2.0
 41
35.2460949886306
 46
6.212319203034471
 71
     1
 72
     5
  1
{\fＭＳ Ｐゴシック|b0|i0|c0|p0;シルバー\Pアルマイトブラック}
 73
     1
 44
1.0
1001
ACAD
1000
ACAD_MTEXT_DEFINED_HEIGHT_BEGIN
1070
    46
1040
6.212319203034471
1000
ACAD_MTEXT_DEFINED_HEIGHT_END
  0
LEADER
  5
3C2A
330
1F
100
AcDbEntity
  8
TOS_M1
  6
Continuous
100
AcDbLeader
  3
ISO-25
 76
     2
 10
120.7777186642386
 20
104.1071458382545
 30
0.0
 10
126.979727949711
 20
93.27490509367577
 30
0.0
  0
MTEXT
  5
3C2B
330
1F
100
AcDbEntity
  8
文字
  6
Continuous
100
AcDbMText
 10
127.6765123423268
 20
94.15956474523172
 30
0.0
 40
1.5
 41
12.46447959569808
 46
1.551136363636364
 71
     1
 72
     5
  1
{\fＭＳ Ｐゴシック|b0|i0|c0|p0;\C7;両面テープ}
 73
     1
 44
1.0
1001
ACAD
1000
ACAD_MTEXT_DEFINED_HEIGHT_BEGIN
1070
    46
1040
1.551136363636364
1000
ACAD_MTEXT_DEFINED_HEIGHT_END
  0
DIMENSION
  5
3C3F
102
{ACAD_REACTORS
330
3C41
102
}
102
{ACAD_XDICTIONARY
360
3C40
102
}
330
1F
100
AcDbEntity
  8
寸法
  6
Continuous
100
AcDbDimension
280
     0
  2
*D12
 10
94.00000000000003
 20
101.5
 30
0.0
 11
94.00000000000003
 21
100.0
 31
0.0
 70
   160
 71
     5
 42
2.999999999999957
 73
     0
 74
     0
 75
     0
  3
ISO-25
100
AcDbAlignedDimension
 13
99.00000000000003
 23
98.50000000000004
 33
0.0
 14
100.2
 24
101.5
 34
0.0
 50
90.0
100
AcDbRotatedDimension
  0
ENDSEC
  0
SECTION
  2
OBJECTS
  0
DICTIONARY
  5
C
330
0
100
AcDbDictionary
281
     1
  3
ACAD_DETAILVIEWSTYLE
350
A4E
  3
ACAD_GROUP
350
D
  3
ACAD_IMAGE_VARS
350
96F
  3
ACAD_LAYOUT
350
1A
  3
ACAD_MATERIAL
350
39EE
  3
ACAD_MLEADERSTYLE
350
39F4
  3
ACAD_MLINESTYLE
350
17
  3
ACAD_PLOTSETTINGS
350
19
  3
ACAD_PLOTSTYLENAME
350
E
  3
ACAD_SCALELIST
350
935
  3
ACAD_SECTIONVIEWSTYLE
350
A4F
  3
ACAD_TABLESTYLE
350
39F2
  3
ACAD_VISUALSTYLE
350
39D5
  3
ACDB_RECOMPOSE_DATA
350
3C60
  3
AcDbVariableDictionary
350
3E1
  3
APPDATA
350
96E
  3
DimOffsetDictionary
350
14C9
  0
SUN
  5
39FA
330
934
100
AcDbSun
 90
        1
290
     0
 63
     7
421
 16777215
 40
1.0
291
     1
 91
  2455826
 92
 54000000
292
     0
 70
     2
 71
   256
280
     1
  0
DICTIONARY
  5
970
330
2
100
AcDbDictionary
280
     1
281
     1
  3
ACAD_LAYERSTATES
360
971
  3
ACLYDICTIONARY
360
34A5
  0
DICTIONARY
  5
A87
330
A86
100
AcDbDictionary
280
     1
281
     1
  3
ADSK_XREC_LAYER_RECONCILED
360
A88
  0
DICTIONARY
  5
A8B
330
A8A
100
AcDbDictionary
280
     1
281
     1
  3
ADSK_XREC_LAYER_RECONCILED
360
A8C
  0
DICTIONARY
  5
3BD1
330
3BD0
100
AcDbDictionary
280
     1
281
     1
  3
ACAD_DIMASSOC
360
3BD2
  0
DICTIONARY
  5
3C40
330
3C3F
100
AcDbDictionary
280
     1
281
     1
  3
ACAD_DIMASSOC
360
3C41
  0
DICTIONARY
  5
A4E
102
{ACAD_REACTORS
330
C
102
}
330
C
100
AcDbDictionary
281
     1
  0
DICTIONARY
  5
D
102
{ACAD_REACTORS
330
C
102
}
330
C
100
AcDbDictionary
281
     1
  0
RASTERVARIABLES
  5
96F
102
{ACAD_REACTORS
330
C
102
}
330
C
100
AcDbRasterVariables
 90
        0
 70
     1
 71
     1
 72
     1
  0
DICTIONARY
  5
1A
102
{ACAD_REACTORS
330
C
102
}
330
C
100
AcDbDictionary
281
     1
  3
Model
350
22
  3
ﾚｲｱｳﾄ1
350
1E
  3
ﾚｲｱｳﾄ2
350
26
  0
DICTIONARY
  5
39EE
102
{ACAD_REACTORS
330
C
102
}
330
C
100
AcDbDictionary
281
     1
  3
ByBlock
350
39F0
  3
ByLayer
350
39EF
  3
Global
350
39F1
  0
DICTIONARY
  5
39F4
102
{ACAD_REACTORS
330
C
102
}
330
C
100
AcDbDictionary
281
     1
  3
Standard
350
39F5
  0
DICTIONARY
  5
17
102
{ACAD_REACTORS
330
C
102
}
330
C
100
AcDbDictionary
281
     1
  3
Standard
350
18
  0
DICTIONARY
  5
19
102
{ACAD_REACTORS
330
C
102
}
330
C
100
AcDbDictionary
281
     1
  0
ACDBDICTIONARYWDFLT
  5
E
102
{ACAD_REACTORS
330
C
102
}
330
C
100
AcDbDictionary
281
     1
  3
Normal
350
F
100
AcDbDictionaryWithDefault
340
F
  0
DICTIONARY
  5
935
102
{ACAD_REACTORS
330
C
102
}
330
C
100
AcDbDictionary
281
     1
  3
A0
350
936
  3
A1
350
937
  3
A2
350
938
  3
A3
350
939
  3
A4
350
93A
  3
A5
350
93B
  3
A6
350
93C
  3
A7
350
93D
  3
A8
350
93E
  3
A9
350
93F
  3
B0
350
940
  3
B1
350
941
  3
B2
350
942
  3
B3
350
943
  3
B4
350
944
  3
B5
350
945
  3
B6
350
946
  3
B7
350
947
  3
B8
350
948
  3
B9
350
949
  3
C0
350
94A
  3
C1
350
94B
  3
C2
350
94C
  3
C3
350
94D
  3
C4
350
94E
  3
C5
350
94F
  3
C6
350
950
  3
C7
350
951
  3
C8
350
952
  3
C9
350
953
  3
D0
350
954
  3
D1
350
955
  3
D2
350
956
  0
DICTIONARY
  5
A4F
102
{ACAD_REACTORS
330
C
102
}
330
C
100
AcDbDictionary
281
     1
  0
DICTIONARY
  5
39F2
102
{ACAD_REACTORS
330
C
102
}
330
C
100
AcDbDictionary
281
     1
  3
Standard
350
39F3
  0
DICTIONARY
  5
39D5
102
{ACAD_REACTORS
330
C
102
}
330
C
100
AcDbDictionary
281
     1
  3
2dWireframe
350
39DA
  3
Basic
350
39DD
  3
Brighten
350
39E1
  3
ColorChange
350
39E5
  3
Conceptual
350
39DF
  3
Dim
350
39E0
  3
EdgeColorOff
350
39E8
  3
Facepattern
350
39E4
  3
Flat
350
39D6
  3
FlatWithEdges
350
39D7
  3
Gouraud
350
39D8
  3
GouraudWithEdges
350
39D9
  3
Hidden
350
39DC
  3
JitterOff
350
39E6
  3
Linepattern
350
39E3
  3
OverhangOff
350
39E7
  3
Realistic
350
39DE
  3
Shaded
350
39ED
  3
Shaded with edges
350
39EC
  3
Shades of Gray
350
39E9
  3
Sketchy
350
39EA
  3
Thicken
350
39E2
  3
Wireframe
350
39DB
  3
X-Ray
350
39EB
  0
XRECORD
  5
3C60
102
{ACAD_REACTORS
330
C
102
}
330
C
100
AcDbXrecord
280
     1
 90
        1
330
39F3
  0
DICTIONARY
  5
3E1
102
{ACAD_REACTORS
330
C
102
}
330
C
100
AcDbDictionary
281
     1
  3
CANNOSCALE
350
39F6
  3
CMLEADERSTYLE
350
39F8
  3
CTABLESTYLE
350
39F7
  3
HPTRANSPARENCY
350
14C8
  3
MSLTSCALE
350
39F9
  3
SORTENTS
350
3E2
  0
DICTIONARY
  5
96E
102
{ACAD_REACTORS
330
C
102
}
330
C
100
AcDbDictionary
281
     1
  0
DICTIONARY
  5
14C9
102
{ACAD_REACTORS
330
C
102
}
330
C
100
AcDbDictionary
281
     1
  3
DIMRAILANGLE
350
3857
  3
DIMRAILFIRSTOFFSET
350
3855
  3
DIMRAILOFFSET
350
3856
  3
DIMRAILSENABLED
350
3858
  0
DICTIONARY
  5
971
102
{ACAD_REACTORS
330
970
102
}
330
970
100
AcDbDictionary
281
     1
  0
DICTIONARY
  5
34A5
102
{ACAD_REACTORS
330
970
102
}
330
970
100
AcDbDictionary
281
     1
1001
ACAD
1000
<All
  0
XRECORD
  5
A88
102
{ACAD_REACTORS
330
A87
102
}
330
A87
100
AcDbXrecord
280
     1
290
     1
  0
XRECORD
  5
A8C
102
{ACAD_REACTORS
330
A8B
102
}
330
A8B
100
AcDbXrecord
280
     1
290
     1
  0
DIMASSOC
  5
3BD2
102
{ACAD_REACTORS
330
3BD1
102
}
330
3BD1
100
AcDbDimAssoc
330
3BD0
 90
        3
 70
     0
 71
     1
  1
AcDbOsnapPointRef
 72
    13
331
3ADC
 73
     0
 91
        0
 40
0.0
 10
0.0
 20
0.0
 30
0.0
 75
     0
  1
AcDbOsnapPointRef
 72
     8
331
3B11
 73
     0
 91
        0
 40
0.4875198320976382
 10
0.0
 20
0.0
 30
0.0
 75
     1
  1
AcDbOsnapPointRef
 72
    13
331
3ADC
 73
     0
 91
        0
 40
0.0
 10
0.0
 20
0.0
 30
0.0
 75
     0
  0
DIMASSOC
  5
3C41
102
{ACAD_REACTORS
330
3C40
102
}
330
3C40
100
AcDbDimAssoc
330
3C3F
 90
        3
 70
     0
 71
     1
  1
AcDbOsnapPointRef
 72
    13
331
3AD8
 73
     0
 91
        0
 40
0.0
 10
0.0
 20
0.0
 30
0.0
 75
     0
  1
AcDbOsnapPointRef
 72
    13
331
3B0F
 73
     0
 91
        0
 40
0.0
 10
0.0
 20
0.0
 30
0.0
 75
     0
  0
LAYOUT
  5
22
102
{ACAD_REACTORS
330
1A
102
}
330
1A
100
AcDbPlotSettings
  1

  2
RICOH IPSiO NX850 RPCS
  4
A4
  6

 40
5.873749732971191
 41
5.873747825622559
 42
5.873748779296875
 43
5.873748779296875
 44
209.9733276367188
 45
296.9259948730469
 46
56.21
 47
68.71
 48
0.0
 49
0.0
140
0.0
141
0.0
142
1.0
143
1.0
 70
 11940
 72
     1
 73
     1
 74
     0
  7

 75
     0
 76
     0
 77
     2
 78
   300
147
1.0
148
-86.56519164515282
149
-171.1912652483589
100
AcDbLayout
  1
Model
 70
     1
 71
     0
 10
0.0
 20
0.0
 11
12.0
 21
9.0
 12
0.0
 22
0.0
 32
0.0
 14
0.0
 24
0.0
 34
0.0
 15
292.0
 25
205.0
 35
0.0
146
0.0
 13
0.0
 23
0.0
 33
0.0
 16
1.0
 26
0.0
 36
0.0
 17
0.0
 27
1.0
 37
0.0
 76
     0
330
1F
331
934
  0
LAYOUT
  5
1E
102
{ACAD_REACTORS
330
1A
102
}
330
1A
100
AcDbPlotSettings
  1

  2
RICOH IPSiO NX850 RPCS
  4

  6

 40
0.0
 41
0.0
 42
0.0
 43
0.0
 44
0.0
 45
0.0
 46
0.0
 47
0.0
 48
0.0
 49
0.0
140
0.0
141
0.0
142
1.0
143
1.0
 70
   688
 72
     0
 73
     0
 74
     5
  7

 75
    16
 76
     0
 77
     2
 78
   300
147
1.0
148
0.0
149
0.0
100
AcDbLayout
  1
ﾚｲｱｳﾄ1
 70
     1
 71
     1
 10
0.0
 20
0.0
 11
420.0
 21
297.0
 12
0.0
 22
0.0
 32
0.0
 14
1.000000000000000E+20
 24
1.000000000000000E+20
 34
1.000000000000000E+20
 15
-1.000000000000000E+20
 25
-1.000000000000000E+20
 35
-1.000000000000000E+20
146
0.0
 13
0.0
 23
0.0
 33
0.0
 16
1.0
 26
0.0
 36
0.0
 17
0.0
 27
1.0
 37
0.0
 76
     0
330
1B
  0
LAYOUT
  5
26
102
{ACAD_REACTORS
330
1A
102
}
330
1A
100
AcDbPlotSettings
  1

  2
RICOH IPSiO NX850 RPCS
  4

  6

 40
0.0
 41
0.0
 42
0.0
 43
0.0
 44
0.0
 45
0.0
 46
0.0
 47
0.0
 48
0.0
 49
0.0
140
0.0
141
0.0
142
1.0
143
1.0
 70
   688
 72
     0
 73
     0
 74
     5
  7

 75
    16
 76
     0
 77
     2
 78
   300
147
1.0
148
0.0
149
0.0
100
AcDbLayout
  1
ﾚｲｱｳﾄ2
 70
     1
 71
     2
 10
0.0
 20
0.0
 11
12.0
 21
9.0
 12
0.0
 22
0.0
 32
0.0
 14
0.0
 24
0.0
 34
0.0
 15
0.0
 25
0.0
 35
0.0
146
0.0
 13
0.0
 23
0.0
 33
0.0
 16
1.0
 26
0.0
 36
0.0
 17
0.0
 27
1.0
 37
0.0
 76
     0
330
23
  0
MATERIAL
  5
39F0
102
{ACAD_REACTORS
330
39EE
102
}
330
39EE
100
AcDbMaterial
  1
ByBlock
 72
     1
 94
      127
  0
MATERIAL
  5
39EF
102
{ACAD_REACTORS
330
39EE
102
}
330
39EE
100
AcDbMaterial
  1
ByLayer
 72
     1
 94
      127
  0
MATERIAL
  5
39F1
102
{ACAD_REACTORS
330
39EE
102
}
330
39EE
100
AcDbMaterial
  1
Global
 72
     1
 94
      127
  0
MLEADERSTYLE
  5
39F5
102
{ACAD_REACTORS
330
39F4
102
}
330
39F4
100
AcDbMLeaderStyle
179
     2
170
     2
171
     1
172
     0
 90
        2
 40
0.0
 41
0.0
173
     1
 91
-1056964608
340
14
 92
       -2
290
     1
 42
2.0
291
     1
 43
8.0
  3
Standard
341
0
 44
4.0
300

342
11
174
     1
178
     1
175
     1
176
     0
 93
-1056964608
 45
4.0
292
     0
297
     0
 46
4.0
343
0
 94
-1056964608
 47
1.0
 49
1.0
140
1.0
293
     1
141
0.0
294
     1
177
     0
142
1.0
295
     0
296
     0
143
3.75
271
     0
272
     9
273
     9
  0
MLINESTYLE
  5
18
102
{ACAD_REACTORS
330
17
102
}
330
17
100
AcDbMlineStyle
  2
STANDARD
 70
     0
  3

 62
   256
 51
90.0
 52
90.0
 71
     2
 49
0.5
 62
   256
  6
BYLAYER
 49
-0.5
 62
   256
  6
BYLAYER
  0
ACDBPLACEHOLDER
  5
F
102
{ACAD_REACTORS
330
E
102
}
330
E
  0
SCALE
  5
936
102
{ACAD_REACTORS
330
935
102
}
330
935
100
AcDbScale
 70
     0
300
1:1
140
1.0
141
1.0
290
     1
  0
SCALE
  5
937
102
{ACAD_REACTORS
330
935
102
}
330
935
100
AcDbScale
 70
     0
300
1:2
140
1.0
141
2.0
290
     0
  0
SCALE
  5
938
102
{ACAD_REACTORS
330
935
102
}
330
935
100
AcDbScale
 70
     0
300
1:4
140
1.0
141
4.0
290
     0
  0
SCALE
  5
939
102
{ACAD_REACTORS
330
935
102
}
330
935
100
AcDbScale
 70
     0
300
1:5
140
1.0
141
5.0
290
     0
  0
SCALE
  5
93A
102
{ACAD_REACTORS
330
935
102
}
330
935
100
AcDbScale
 70
     0
300
1:8
140
1.0
141
8.0
290
     0
  0
SCALE
  5
93B
102
{ACAD_REACTORS
330
935
102
}
330
935
100
AcDbScale
 70
     0
300
1:10
140
1.0
141
10.0
290
     0
  0
SCALE
  5
93C
102
{ACAD_REACTORS
330
935
102
}
330
935
100
AcDbScale
 70
     0
300
1:16
140
1.0
141
16.0
290
     0
  0
SCALE
  5
93D
102
{ACAD_REACTORS
330
935
102
}
330
935
100
AcDbScale
 70
     0
300
1:20
140
1.0
141
20.0
290
     0
  0
SCALE
  5
93E
102
{ACAD_REACTORS
330
935
102
}
330
935
100
AcDbScale
 70
     0
300
1:30
140
1.0
141
30.0
290
     0
  0
SCALE
  5
93F
102
{ACAD_REACTORS
330
935
102
}
330
935
100
AcDbScale
 70
     0
300
1:40
140
1.0
141
40.0
290
     0
  0
SCALE
  5
940
102
{ACAD_REACTORS
330
935
102
}
330
935
100
AcDbScale
 70
     0
300
1:50
140
1.0
141
50.0
290
     0
  0
SCALE
  5
941
102
{ACAD_REACTORS
330
935
102
}
330
935
100
AcDbScale
 70
     0
300
1:100
140
1.0
141
100.0
290
     0
  0
SCALE
  5
942
102
{ACAD_REACTORS
330
935
102
}
330
935
100
AcDbScale
 70
     0
300
2:1
140
2.0
141
1.0
290
     0
  0
SCALE
  5
943
102
{ACAD_REACTORS
330
935
102
}
330
935
100
AcDbScale
 70
     0
300
4:1
140
4.0
141
1.0
290
     0
  0
SCALE
  5
944
102
{ACAD_REACTORS
330
935
102
}
330
935
100
AcDbScale
 70
     0
300
8:1
140
8.0
141
1.0
290
     0
  0
SCALE
  5
945
102
{ACAD_REACTORS
330
935
102
}
330
935
100
AcDbScale
 70
     0
300
10:1
140
10.0
141
1.0
290
     0
  0
SCALE
  5
946
102
{ACAD_REACTORS
330
935
102
}
330
935
100
AcDbScale
 70
     0
300
100:1
140
100.0
141
1.0
290
     0
  0
SCALE
  5
947
102
{ACAD_REACTORS
330
935
102
}
330
935
100
AcDbScale
 70
     0
300
1/128" = 1'-0"
140
0.0078125
141
12.0
290
     0
  0
SCALE
  5
948
102
{ACAD_REACTORS
330
935
102
}
330
935
100
AcDbScale
 70
     0
300
1/64" = 1'-0"
140
0.015625
141
12.0
290
     0
  0
SCALE
  5
949
102
{ACAD_REACTORS
330
935
102
}
330
935
100
AcDbScale
 70
     0
300
1/32" = 1'-0"
140
0.03125
141
12.0
290
     0
  0
SCALE
  5
94A
102
{ACAD_REACTORS
330
935
102
}
330
935
100
AcDbScale
 70
     0
300
1/16" = 1'-0"
140
0.0625
141
12.0
290
     0
  0
SCALE
  5
94B
102
{ACAD_REACTORS
330
935
102
}
330
935
100
AcDbScale
 70
     0
300
3/32" = 1'-0"
140
0.09375
141
12.0
290
     0
  0
SCALE
  5
94C
102
{ACAD_REACTORS
330
935
102
}
330
935
100
AcDbScale
 70
     0
300
1/8" = 1'-0"
140
0.125
141
12.0
290
     0
  0
SCALE
  5
94D
102
{ACAD_REACTORS
330
935
102
}
330
935
100
AcDbScale
 70
     0
300
3/16" = 1'-0"
140
0.1875
141
12.0
290
     0
  0
SCALE
  5
94E
102
{ACAD_REACTORS
330
935
102
}
330
935
100
AcDbScale
 70
     0
300
1/4" = 1'-0"
140
0.25
141
12.0
290
     0
  0
SCALE
  5
94F
102
{ACAD_REACTORS
330
935
102
}
330
935
100
AcDbScale
 70
     0
300
3/8" = 1'-0"
140
0.375
141
12.0
290
     0
  0
SCALE
  5
950
102
{ACAD_REACTORS
330
935
102
}
330
935
100
AcDbScale
 70
     0
300
1/2" = 1'-0"
140
0.5
141
12.0
290
     0
  0
SCALE
  5
951
102
{ACAD_REACTORS
330
935
102
}
330
935
100
AcDbScale
 70
     0
300
3/4" = 1'-0"
140
0.75
141
12.0
290
     0
  0
SCALE
  5
952
102
{ACAD_REACTORS
330
935
102
}
330
935
100
AcDbScale
 70
     0
300
1" = 1'-0"
140
1.0
141
12.0
290
     0
  0
SCALE
  5
953
102
{ACAD_REACTORS
330
935
102
}
330
935
100
AcDbScale
 70
     0
300
1-1/2" = 1'-0"
140
1.5
141
12.0
290
     0
  0
SCALE
  5
954
102
{ACAD_REACTORS
330
935
102
}
330
935
100
AcDbScale
 70
     0
300
3" = 1'-0"
140
3.0
141
12.0
290
     0
  0
SCALE
  5
955
102
{ACAD_REACTORS
330
935
102
}
330
935
100
AcDbScale
 70
     0
300
6" = 1'-0"
140
6.0
141
12.0
290
     0
  0
SCALE
  5
956
102
{ACAD_REACTORS
330
935
102
}
330
935
100
AcDbScale
 70
     0
300
1'-0" = 1'-0"
140
12.0
141
12.0
290
     0
  0
TABLESTYLE
  5
39F3
102
{ACAD_REACTORS
330
39F2
102
}
102
{ACAD_XDICTIONARY
360
3C5E
102
}
330
39F2
100
AcDbTableStyle
  3
Standard
 70
     0
 71
     0
 40
1.5
 41
1.5
280
     0
281
     0
  7
Standard
140
4.5
170
     2
 62
     0
 63
   257
283
     0
 90
        4
 91
        0
  1

274
    -2
284
     1
 64
     0
275
    -2
285
     1
 65
     0
276
    -2
286
     1
 66
     0
277
    -2
287
     1
 67
     0
278
    -2
288
     1
 68
     0
279
    -2
289
     1
 69
     0
  7
Standard
140
6.0
170
     5
 62
     0
 63
   257
283
     0
 90
        4
 91
        0
  1

274
    -2
284
     1
 64
     0
275
    -2
285
     1
 65
     0
276
    -2
286
     1
 66
     0
277
    -2
287
     1
 67
     0
278
    -2
288
     1
 68
     0
279
    -2
289
     1
 69
     0
  7
Standard
140
4.5
170
     5
 62
     0
 63
   257
283
     0
 90
        4
 91
        0
  1

274
    -2
284
     1
 64
     0
275
    -2
285
     1
 65
     0
276
    -2
286
     1
 66
     0
277
    -2
287
     1
 67
     0
278
    -2
288
     1
 68
     0
279
    -2
289
     1
 69
     0
  0
VISUALSTYLE
  5
39DA
102
{ACAD_REACTORS
330
39D5
102
}
330
39D5
100
AcDbVisualStyle
  2
2dWireframe
 70
     4
177
     2
291
     0
 71
     0
176
     1
 72
     2
176
     1
 73
     0
176
     1
 90
        0
176
     1
 40
0.6
176
     1
 41
30.0
176
     1
 62
     5
 63
     7
421
 16777215
176
     1
 74
     1
176
     1
 91
        4
176
     1
 64
     7
176
     1
 65
   257
176
     1
 75
     1
176
     1
175
     1
176
     1
 42
1.0
176
     1
 92
        0
176
     1
 66
   257
176
     1
 43
1.0
176
     1
 76
     1
176
     1
 77
     6
176
     1
 78
     2
176
     1
 67
     7
176
     1
 79
     5
176
     1
170
     0
176
     1
171
     0
176
     1
290
     0
176
     1
 93
        1
176
     1
 44
0.0
176
     1
173
     0
176
     1
  0
VISUALSTYLE
  5
39DD
102
{ACAD_REACTORS
330
39D5
102
}
330
39D5
100
AcDbVisualStyle
  2
Basic
 70
     7
177
     2
291
     1
 71
     1
176
     1
 72
     0
176
     1
 73
     1
176
     1
 90
        0
176
     1
 40
0.6
176
     1
 41
30.0
176
     1
 62
     5
 63
     7
421
 16777215
176
     1
 74
     0
176
     1
 91
        4
176
     1
 64
     7
176
     1
 65
   257
176
     1
 75
     1
176
     1
175
     1
176
     1
 42
1.0
176
     1
 92
        8
176
     1
 66
     7
176
     1
 43
1.0
176
     1
 76
     1
176
     1
 77
     6
176
     1
 78
     2
176
     1
 67
     7
176
     1
 79
     5
176
     1
170
     0
176
     1
171
     0
176
     1
290
     0
176
     1
 93
        1
176
     1
 44
0.0
176
     1
173
     0
176
     1
  0
VISUALSTYLE
  5
39E1
102
{ACAD_REACTORS
330
39D5
102
}
330
39D5
100
AcDbVisualStyle
  2
Brighten
 70
    12
177
     2
291
     1
 71
     2
176
     1
 72
     2
176
     1
 73
     0
176
     1
 90
        0
176
     1
 40
0.6
176
     1
 41
30.0
176
     1
 62
     5
 63
     7
421
 16777215
176
     1
 74
     1
176
     1
 91
        4
176
     1
 64
     7
176
     1
 65
   257
176
     1
 75
     1
176
     1
175
     1
176
     1
 42
1.0
176
     1
 92
        8
176
     1
 66
     7
176
     1
 43
1.0
176
     1
 76
     1
176
     1
 77
     6
176
     1
 78
     2
176
     1
 67
     7
176
     1
 79
     5
176
     1
170
     0
176
     1
171
     0
176
     1
290
     0
176
     1
 93
        1
176
     1
 44
50.0
176
     1
173
     0
176
     1
  0
VISUALSTYLE
  5
39E5
102
{ACAD_REACTORS
330
39D5
102
}
330
39D5
100
AcDbVisualStyle
  2
ColorChange
 70
    16
177
     2
291
     1
 71
     2
176
     1
 72
     2
176
     1
 73
     3
176
     1
 90
        0
176
     1
 40
0.6
176
     1
 41
30.0
176
     1
 62
     5
 63
     8
421
  8421504
176
     1
 74
     1
176
     1
 91
        4
176
     1
 64
     7
176
     1
 65
   257
176
     1
 75
     1
176
     1
175
     1
176
     1
 42
1.0
176
     1
 92
        8
176
     1
 66
     8
424
  8421504
176
     1
 43
1.0
176
     1
 76
     1
176
     1
 77
     6
176
     1
 78
     2
176
     1
 67
     7
176
     1
 79
     5
176
     1
170
     0
176
     1
171
     0
176
     1
290
     0
176
     1
 93
        1
176
     1
 44
0.0
176
     1
173
     0
176
     1
  0
VISUALSTYLE
  5
39DF
102
{ACAD_REACTORS
330
39D5
102
}
330
39D5
100
AcDbVisualStyle
  2
Conceptual
 70
     9
177
     2
291
     0
 71
     3
176
     1
 72
     2
176
     1
 73
     0
176
     1
 90
        0
176
     1
 40
0.6
176
     1
 41
30.0
176
     1
 62
     5
 63
     7
421
 16777215
176
     1
 74
     2
176
     1
 91
        2
176
     1
 64
     7
176
     1
 65
   257
176
     1
 75
     1
176
     1
175
     1
176
     1
 42
179.0
176
     1
 92
        8
176
     1
 66
     7
176
     1
 43
1.0
176
     1
 76
     1
176
     1
 77
     6
176
     1
 78
     2
176
     1
 67
     7
176
     1
 79
     3
176
     1
170
     0
176
     1
171
     0
176
     1
290
     0
176
     1
 93
        1
176
     1
 44
0.0
176
     1
173
     0
176
     1
  0
VISUALSTYLE
  5
39E0
102
{ACAD_REACTORS
330
39D5
102
}
330
39D5
100
AcDbVisualStyle
  2
Dim
 70
    11
177
     2
291
     1
 71
     2
176
     1
 72
     2
176
     1
 73
     0
176
     1
 90
        0
176
     1
 40
0.6
176
     1
 41
30.0
176
     1
 62
     5
 63
     7
421
 16777215
176
     1
 74
     1
176
     1
 91
        4
176
     1
 64
     7
176
     1
 65
   257
176
     1
 75
     1
176
     1
175
     1
176
     1
 42
1.0
176
     1
 92
        8
176
     1
 66
     7
176
     1
 43
1.0
176
     1
 76
     1
176
     1
 77
     6
176
     1
 78
     2
176
     1
 67
     7
176
     1
 79
     5
176
     1
170
     0
176
     1
171
     0
176
     1
290
     0
176
     1
 93
        1
176
     1
 44
-50.0
176
     1
173
     0
176
     1
  0
VISUALSTYLE
  5
39E8
102
{ACAD_REACTORS
330
39D5
102
}
330
39D5
100
AcDbVisualStyle
  2
EdgeColorOff
 70
    22
177
     2
291
     1
 71
     2
176
     0
 72
     2
176
     0
 73
     0
176
     0
 90
        0
176
     0
 40
0.6
176
     0
 41
30.0
176
     0
 62
     5
 63
     7
421
 16777215
176
     0
 74
     1
176
     0
 91
        4
176
     0
 64
     7
176
     0
 65
   257
176
     0
 75
     1
176
     0
175
     1
176
     0
 42
1.0
176
     0
 92
        8
176
     2
 66
     7
176
     0
 43
1.0
176
     0
 76
     1
176
     0
 77
     6
176
     0
 78
     2
176
     0
 67
     7
176
     0
 79
     5
176
     0
170
     0
176
     0
171
     0
176
     0
290
     0
176
     0
 93
        1
176
     0
 44
0.0
176
     0
173
     0
176
     0
  0
VISUALSTYLE
  5
39E4
102
{ACAD_REACTORS
330
39D5
102
}
330
39D5
100
AcDbVisualStyle
  2
Facepattern
 70
    15
177
     2
291
     1
 71
     2
176
     1
 72
     2
176
     1
 73
     0
176
     1
 90
        0
176
     1
 40
0.6
176
     1
 41
30.0
176
     1
 62
     5
 63
     7
421
 16777215
176
     1
 74
     1
176
     1
 91
        4
176
     1
 64
     7
176
     1
 65
   257
176
     1
 75
     1
176
     1
175
     1
176
     1
 42
1.0
176
     1
 92
        8
176
     1
 66
     7
176
     1
 43
1.0
176
     1
 76
     1
176
     1
 77
     6
176
     1
 78
     2
176
     1
 67
     7
176
     1
 79
     5
176
     1
170
     0
176
     1
171
     0
176
     1
290
     0
176
     1
 93
        1
176
     1
 44
0.0
176
     1
173
     0
176
     1
  0
VISUALSTYLE
  5
39D6
102
{ACAD_REACTORS
330
39D5
102
}
330
39D5
100
AcDbVisualStyle
  2
Flat
 70
     0
177
     2
291
     1
 71
     2
176
     1
 72
     1
176
     1
 73
     1
176
     1
 90
        2
176
     1
 40
0.6
176
     1
 41
30.0
176
     1
 62
     5
 63
     7
421
 16777215
176
     1
 74
     0
176
     1
 91
        0
176
     1
 64
     7
176
     1
 65
   257
176
     1
 75
     1
176
     1
175
     1
176
     1
 42
1.0
176
     1
 92
        8
176
     1
 66
     7
176
     1
 43
1.0
176
     1
 76
     1
176
     1
 77
     6
176
     1
 78
     2
176
     1
 67
     7
176
     1
 79
     5
176
     1
170
     0
176
     1
171
     0
176
     1
290
     0
176
     1
 93
       13
176
     1
 44
0.0
176
     1
173
     0
176
     1
  0
VISUALSTYLE
  5
39D7
102
{ACAD_REACTORS
330
39D5
102
}
330
39D5
100
AcDbVisualStyle
  2
FlatWithEdges
 70
     1
177
     2
291
     1
 71
     2
176
     1
 72
     1
176
     1
 73
     1
176
     1
 90
        2
176
     1
 40
0.6
176
     1
 41
30.0
176
     1
 62
     5
 63
     7
421
 16777215
176
     1
 74
     1
176
     1
 91
        0
176
     1
 64
     7
176
     1
 65
   257
176
     1
 75
     1
176
     1
175
     1
176
     1
 42
1.0
176
     1
 92
        0
176
     1
 66
   257
176
     1
 43
1.0
176
     1
 76
     1
176
     1
 77
     6
176
     1
 78
     2
176
     1
 67
     7
176
     1
 79
     5
176
     1
170
     0
176
     1
171
     0
176
     1
290
     0
176
     1
 93
       13
176
     1
 44
0.0
176
     1
173
     0
176
     1
  0
VISUALSTYLE
  5
39D8
102
{ACAD_REACTORS
330
39D5
102
}
330
39D5
100
AcDbVisualStyle
  2
Gouraud
 70
     2
177
     2
291
     1
 71
     2
176
     1
 72
     2
176
     1
 73
     1
176
     1
 90
        2
176
     1
 40
0.6
176
     1
 41
30.0
176
     1
 62
     5
 63
     7
421
 16777215
176
     1
 74
     0
176
     1
 91
        0
176
     1
 64
     7
176
     1
 65
   257
176
     1
 75
     1
176
     1
175
     1
176
     1
 42
1.0
176
     1
 92
        0
176
     1
 66
     7
176
     1
 43
1.0
176
     1
 76
     1
176
     1
 77
     6
176
     1
 78
     2
176
     1
 67
     7
176
     1
 79
     5
176
     1
170
     0
176
     1
171
     0
176
     1
290
     0
176
     1
 93
       13
176
     1
 44
0.0
176
     1
173
     0
176
     1
  0
VISUALSTYLE
  5
39D9
102
{ACAD_REACTORS
330
39D5
102
}
330
39D5
100
AcDbVisualStyle
  2
GouraudWithEdges
 70
     3
177
     2
291
     1
 71
     2
176
     1
 72
     2
176
     1
 73
     1
176
     1
 90
        2
176
     1
 40
0.6
176
     1
 41
30.0
176
     1
 62
     5
 63
     7
421
 16777215
176
     1
 74
     1
176
     1
 91
        0
176
     1
 64
     7
176
     1
 65
   257
176
     1
 75
     1
176
     1
175
     1
176
     1
 42
1.0
176
     1
 92
        0
176
     1
 66
   257
176
     1
 43
1.0
176
     1
 76
     1
176
     1
 77
     6
176
     1
 78
     2
176
     1
 67
     7
176
     1
 79
     5
176
     1
170
     0
176
     1
171
     0
176
     1
290
     0
176
     1
 93
       13
176
     1
 44
0.0
176
     1
173
     0
176
     1
  0
VISUALSTYLE
  5
39DC
102
{ACAD_REACTORS
330
39D5
102
}
330
39D5
100
AcDbVisualStyle
  2
Hidden
 70
     6
177
     2
291
     0
 71
     1
176
     1
 72
     2
176
     1
 73
     2
176
     1
 90
        0
176
     1
 40
0.6
176
     1
 41
30.0
176
     1
 62
     5
 63
     7
421
 16777215
176
     1
 74
     2
176
     1
 91
        2
176
     1
 64
     7
176
     1
 65
   257
176
     1
 75
     2
176
     1
175
     1
176
     1
 42
40.0
176
     1
 92
        0
176
     1
 66
   257
176
     1
 43
1.0
176
     1
 76
     1
176
     1
 77
     6
176
     1
 78
     2
176
     1
 67
     7
176
     1
 79
     3
176
     1
170
     0
176
     1
171
     0
176
     1
290
     0
176
     1
 93
        1
176
     1
 44
0.0
176
     1
173
     0
176
     1
  0
VISUALSTYLE
  5
39E6
102
{ACAD_REACTORS
330
39D5
102
}
330
39D5
100
AcDbVisualStyle
  2
JitterOff
 70
    20
177
     2
291
     1
 71
     2
176
     0
 72
     2
176
     0
 73
     0
176
     0
 90
        0
176
     0
 40
0.6
176
     0
 41
30.0
176
     0
 62
     5
 63
     7
421
 16777215
176
     0
 74
     1
176
     0
 91
        4
176
     0
 64
     7
176
     0
 65
   257
176
     0
 75
     1
176
     0
175
     1
176
     0
 42
1.0
176
     0
 92
       10
176
     2
 66
     7
176
     0
 43
1.0
176
     0
 76
     1
176
     0
 77
     6
176
     0
 78
     2
176
     0
 67
     7
176
     0
 79
     5
176
     0
170
     0
176
     0
171
     0
176
     0
290
     0
176
     0
 93
        1
176
     0
 44
0.0
176
     0
173
     0
176
     0
  0
VISUALSTYLE
  5
39E3
102
{ACAD_REACTORS
330
39D5
102
}
330
39D5
100
AcDbVisualStyle
  2
Linepattern
 70
    14
177
     2
291
     1
 71
     2
176
     1
 72
     2
176
     1
 73
     0
176
     1
 90
        0
176
     1
 40
0.6
176
     1
 41
30.0
176
     1
 62
     5
 63
     7
421
 16777215
176
     1
 74
     1
176
     1
 91
        4
176
     1
 64
     7
176
     1
 65
   257
176
     1
 75
     7
176
     1
175
     7
176
     1
 42
1.0
176
     1
 92
        8
176
     1
 66
     7
176
     1
 43
1.0
176
     1
 76
     1
176
     1
 77
     6
176
     1
 78
     2
176
     1
 67
     7
176
     1
 79
     5
176
     1
170
     0
176
     1
171
     0
176
     1
290
     0
176
     1
 93
        1
176
     1
 44
0.0
176
     1
173
     0
176
     1
  0
VISUALSTYLE
  5
39E7
102
{ACAD_REACTORS
330
39D5
102
}
330
39D5
100
AcDbVisualStyle
  2
OverhangOff
 70
    21
177
     2
291
     1
 71
     2
176
     0
 72
     2
176
     0
 73
     0
176
     0
 90
        0
176
     0
 40
0.6
176
     0
 41
30.0
176
     0
 62
     5
 63
     7
421
 16777215
176
     0
 74
     1
176
     0
 91
        4
176
     0
 64
     7
176
     0
 65
   257
176
     0
 75
     1
176
     0
175
     1
176
     0
 42
1.0
176
     0
 92
        9
176
     2
 66
     7
176
     0
 43
1.0
176
     0
 76
     1
176
     0
 77
     6
176
     0
 78
     2
176
     0
 67
     7
176
     0
 79
     5
176
     0
170
     0
176
     0
171
     0
176
     0
290
     0
176
     0
 93
        1
176
     0
 44
0.0
176
     0
173
     0
176
     0
  0
VISUALSTYLE
  5
39DE
102
{ACAD_REACTORS
330
39D5
102
}
330
39D5
100
AcDbVisualStyle
  2
Realistic
 70
     8
177
     2
291
     0
 71
     2
176
     1
 72
     3
176
     1
 73
     0
176
     1
 90
        2
176
     1
 40
0.6
176
     1
 41
30.0
176
     1
 62
     5
 63
     7
421
 16777215
176
     1
 74
     0
176
     1
 91
        0
176
     1
 64
     7
176
     1
 65
   257
176
     1
 75
     1
176
     1
175
     1
176
     1
 42
1.0
176
     1
 92
        8
176
     1
 66
   257
176
     1
 43
1.0
176
     1
 76
     1
176
     1
 77
     6
176
     1
 78
     2
176
     1
 67
     7
176
     1
 79
     3
176
     1
170
     0
176
     1
171
     0
176
     1
290
     0
176
     1
 93
       13
176
     1
 44
0.0
176
     1
173
     0
176
     1
  0
VISUALSTYLE
  5
39ED
102
{ACAD_REACTORS
330
39D5
102
}
330
39D5
100
AcDbVisualStyle
  2
Shaded
 70
    27
177
     2
291
     0
 71
     2
176
     1
 72
     2
176
     1
 73
     1
176
     1
 90
        2
176
     1
 40
0.6
176
     1
 41
30.0
176
     1
 62
     5
 63
     7
421
 16777215
176
     1
 74
     0
176
     1
 91
        4
176
     1
 64
     7
176
     1
 65
   257
176
     1
 75
     1
176
     1
175
     1
176
     1
 42
1.0
176
     1
 92
        8
176
     1
 66
   257
176
     1
 43
1.0
176
     1
 76
     1
176
     1
 77
     6
176
     1
 78
     2
176
     1
 67
     8
425
  7895160
176
     1
 79
     3
176
     1
170
     0
176
     1
171
     0
176
     1
290
     0
176
     1
 93
        5
176
     1
 44
0.0
176
     1
173
     0
176
     1
  0
VISUALSTYLE
  5
39EC
102
{ACAD_REACTORS
330
39D5
102
}
330
39D5
100
AcDbVisualStyle
  2
Shaded with edges
 70
    26
177
     2
291
     0
 71
     2
176
     1
 72
     2
176
     1
 73
     1
176
     1
 90
        2
176
     1
 40
0.6
176
     1
 41
30.0
176
     1
 62
     5
 63
     7
421
 16777215
176
     1
 74
     1
176
     1
 91
       10
176
     1
 64
     7
176
     1
 65
   257
176
     1
 75
     2
176
     1
175
     1
176
     1
 42
1.0
176
     1
 92
        8
176
     1
 66
   257
176
     1
 43
1.0
176
     1
 76
     1
176
     1
 77
     6
176
     1
 78
     2
176
     1
 67
     7
176
     1
 79
     3
176
     1
170
     0
176
     1
171
     0
176
     1
290
     0
176
     1
 93
        5
176
     1
 44
0.0
176
     1
173
     0
176
     1
  0
VISUALSTYLE
  5
39E9
102
{ACAD_REACTORS
330
39D5
102
}
330
39D5
100
AcDbVisualStyle
  2
Shades of Gray
 70
    23
177
     2
291
     0
 71
     2
176
     1
 72
     2
176
     1
 73
     3
176
     1
 90
        0
176
     1
 40
0.6
176
     1
 41
30.0
176
     1
 62
     5
 63
     7
421
 16777215
176
     1
 74
     2
176
     1
 91
        2
176
     1
 64
     7
176
     1
 65
     7
176
     1
 75
     1
176
     1
175
     1
176
     1
 42
40.0
176
     1
 92
        8
176
     1
 66
     7
176
     1
 43
1.0
176
     1
 76
     1
176
     1
 77
     6
176
     1
 78
     2
176
     1
 67
     7
176
     1
 79
     3
176
     1
170
     0
176
     1
171
     0
176
     1
290
     0
176
     1
 93
        1
176
     1
 44
0.0
176
     1
173
     0
176
     1
  0
VISUALSTYLE
  5
39EA
102
{ACAD_REACTORS
330
39D5
102
}
330
39D5
100
AcDbVisualStyle
  2
Sketchy
 70
    24
177
     2
291
     0
 71
     1
176
     1
 72
     2
176
     1
 73
     2
176
     1
 90
        0
176
     1
 40
0.6
176
     1
 41
30.0
176
     1
 62
     5
 63
     7
421
 16777215
176
     1
 74
     2
176
     1
 91
        2
176
     1
 64
     7
176
     1
 65
     7
176
     1
 75
     1
176
     1
175
     1
176
     1
 42
40.0
176
     1
 92
       11
176
     1
 66
     7
176
     1
 43
1.0
176
     1
 76
     1
176
     1
 77
     6
176
     1
 78
     2
176
     1
 67
     7
176
     1
 79
     6
176
     1
170
     0
176
     1
171
     0
176
     1
290
     0
176
     1
 93
        1
176
     1
 44
0.0
176
     1
173
     0
176
     1
  0
VISUALSTYLE
  5
39E2
102
{ACAD_REACTORS
330
39D5
102
}
330
39D5
100
AcDbVisualStyle
  2
Thicken
 70
    13
177
     2
291
     1
 71
     2
176
     1
 72
     2
176
     1
 73
     0
176
     1
 90
        0
176
     1
 40
0.6
176
     1
 41
30.0
176
     1
 62
     5
 63
     7
421
 16777215
176
     1
 74
     1
176
     1
 91
        4
176
     1
 64
     7
176
     1
 65
   257
176
     1
 75
     1
176
     1
175
     1
176
     1
 42
1.0
176
     1
 92
       12
176
     1
 66
     7
176
     1
 43
1.0
176
     1
 76
     1
176
     1
 77
     6
176
     1
 78
     2
176
     1
 67
     7
176
     1
 79
     5
176
     1
170
     0
176
     1
171
     0
176
     1
290
     0
176
     1
 93
        1
176
     1
 44
0.0
176
     1
173
     0
176
     1
  0
VISUALSTYLE
  5
39DB
102
{ACAD_REACTORS
330
39D5
102
}
330
39D5
100
AcDbVisualStyle
  2
Wireframe
 70
     5
177
     2
291
     0
 71
     0
176
     1
 72
     2
176
     1
 73
     0
176
     1
 90
        0
176
     1
 40
0.6
176
     1
 41
30.0
176
     1
 62
     5
 63
     7
421
 16777215
176
     1
 74
     1
176
     1
 91
        4
176
     1
 64
     7
176
     1
 65
   257
176
     1
 75
     1
176
     1
175
     1
176
     1
 42
1.0
176
     1
 92
        0
176
     1
 66
   257
176
     1
 43
1.0
176
     1
 76
     1
176
     1
 77
     6
176
     1
 78
     2
176
     1
 67
     7
176
     1
 79
     3
176
     1
170
     0
176
     1
171
     0
176
     1
290
     0
176
     1
 93
        1
176
     1
 44
0.0
176
     1
173
     0
176
     1
  0
VISUALSTYLE
  5
39EB
102
{ACAD_REACTORS
330
39D5
102
}
330
39D5
100
AcDbVisualStyle
  2
X-Ray
 70
    25
177
     2
291
     0
 71
     2
176
     1
 72
     2
176
     1
 73
     1
176
     1
 90
        1
176
     1
 40
0.5
176
     1
 41
30.0
176
     1
 62
     5
 63
     7
421
 16777215
176
     1
 74
     1
176
     1
 91
        0
176
     1
 64
     7
176
     1
 65
   257
176
     1
 75
     1
176
     1
175
     1
176
     1
 42
1.0
176
     1
 92
        8
176
     1
 66
     7
176
     1
 43
1.0
176
     1
 76
     1
176
     1
 77
     6
176
     1
 78
     2
176
     1
 67
     7
176
     1
 79
     3
176
     1
170
     0
176
     1
171
     0
176
     1
290
     0
176
     1
 93
       13
176
     1
 44
0.0
176
     1
173
     0
176
     1
  0
DICTIONARYVAR
  5
39F6
102
{ACAD_REACTORS
330
3E1
102
}
330
3E1
100
DictionaryVariables
280
     0
  1
1:1
  0
DICTIONARYVAR
  5
39F8
102
{ACAD_REACTORS
330
3E1
102
}
330
3E1
100
DictionaryVariables
280
     0
  1
Standard
  0
DICTIONARYVAR
  5
39F7
102
{ACAD_REACTORS
330
3E1
102
}
330
3E1
100
DictionaryVariables
280
     0
  1
Standard
  0
DICTIONARYVAR
  5
14C8
102
{ACAD_REACTORS
330
3E1
102
}
330
3E1
100
DictionaryVariables
280
     0
  1
ByLayer
  0
DICTIONARYVAR
  5
39F9
102
{ACAD_REACTORS
330
3E1
102
}
330
3E1
100
DictionaryVariables
280
     0
  1
0
  0
DICTIONARYVAR
  5
3E2
102
{ACAD_REACTORS
330
3E1
102
}
330
3E1
100
DictionaryVariables
280
     0
  1
96
  0
DICTIONARYVAR
  5
3857
102
{ACAD_REACTORS
330
14C9
102
}
330
14C9
100
DictionaryVariables
280
     0
  1
0.261799
  0
DICTIONARYVAR
  5
3855
102
{ACAD_REACTORS
330
14C9
102
}
330
14C9
100
DictionaryVariables
280
     0
  1
10.000000
  0
DICTIONARYVAR
  5
3856
102
{ACAD_REACTORS
330
14C9
102
}
330
14C9
100
DictionaryVariables
280
     0
  1
6.000000
  0
DICTIONARYVAR
  5
3858
102
{ACAD_REACTORS
330
14C9
102
}
330
14C9
100
DictionaryVariables
280
     0
  1
0
  0
DICTIONARY
  5
3C5E
330
39F3
100
AcDbDictionary
280
     1
281
     1
  3
ACAD_ROUNDTRIP_2008_TABLESTYLE_CELLSTYLEMAP
360
3C5F
  0
CELLSTYLEMAP
  5
3C5F
102
{ACAD_REACTORS
330
3C5E
102
}
330
3C5E
100
AcDbCellStyleMap
 90
        3
300
CELLSTYLE
  1
TABLEFORMAT_BEGIN
 90
        5
170
     1
 91
        0
 92
    32768
 62
   257
 93
        1
300
CONTENTFORMAT
  1
CONTENTFORMAT_BEGIN
 90
        0
 91
        0
 92
        4
 93
        0
300

 40
0.0
140
1.0
 94
        5
 62
     0
340
11
144
6.0
309
CONTENTFORMAT_END
171
     1
301
MARGIN
  1
CELLMARGIN_BEGIN
 40
1.5
 40
1.5
 40
1.5
 40
1.5
 40
1.5
 40
1.5
309
CELLMARGIN_END
 94
        6
 95
        1
302
GRIDFORMAT
  1
GRIDFORMAT_BEGIN
 90
        0
 91
        1
 62
     0
 92
       -2
340
14
 93
        0
 40
0.045
309
GRIDFORMAT_END
 95
        2
302
GRIDFORMAT
  1
GRIDFORMAT_BEGIN
 90
        0
 91
        1
 62
     0
 92
       -2
340
14
 93
        0
 40
0.045
309
GRIDFORMAT_END
 95
        4
302
GRIDFORMAT
  1
GRIDFORMAT_BEGIN
 90
        0
 91
        1
 62
     0
 92
       -2
340
14
 93
        0
 40
0.045
309
GRIDFORMAT_END
 95
        8
302
GRIDFORMAT
  1
GRIDFORMAT_BEGIN
 90
        0
 91
        1
 62
     0
 92
       -2
340
14
 93
        0
 40
0.045
309
GRIDFORMAT_END
 95
       16
302
GRIDFORMAT
  1
GRIDFORMAT_BEGIN
 90
        0
 91
        1
 62
     0
 92
       -2
340
14
 93
        0
 40
0.045
309
GRIDFORMAT_END
 95
       32
302
GRIDFORMAT
  1
GRIDFORMAT_BEGIN
 90
        0
 91
        1
 62
     0
 92
       -2
340
14
 93
        0
 40
0.045
309
GRIDFORMAT_END
309
TABLEFORMAT_END
  1
CELLSTYLE_BEGIN
 90
        1
 91
        1
300
_TITLE
309
CELLSTYLE_END
300
CELLSTYLE
  1
TABLEFORMAT_BEGIN
 90
        5
170
     1
 91
        0
 92
        0
 62
   257
 93
        1
300
CONTENTFORMAT
  1
CONTENTFORMAT_BEGIN
 90
        0
 91
        0
 92
        4
 93
        0
300

 40
0.0
140
1.0
 94
        5
 62
     0
340
11
144
4.5
309
CONTENTFORMAT_END
171
     1
301
MARGIN
  1
CELLMARGIN_BEGIN
 40
1.5
 40
1.5
 40
1.5
 40
1.5
 40
1.5
 40
1.5
309
CELLMARGIN_END
 94
        6
 95
        1
302
GRIDFORMAT
  1
GRIDFORMAT_BEGIN
 90
        0
 91
        1
 62
     0
 92
       -2
340
14
 93
        0
 40
0.045
309
GRIDFORMAT_END
 95
        2
302
GRIDFORMAT
  1
GRIDFORMAT_BEGIN
 90
        0
 91
        1
 62
     0
 92
       -2
340
14
 93
        0
 40
0.045
309
GRIDFORMAT_END
 95
        4
302
GRIDFORMAT
  1
GRIDFORMAT_BEGIN
 90
        0
 91
        1
 62
     0
 92
       -2
340
14
 93
        0
 40
0.045
309
GRIDFORMAT_END
 95
        8
302
GRIDFORMAT
  1
GRIDFORMAT_BEGIN
 90
        0
 91
        1
 62
     0
 92
       -2
340
14
 93
        0
 40
0.045
309
GRIDFORMAT_END
 95
       16
302
GRIDFORMAT
  1
GRIDFORMAT_BEGIN
 90
        0
 91
        1
 62
     0
 92
       -2
340
14
 93
        0
 40
0.045
309
GRIDFORMAT_END
 95
       32
302
GRIDFORMAT
  1
GRIDFORMAT_BEGIN
 90
        0
 91
        1
 62
     0
 92
       -2
340
14
 93
        0
 40
0.045
309
GRIDFORMAT_END
309
TABLEFORMAT_END
  1
CELLSTYLE_BEGIN
 90
        2
 91
        1
300
_HEADER
309
CELLSTYLE_END
300
CELLSTYLE
  1
TABLEFORMAT_BEGIN
 90
        5
170
     1
 91
        0
 92
        0
 62
   257
 93
        1
300
CONTENTFORMAT
  1
CONTENTFORMAT_BEGIN
 90
        0
 91
        0
 92
        4
 93
        0
300

 40
0.0
140
1.0
 94
        2
 62
     0
340
11
144
4.5
309
CONTENTFORMAT_END
171
     1
301
MARGIN
  1
CELLMARGIN_BEGIN
 40
1.5
 40
1.5
 40
1.5
 40
1.5
 40
1.5
 40
1.5
309
CELLMARGIN_END
 94
        6
 95
        1
302
GRIDFORMAT
  1
GRIDFORMAT_BEGIN
 90
        0
 91
        1
 62
     0
 92
       -2
340
14
 93
        0
 40
0.045
309
GRIDFORMAT_END
 95
        2
302
GRIDFORMAT
  1
GRIDFORMAT_BEGIN
 90
        0
 91
        1
 62
     0
 92
       -2
340
14
 93
        0
 40
0.045
309
GRIDFORMAT_END
 95
        4
302
GRIDFORMAT
  1
GRIDFORMAT_BEGIN
 90
        0
 91
        1
 62
     0
 92
       -2
340
14
 93
        0
 40
0.045
309
GRIDFORMAT_END
 95
        8
302
GRIDFORMAT
  1
GRIDFORMAT_BEGIN
 90
        0
 91
        1
 62
     0
 92
       -2
340
14
 93
        0
 40
0.045
309
GRIDFORMAT_END
 95
       16
302
GRIDFORMAT
  1
GRIDFORMAT_BEGIN
 90
        0
 91
        1
 62
     0
 92
       -2
340
14
 93
        0
 40
0.045
309
GRIDFORMAT_END
 95
       32
302
GRIDFORMAT
  1
GRIDFORMAT_BEGIN
 90
        0
 91
        1
 62
     0
 92
       -2
340
14
 93
        0
 40
0.045
309
GRIDFORMAT_END
309
TABLEFORMAT_END
  1
CELLSTYLE_BEGIN
 90
        3
 91
        2
300
_DATA
309
CELLSTYLE_END
  0
ENDSEC
  0
EOF
