  0
SECTION
  2
HEADER
  9
$ACADVER
  1
AC1015
  9
$ACADMAINTVER
 70
     6
  9
$DWGCODEPAGE
  3
ANSI_932
  9
$INSBASE
 10
0.0
 20
0.0
 30
0.0
  9
$EXTMIN
 10
0.0
 20
0.0
 30
-0.0000000000000571
  9
$EXTMAX
 10
292.0
 20
205.0
 30
330.0
  9
$LIMMIN
 10
0.0
 20
0.0
  9
$LIMMAX
 10
297.0
 20
210.0
  9
$ORTHOMODE
 70
     1
  9
$REGENMODE
 70
     1
  9
$FILLMODE
 70
     1
  9
$QTEXTMODE
 70
     0
  9
$MIRRTEXT
 70
     1
  9
$LTSCALE
 40
1.0
  9
$ATTMODE
 70
     1
  9
$TEXTSIZE
 40
2.5
  9
$TRACEWID
 40
1.0
  9
$TEXTSTYLE
  7
Standard
  9
$CLAYER
  8
硬質樹脂部分
  9
$CELTYPE
  6
Continuous
  9
$CECOLOR
 62
   256
  9
$CELTSCALE
 40
1.0
  9
$DISPSILH
 70
     0
  9
$DIMSCALE
 40
1.0
  9
$DIMASZ
 40
1.5
  9
$DIMEXO
 40
0.625
  9
$DIMDLI
 40
3.75
  9
$DIMRND
 40
0.0
  9
$DIMDLE
 40
0.0
  9
$DIMEXE
 40
1.25
  9
$DIMTP
 40
0.0
  9
$DIMTM
 40
0.0
  9
$DIMTXT
 40
2.0
  9
$DIMCEN
 40
2.5
  9
$DIMTSZ
 40
0.0
  9
$DIMTOL
 70
     0
  9
$DIMLIM
 70
     0
  9
$DIMTIH
 70
     1
  9
$DIMTOH
 70
     1
  9
$DIMSE1
 70
     0
  9
$DIMSE2
 70
     0
  9
$DIMTAD
 70
     1
  9
$DIMZIN
 70
     8
  9
$DIMBLK
  1

  9
$DIMASO
 70
     1
  9
$DIMSHO
 70
     1
  9
$DIMPOST
  1

  9
$DIMAPOST
  1

  9
$DIMALT
 70
     0
  9
$DIMALTD
 70
     3
  9
$DIMALTF
 40
0.03937007874016
  9
$DIMLFAC
 40
1.0
  9
$DIMTOFL
 70
     0
  9
$DIMTVP
 40
0.0
  9
$DIMTIX
 70
     0
  9
$DIMSOXD
 70
     0
  9
$DIMSAH
 70
     0
  9
$DIMBLK1
  1

  9
$DIMBLK2
  1

  9
$DIMSTYLE
  2
ISO-25
  9
$DIMCLRD
 70
     0
  9
$DIMCLRE
 70
     0
  9
$DIMCLRT
 70
     0
  9
$DIMTFAC
 40
1.0
  9
$DIMGAP
 40
0.625
  9
$DIMJUST
 70
     0
  9
$DIMSD1
 70
     0
  9
$DIMSD2
 70
     0
  9
$DIMTOLJ
 70
     0
  9
$DIMTZIN
 70
     8
  9
$DIMALTZ
 70
     0
  9
$DIMALTTZ
 70
     0
  9
$DIMUPT
 70
     1
  9
$DIMDEC
 70
     2
  9
$DIMTDEC
 70
     2
  9
$DIMALTU
 70
     2
  9
$DIMALTTD
 70
     3
  9
$DIMTXSTY
  7
Standard
  9
$DIMAUNIT
 70
     0
  9
$DIMADEC
 70
     0
  9
$DIMALTRND
 40
0.0
  9
$DIMAZIN
 70
     0
  9
$DIMDSEP
 70
    46
  9
$DIMATFIT
 70
     3
  9
$DIMFRAC
 70
     0
  9
$DIMLDRBLK
  1

  9
$DIMLUNIT
 70
     2
  9
$DIMLWD
 70
    -2
  9
$DIMLWE
 70
    -2
  9
$DIMTMOVE
 70
     2
  9
$LUNITS
 70
     2
  9
$LUPREC
 70
     4
  9
$SKETCHINC
 40
1.0
  9
$FILLETRAD
 40
0.3
  9
$AUNITS
 70
     0
  9
$AUPREC
 70
     0
  9
$MENU
  1
.
  9
$ELEVATION
 40
0.0
  9
$PELEVATION
 40
0.0
  9
$THICKNESS
 40
0.0
  9
$LIMCHECK
 70
     0
  9
$CHAMFERA
 40
10.0
  9
$CHAMFERB
 40
10.0
  9
$CHAMFERC
 40
20.0
  9
$CHAMFERD
 40
0.0
  9
$SKPOLY
 70
     0
  9
$TDCREATE
 40
2453866.557479954
  9
$TDUCREATE
 40
2453866.182479954
  9
$TDUPDATE
 40
2459998.493118414
  9
$TDUUPDATE
 40
2459998.118118414
  9
$TDINDWG
 40
0.8243531944
  9
$TDUSRTIMER
 40
0.0001110995
  9
$USRTIMER
 70
     1
  9
$ANGBASE
 50
0.0
  9
$ANGDIR
 70
     0
  9
$PDMODE
 70
     0
  9
$PDSIZE
 40
0.0
  9
$PLINEWID
 40
0.0
  9
$SPLFRAME
 70
     0
  9
$SPLINETYPE
 70
     6
  9
$SPLINESEGS
 70
     8
  9
$HANDSEED
  5
3EF7
  9
$SURFTAB1
 70
     6
  9
$SURFTAB2
 70
     6
  9
$SURFTYPE
 70
     6
  9
$SURFU
 70
     6
  9
$SURFV
 70
     6
  9
$UCSBASE
  2

  9
$UCSNAME
  2

  9
$UCSORG
 10
0.0
 20
0.0
 30
0.0
  9
$UCSXDIR
 10
1.0
 20
0.0
 30
0.0
  9
$UCSYDIR
 10
0.0
 20
1.0
 30
0.0
  9
$UCSORTHOREF
  2

  9
$UCSORTHOVIEW
 70
     0
  9
$UCSORGTOP
 10
0.0
 20
0.0
 30
0.0
  9
$UCSORGBOTTOM
 10
0.0
 20
0.0
 30
0.0
  9
$UCSORGLEFT
 10
0.0
 20
0.0
 30
0.0
  9
$UCSORGRIGHT
 10
0.0
 20
0.0
 30
0.0
  9
$UCSORGFRONT
 10
0.0
 20
0.0
 30
0.0
  9
$UCSORGBACK
 10
0.0
 20
0.0
 30
0.0
  9
$PUCSBASE
  2

  9
$PUCSNAME
  2

  9
$PUCSORG
 10
0.0
 20
0.0
 30
0.0
  9
$PUCSXDIR
 10
1.0
 20
0.0
 30
0.0
  9
$PUCSYDIR
 10
0.0
 20
1.0
 30
0.0
  9
$PUCSORTHOREF
  2

  9
$PUCSORTHOVIEW
 70
     0
  9
$PUCSORGTOP
 10
0.0
 20
0.0
 30
0.0
  9
$PUCSORGBOTTOM
 10
0.0
 20
0.0
 30
0.0
  9
$PUCSORGLEFT
 10
0.0
 20
0.0
 30
0.0
  9
$PUCSORGRIGHT
 10
0.0
 20
0.0
 30
0.0
  9
$PUCSORGFRONT
 10
0.0
 20
0.0
 30
0.0
  9
$PUCSORGBACK
 10
0.0
 20
0.0
 30
0.0
  9
$USERI1
 70
     0
  9
$USERI2
 70
     0
  9
$USERI3
 70
     0
  9
$USERI4
 70
     0
  9
$USERI5
 70
     0
  9
$USERR1
 40
0.0
  9
$USERR2
 40
0.0
  9
$USERR3
 40
0.0
  9
$USERR4
 40
0.0
  9
$USERR5
 40
0.0
  9
$WORLDVIEW
 70
     1
  9
$SHADEDGE
 70
     3
  9
$SHADEDIF
 70
    70
  9
$TILEMODE
 70
     1
  9
$MAXACTVP
 70
    64
  9
$PINSBASE
 10
0.0
 20
0.0
 30
0.0
  9
$PLIMCHECK
 70
     0
  9
$PEXTMIN
 10
1.000000000000000E+20
 20
1.000000000000000E+20
 30
1.000000000000000E+20
  9
$PEXTMAX
 10
-1.000000000000000E+20
 20
-1.000000000000000E+20
 30
-1.000000000000000E+20
  9
$PLIMMIN
 10
0.0
 20
0.0
  9
$PLIMMAX
 10
0.0
 20
0.0
  9
$UNITMODE
 70
     0
  9
$VISRETAIN
 70
     1
  9
$PLINEGEN
 70
     0
  9
$PSLTSCALE
 70
     1
  9
$TREEDEPTH
 70
  3020
  9
$CMLSTYLE
  2
Standard
  9
$CMLJUST
 70
     0
  9
$CMLSCALE
 40
20.0
  9
$PROXYGRAPHICS
 70
     1
  9
$MEASUREMENT
 70
     1
  9
$CELWEIGHT
370
    -1
  9
$ENDCAPS
280
     0
  9
$JOINSTYLE
280
     0
  9
$LWDISPLAY
290
     0
  9
$INSUNITS
 70
     4
  9
$HYPERLINKBASE
  1

  9
$STYLESHEET
  1

  9
$XEDIT
290
     1
  9
$CEPSNTYPE
380
     0
  9
$PSTYLEMODE
290
     1
  9
$FINGERPRINTGUID
  2
{49B20B3B-064E-400B-9469-2837C497CFA5}
  9
$VERSIONGUID
  2
{CCDC3A7D-9D77-4BF9-B421-98E64B28052D}
  9
$EXTNAMES
290
     1
  9
$PSVPSCALE
 40
0.0
  9
$OLESTARTUP
290
     0
  0
ENDSEC
  0
SECTION
  2
CLASSES
  0
CLASS
  1
ACDBDICTIONARYWDFLT
  2
AcDbDictionaryWithDefault
  3
ObjectDBX Classes
 90
        0
280
     0
281
     0
  0
CLASS
  1
ACDBPLACEHOLDER
  2
AcDbPlaceHolder
  3
ObjectDBX Classes
 90
        0
280
     0
281
     0
  0
CLASS
  1
LAYOUT
  2
AcDbLayout
  3
ObjectDBX Classes
 90
        0
280
     0
281
     0
  0
CLASS
  1
DICTIONARYVAR
  2
AcDbDictionaryVar
  3
ObjectDBX Classes
 90
        0
280
     0
281
     0
  0
CLASS
  1
SCALE
  2
AcDbScale
  3
ObjectDBX Classes
 90
     1153
280
     0
281
     0
  0
CLASS
  1
MATERIAL
  2
AcDbMaterial
  3
ObjectDBX Classes
 90
     1153
280
     0
281
     0
  0
CLASS
  1
VISUALSTYLE
  2
AcDbVisualStyle
  3
ObjectDBX Classes
 90
     4095
280
     0
281
     0
  0
CLASS
  1
TABLESTYLE
  2
AcDbTableStyle
  3
ObjectDBX Classes
 90
     4095
280
     0
281
     0
  0
CLASS
  1
RASTERVARIABLES
  2
AcDbRasterVariables
  3
ISM
 90
        0
280
     0
281
     0
  0
CLASS
  1
DIMASSOC
  2
AcDbDimAssoc
  3
"AcDbDimAssoc|Product Desc:     AcDim ARX App For Dimension|Company:          Autodesk, Inc.|WEB Address:      www.autodesk.com"
 90
        0
280
     0
281
     0
  0
CLASS
  1
MLEADERSTYLE
  2
AcDbMLeaderStyle
  3
ACDB_MLEADERSTYLE_CLASS
 90
     4095
280
     0
281
     0
  0
CLASS
  1
SUN
  2
AcDbSun
  3
SCENEOE
 90
     1153
280
     0
281
     0
  0
CLASS
  1
CELLSTYLEMAP
  2
AcDbCellStyleMap
  3
ObjectDBX Classes
 90
     1152
280
     0
281
     0
  0
CLASS
  1
SORTENTSTABLE
  2
AcDbSortentsTable
  3
ObjectDBX Classes
 90
        0
280
     0
281
     0
  0
ENDSEC
  0
SECTION
  2
TABLES
  0
TABLE
  2
VPORT
  5
8
330
0
100
AcDbSymbolTable
 70
     1
  0
VPORT
  5
934
330
8
100
AcDbSymbolTableRecord
100
AcDbViewportTableRecord
  2
*Active
 70
     0
 10
0.0
 20
0.0
 11
1.0
 21
1.0
 12
146.0
 22
102.5
 13
0.0
 23
0.0
 14
10.0
 24
10.0
 15
10.0
 25
10.0
 16
0.0
 26
0.0
 36
1.0
 17
0.0
 27
0.0
 37
0.0
 40
209.1
 41
1.558620689655172
 42
50.0
 43
0.0
 44
0.0
 50
0.0
 51
0.0
 71
    16
 72
   100
 73
     1
 74
     3
 75
     0
 76
     0
 77
     0
 78
     0
281
     0
 65
     1
110
0.0
120
0.0
130
0.0
111
1.0
121
0.0
131
0.0
112
0.0
122
1.0
132
0.0
 79
     0
146
0.0
  0
ENDTAB
  0
TABLE
  2
LTYPE
  5
5
330
0
100
AcDbSymbolTable
 70
     5
  0
LTYPE
  5
14
330
5
100
AcDbSymbolTableRecord
100
AcDbLinetypeTableRecord
  2
ByBlock
 70
     0
  3

 72
    65
 73
     0
 40
0.0
  0
LTYPE
  5
15
330
5
100
AcDbSymbolTableRecord
100
AcDbLinetypeTableRecord
  2
ByLayer
 70
     0
  3

 72
    65
 73
     0
 40
0.0
  0
LTYPE
  5
16
330
5
100
AcDbSymbolTableRecord
100
AcDbLinetypeTableRecord
  2
Continuous
 70
     0
  3
Solid line
 72
    65
 73
     0
 40
0.0
  0
LTYPE
  5
C6
330
5
100
AcDbSymbolTableRecord
100
AcDbLinetypeTableRecord
  2
ACAD_ISO02W100
 70
     0
  3
ISO dash __ __ __ __ __ __ __ __ __ __ __ __ __
 72
    65
 73
     2
 40
15.0
 49
12.0
 74
     0
 49
-3.0
 74
     0
  0
LTYPE
  5
63F
330
5
100
AcDbSymbolTableRecord
100
AcDbLinetypeTableRecord
  2
HIDDEN
 70
     0
  3
Hidden __ __ __ __ __ __ __ __ __ __ __ __ __ _
 72
    65
 73
     2
 40
4.5
 49
3.0
 74
     0
 49
-1.5
 74
     0
  0
LTYPE
  5
7A5
330
5
100
AcDbSymbolTableRecord
100
AcDbLinetypeTableRecord
  2
ACAD_ISO07W100
 70
     0
  3
ISO dot . . . . . . . . . . . . . . . . . . . .
 72
    65
 73
     2
 40
3.0
 49
0.0
 74
     0
 49
-3.0
 74
     0
  0
LTYPE
  5
A8D
330
5
100
AcDbSymbolTableRecord
100
AcDbLinetypeTableRecord
  2
CENTER2
 70
     0
  3
Center (.5x) ___ _ ___ _ ___ _ ___ _ ___ _ ___
 72
    65
 73
     4
 40
28.575
 49
19.05
 74
     0
 49
-3.175
 74
     0
 49
3.175
 74
     0
 49
-3.175
 74
     0
  0
ENDTAB
  0
TABLE
  2
LAYER
  5
2
102
{ACAD_XDICTIONARY
360
970
102
}
330
0
100
AcDbSymbolTable
 70
    20
  0
LAYER
  5
10
330
2
100
AcDbSymbolTableRecord
100
AcDbLayerTableRecord
  2
0
 70
     0
 62
     7
  6
Continuous
370
    -3
390
F
  0
LAYER
  5
110
330
2
100
AcDbSymbolTableRecord
100
AcDbLayerTableRecord
  2
Defpoints
 70
     0
 62
     7
  6
Continuous
290
     0
370
    -3
390
F
  0
LAYER
  5
4E7
330
2
100
AcDbSymbolTableRecord
100
AcDbLayerTableRecord
  2
100
 70
     0
 62
     7
  6
ACAD_ISO07W100
370
    -3
390
F
  0
LAYER
  5
68D
330
2
100
AcDbSymbolTableRecord
100
AcDbLayerTableRecord
  2
用紙範囲
 70
     0
 62
    10
  6
Continuous
370
    -3
390
F
  0
LAYER
  5
68E
330
2
100
AcDbSymbolTableRecord
100
AcDbLayerTableRecord
  2
枠
 70
     0
 62
   112
  6
Continuous
370
    -3
390
F
  0
LAYER
  5
68F
330
2
100
AcDbSymbolTableRecord
100
AcDbLayerTableRecord
  2
寸法
 70
     0
 62
    90
  6
Continuous
370
    -3
390
F
  0
LAYER
  5
690
330
2
100
AcDbSymbolTableRecord
100
AcDbLayerTableRecord
  2
金属部分
 70
     0
 62
   170
  6
Continuous
370
    -3
390
F
  0
LAYER
  5
691
330
2
100
AcDbSymbolTableRecord
100
AcDbLayerTableRecord
  2
品番
 70
     0
 62
   244
  6
Continuous
370
    -3
390
F
  0
LAYER
  5
786
330
2
100
AcDbSymbolTableRecord
100
AcDbLayerTableRecord
  2
文字
 70
     0
 62
    40
  6
Continuous
370
    -3
390
F
  0
LAYER
  5
790
330
2
100
AcDbSymbolTableRecord
100
AcDbLayerTableRecord
  2
社名
 70
     0
 62
     1
  6
Continuous
370
    -3
390
F
  0
LAYER
  5
880
330
2
100
AcDbSymbolTableRecord
100
AcDbLayerTableRecord
  2
軟質樹脂部分
 70
     0
 62
    30
  6
Continuous
370
    -3
390
F
  0
LAYER
  5
896
330
2
100
AcDbSymbolTableRecord
100
AcDbLayerTableRecord
  2
TOS_M1
 70
     0
 62
     7
  6
Continuous
370
    -3
390
F
  0
LAYER
  5
897
330
2
100
AcDbSymbolTableRecord
100
AcDbLayerTableRecord
  2
TOS_S1
 70
     0
 62
     4
  6
Continuous
370
    -3
390
F
  0
LAYER
  5
A57
330
2
100
AcDbSymbolTableRecord
100
AcDbLayerTableRecord
  2
補助
 70
     0
 62
     7
  6
HIDDEN
370
    -3
390
F
1001
AcAecLayerStandard
1000

1000

  0
LAYER
  5
A86
102
{ACAD_XDICTIONARY
360
A87
102
}
330
2
100
AcDbSymbolTableRecord
100
AcDbLayerTableRecord
  2
SCALE
 70
     0
 62
     3
  6
Continuous
370
    -3
390
F
  0
LAYER
  5
A8A
102
{ACAD_XDICTIONARY
360
A8B
102
}
330
2
100
AcDbSymbolTableRecord
100
AcDbLayerTableRecord
  2
Hojo
 70
     0
 62
   111
  6
Continuous
370
    -3
390
F
  0
LAYER
  5
2076
330
2
100
AcDbSymbolTableRecord
100
AcDbLayerTableRecord
  2
硬質樹脂部分
 70
     0
 62
   220
  6
Continuous
370
    -3
390
F
1001
AcAecLayerStandard
1000

1000

  0
LAYER
  5
34A4
330
2
100
AcDbSymbolTableRecord
100
AcDbLayerTableRecord
  2
両面テープ
 70
     0
 62
     7
  6
Continuous
370
    -3
390
F
1001
AcAecLayerStandard
1000

1000

  0
LAYER
  5
3C65
330
2
100
AcDbSymbolTableRecord
100
AcDbLayerTableRecord
  2
樹脂部分
 70
     0
 62
   220
  6
Continuous
370
    -3
390
F
  0
LAYER
  5
3C66
330
2
100
AcDbSymbolTableRecord
100
AcDbLayerTableRecord
  2
可視
 70
     0
 62
     7
  6
Continuous
370
    50
390
F
  0
ENDTAB
  0
TABLE
  2
STYLE
  5
3
330
0
100
AcDbSymbolTable
 70
     3
  0
STYLE
  5
11
330
3
100
AcDbSymbolTableRecord
100
AcDbTextStyleTableRecord
  2
Standard
 70
     0
 40
0.0
 41
1.0
 50
0.0
 71
     0
 42
2.5
  3
txt.shx
  4
bigfont.shx
  0
STYLE
  5
C5
330
3
100
AcDbSymbolTableRecord
100
AcDbTextStyleTableRecord
  2

 70
     1
 40
0.0
 41
1.0
 50
0.0
 71
     0
 42
2.5
  3
ltypeshp.shx
  4

  0
STYLE
  5
3DEB
330
3
100
AcDbSymbolTableRecord
100
AcDbTextStyleTableRecord
  2
BIGFONT
 70
     0
 40
3.0
 41
1.0
 50
0.0
 71
     0
 42
2.5
  3
txt.shx
  4
bigfont
  0
ENDTAB
  0
TABLE
  2
VIEW
  5
6
330
0
100
AcDbSymbolTable
 70
     0
  0
ENDTAB
  0
TABLE
  2
UCS
  5
7
330
0
100
AcDbSymbolTable
 70
     0
  0
ENDTAB
  0
TABLE
  2
APPID
  5
9
330
0
100
AcDbSymbolTable
 70
     8
  0
APPID
  5
12
330
9
100
AcDbSymbolTableRecord
100
AcDbRegAppTableRecord
  2
ACAD
 70
     0
  0
APPID
  5
A58
330
9
100
AcDbSymbolTableRecord
100
AcDbRegAppTableRecord
  2
AcAecLayerStandard
 70
     0
  0
APPID
  5
A97
330
9
100
AcDbSymbolTableRecord
100
AcDbRegAppTableRecord
  2
ACAD_NAV_VCDISPLAY
 70
     0
  0
APPID
  5
A98
330
9
100
AcDbSymbolTableRecord
100
AcDbRegAppTableRecord
  2
ACAD_PSEXT
 70
     0
  0
APPID
  5
B15
330
9
100
AcDbSymbolTableRecord
100
AcDbRegAppTableRecord
  2
ACAD_DSTYLE_DIMRADIAL_EXTENSION
 70
     0
  0
APPID
  5
3BF6
330
9
100
AcDbSymbolTableRecord
100
AcDbRegAppTableRecord
  2
PLOTTRANSPARENCY
 70
     0
  0
APPID
  5
3C6A
330
9
100
AcDbSymbolTableRecord
100
AcDbRegAppTableRecord
  2
AcadAnnotative
 70
     0
  0
APPID
  5
3C6B
330
9
100
AcDbSymbolTableRecord
100
AcDbRegAppTableRecord
  2
HATCHBACKGROUNDCOLOR
 70
     0
  0
ENDTAB
  0
TABLE
  2
DIMSTYLE
  5
A
330
0
100
AcDbSymbolTable
 70
     6
100
AcDbDimStyleTable
  0
DIMSTYLE
105
27
102
{ACAD_REACTORS
330
3D5D
330
3D6D
330
3D7D
330
3D8D
330
3D9D
330
3DD2
102
}
330
A
100
AcDbSymbolTableRecord
100
AcDbDimStyleTableRecord
  2
ISO-25
 70
     0
 41
1.5
 42
0.625
 43
3.75
 44
1.25
 77
     1
 78
     8
140
2.0
141
2.5
143
0.03937007874016
147
0.625
171
     3
178
     0
271
     2
272
     2
274
     3
279
     2
283
     0
284
     8
288
     1
340
11
  0
DIMSTYLE
105
4E8
330
A
100
AcDbSymbolTableRecord
100
AcDbDimStyleTableRecord
  2
Standard
 70
     0
178
     0
340
11
  0
DIMSTYLE
105
14C6
330
A
100
AcDbSymbolTableRecord
100
AcDbDimStyleTableRecord
  2
ISO-1
 70
     0
 41
2.5
 42
0.625
 43
3.75
 44
1.25
 77
     1
 78
     8
140
5.0
141
0.0
143
0.03937007874016
144
0.5
147
0.625
171
     3
178
     0
271
     2
272
     2
274
     3
279
     2
283
     0
284
     8
288
     1
340
11
  0
DIMSTYLE
105
2BCC
330
A
100
AcDbSymbolTableRecord
100
AcDbDimStyleTableRecord
  2
ISO-2
 70
     0
 41
2.5
 42
0.625
 43
3.75
 44
1.25
 77
     1
 78
     8
140
5.0
141
0.0
143
0.03937007874016
144
0.2
147
0.625
171
     3
178
     0
271
     2
272
     2
274
     3
279
     2
283
     0
284
     8
288
     1
340
11
  0
DIMSTYLE
105
3C69
330
A
100
AcDbSymbolTableRecord
100
AcDbDimStyleTableRecord
  2
Annotative
 70
     0
 40
0.0
 41
2.5
 42
0.625
 43
7.071068
 44
1.25
 73
     0
 74
     0
 77
     1
 78
     8
 79
     2
140
2.5
141
2.5
143
0.03937
147
0.625
171
     3
172
     1
178
     0
179
     1
271
     1
272
     1
274
     3
278
    44
283
     0
284
     8
285
     8
286
     8
340
11
1001
AcadAnnotative
1000
AnnotativeData
1002
{
1070
     1
1070
     1
1002
}
  0
DIMSTYLE
105
3DEA
330
A
100
AcDbSymbolTableRecord
100
AcDbDimStyleTableRecord
  2
KIHON
 70
     0
 41
3.0
 42
1.0
 43
10.0
 44
1.199999999999999
 47
0.1
 73
     0
 74
     0
 77
     1
 78
     8
140
2.5
143
0.0394
146
0.5
147
0.625
172
     1
176
     5
177
     5
271
     2
178
     5
179
     2
271
     2
272
     2
284
     8
285
     8
286
     8
340
3DEB
  0
ENDTAB
  0
TABLE
  2
BLOCK_RECORD
  5
1
330
0
100
AcDbSymbolTable
 70
     7
  0
BLOCK_RECORD
  5
1F
102
{ACAD_XDICTIONARY
360
3D19
102
}
330
1
100
AcDbSymbolTableRecord
100
AcDbBlockTableRecord
  2
*Model_Space
340
22
  0
BLOCK_RECORD
  5
1B
330
1
100
AcDbSymbolTableRecord
100
AcDbBlockTableRecord
  2
*Paper_Space
340
1E
  0
BLOCK_RECORD
  5
23
330
1
100
AcDbSymbolTableRecord
100
AcDbBlockTableRecord
  2
*Paper_Space0
340
26
  0
BLOCK_RECORD
  5
A91
330
1
100
AcDbSymbolTableRecord
100
AcDbBlockTableRecord
  2
_OPEN
340
0
  0
BLOCK_RECORD
  5
3D60
330
1
100
AcDbSymbolTableRecord
100
AcDbBlockTableRecord
  2
*D20
340
0
  0
BLOCK_RECORD
  5
3D70
330
1
100
AcDbSymbolTableRecord
100
AcDbBlockTableRecord
  2
*D21
340
0
  0
BLOCK_RECORD
  5
3D80
330
1
100
AcDbSymbolTableRecord
100
AcDbBlockTableRecord
  2
*D22
340
0
  0
BLOCK_RECORD
  5
3D90
330
1
100
AcDbSymbolTableRecord
100
AcDbBlockTableRecord
  2
*D23
340
0
  0
BLOCK_RECORD
  5
3DA0
330
1
100
AcDbSymbolTableRecord
100
AcDbBlockTableRecord
  2
*D24
340
0
  0
ENDTAB
  0
ENDSEC
  0
SECTION
  2
BLOCKS
  0
BLOCK
  5
20
330
1F
100
AcDbEntity
  8
0
100
AcDbBlockBegin
  2
*Model_Space
 70
     0
 10
0.0
 20
0.0
 30
0.0
  3
*Model_Space
  1
*Model_Space
  0
ENDBLK
  5
21
330
1F
100
AcDbEntity
  8
0
100
AcDbBlockEnd
  0
BLOCK
  5
1C
330
1B
100
AcDbEntity
 67
     1
  8
0
100
AcDbBlockBegin
  2
*Paper_Space
 70
     0
 10
0.0
 20
0.0
 30
0.0
  3
*Paper_Space
  1
*Paper_Space
  0
ENDBLK
  5
1D
330
1B
100
AcDbEntity
 67
     1
  8
0
100
AcDbBlockEnd
  0
BLOCK
  5
24
330
23
100
AcDbEntity
  8
0
100
AcDbBlockBegin
  2
*Paper_Space0
 70
     0
 10
0.0
 20
0.0
 30
0.0
  3
*Paper_Space0
  1
*Paper_Space0
  0
ENDBLK
  5
25
330
23
100
AcDbEntity
  8
0
100
AcDbBlockEnd
  0
BLOCK
  5
A92
330
A91
100
AcDbEntity
  8
0
100
AcDbBlockBegin
  2
_OPEN
 70
     0
 10
0.0
 20
0.0
 30
0.0
  3
_OPEN
  1
_OPEN
  0
LINE
  5
A93
330
A91
100
AcDbEntity
  8
0
  6
ByBlock
 62
     0
100
AcDbLine
 10
-1.0
 20
0.1666666666666667
 30
0.0
 11
0.0
 21
0.0
 31
0.0
  0
LINE
  5
A94
330
A91
100
AcDbEntity
  8
0
  6
ByBlock
 62
     0
100
AcDbLine
 10
0.0
 20
0.0
 30
0.0
 11
-1.0
 21
-0.1666666666666667
 31
0.0
  0
LINE
  5
A95
330
A91
100
AcDbEntity
  8
0
  6
ByBlock
 62
     0
100
AcDbLine
 10
0.0
 20
0.0
 30
0.0
 11
-1.0
 21
0.0
 31
0.0
  0
ENDBLK
  5
A96
330
A91
100
AcDbEntity
  8
0
100
AcDbBlockEnd
  0
BLOCK
  5
3D61
330
3D60
100
AcDbEntity
  8
0
100
AcDbBlockBegin
  2
*D20
 70
     1
 10
0.0
 20
0.0
 30
0.0
  3
*D20
  1

  0
LINE
  5
3D63
330
3D60
100
AcDbEntity
  8
寸法
  6
Continuous
 62
     0
370
    -2
100
AcDbLine
 10
98.37500000000003
 20
98.50000000000004
 30
0.0
 11
87.75000000000003
 21
98.50000000000004
 31
0.0
  0
LINE
  5
3D64
330
3D60
100
AcDbEntity
  8
寸法
  6
Continuous
 62
     0
370
    -2
100
AcDbLine
 10
99.66406281271159
 20
110.4993894895609
 30
0.0
 11
87.75000000000003
 21
110.4993894895609
 31
0.0
  0
LINE
  5
3D65
330
3D60
100
AcDbEntity
  8
寸法
  6
Continuous
 62
     0
370
    -2
100
AcDbLine
 10
89.00000000000003
 20
100.0
 30
0.0
 11
89.00000000000003
 21
102.25
 31
0.0
  0
LINE
  5
3D66
330
3D60
100
AcDbEntity
  8
寸法
  6
Continuous
 62
     0
370
    -2
100
AcDbLine
 10
89.00000000000003
 20
108.9993894895609
 30
0.0
 11
89.00000000000003
 21
105.5
 31
0.0
  0
SOLID
  5
3D67
330
3D60
100
AcDbEntity
  8
寸法
 62
     0
100
AcDbTrace
 10
88.75000000000003
 20
100.0
 30
0.0
 11
89.25000000000003
 21
100.0
 31
0.0
 12
89.00000000000003
 22
98.50000000000004
 32
0.0
 13
89.00000000000003
 23
98.50000000000004
 33
0.0
  0
SOLID
  5
3D68
330
3D60
100
AcDbEntity
  8
寸法
 62
     0
100
AcDbTrace
 10
89.25000000000003
 20
108.9993894895609
 30
0.0
 11
88.75000000000003
 21
108.9993894895609
 31
0.0
 12
89.00000000000003
 22
110.4993894895609
 32
0.0
 13
89.00000000000003
 23
110.4993894895609
 33
0.0
  0
MTEXT
  5
3D69
330
3D60
100
AcDbEntity
  8
寸法
  6
Continuous
 62
     0
100
AcDbMText
 10
89.00000000000003
 20
103.875
 30
0.0
 40
2.0
 41
0.0
 71
     5
 72
     1
  1
12
 73
     1
 44
1.0
  0
POINT
  5
3D6A
330
3D60
100
AcDbEntity
  8
Defpoints
 62
     0
100
AcDbPoint
 10
99.00000000000003
 20
98.50000000000004
 30
0.0
  0
POINT
  5
3D6B
330
3D60
100
AcDbEntity
  8
Defpoints
 62
     0
100
AcDbPoint
 10
100.2890628127116
 20
110.4993894895609
 30
0.0
  0
POINT
  5
3D6C
330
3D60
100
AcDbEntity
  8
Defpoints
 62
     0
100
AcDbPoint
 10
89.00000000000003
 20
110.4993894895609
 30
0.0
  0
ENDBLK
  5
3D62
330
3D60
100
AcDbEntity
  8
0
100
AcDbBlockEnd
  0
BLOCK
  5
3D71
330
3D70
100
AcDbEntity
  8
0
100
AcDbBlockBegin
  2
*D21
 70
     1
 10
0.0
 20
0.0
 30
0.0
  3
*D21
  1

  0
LINE
  5
3D73
330
3D70
100
AcDbEntity
  8
寸法
  6
Continuous
 62
     0
370
    -2
100
AcDbLine
 10
132.0000000000005
 20
109.8749999999999
 30
0.0
 11
132.0000000000005
 21
116.749389489561
 31
0.0
  0
LINE
  5
3D74
330
3D70
100
AcDbEntity
  8
寸法
  6
Continuous
 62
     0
370
    -2
100
AcDbLine
 10
99.00000000000003
 20
109.8749999999999
 30
0.0
 11
99.00000000000003
 21
116.749389489561
 31
0.0
  0
LINE
  5
3D75
330
3D70
100
AcDbEntity
  8
寸法
  6
Continuous
 62
     0
370
    -2
100
AcDbLine
 10
130.5000000000005
 20
115.499389489561
 30
0.0
 11
117.7916661666667
 21
115.499389489561
 31
0.0
  0
LINE
  5
3D76
330
3D70
100
AcDbEntity
  8
寸法
  6
Continuous
 62
     0
370
    -2
100
AcDbLine
 10
100.5
 20
115.499389489561
 30
0.0
 11
113.2083328333334
 21
115.499389489561
 31
0.0
  0
SOLID
  5
3D77
330
3D70
100
AcDbEntity
  8
寸法
 62
     0
100
AcDbTrace
 10
130.5000000000005
 20
115.249389489561
 30
0.0
 11
130.5000000000005
 21
115.749389489561
 31
0.0
 12
132.0000000000005
 22
115.499389489561
 32
0.0
 13
132.0000000000005
 23
115.499389489561
 33
0.0
  0
SOLID
  5
3D78
330
3D70
100
AcDbEntity
  8
寸法
 62
     0
100
AcDbTrace
 10
100.5
 20
115.749389489561
 30
0.0
 11
100.5
 21
115.249389489561
 31
0.0
 12
99.00000000000003
 22
115.499389489561
 32
0.0
 13
99.00000000000003
 23
115.499389489561
 33
0.0
  0
MTEXT
  5
3D79
330
3D70
100
AcDbEntity
  8
寸法
  6
Continuous
 62
     0
100
AcDbMText
 10
115.4999995
 20
115.4993894895609
 30
0.0
 40
2.0
 41
0.0
 71
     5
 72
     1
  1
33
 73
     1
 44
1.0
  0
POINT
  5
3D7A
330
3D70
100
AcDbEntity
  8
Defpoints
 62
     0
100
AcDbPoint
 10
132.0000000000005
 20
109.2499999999999
 30
0.0
  0
POINT
  5
3D7B
330
3D70
100
AcDbEntity
  8
Defpoints
 62
     0
100
AcDbPoint
 10
99.00000000000003
 20
109.2499999999999
 30
0.0
  0
POINT
  5
3D7C
330
3D70
100
AcDbEntity
  8
Defpoints
 62
     0
100
AcDbPoint
 10
99.00000000000003
 20
115.499389489561
 30
0.0
  0
ENDBLK
  5
3D72
330
3D70
100
AcDbEntity
  8
0
100
AcDbBlockEnd
  0
BLOCK
  5
3D81
330
3D80
100
AcDbEntity
  8
0
100
AcDbBlockBegin
  2
*D22
 70
     1
 10
0.0
 20
0.0
 30
0.0
  3
*D22
  1

  0
LINE
  5
3D83
330
3D80
100
AcDbEntity
  8
寸法
  6
Continuous
 62
     0
370
    -2
100
AcDbLine
 10
99.00000000000003
 20
97.87500000000004
 30
0.0
 11
99.00000000000003
 21
92.25000000000004
 31
0.0
  0
LINE
  5
3D84
330
3D80
100
AcDbEntity
  8
寸法
  6
Continuous
 62
     0
370
    -2
100
AcDbLine
 10
100.0
 20
97.87500000000004
 30
0.0
 11
100.0
 21
92.25000000000004
 31
0.0
  0
LINE
  5
3D85
330
3D80
100
AcDbEntity
  8
寸法
  6
Continuous
 62
     0
370
    -2
100
AcDbLine
 10
97.50000000000003
 20
93.50000000000004
 30
0.0
 11
96.00000000000003
 21
93.50000000000004
 31
0.0
  0
LINE
  5
3D86
330
3D80
100
AcDbEntity
  8
寸法
  6
Continuous
 62
     0
370
    -2
100
AcDbLine
 10
101.5
 20
93.50000000000004
 30
0.0
 11
103.0
 21
93.50000000000004
 31
0.0
  0
SOLID
  5
3D87
330
3D80
100
AcDbEntity
  8
寸法
 62
     0
100
AcDbTrace
 10
97.50000000000003
 20
93.25000000000004
 30
0.0
 11
97.50000000000003
 21
93.75000000000004
 31
0.0
 12
99.00000000000003
 22
93.50000000000004
 32
0.0
 13
99.00000000000003
 23
93.50000000000004
 33
0.0
  0
SOLID
  5
3D88
330
3D80
100
AcDbEntity
  8
寸法
 62
     0
100
AcDbTrace
 10
101.5
 20
93.75000000000004
 30
0.0
 11
101.5
 21
93.25000000000004
 31
0.0
 12
100.0
 22
93.50000000000004
 32
0.0
 13
100.0
 23
93.50000000000004
 33
0.0
  0
MTEXT
  5
3D89
330
3D80
100
AcDbEntity
  8
寸法
  6
Continuous
 62
     0
100
AcDbMText
 10
104.0311052811184
 20
93.50000000000007
 30
0.0
 40
2.0
 41
0.0
 71
     5
 72
     1
  1
1
 73
     1
 44
1.0
  0
POINT
  5
3D8A
330
3D80
100
AcDbEntity
  8
Defpoints
 62
     0
100
AcDbPoint
 10
99.00000000000003
 20
98.50000000000004
 30
0.0
  0
POINT
  5
3D8B
330
3D80
100
AcDbEntity
  8
Defpoints
 62
     0
100
AcDbPoint
 10
100.0
 20
98.50000000000004
 30
0.0
  0
POINT
  5
3D8C
330
3D80
100
AcDbEntity
  8
Defpoints
 62
     0
100
AcDbPoint
 10
100.0
 20
93.50000000000004
 30
0.0
  0
ENDBLK
  5
3D82
330
3D80
100
AcDbEntity
  8
0
100
AcDbBlockEnd
  0
BLOCK
  5
3D91
330
3D90
100
AcDbEntity
  8
0
100
AcDbBlockBegin
  2
*D23
 70
     1
 10
0.0
 20
0.0
 30
0.0
  3
*D23
  1

  0
LINE
  5
3D93
330
3D90
100
AcDbEntity
  8
寸法
  6
Continuous
 62
     0
370
    -2
100
AcDbLine
 10
132.625
 20
104.4999999999999
 30
0.0
 11
138.25
 21
104.4999999999999
 31
0.0
  0
LINE
  5
3D94
330
3D90
100
AcDbEntity
  8
寸法
  6
Continuous
 62
     0
370
    -2
100
AcDbLine
 10
131.3359371872879
 20
110.4993894895764
 30
0.0
 11
138.25
 21
110.4993894895764
 31
0.0
  0
LINE
  5
3D95
330
3D90
100
AcDbEntity
  8
寸法
  6
Continuous
 62
     0
370
    -2
100
AcDbLine
 10
137.0
 20
105.9999999999999
 30
0.0
 11
137.0
 21
105.9488428210249
 31
0.0
  0
LINE
  5
3D96
330
3D90
100
AcDbEntity
  8
寸法
  6
Continuous
 62
     0
370
    -2
100
AcDbLine
 10
137.0
 20
108.9993894895764
 30
0.0
 11
137.0
 21
109.1988428210249
 31
0.0
  0
SOLID
  5
3D97
330
3D90
100
AcDbEntity
  8
寸法
 62
     0
100
AcDbTrace
 10
136.75
 20
105.9999999999999
 30
0.0
 11
137.25
 21
105.9999999999999
 31
0.0
 12
137.0
 22
104.4999999999999
 32
0.0
 13
137.0
 23
104.4999999999999
 33
0.0
  0
SOLID
  5
3D98
330
3D90
100
AcDbEntity
  8
寸法
 62
     0
100
AcDbTrace
 10
137.25
 20
108.9993894895764
 30
0.0
 11
136.75
 21
108.9993894895764
 31
0.0
 12
137.0
 22
110.4993894895764
 32
0.0
 13
137.0
 23
110.4993894895764
 33
0.0
  0
MTEXT
  5
3D99
330
3D90
100
AcDbEntity
  8
寸法
  6
Continuous
 62
     0
100
AcDbMText
 10
137.0
 20
107.5738428210249
 30
0.0
 40
2.0
 41
0.0
 71
     5
 72
     1
  1
6
 73
     1
 44
1.0
  0
POINT
  5
3D9A
330
3D90
100
AcDbEntity
  8
Defpoints
 62
     0
100
AcDbPoint
 10
132.0
 20
104.4999999999999
 30
0.0
  0
POINT
  5
3D9B
330
3D90
100
AcDbEntity
  8
Defpoints
 62
     0
100
AcDbPoint
 10
130.7109371872879
 20
110.4993894895764
 30
0.0
  0
POINT
  5
3D9C
330
3D90
100
AcDbEntity
  8
Defpoints
 62
     0
100
AcDbPoint
 10
137.0
 20
110.4993894895764
 30
0.0
  0
ENDBLK
  5
3D92
330
3D90
100
AcDbEntity
  8
0
100
AcDbBlockEnd
  0
BLOCK
  5
3DA1
330
3DA0
100
AcDbEntity
  8
0
100
AcDbBlockBegin
  2
*D24
 70
     1
 10
0.0
 20
0.0
 30
0.0
  3
*D24
  1

  0
LINE
  5
3DA3
330
3DA0
100
AcDbEntity
  8
寸法
  6
Continuous
 62
     0
370
    -2
100
AcDbLine
 10
98.37500000000003
 20
98.50000000000004
 30
0.0
 11
92.75000000000003
 21
98.50000000000004
 31
0.0
  0
LINE
  5
3DA4
330
3DA0
100
AcDbEntity
  8
寸法
  6
Continuous
 62
     0
370
    -2
100
AcDbLine
 10
101.175
 20
104.4999999999876
 30
0.0
 11
92.75000000000003
 21
104.4999999999876
 31
0.0
  0
LINE
  5
3DA5
330
3DA0
100
AcDbEntity
  8
寸法
  6
Continuous
 62
     0
370
    -2
100
AcDbLine
 10
94.00000000000003
 20
100.0
 30
0.0
 11
94.00000000000003
 21
99.87500000000004
 31
0.0
  0
LINE
  5
3DA6
330
3DA0
100
AcDbEntity
  8
寸法
  6
Continuous
 62
     0
370
    -2
100
AcDbLine
 10
94.00000000000003
 20
102.9999999999876
 30
0.0
 11
94.00000000000003
 21
103.125
 31
0.0
  0
SOLID
  5
3DA7
330
3DA0
100
AcDbEntity
  8
寸法
 62
     0
100
AcDbTrace
 10
93.75000000000003
 20
100.0
 30
0.0
 11
94.25000000000003
 21
100.0
 31
0.0
 12
94.00000000000003
 22
98.50000000000004
 32
0.0
 13
94.00000000000003
 23
98.50000000000004
 33
0.0
  0
SOLID
  5
3DA8
330
3DA0
100
AcDbEntity
  8
寸法
 62
     0
100
AcDbTrace
 10
94.25000000000003
 20
102.9999999999876
 30
0.0
 11
93.75000000000003
 21
102.9999999999876
 31
0.0
 12
94.00000000000003
 22
104.4999999999876
 32
0.0
 13
94.00000000000003
 23
104.4999999999876
 33
0.0
  0
MTEXT
  5
3DA9
330
3DA0
100
AcDbEntity
  8
寸法
  6
Continuous
 62
     0
100
AcDbMText
 10
94.00000000000003
 20
101.5
 30
0.0
 40
2.0
 41
0.0
 71
     5
 72
     1
  1
6
 73
     1
 44
1.0
  0
POINT
  5
3DAA
330
3DA0
100
AcDbEntity
  8
Defpoints
 62
     0
100
AcDbPoint
 10
99.00000000000003
 20
98.50000000000004
 30
0.0
  0
POINT
  5
3DAB
330
3DA0
100
AcDbEntity
  8
Defpoints
 62
     0
100
AcDbPoint
 10
101.8
 20
104.4999999999876
 30
0.0
  0
POINT
  5
3DAC
330
3DA0
100
AcDbEntity
  8
Defpoints
 62
     0
100
AcDbPoint
 10
94.00000000000003
 20
104.4999999999876
 30
0.0
  0
ENDBLK
  5
3DA2
330
3DA0
100
AcDbEntity
  8
0
100
AcDbBlockEnd
  0
ENDSEC
  0
SECTION
  2
ENTITIES
  0
LINE
  5
664
330
1F
100
AcDbEntity
  8
用紙範囲
  6
HIDDEN
100
AcDbLine
 10
0.0
 20
205.0
 30
0.0
 11
0.0
 21
0.0
 31
0.0
  0
LINE
  5
665
330
1F
100
AcDbEntity
  8
用紙範囲
  6
HIDDEN
100
AcDbLine
 10
292.0
 20
205.0
 30
0.0
 11
292.0
 21
0.0
 31
0.0
  0
LINE
  5
666
330
1F
100
AcDbEntity
  8
用紙範囲
  6
HIDDEN
100
AcDbLine
 10
0.0
 20
205.0
 30
0.0
 11
292.0
 21
205.0
 31
0.0
  0
LINE
  5
667
330
1F
100
AcDbEntity
  8
用紙範囲
  6
HIDDEN
100
AcDbLine
 10
0.0
 20
0.0
 30
0.0
 11
292.0
 21
0.0
 31
0.0
  0
LINE
  5
668
330
1F
100
AcDbEntity
  8
枠
  6
Continuous
100
AcDbLine
 10
11.00000000000003
 20
193.5
 30
0.0
 11
281.0
 21
193.5
 31
0.0
  0
LINE
  5
669
330
1F
100
AcDbEntity
  8
枠
  6
Continuous
100
AcDbLine
 10
11.00000000000003
 20
11.5
 30
0.0
 11
281.0
 21
11.5
 31
0.0
  0
LINE
  5
66A
330
1F
100
AcDbEntity
  8
枠
  6
Continuous
100
AcDbLine
 10
11.00000000000003
 20
193.5
 30
0.0
 11
11.00000000000003
 21
11.5
 31
0.0
  0
LINE
  5
66B
330
1F
100
AcDbEntity
  8
枠
  6
Continuous
100
AcDbLine
 10
281.0
 20
193.5
 30
0.0
 11
281.0
 21
11.5
 31
0.0
  0
LINE
  5
673
330
1F
100
AcDbEntity
  8
枠
  6
Continuous
100
AcDbLine
 10
10.00000000000003
 20
194.5
 30
0.0
 11
282.0
 21
194.5
 31
0.0
  0
LINE
  5
674
330
1F
100
AcDbEntity
  8
枠
  6
Continuous
100
AcDbLine
 10
10.00000000000003
 20
194.5
 30
0.0
 11
10.00000000000003
 21
10.5
 31
0.0
  0
LINE
  5
675
330
1F
100
AcDbEntity
  8
枠
  6
Continuous
100
AcDbLine
 10
10.00000000000003
 20
10.5
 30
0.0
 11
282.0
 21
10.5
 31
0.0
  0
LINE
  5
676
330
1F
100
AcDbEntity
  8
枠
  6
Continuous
100
AcDbLine
 10
282.0
 20
194.5
 30
0.0
 11
282.0
 21
10.5
 31
0.0
  0
LINE
  5
677
330
1F
100
AcDbEntity
  8
枠
  6
Continuous
100
AcDbLine
 10
236.0
 20
193.5
 30
0.0
 11
236.0
 21
11.5
 31
0.0
  0
LINE
  5
678
330
1F
100
AcDbEntity
  8
枠
  6
Continuous
100
AcDbLine
 10
236.0
 20
171.3660465293556
 30
0.0
 11
281.0
 21
171.3660465293556
 31
0.0
  0
LINE
  5
679
330
1F
100
AcDbEntity
  8
枠
  6
Continuous
100
AcDbLine
 10
236.0
 20
149.2320930587111
 30
0.0
 11
281.0
 21
149.2320930587111
 31
0.0
  0
LINE
  5
67A
330
1F
100
AcDbEntity
  8
枠
  6
Continuous
100
AcDbLine
 10
236.0
 20
31.87291584484291
 30
0.0
 11
281.0
 21
31.87291584484291
 31
0.0
  0
LINE
  5
67B
330
1F
100
AcDbEntity
  8
枠
  6
Continuous
100
AcDbLine
 10
236.0
 20
41.88960476803794
 30
0.0
 11
281.0
 21
41.88960476803794
 31
0.0
  0
LINE
  5
67D
330
1F
100
AcDbEntity
  8
枠
  6
Continuous
100
AcDbLine
 10
235.0
 20
193.5
 30
0.0
 11
235.0
 21
11.5
 31
0.0
  0
MTEXT
  5
A15
330
1F
100
AcDbEntity
  8
文字
100
AcDbMText
 10
238.0774350305441
 20
192.0038694137743
 30
0.0
 40
2.5
 41
19.50744578598591
 71
     1
 72
     5
  1
{\fＭＳ Ｐゴシック|b0|i0|c0|p0;\U+540D\U+79F0}
 73
     1
 44
1.0
1001
ACAD
1000
ACAD_MTEXT_DEFINED_HEIGHT_BEGIN
1070
    46
1040
2.8275
1000
ACAD_MTEXT_DEFINED_HEIGHT_END
  0
MTEXT
  5
A17
330
1F
100
AcDbEntity
  8
文字
100
AcDbMText
 10
236.0
 20
183.859332666015
 30
0.0
 40
2.5
 41
45.0
 71
     1
 72
     5
  1
{\fＭＳ Ｐゴシック|b0|i0|c0|p0;\U+3000\U+FF30\U+FF52\U+FF45\U+FF56\U+FF49\U+FF4F R\P\U+3000\U+30BF\U+30A4\U+30EB\U+30AB\U+30FC\U+30DA\U+30C3\U+30C8\U+7528}
 73
     1
 44
1.0
1001
ACAD
1000
ACAD_MTEXT_DEFINED_HEIGHT_BEGIN
1070
    46
1040
6.964981659789088
1000
ACAD_MTEXT_DEFINED_HEIGHT_END
  0
MTEXT
  5
A18
330
1F
100
AcDbEntity
  8
文字
100
AcDbMText
 10
238.0774350305441
 20
169.6766048811238
 30
0.0
 40
2.5
 41
12.9189203585147
 71
     1
 72
     5
  1
{\fＭＳ Ｐゴシック|b0|i0|c0|p0;\U+54C1\U+756A}
 73
     1
 44
1.0
1001
ACAD
1000
ACAD_MTEXT_DEFINED_HEIGHT_BEGIN
1070
    46
1040
2.84
1000
ACAD_MTEXT_DEFINED_HEIGHT_END
  0
MTEXT
  5
A1C
330
1F
100
AcDbEntity
  8
文字
100
AcDbMText
 10
238.0774350305441
 20
148.0690084662711
 30
0.0
 40
2.5
 41
9.970036363636382
 71
     1
 72
     5
  1
{\fＭＳ Ｐゴシック|b0|i0|c0|p0;\U+4ED5\U+69D8}
 73
     1
 44
1.0
1001
ACAD
1000
ACAD_MTEXT_DEFINED_HEIGHT_BEGIN
1070
    46
1040
2.8125
1000
ACAD_MTEXT_DEFINED_HEIGHT_END
  0
MTEXT
  5
A1D
330
1F
100
AcDbEntity
  8
文字
100
AcDbMText
 10
245.3794334940524
 20
138.8428917133901
 30
0.0
 40
2.0
 41
31.03349346991044
 71
     1
 72
     5
  1
{\fＭＳ Ｐゴシック|b0|i0|c0|p0;\U+6750\U+8CEA\U+FF1A\U+30B9\U+30C6\U+30F3\U+30EC\U+30B9\U+88FD}
 73
     1
 44
1.0
1001
ACAD
1000
ACAD_MTEXT_DEFINED_HEIGHT_BEGIN
1070
    46
1040
2.306833812679755
1000
ACAD_MTEXT_DEFINED_HEIGHT_END
  0
MTEXT
  5
A1E
330
1F
100
AcDbEntity
  8
文字
100
AcDbMText
 10
245.3794334940524
 20
130.5090576528301
 30
0.0
 40
2.0
 41
31.03349346991044
 71
     1
 72
     5
  1
{\fＭＳ Ｐゴシック|b0|i0|c0|p0;\U+4ED5\U+4E0A\U+FF1AHL}
 73
     1
 44
1.0
1001
ACAD
1000
ACAD_MTEXT_DEFINED_HEIGHT_BEGIN
1070
    46
1040
2.012004501688133
1000
ACAD_MTEXT_DEFINED_HEIGHT_END
  0
MTEXT
  5
A22
330
1F
100
AcDbEntity
  8
社名
100
AcDbMText
 10
236.0
 20
27.36191229983774
 30
0.0
 40
3.0
 41
46.0
 71
     1
 72
     5
  1
\fＭＳ Ｐゴシック|b0|i0|c0|p0;\U+682A\U+5F0F\U+4F1A\U+793E\U+FF21\U+FF33\U+FF33\U+FF29\U+FF33\U+FF34}
 73
     1
 44
1.0
1001
ACAD
1000
ACAD_MTEXT_DEFINED_HEIGHT_BEGIN
1070
    46
1040
3.375
1000
ACAD_MTEXT_DEFINED_HEIGHT_END
  0
MTEXT
  5
A24
330
1F
100
AcDbEntity
  8
文字
100
AcDbMText
 10
238.0774350305441
 20
40.58955921885172
 30
0.0
 40
2.5
 41
9.970036363636382
 71
     1
 72
     5
  1
{\fＭＳ Ｐゴシック|b0|i0|c0|p0;\U+7E2E\U+5C3A}
 73
     1
 44
1.0
1001
ACAD
1000
ACAD_MTEXT_DEFINED_HEIGHT_BEGIN
1070
    46
1040
2.8275
1000
ACAD_MTEXT_DEFINED_HEIGHT_END
  0
MTEXT
  5
A25
330
1F
100
AcDbEntity
  8
文字
100
AcDbMText
 10
251.2855836701089
 20
36.15844413562513
 30
0.0
 40
2.5
 41
28.36545556978234
 71
     1
 72
     5
  1
{\fＭＳ Ｐゴシック|b0|i0|c0|p0;\U+FF11\U+FF1A\U+FF11 }
 73
     1
 44
1.0
1001
ACAD
1000
ACAD_MTEXT_DEFINED_HEIGHT_BEGIN
1070
    46
1040
2.5
1000
ACAD_MTEXT_DEFINED_HEIGHT_END
  0
MTEXT
  5
DF8
330
1F
100
AcDbEntity
  8
文字
100
AcDbMText
 10
253.810188672227
 20
134.80617212146
 30
0.0
 40
2.0
 41
31.03349346991041
 71
     1
 72
     5
  1
{\fＭＳ Ｐゴシック|b0|i0|c0|p0;\U+FF08SUS304)}
 73
     1
 44
1.0
1001
ACAD
1000
ACAD_MTEXT_DEFINED_HEIGHT_BEGIN
1070
    46
1040
2.228085532074528
1000
ACAD_MTEXT_DEFINED_HEIGHT_END
  0
MTEXT
  5
13F5
330
1F
100
AcDbEntity
  8
文字
100
AcDbMText
 10
239.5379477351412
 20
143.0699637133901
 30
0.0
 40
2.0
 41
31.03349346991041
 71
     1
 72
     5
  1
{\fＭＳ Ｐゴシック|b0|i0|c0|p0;\U+30D9\U+30FC\U+30B9\U+90E8\U+5206}
 73
     1
 44
1.0
1001
ACAD
1000
ACAD_MTEXT_DEFINED_HEIGHT_BEGIN
1070
    46
1040
2.25
1000
ACAD_MTEXT_DEFINED_HEIGHT_END
  0
MTEXT
  5
27D9
330
1F
100
AcDbEntity
  8
文字
100
AcDbMText
 10
245.3794334940524
 20
112.1153164406629
 30
0.0
 40
2.0
 41
31.03349346991044
 71
     1
 72
     5
  1
{\fＭＳ Ｐゴシック|b0|i0|c0|p0;\U+6750\U+8CEA\U+FF1A\U+8EDF\U+8CEAPVC\P\U+30AC\U+30E9\U+30B9\U+7E4A\U+7DAD\U+5165\U+308A}
 73
     1
 44
1.0
1001
ACAD
1000
ACAD_MTEXT_DEFINED_HEIGHT_BEGIN
1070
    46
1040
6.178045933891877
1000
ACAD_MTEXT_DEFINED_HEIGHT_END
  0
MTEXT
  5
27DB
330
1F
100
AcDbEntity
  8
文字
100
AcDbMText
 10
239.5379477351412
 20
116.3877804626711
 30
0.0
 40
2.0
 41
31.03349346991041
 71
     1
 72
     5
  1
{\fＭＳ Ｐゴシック|b0|i0|c0|p0;\U+30BF\U+30A4\U+30E4\U+90E8\U+5206}
 73
     1
 44
1.0
1001
ACAD
1000
ACAD_MTEXT_DEFINED_HEIGHT_BEGIN
1070
    46
1040
2.25
1000
ACAD_MTEXT_DEFINED_HEIGHT_END
  0
MTEXT
  5
27DC
330
1F
100
AcDbEntity
  8
文字
100
AcDbMText
 10
243.6094939751413
 20
100.9622284160001
 30
0.0
 40
2.0
 41
31.03349346991041
 71
     1
 72
     5
  1
{\fＭＳ Ｐゴシック|b0|i0|c0|p0;\U+30AB\U+30E9\U+30FC\U+FF1A\U+FF13\U+8272}
 73
     1
 44
1.0
1001
ACAD
1000
ACAD_MTEXT_DEFINED_HEIGHT_BEGIN
1070
    46
1040
2.182
1000
ACAD_MTEXT_DEFINED_HEIGHT_END
  0
MTEXT
  5
27DD
330
1F
100
AcDbEntity
  8
文字
100
AcDbMText
 10
253.9999999999999
 20
97.18193114703462
 30
0.0
 40
2.0
 41
31.03349346991041
 71
     1
 72
     5
  1
{\fＭＳ Ｐゴシック|b0|i0|c0|p0;BL\U+3000\U+30D6\U+30E9\U+30C3\U+30AF\PCH\U+3000\U+30C1\U+30E3\U+30B3\U+30FC\U+30EB\PAS\U+3000\U+30A2\U+30C3\U+30B7\U+30E5}
 73
     1
 44
1.0
1001
ACAD
1000
ACAD_MTEXT_DEFINED_HEIGHT_BEGIN
1070
    46
1040
9.725204243257888
1000
ACAD_MTEXT_DEFINED_HEIGHT_END
  0
LINE
  5
27E4
330
1F
100
AcDbEntity
  8
枠
  6
Continuous
100
AcDbLine
 10
236.0
 20
51.88960476803794
 30
0.0
 11
281.0
 21
51.88960476803794
 31
0.0
  0
MTEXT
  5
27E5
330
1F
100
AcDbEntity
  8
文字
100
AcDbMText
 10
238.0774350305441
 20
50.58955921885172
 30
0.0
 40
2.5
 41
9.970036363636382
 71
     1
 72
     5
  1
{\fＭＳ Ｐゴシック|b0|i0|c0|p0;Date}
 73
     1
 44
1.0
1001
ACAD
1000
ACAD_MTEXT_DEFINED_HEIGHT_BEGIN
1070
    46
1040
2.5
1000
ACAD_MTEXT_DEFINED_HEIGHT_END
  0
MTEXT
  5
27E6
330
1F
100
AcDbEntity
  8
文字
100
AcDbMText
 10
246.1251641599999
 20
46.15844413562513
 30
0.0
 40
2.5
 41
32.59247095787819
 71
     1
 72
     5
  1
{\fＭＳ Ｐゴシック|b0|i0|c0|p0;2023\U+5E742\U+670827\U+65E5}
 73
     1
 44
1.0
1001
ACAD
1000
ACAD_MTEXT_DEFINED_HEIGHT_BEGIN
1070
    46
1040
2.627860447667875
1000
ACAD_MTEXT_DEFINED_HEIGHT_END
  0
MTEXT
  5
2C03
330
1F
100
AcDbEntity
  8
文字
100
AcDbMText
 10
236.0
 20
160.4307612374436
 30
0.0
 40
2.5
 41
45.0
 71
     1
 72
     5
  1
{\fＭＳ Ｐゴシック|b0|i0|c0|p0;\U+3000\U+FF30VR301}
 73
     1
 44
1.0
1001
ACAD
1000
ACAD_MTEXT_DEFINED_HEIGHT_BEGIN
1070
    46
1040
2.5
1000
ACAD_MTEXT_DEFINED_HEIGHT_END
  0
MTEXT
  5
2C09
330
1F
100
AcDbEntity
  8
社名
100
AcDbMText
 10
236.0
 20
19.58027172995764
 30
0.0
 40
5.0
 41
45.0
 71
     1
 72
     5
  1
{\fＭＳ Ｐゴシック|b0|i0|c0|p0;\T1.15;\W1.3;AFOLA}
 73
     1
 44
1.0
1001
ACAD
1000
ACAD_MTEXT_DEFINED_HEIGHT_BEGIN
1070
    46
1040
5.0
1000
ACAD_MTEXT_DEFINED_HEIGHT_END
  0
LINE
  5
3AD8
330
1F
100
AcDbEntity
  8
金属部分
  6
Continuous
100
AcDbLine
 10
99.00000000000003
 20
98.50000000000004
 30
0.0
 11
99.00000000000003
 21
107.5
 31
0.0
  0
LINE
  5
3CB1
330
1F
100
AcDbEntity
  8
金属部分
100
AcDbLine
 10
132.0
 20
104.4999999999999
 30
0.0
 11
132.0
 21
109.2499999999999
 31
0.0
210
0.0
220
1.0
230
0.0
  0
LINE
  5
3CB2
102
{ACAD_REACTORS
102
}
330
1F
100
AcDbEntity
  8
金属部分
100
AcDbLine
 10
131.0
 20
104.4999999999999
 30
0.0
 11
132.0
 21
104.4999999999999
 31
0.0
210
0.0
220
1.0
230
0.0
  0
LINE
  5
3CB3
330
1F
100
AcDbEntity
  8
金属部分
100
AcDbLine
 10
131.0
 20
109.2499999999999
 30
0.0
 11
131.0
 21
104.4999999999999
 31
0.0
210
0.0
220
1.0
230
0.0
  0
ARC
  5
3CB4
330
1F
100
AcDbEntity
  8
金属部分
100
AcDbCircle
 10
-130.75
 20
109.2499999999999
 30
0.0000000000000307
 40
0.2499999998100223
210
-2.000000000000000E-16
220
0.0
230
-1.0
100
AcDbArc
 50
356.4184020000297
 51
180.0
  0
LINE
  5
3CB5
330
1F
100
AcDbEntity
  8
金属部分
100
AcDbLine
 10
130.69707
 20
106.0937049999999
 30
0.0
 11
130.500488
 21
109.2343830000001
 31
0.0
210
0.0
220
1.0
230
0.0
  0
ARC
  5
3CB6
330
1F
100
AcDbEntity
  8
金属部分
100
AcDbCircle
 10
129.2
 20
105.9999999999999
 30
0.0
 40
1.500000000000003
100
AcDbArc
 50
270.0
 51
3.5815980000038
  0
LINE
  5
3CB7
330
1F
100
AcDbEntity
  8
金属部分
100
AcDbLine
 10
101.8
 20
104.4999999999999
 30
0.0
 11
121.4
 21
104.4999999999999
 31
0.0
210
0.0
220
1.0
230
0.0
  0
ARC
  5
3CB8
102
{ACAD_REACTORS
102
}
330
1F
100
AcDbEntity
  8
金属部分
100
AcDbCircle
 10
101.8
 20
105.9999999999999
 30
0.0
 40
1.500000000012368
100
AcDbArc
 50
176.4184019999997
 51
270.0
  0
LINE
  5
3CB9
330
1F
100
AcDbEntity
  8
金属部分
100
AcDbLine
 10
100.499511
 20
109.2343830000001
 30
0.0
 11
100.302929
 21
106.0937049999999
 31
0.0
210
0.0
220
1.0
230
0.0
  0
ARC
  5
3CBA
330
1F
100
AcDbEntity
  8
金属部分
100
AcDbCircle
 10
-100.25
 20
109.2499999999999
 30
0.0000000000000368
 40
0.2500000000073169
210
-2.000000000000000E-16
220
0.0
230
-1.0
100
AcDbArc
 50
0.0000000000000115
 51
183.5815979999598
  0
LINE
  5
3CBB
102
{ACAD_REACTORS
102
}
330
1F
100
AcDbEntity
  8
金属部分
100
AcDbLine
 10
100.0
 20
98.50000000000004
 30
0.0
 11
100.0
 21
109.2499999999999
 31
0.0
210
0.0
220
1.0
230
0.0
  0
LINE
  5
3CBC
330
1F
100
AcDbEntity
  8
金属部分
100
AcDbLine
 10
99.00000000000003
 20
98.50000000000004
 30
0.0
 11
100.0
 21
98.50000000000004
 31
0.0
210
0.0
220
1.0
230
0.0
  0
LINE
  5
3CBD
102
{ACAD_REACTORS
102
}
330
1F
100
AcDbEntity
  8
金属部分
100
AcDbLine
 10
99.00000000000003
 20
109.2499999999999
 30
0.0
 11
99.00000000000003
 21
98.50000000000004
 31
0.0
210
0.0
220
1.0
230
0.0
  0
ARC
  5
3CBE
330
1F
100
AcDbEntity
  8
金属部分
100
AcDbCircle
 10
100.25
 20
109.2499999999999
 30
0.0
 40
1.249999999984972
100
AcDbArc
 50
356.4184020000071
 51
180.0
  0
LINE
  5
3CBF
330
1F
100
AcDbEntity
  8
金属部分
100
AcDbLine
 10
101.300976
 20
106.0312350000001
 30
0.0
 11
101.497558
 21
109.1719130000001
 31
0.0
210
0.0
220
1.0
230
0.0
  0
ARC
  5
3CC0
330
1F
100
AcDbEntity
  8
金属部分
100
AcDbCircle
 10
-101.8
 20
105.9999999999999
 30
0.0000000000000365
 40
0.5000000000936464
210
-2.000000000000000E-16
220
0.0
230
-1.0
100
AcDbArc
 50
270.0
 51
3.581598000019541
  0
ARC
  5
3CC1
330
1F
100
AcDbEntity
  8
金属部分
100
AcDbCircle
 10
-129.2
 20
105.9999999999999
 30
0.000000000000031
 40
0.5000000000230111
210
-2.000000000000000E-16
220
0.0
230
-1.0
100
AcDbArc
 50
176.418401999996
 51
270.0
  0
LINE
  5
3CC2
330
1F
100
AcDbEntity
  8
金属部分
100
AcDbLine
 10
129.502441
 20
109.1719130000001
 30
0.0
 11
129.699023
 21
106.0312350000001
 31
0.0
210
0.0
220
1.0
230
0.0
  0
ARC
  5
3CC3
330
1F
100
AcDbEntity
  8
金属部分
100
AcDbCircle
 10
130.75
 20
109.2499999999999
 30
0.0
 40
1.250000000000502
100
AcDbArc
 50
0.0
 51
183.5815980000006
  0
ARC
  5
3CC7
330
1F
100
AcDbEntity
  8
金属部分
100
AcDbCircle
 10
-130.75
 20
109.2499999999999
 30
0.0000000000000307
 40
1.250000000000502
210
-2.000000000000000E-16
220
0.0
230
-1.0
100
AcDbArc
 50
5.599491000000588
 51
31.00758300000036
  0
ARC
  5
3CCC
330
1F
100
AcDbEntity
  8
金属部分
100
AcDbCircle
 10
-100.25
 20
109.2499999999999
 30
0.0000000000000368
 40
1.249999999984972
210
-2.000000000000000E-16
220
0.0
230
-1.0
100
AcDbArc
 50
148.9924169999975
 51
174.4005089999924
  0
HATCH
  5
3CCE
330
1F
100
AcDbEntity
  8
寸法
 62
    18
100
AcDbHatch
 10
0.0
 20
0.0
 30
330.0
210
0.0
220
0.0
230
1.0
  2
SOLID
 70
     1
 71
     1
 91
        3
 92
        7
 72
     1
 73
     1
 93
        2
 10
107.6499995
 20
108.15
 42
1.0
 10
108.1499995
 20
108.15
 42
1.0
 97
        1
330
3CCF
 92
        7
 72
     1
 73
     1
 93
        2
 10
115.2499995
 20
108.15
 42
1.0
 10
115.7499995
 20
108.15
 42
1.0
 97
        1
330
3CD0
 92
        7
 72
     1
 73
     1
 93
        2
 10
122.8499995
 20
108.15
 42
1.0
 10
123.3499995
 20
108.15
 42
1.0
 97
        1
330
3CD1
 75
     0
 76
     1
 47
0.0
 98
        3
 10
107.8766055863061
 20
108.385139897995
 10
115.3542917509626
 20
108.0877319255371
 10
122.8744647688274
 20
108.0877319255371
1001
ACAD
1010
0.0
1020
0.0
1030
0.0
1001
HATCHBACKGROUNDCOLOR
1071
-939524096
1000

1000

  0
CIRCLE
  5
3CCF
102
{ACAD_REACTORS
330
3CCE
102
}
330
1F
100
AcDbEntity
  8
可視
100
AcDbCircle
 10
107.8999995
 20
108.15
 30
0.0
 40
0.25
  0
CIRCLE
  5
3CD0
102
{ACAD_REACTORS
330
3CCE
102
}
330
1F
100
AcDbEntity
  8
可視
100
AcDbCircle
 10
115.4999995
 20
108.15
 30
0.0
 40
0.25
  0
CIRCLE
  5
3CD1
102
{ACAD_REACTORS
330
3CCE
102
}
330
1F
100
AcDbEntity
  8
可視
100
AcDbCircle
 10
123.0999995
 20
108.15
 30
0.0
 40
0.25
  0
LINE
  5
3D03
330
1F
100
AcDbEntity
  8
金属部分
  6
Continuous
100
AcDbLine
 10
101.8
 20
105.4999999999063
 30
-0.0000000000000568
 11
129.2
 21
105.4999999999769
 31
-0.0000000000000568
  0
LINE
  5
3D15
330
1F
100
AcDbEntity
  8
可視
  6
Continuous
100
AcDbLine
 10
102.9999995
 20
105.8000000000001
 30
0.0
 11
102.9999995000008
 21
105.4999999999094
 31
-0.0000000000000568
  0
LINE
  5
3D17
330
1F
100
AcDbEntity
  8
可視
  6
Continuous
100
AcDbLine
 10
127.9999995
 20
105.8000000000001
 30
0.0
 11
127.9999995000008
 21
105.4999999999738
 31
-0.0000000000000568
  0
HATCH
  5
3D1D
330
1F
100
AcDbEntity
  8
可視
  6
Continuous
100
AcDbHatch
 10
0.0
 20
0.0
 30
330.0
210
0.0
220
0.0
230
1.0
  2
ANSI31
 70
     0
 71
     0
 91
        1
 92
        7
 72
     0
 73
     1
 93
        4
 10
127.9999995000008
 20
105.4999999999738
 10
127.9999995
 20
105.8000000000001
 10
102.9999995
 20
105.8000000000001
 10
102.9999995000008
 20
105.4999999999094
 97
        0
 75
     0
 76
     1
 52
0.0
 41
1.0
 77
     0
 78
     1
 53
45.0
 43
-0.5780287942346831
 44
-41.87897447533534
 45
-2.245064030267288
 46
2.245064030267288
 79
     0
 47
0.0
 98
        1
 10
103.4704982931134
 20
105.7713257203325
1001
ACAD
1010
0.0
1020
0.0
1030
0.0
1001
HATCHBACKGROUNDCOLOR
1071
-939524096
1000

1000

  0
LINE
  5
3D3E
330
1F
100
AcDbEntity
  8
金属部分
  6
Continuous
100
AcDbLine
 10
122.0
 20
103.9999999999999
 30
0.0
 11
121.0
 21
103.9999999999999
 31
0.0
  0
LINE
  5
3D3F
330
1F
100
AcDbEntity
  8
TOS_M1
  6
Continuous
100
AcDbLine
 10
121.5
 20
102.9999999999999
 30
0.0
 11
121.0
 21
103.9999999999999
 31
0.0
  0
LINE
  5
3D40
330
1F
100
AcDbEntity
  8
TOS_M1
  6
Continuous
100
AcDbLine
 10
121.5
 20
102.9999999999999
 30
0.0
 11
122.0
 21
103.9999999999999
 31
0.0
  0
HATCH
  5
3D41
330
1F
100
AcDbEntity
  8
TOS_M1
  6
Continuous
100
AcDbHatch
 10
0.0
 20
0.0
 30
0.0
210
0.0
220
0.0
230
1.0
  2
SOLID
 70
     1
 71
     0
 91
        1
 92
        7
 72
     0
 73
     1
 93
        3
 10
121.5
 20
102.9999999999999
 10
122.0
 20
103.9999999999999
 10
121.0
 20
103.9999999999999
 97
        0
 75
     0
 76
     1
 47
0.0
 98
        1
 10
121.4396744030721
 20
103.7950794087064
1001
ACAD
1010
0.0
1020
0.0
1030
0.0
  0
LINE
  5
3D42
330
1F
100
AcDbEntity
  8
TOS_M1
  6
ACAD_ISO07W100
 48
0.5
100
AcDbLine
 10
121.5
 20
101.7499999999999
 30
0.0
 11
100.0
 21
102.0174660858332
 31
0.0
  0
MTEXT
  5
3D5C
330
1F
100
AcDbEntity
  8
TOS_M1
  6
Continuous
100
AcDbMText
 10
110.4567384100364
 20
102.8961861546882
 30
330.0
 40
2.0
 41
5.011594093714308
 71
     1
 72
     5
  1
{21.5}
 73
     1
 44
1.0
1001
ACAD
1000
ACAD_MTEXT_DEFINED_HEIGHT_BEGIN
1070
    46
1040
2.0
1000
ACAD_MTEXT_DEFINED_HEIGHT_END
  0
DIMENSION
  5
3D5D
102
{ACAD_REACTORS
102
}
102
{ACAD_XDICTIONARY
360
3D5E
102
}
330
1F
100
AcDbEntity
  8
寸法
  6
Continuous
100
AcDbDimension
  2
*D20
 10
89.00000000000003
 20
110.4993894895609
 30
0.0
 11
89.00000000000003
 21
103.875
 31
0.0
 70
   160
 71
     5
 42
11.99938948956088
  3
ISO-25
100
AcDbAlignedDimension
 13
99.00000000000003
 23
98.50000000000004
 33
0.0
 14
100.2890628127116
 24
110.4993894895609
 34
0.0
 50
90.0
100
AcDbRotatedDimension
  0
DIMENSION
  5
3D6D
102
{ACAD_XDICTIONARY
360
3D6E
102
}
330
1F
100
AcDbEntity
  8
寸法
  6
Continuous
100
AcDbDimension
  2
*D21
 10
99.00000000000003
 20
115.499389489561
 30
0.0
 11
115.4999995
 21
115.4993894895609
 31
0.0
 70
   160
 71
     5
 42
33.00000000000051
  3
ISO-25
100
AcDbAlignedDimension
 13
132.0000000000005
 23
109.2499999999999
 33
0.0
 14
99.00000000000003
 24
109.2499999999999
 34
0.0
100
AcDbRotatedDimension
  0
DIMENSION
  5
3D7D
102
{ACAD_REACTORS
102
}
102
{ACAD_XDICTIONARY
360
3D7E
102
}
330
1F
100
AcDbEntity
  8
寸法
  6
Continuous
100
AcDbDimension
  2
*D22
 10
100.0
 20
93.50000000000004
 30
330.0
 11
104.0311052811184
 21
93.50000000000007
 31
330.0
 70
   160
 71
     5
 42
1.0
  3
ISO-25
100
AcDbAlignedDimension
 13
99.00000000000003
 23
98.50000000000004
 33
0.0
 14
100.0
 24
98.50000000000004
 34
0.0
100
AcDbRotatedDimension
  0
DIMENSION
  5
3D8D
102
{ACAD_REACTORS
102
}
102
{ACAD_XDICTIONARY
360
3D8E
102
}
330
1F
100
AcDbEntity
  8
寸法
  6
Continuous
100
AcDbDimension
  2
*D23
 10
137.0
 20
110.4993894895764
 30
330.0
 11
137.0
 21
107.5738428210249
 31
330.0
 70
   160
 71
     5
 42
5.999389489576515
  3
ISO-25
100
AcDbAlignedDimension
 13
132.0
 23
104.4999999999999
 33
0.0
 14
130.7109371872879
 24
110.4993894895764
 34
0.0
 50
90.0
100
AcDbRotatedDimension
  0
DIMENSION
  5
3D9D
102
{ACAD_REACTORS
102
}
102
{ACAD_XDICTIONARY
360
3D9E
102
}
330
1F
100
AcDbEntity
  8
寸法
  6
Continuous
100
AcDbDimension
  2
*D24
 10
94.00000000000003
 20
104.4999999999876
 30
330.0
 11
94.00000000000003
 21
101.5
 31
330.0
 70
   160
 71
     5
 42
5.999999999987523
  3
ISO-25
100
AcDbAlignedDimension
 13
99.00000000000003
 23
98.50000000000004
 33
0.0
 14
101.8
 24
104.4999999999876
 34
0.0
 50
90.0
100
AcDbRotatedDimension
  0
LEADER
  5
3DD2
330
1F
100
AcDbEntity
  8
TOS_M1
  6
Continuous
100
AcDbLeader
  3
ISO-25
 76
     2
 10
125.9644569990791
 20
105.6209615628154
 30
330.0
 10
132.1664662845515
 20
94.78872081823663
 30
330.0
  0
MTEXT
  5
3DD3
330
1F
100
AcDbEntity
  8
文字
  6
Continuous
100
AcDbMText
 10
132.8632506771673
 20
95.6733804697926
 30
330.0
 40
1.5
 41
12.46447959569808
 71
     1
 72
     5
  1
{\fＭＳ Ｐゴシック|b0|i0|c0|p0;\C7;\U+4E21\U+9762\U+30C6\U+30FC\U+30D7}
 73
     1
 44
1.0
1001
ACAD
1000
ACAD_MTEXT_DEFINED_HEIGHT_BEGIN
1070
    46
1040
1.551136363636364
1000
ACAD_MTEXT_DEFINED_HEIGHT_END
  0
LINE
  5
3DDC
330
1F
100
AcDbEntity
  8
金属部分
  6
Continuous
100
AcDbLine
 10
121.4
 20
104.4999999999999
 30
0.0
 11
121.5
 21
104.5999999999999
 31
0.0
  0
LINE
  5
3DDF
330
1F
100
AcDbEntity
  8
金属部分
  6
Continuous
100
AcDbLine
 10
121.6
 20
104.4999999999999
 30
0.0
 11
121.5
 21
104.5999999999999
 31
0.0
  0
LINE
  5
3DE0
330
1F
100
AcDbEntity
  8
金属部分
100
AcDbLine
 10
121.6
 20
104.4999999999999
 30
0.0
 11
129.2
 21
104.4999999999999
 31
0.0
210
0.0
220
1.0
230
0.0
  0
LINE
  5
3ECB
330
1F
100
AcDbEntity
  8
樹脂部分
100
AcDbLine
 10
128.1499995
 20
109.2000000034849
 30
0.0
 11
128.1499995
 21
109.2500000034849
 31
0.0
210
0.0
220
1.0
230
0.0
  0
LINE
  5
3ECC
330
1F
100
AcDbEntity
  8
樹脂部分
100
AcDbLine
 10
129.4499995
 20
109.2000000034849
 30
0.0
 11
128.1499995
 21
109.2000000034849
 31
0.0
210
0.0
220
1.0
230
0.0
  0
LINE
  5
3ECD
330
1F
100
AcDbEntity
  8
樹脂部分
100
AcDbLine
 10
129.4499995
 20
108.2000000034849
 30
0.0
 11
129.4499995
 21
109.2000000034849
 31
0.0
210
0.0
220
1.0
230
0.0
  0
LINE
  5
3ECE
330
1F
100
AcDbEntity
  8
樹脂部分
100
AcDbLine
 10
129.1999995
 20
106.2368370034849
 30
0.0
 11
129.4499995
 21
108.2000000034849
 31
0.0
210
0.0
220
1.0
230
0.0
  0
ARC
  5
3ECF
330
1F
100
AcDbEntity
  8
樹脂部分
100
AcDbCircle
 10
128.7040045
 20
106.300000003485
 30
0.0
 40
0.500000000000025
100
AcDbArc
 50
270.0
 51
352.742699999995
  0
ARC
  5
3ED0
330
1F
100
AcDbEntity
  8
樹脂部分
100
AcDbCircle
 10
102.2913905
 20
106.300000003485
 30
0.0
 40
0.500000011959343
100
AcDbArc
 50
187.1250160000046
 51
270.0
  0
LINE
  5
3ED1
330
1F
100
AcDbEntity
  8
樹脂部分
100
AcDbLine
 10
101.5499995
 20
108.2000000034849
 30
0.0
 11
101.7952515
 21
106.2379820034849
 31
0.0
210
0.0
220
1.0
230
0.0
  0
LINE
  5
3ED2
330
1F
100
AcDbEntity
  8
樹脂部分
100
AcDbLine
 10
101.5499995
 20
109.2000000034849
 30
0.0
 11
101.5499995
 21
108.2000000034849
 31
0.0
210
0.0
220
1.0
230
0.0
  0
LINE
  5
3ED3
330
1F
100
AcDbEntity
  8
樹脂部分
100
AcDbLine
 10
102.8499995
 20
109.2000000034849
 30
0.0
 11
101.5499995
 21
109.2000000034849
 31
0.0
210
0.0
220
1.0
230
0.0
  0
LINE
  5
3ED4
330
1F
100
AcDbEntity
  8
樹脂部分
100
AcDbLine
 10
102.8499995
 20
109.2500000034849
 30
0.0
 11
102.8499995
 21
109.2000000034849
 31
0.0
210
0.0
220
1.0
230
0.0
  0
ARC
  5
3ED5
330
1F
100
AcDbEntity
  8
樹脂部分
100
AcDbCircle
 10
104.0999995
 20
109.2500000034849
 30
0.0
 40
1.250000000005367
100
AcDbArc
 50
0.0
 51
180.0
  0
LINE
  5
3ED6
330
1F
100
AcDbEntity
  8
樹脂部分
100
AcDbLine
 10
105.3499995
 20
109.2000000034849
 30
0.0
 11
105.3499995
 21
109.2500000034849
 31
0.0
210
0.0
220
1.0
230
0.0
  0
LINE
  5
3ED7
330
1F
100
AcDbEntity
  8
樹脂部分
100
AcDbLine
 10
106.6499995
 20
109.2000000034849
 30
0.0
 11
105.3499995
 21
109.2000000034849
 31
0.0
210
0.0
220
1.0
230
0.0
  0
LINE
  5
3ED8
330
1F
100
AcDbEntity
  8
樹脂部分
100
AcDbLine
 10
106.6499995
 20
109.2500000034849
 30
0.0
 11
106.6499995
 21
109.2000000034849
 31
0.0
210
0.0
220
1.0
230
0.0
  0
ARC
  5
3ED9
330
1F
100
AcDbEntity
  8
樹脂部分
100
AcDbCircle
 10
107.8999995
 20
109.2500000034849
 30
0.0
 40
1.250000000078599
100
AcDbArc
 50
0.0
 51
180.0
  0
LINE
  5
3EDA
330
1F
100
AcDbEntity
  8
樹脂部分
100
AcDbLine
 10
109.1499995
 20
109.2000000034849
 30
0.0
 11
109.1499995
 21
109.2500000034849
 31
0.0
210
0.0
220
1.0
230
0.0
  0
LINE
  5
3EDB
330
1F
100
AcDbEntity
  8
樹脂部分
100
AcDbLine
 10
110.4499995
 20
109.2000000034849
 30
0.0
 11
109.1499995
 21
109.2000000034849
 31
0.0
210
0.0
220
1.0
230
0.0
  0
LINE
  5
3EDC
330
1F
100
AcDbEntity
  8
樹脂部分
100
AcDbLine
 10
110.4499995
 20
109.2500000034849
 30
0.0
 11
110.4499995
 21
109.2000000034849
 31
0.0
210
0.0
220
1.0
230
0.0
  0
ARC
  5
3EDD
330
1F
100
AcDbEntity
  8
樹脂部分
100
AcDbCircle
 10
111.6999995
 20
109.2500000034849
 30
0.0
 40
1.2499999999998
100
AcDbArc
 50
0.0
 51
180.0
  0
LINE
  5
3EDE
330
1F
100
AcDbEntity
  8
樹脂部分
100
AcDbLine
 10
112.9499995
 20
109.2000000034849
 30
0.0
 11
112.9499995
 21
109.2500000034849
 31
0.0
210
0.0
220
1.0
230
0.0
  0
LINE
  5
3EDF
330
1F
100
AcDbEntity
  8
樹脂部分
100
AcDbLine
 10
114.2499995
 20
109.2000000034849
 30
0.0
 11
112.9499995
 21
109.2000000034849
 31
0.0
210
0.0
220
1.0
230
0.0
  0
LINE
  5
3EE0
330
1F
100
AcDbEntity
  8
樹脂部分
100
AcDbLine
 10
114.2499995
 20
109.2500000034849
 30
0.0
 11
114.2499995
 21
109.2000000034849
 31
0.0
210
0.0
220
1.0
230
0.0
  0
ARC
  5
3EE1
330
1F
100
AcDbEntity
  8
樹脂部分
100
AcDbCircle
 10
115.4999995
 20
109.2500000034849
 30
0.0
 40
1.250000000019126
100
AcDbArc
 50
0.0
 51
180.0
  0
LINE
  5
3EE2
330
1F
100
AcDbEntity
  8
樹脂部分
100
AcDbLine
 10
116.7499995
 20
109.2000000034849
 30
0.0
 11
116.7499995
 21
109.2500000034849
 31
0.0
210
0.0
220
1.0
230
0.0
  0
LINE
  5
3EE3
330
1F
100
AcDbEntity
  8
樹脂部分
100
AcDbLine
 10
118.0499995
 20
109.2000000034849
 30
0.0
 11
116.7499995
 21
109.2000000034849
 31
0.0
210
0.0
220
1.0
230
0.0
  0
LINE
  5
3EE4
330
1F
100
AcDbEntity
  8
樹脂部分
100
AcDbLine
 10
118.0499995
 20
109.2500000034849
 30
0.0
 11
118.0499995
 21
109.2000000034849
 31
0.0
210
0.0
220
1.0
230
0.0
  0
ARC
  5
3EE5
330
1F
100
AcDbEntity
  8
樹脂部分
100
AcDbCircle
 10
119.2999995
 20
109.2500000034849
 30
0.0
 40
1.250000000070179
100
AcDbArc
 50
0.0
 51
180.0
  0
LINE
  5
3EE6
330
1F
100
AcDbEntity
  8
樹脂部分
100
AcDbLine
 10
120.5499995
 20
109.2000000034849
 30
0.0
 11
120.5499995
 21
109.2500000034849
 31
0.0
210
0.0
220
1.0
230
0.0
  0
LINE
  5
3EE7
330
1F
100
AcDbEntity
  8
樹脂部分
100
AcDbLine
 10
121.8499995
 20
109.2000000034849
 30
0.0
 11
120.5499995
 21
109.2000000034849
 31
0.0
210
0.0
220
1.0
230
0.0
  0
LINE
  5
3EE8
330
1F
100
AcDbEntity
  8
樹脂部分
100
AcDbLine
 10
121.8499995
 20
109.2500000034849
 30
0.0
 11
121.8499995
 21
109.2000000034849
 31
0.0
210
0.0
220
1.0
230
0.0
  0
ARC
  5
3EE9
330
1F
100
AcDbEntity
  8
樹脂部分
100
AcDbCircle
 10
123.0999995
 20
109.2500000034849
 30
0.0
 40
1.250000000046727
100
AcDbArc
 50
0.0
 51
180.0
  0
LINE
  5
3EEA
330
1F
100
AcDbEntity
  8
樹脂部分
100
AcDbLine
 10
124.3499995
 20
109.2000000034849
 30
0.0
 11
124.3499995
 21
109.2500000034849
 31
0.0
210
0.0
220
1.0
230
0.0
  0
LINE
  5
3EEB
330
1F
100
AcDbEntity
  8
樹脂部分
100
AcDbLine
 10
125.6499995
 20
109.2000000034849
 30
0.0
 11
124.3499995
 21
109.2000000034849
 31
0.0
210
0.0
220
1.0
230
0.0
  0
LINE
  5
3EEC
330
1F
100
AcDbEntity
  8
樹脂部分
100
AcDbLine
 10
125.6499995
 20
109.2500000034849
 30
0.0
 11
125.6499995
 21
109.2000000034849
 31
0.0
210
0.0
220
1.0
230
0.0
  0
ARC
  5
3EED
330
1F
100
AcDbEntity
  8
樹脂部分
100
AcDbCircle
 10
126.8999995
 20
109.2500000034849
 30
0.0
 40
1.250000000000568
100
AcDbArc
 50
0.0
 51
180.0
  0
HATCH
  5
3EEE
330
1F
100
AcDbEntity
  8
寸法
 62
    18
100
AcDbHatch
 10
0.0
 20
0.0
 30
330.0
210
0.0
220
0.0
230
1.0
  2
SOLID
 70
     1
 71
     1
 91
        3
 92
        7
 72
     1
 73
     1
 93
        2
 10
107.6476974999999
 20
108.150000003485
 42
1.0
 10
108.1476974999999
 20
108.150000003485
 42
1.0
 97
        1
330
3EEF
 92
        7
 72
     1
 73
     1
 93
        2
 10
115.2476974999999
 20
108.150000003485
 42
1.0
 10
115.7476974999999
 20
108.150000003485
 42
1.0
 97
        1
330
3EF0
 92
        7
 72
     1
 73
     1
 93
        2
 10
122.8476974999999
 20
108.150000003485
 42
1.0
 10
123.3476974999999
 20
108.150000003485
 42
1.0
 97
        1
330
3EF1
 75
     0
 76
     1
 47
0.0
 98
        3
 10
107.874303586306
 20
108.3851399014799
 10
115.3519897509625
 20
108.087731929022
 10
122.8721627688274
 20
108.087731929022
1001
ACAD
1010
0.0
1020
0.0
1030
0.0
1001
HATCHBACKGROUNDCOLOR
1071
-939524096
1000

1000

  0
CIRCLE
  5
3EEF
102
{ACAD_REACTORS
330
3EEE
102
}
330
1F
100
AcDbEntity
  8
可視
100
AcDbCircle
 10
107.8976974999999
 20
108.150000003485
 30
0.0
 40
0.25
  0
CIRCLE
  5
3EF0
102
{ACAD_REACTORS
330
3EEE
102
}
330
1F
100
AcDbEntity
  8
可視
100
AcDbCircle
 10
115.4976974999999
 20
108.150000003485
 30
0.0
 40
0.25
  0
CIRCLE
  5
3EF1
102
{ACAD_REACTORS
330
3EEE
102
}
330
1F
100
AcDbEntity
  8
可視
100
AcDbCircle
 10
123.0976974999999
 20
108.150000003485
 30
0.0
 40
0.25
  0
LINE
  5
3EF3
330
1F
100
AcDbEntity
  8
樹脂部分
100
AcDbLine
 10
128.7040045
 20
105.800000003485
 30
0.0
 11
127.9999995
 21
105.800000003485
 31
0.0000000000001137
  0
LINE
  5
3EF4
330
1F
100
AcDbEntity
  8
硬質樹脂部分
  6
Continuous
100
AcDbLine
 10
102.2913905
 20
105.7999999915257
 30
0.0
 11
102.9999995
 21
105.8000000000001
 31
0.0
  0
LINE
  5
3EF5
330
1F
100
AcDbEntity
  8
硬質樹脂部分
  6
Continuous
100
AcDbLine
 10
102.9999995
 20
105.8000000000001
 30
0.0
 11
127.9999995
 21
105.800000003485
 31
0.0000000000001137
  0
ENDSEC
  0
SECTION
  2
OBJECTS
  0
DICTIONARY
  5
C
330
0
100
AcDbDictionary
281
     1
  3
ACAD_DETAILVIEWSTYLE
350
A4E
  3
ACAD_GROUP
350
D
  3
ACAD_IMAGE_VARS
350
96F
  3
ACAD_LAYOUT
350
1A
  3
ACAD_MLINESTYLE
350
17
  3
ACAD_PLOTSETTINGS
350
19
  3
ACAD_PLOTSTYLENAME
350
E
  3
ACAD_SCALELIST
350
935
  3
ACAD_SECTIONVIEWSTYLE
350
A4F
  3
AcDbVariableDictionary
350
3E1
  3
APPDATA
350
96E
  3
DimOffsetDictionary
350
14C9
  3
DWGPROPS
350
3EF6
  0
DICTIONARY
  5
970
330
2
100
AcDbDictionary
280
     1
281
     1
  3
ACAD_LAYERSTATES
360
971
  3
ACLYDICTIONARY
360
34A5
  0
DICTIONARY
  5
A87
330
A86
100
AcDbDictionary
280
     1
281
     1
  3
ADSK_XREC_LAYER_RECONCILED
360
A88
  0
DICTIONARY
  5
A8B
330
A8A
100
AcDbDictionary
280
     1
281
     1
  3
ADSK_XREC_LAYER_RECONCILED
360
A8C
  0
DICTIONARY
  5
3D19
330
1F
100
AcDbDictionary
280
     1
281
     1
  3
ACAD_SORTENTS
360
3D1A
  0
DICTIONARY
  5
3D5E
330
3D5D
100
AcDbDictionary
280
     1
281
     1
  0
DICTIONARY
  5
3D6E
330
3D6D
100
AcDbDictionary
280
     1
281
     1
  0
DICTIONARY
  5
3D7E
330
3D7D
100
AcDbDictionary
280
     1
281
     1
  0
DICTIONARY
  5
3D8E
330
3D8D
100
AcDbDictionary
280
     1
281
     1
  0
DICTIONARY
  5
3D9E
330
3D9D
100
AcDbDictionary
280
     1
281
     1
  0
DICTIONARY
  5
A4E
102
{ACAD_REACTORS
330
C
102
}
330
C
100
AcDbDictionary
281
     1
  0
DICTIONARY
  5
D
102
{ACAD_REACTORS
330
C
102
}
330
C
100
AcDbDictionary
281
     1
  0
RASTERVARIABLES
  5
96F
102
{ACAD_REACTORS
330
C
102
}
330
C
100
AcDbRasterVariables
 90
        0
 70
     1
 71
     1
 72
     1
  0
DICTIONARY
  5
1A
102
{ACAD_REACTORS
330
C
102
}
330
C
100
AcDbDictionary
281
     1
  3
Model
350
22
  3
ﾚｲｱｳﾄ1
350
1E
  3
ﾚｲｱｳﾄ2
350
26
  0
DICTIONARY
  5
17
102
{ACAD_REACTORS
330
C
102
}
330
C
100
AcDbDictionary
281
     1
  3
Standard
350
18
  0
DICTIONARY
  5
19
102
{ACAD_REACTORS
330
C
102
}
330
C
100
AcDbDictionary
281
     1
  0
ACDBDICTIONARYWDFLT
  5
E
102
{ACAD_REACTORS
330
C
102
}
330
C
100
AcDbDictionary
281
     1
  3
Normal
350
F
100
AcDbDictionaryWithDefault
340
F
  0
DICTIONARY
  5
935
102
{ACAD_REACTORS
330
C
102
}
330
C
100
AcDbDictionary
281
     1
  3
A0
350
936
  3
A1
350
937
  3
A2
350
938
  3
A3
350
939
  3
A4
350
93A
  3
A5
350
93B
  3
A6
350
93C
  3
A7
350
93D
  3
A8
350
93E
  3
A9
350
93F
  3
B0
350
940
  3
B1
350
941
  3
B2
350
942
  3
B3
350
943
  3
B4
350
944
  3
B5
350
945
  3
B6
350
946
  3
B7
350
947
  3
B8
350
948
  3
B9
350
949
  3
C0
350
94A
  3
C1
350
94B
  3
C2
350
94C
  3
C3
350
94D
  3
C4
350
94E
  3
C5
350
94F
  3
C6
350
950
  3
C7
350
951
  3
C8
350
952
  3
C9
350
953
  3
D0
350
954
  3
D1
350
955
  3
D2
350
956
  0
DICTIONARY
  5
A4F
102
{ACAD_REACTORS
330
C
102
}
330
C
100
AcDbDictionary
281
     1
  0
DICTIONARY
  5
3E1
102
{ACAD_REACTORS
330
C
102
}
330
C
100
AcDbDictionary
281
     1
  3
SORTENTS
350
3E2
  0
DICTIONARY
  5
96E
102
{ACAD_REACTORS
330
C
102
}
330
C
100
AcDbDictionary
281
     1
  0
DICTIONARY
  5
14C9
102
{ACAD_REACTORS
330
C
102
}
330
C
100
AcDbDictionary
281
     1
  3
DIMRAILANGLE
350
3857
  3
DIMRAILFIRSTOFFSET
350
3855
  3
DIMRAILOFFSET
350
3856
  3
DIMRAILSENABLED
350
3858
  0
XRECORD
  5
3EF6
102
{ACAD_REACTORS
330
C
102
}
330
C
100
AcDbXrecord
280
     1
  1
DWGPROPS COOKIE
  2

  3

  4

  6

  7

  8
営業企画A
  9

300
=
301
=
302
=
303
=
304
=
305
=
306
=
307
=
308
=
309
=
 40
0.0
 41
2453866.182479954
 42
2459998.118118414
  1

 90
        0
  0
DICTIONARY
  5
971
102
{ACAD_REACTORS
330
970
102
}
330
970
100
AcDbDictionary
281
     1
  0
DICTIONARY
  5
34A5
102
{ACAD_REACTORS
330
970
102
}
330
970
100
AcDbDictionary
281
     1
1001
ACAD
1000
<All
  0
XRECORD
  5
A88
102
{ACAD_REACTORS
330
A87
102
}
330
A87
100
AcDbXrecord
280
     1
290
     1
  0
XRECORD
  5
A8C
102
{ACAD_REACTORS
330
A8B
102
}
330
A8B
100
AcDbXrecord
280
     1
290
     1
  0
SORTENTSTABLE
  5
3D1A
102
{ACAD_REACTORS
330
3D19
102
}
330
3D19
100
AcDbSortentsTable
330
1F
331
0
  5
3CC6
331
3CB8
  5
3CB9
331
3CB9
  5
3CBA
331
3CBA
  5
3CBB
331
3CBB
  5
3CBC
331
3CBC
  5
3CBD
331
3CBD
  5
3CBE
331
3CBE
  5
3CC0
331
3CBF
  5
3CC1
331
3CC0
  5
3CC2
331
3CC1
  5
3CC3
331
3CC2
  5
3CC4
331
3CC3
  5
3CC5
331
3CC7
  5
3CC9
331
3CCC
  5
3CCE
331
3CCE
  5
3CD0
331
3CCF
  5
3CD1
331
3CD0
  5
3CD2
331
3CD1
  5
3CD3
331
3D03
  5
3D17
331
3D15
  5
3D1C
331
3D17
  5
3D1E
331
3D1D
  5
3D15
331
3D3E
  5
3D3F
331
3D3F
  5
3D40
331
3D40
  5
3D41
331
3D41
  5
3D42
331
3D42
  5
3D43
331
3D5C
  5
3D5D
331
3D5D
  5
3D6D
331
3D6D
  5
3D7D
331
3D7D
  5
3D8D
331
3D8D
  5
3D9D
331
3D9D
  5
3DAD
331
3DD2
  5
3DD3
331
3DD3
  5
3DD4
331
3DDC
  5
3DDD
331
3DDF
  5
3DE0
331
3DE0
  5
3CB8
  0
LAYOUT
  5
22
102
{ACAD_REACTORS
330
1A
102
}
330
1A
100
AcDbPlotSettings
  1

  2
RICOH IPSiO NX850 RPCS
  4
A4
  6

 40
5.873749732971191
 41
5.873747825622559
 42
5.873748779296875
 43
5.873748779296875
 44
209.9733276367188
 45
296.9259948730469
 46
56.21
 47
68.71
 48
0.0
 49
0.0
140
0.0
141
0.0
142
1.0
143
1.0
 70
 11940
 72
     1
 73
     1
 74
     0
  7

 75
     0
147
1.0
148
-86.56519164515282
149
-171.1912652483589
100
AcDbLayout
  1
Model
 70
     1
 71
     0
 10
0.0
 20
0.0
 11
12.0
 21
9.0
 12
0.0
 22
0.0
 32
0.0
 14
0.0
 24
0.0
 34
-0.0000000000000571
 15
292.0
 25
205.0
 35
330.0
146
0.0
 13
0.0
 23
0.0
 33
0.0
 16
1.0
 26
0.0
 36
0.0
 17
0.0
 27
1.0
 37
0.0
 76
     0
330
1F
331
934
  0
LAYOUT
  5
1E
102
{ACAD_REACTORS
330
1A
102
}
330
1A
100
AcDbPlotSettings
  1

  2
RICOH IPSiO NX850 RPCS
  4

  6

 40
0.0
 41
0.0
 42
0.0
 43
0.0
 44
0.0
 45
0.0
 46
0.0
 47
0.0
 48
0.0
 49
0.0
140
0.0
141
0.0
142
1.0
143
1.0
 70
   688
 72
     0
 73
     0
 74
     5
  7

 75
    16
147
1.0
148
0.0
149
0.0
100
AcDbLayout
  1
ﾚｲｱｳﾄ1
 70
     1
 71
     1
 10
0.0
 20
0.0
 11
420.0
 21
297.0
 12
0.0
 22
0.0
 32
0.0
 14
1.000000000000000E+20
 24
1.000000000000000E+20
 34
1.000000000000000E+20
 15
-1.000000000000000E+20
 25
-1.000000000000000E+20
 35
-1.000000000000000E+20
146
0.0
 13
0.0
 23
0.0
 33
0.0
 16
1.0
 26
0.0
 36
0.0
 17
0.0
 27
1.0
 37
0.0
 76
     0
330
1B
  0
LAYOUT
  5
26
102
{ACAD_REACTORS
330
1A
102
}
330
1A
100
AcDbPlotSettings
  1

  2
RICOH IPSiO NX850 RPCS
  4

  6

 40
0.0
 41
0.0
 42
0.0
 43
0.0
 44
0.0
 45
0.0
 46
0.0
 47
0.0
 48
0.0
 49
0.0
140
0.0
141
0.0
142
1.0
143
1.0
 70
   688
 72
     0
 73
     0
 74
     5
  7

 75
    16
147
1.0
148
0.0
149
0.0
100
AcDbLayout
  1
ﾚｲｱｳﾄ2
 70
     1
 71
     2
 10
0.0
 20
0.0
 11
12.0
 21
9.0
 12
0.0
 22
0.0
 32
0.0
 14
0.0
 24
0.0
 34
0.0
 15
0.0
 25
0.0
 35
0.0
146
0.0
 13
0.0
 23
0.0
 33
0.0
 16
1.0
 26
0.0
 36
0.0
 17
0.0
 27
1.0
 37
0.0
 76
     0
330
23
  0
MLINESTYLE
  5
18
102
{ACAD_REACTORS
330
17
102
}
330
17
100
AcDbMlineStyle
  2
STANDARD
 70
     0
  3

 62
   256
 51
90.0
 52
90.0
 71
     2
 49
0.5
 62
   256
  6
BYLAYER
 49
-0.5
 62
   256
  6
BYLAYER
  0
ACDBPLACEHOLDER
  5
F
102
{ACAD_REACTORS
330
E
102
}
330
E
  0
SCALE
  5
936
102
{ACAD_REACTORS
330
935
102
}
330
935
100
AcDbScale
 70
     0
300
1:1
140
1.0
141
1.0
290
     1
  0
SCALE
  5
937
102
{ACAD_REACTORS
330
935
102
}
330
935
100
AcDbScale
 70
     0
300
1:2
140
1.0
141
2.0
290
     0
  0
SCALE
  5
938
102
{ACAD_REACTORS
330
935
102
}
330
935
100
AcDbScale
 70
     0
300
1:4
140
1.0
141
4.0
290
     0
  0
SCALE
  5
939
102
{ACAD_REACTORS
330
935
102
}
330
935
100
AcDbScale
 70
     0
300
1:5
140
1.0
141
5.0
290
     0
  0
SCALE
  5
93A
102
{ACAD_REACTORS
330
935
102
}
330
935
100
AcDbScale
 70
     0
300
1:8
140
1.0
141
8.0
290
     0
  0
SCALE
  5
93B
102
{ACAD_REACTORS
330
935
102
}
330
935
100
AcDbScale
 70
     0
300
1:10
140
1.0
141
10.0
290
     0
  0
SCALE
  5
93C
102
{ACAD_REACTORS
330
935
102
}
330
935
100
AcDbScale
 70
     0
300
1:16
140
1.0
141
16.0
290
     0
  0
SCALE
  5
93D
102
{ACAD_REACTORS
330
935
102
}
330
935
100
AcDbScale
 70
     0
300
1:20
140
1.0
141
20.0
290
     0
  0
SCALE
  5
93E
102
{ACAD_REACTORS
330
935
102
}
330
935
100
AcDbScale
 70
     0
300
1:30
140
1.0
141
30.0
290
     0
  0
SCALE
  5
93F
102
{ACAD_REACTORS
330
935
102
}
330
935
100
AcDbScale
 70
     0
300
1:40
140
1.0
141
40.0
290
     0
  0
SCALE
  5
940
102
{ACAD_REACTORS
330
935
102
}
330
935
100
AcDbScale
 70
     0
300
1:50
140
1.0
141
50.0
290
     0
  0
SCALE
  5
941
102
{ACAD_REACTORS
330
935
102
}
330
935
100
AcDbScale
 70
     0
300
1:100
140
1.0
141
100.0
290
     0
  0
SCALE
  5
942
102
{ACAD_REACTORS
330
935
102
}
330
935
100
AcDbScale
 70
     0
300
2:1
140
2.0
141
1.0
290
     0
  0
SCALE
  5
943
102
{ACAD_REACTORS
330
935
102
}
330
935
100
AcDbScale
 70
     0
300
4:1
140
4.0
141
1.0
290
     0
  0
SCALE
  5
944
102
{ACAD_REACTORS
330
935
102
}
330
935
100
AcDbScale
 70
     0
300
8:1
140
8.0
141
1.0
290
     0
  0
SCALE
  5
945
102
{ACAD_REACTORS
330
935
102
}
330
935
100
AcDbScale
 70
     0
300
10:1
140
10.0
141
1.0
290
     0
  0
SCALE
  5
946
102
{ACAD_REACTORS
330
935
102
}
330
935
100
AcDbScale
 70
     0
300
100:1
140
100.0
141
1.0
290
     0
  0
SCALE
  5
947
102
{ACAD_REACTORS
330
935
102
}
330
935
100
AcDbScale
 70
     0
300
1/128" = 1'-0"
140
0.0078125
141
12.0
290
     0
  0
SCALE
  5
948
102
{ACAD_REACTORS
330
935
102
}
330
935
100
AcDbScale
 70
     0
300
1/64" = 1'-0"
140
0.015625
141
12.0
290
     0
  0
SCALE
  5
949
102
{ACAD_REACTORS
330
935
102
}
330
935
100
AcDbScale
 70
     0
300
1/32" = 1'-0"
140
0.03125
141
12.0
290
     0
  0
SCALE
  5
94A
102
{ACAD_REACTORS
330
935
102
}
330
935
100
AcDbScale
 70
     0
300
1/16" = 1'-0"
140
0.0625
141
12.0
290
     0
  0
SCALE
  5
94B
102
{ACAD_REACTORS
330
935
102
}
330
935
100
AcDbScale
 70
     0
300
3/32" = 1'-0"
140
0.09375
141
12.0
290
     0
  0
SCALE
  5
94C
102
{ACAD_REACTORS
330
935
102
}
330
935
100
AcDbScale
 70
     0
300
1/8" = 1'-0"
140
0.125
141
12.0
290
     0
  0
SCALE
  5
94D
102
{ACAD_REACTORS
330
935
102
}
330
935
100
AcDbScale
 70
     0
300
3/16" = 1'-0"
140
0.1875
141
12.0
290
     0
  0
SCALE
  5
94E
102
{ACAD_REACTORS
330
935
102
}
330
935
100
AcDbScale
 70
     0
300
1/4" = 1'-0"
140
0.25
141
12.0
290
     0
  0
SCALE
  5
94F
102
{ACAD_REACTORS
330
935
102
}
330
935
100
AcDbScale
 70
     0
300
3/8" = 1'-0"
140
0.375
141
12.0
290
     0
  0
SCALE
  5
950
102
{ACAD_REACTORS
330
935
102
}
330
935
100
AcDbScale
 70
     0
300
1/2" = 1'-0"
140
0.5
141
12.0
290
     0
  0
SCALE
  5
951
102
{ACAD_REACTORS
330
935
102
}
330
935
100
AcDbScale
 70
     0
300
3/4" = 1'-0"
140
0.75
141
12.0
290
     0
  0
SCALE
  5
952
102
{ACAD_REACTORS
330
935
102
}
330
935
100
AcDbScale
 70
     0
300
1" = 1'-0"
140
1.0
141
12.0
290
     0
  0
SCALE
  5
953
102
{ACAD_REACTORS
330
935
102
}
330
935
100
AcDbScale
 70
     0
300
1-1/2" = 1'-0"
140
1.5
141
12.0
290
     0
  0
SCALE
  5
954
102
{ACAD_REACTORS
330
935
102
}
330
935
100
AcDbScale
 70
     0
300
3" = 1'-0"
140
3.0
141
12.0
290
     0
  0
SCALE
  5
955
102
{ACAD_REACTORS
330
935
102
}
330
935
100
AcDbScale
 70
     0
300
6" = 1'-0"
140
6.0
141
12.0
290
     0
  0
SCALE
  5
956
102
{ACAD_REACTORS
330
935
102
}
330
935
100
AcDbScale
 70
     0
300
1'-0" = 1'-0"
140
12.0
141
12.0
290
     0
  0
DICTIONARYVAR
  5
3E2
102
{ACAD_REACTORS
330
3E1
102
}
330
3E1
100
DictionaryVariables
280
     0
  1
96
  0
DICTIONARYVAR
  5
3857
102
{ACAD_REACTORS
330
14C9
102
}
330
14C9
100
DictionaryVariables
280
     0
  1
0.261799
  0
DICTIONARYVAR
  5
3855
102
{ACAD_REACTORS
330
14C9
102
}
330
14C9
100
DictionaryVariables
280
     0
  1
10.000000
  0
DICTIONARYVAR
  5
3856
102
{ACAD_REACTORS
330
14C9
102
}
330
14C9
100
DictionaryVariables
280
     0
  1
6.000000
  0
DICTIONARYVAR
  5
3858
102
{ACAD_REACTORS
330
14C9
102
}
330
14C9
100
DictionaryVariables
280
     0
  1
0
  0
ENDSEC
  0
EOF
