  0
SECTION
  2
HEADER
  9
$ACADVER
  1
AC1024
  9
$ACADMAINTVER
 70
     6
  9
$DWGCODEPAGE
  3
ANSI_932
  9
$LASTSAVEDBY
  1
営業企画A
  9
$INSBASE
 10
0.0
 20
0.0
 30
0.0
  9
$EXTMIN
 10
57.52672970762251
 20
291.3708675780121
 30
0.0
  9
$EXTMAX
 10
349.5267297076225
 20
496.3708675780121
 30
0.0
  9
$LIMMIN
 10
0.0
 20
0.0
  9
$LIMMAX
 10
297.0
 20
210.0
  9
$ORTHOMODE
 70
     1
  9
$REGENMODE
 70
     1
  9
$FILLMODE
 70
     1
  9
$QTEXTMODE
 70
     0
  9
$MIRRTEXT
 70
     1
  9
$LTSCALE
 40
1.0
  9
$ATTMODE
 70
     1
  9
$TEXTSIZE
 40
2.5
  9
$TRACEWID
 40
1.0
  9
$TEXTSTYLE
  7
Standard
  9
$CLAYER
  8
硬質樹脂
  9
$CELTYPE
  6
Continuous
  9
$CECOLOR
 62
   256
  9
$CELTSCALE
 40
1.0
  9
$DISPSILH
 70
     0
  9
$DIMSCALE
 40
1.0
  9
$DIMASZ
 40
2.5
  9
$DIMEXO
 40
0.625
  9
$DIMDLI
 40
3.75
  9
$DIMRND
 40
0.0
  9
$DIMDLE
 40
0.0
  9
$DIMEXE
 40
1.25
  9
$DIMTP
 40
0.0
  9
$DIMTM
 40
0.0
  9
$DIMTXT
 40
2.5
  9
$DIMCEN
 40
2.5
  9
$DIMTSZ
 40
0.0
  9
$DIMTOL
 70
     0
  9
$DIMLIM
 70
     0
  9
$DIMTIH
 70
     1
  9
$DIMTOH
 70
     1
  9
$DIMSE1
 70
     0
  9
$DIMSE2
 70
     0
  9
$DIMTAD
 70
     1
  9
$DIMZIN
 70
     8
  9
$DIMBLK
  1

  9
$DIMASO
 70
     1
  9
$DIMSHO
 70
     1
  9
$DIMPOST
  1

  9
$DIMAPOST
  1

  9
$DIMALT
 70
     0
  9
$DIMALTD
 70
     3
  9
$DIMALTF
 40
0.03937007874016
  9
$DIMLFAC
 40
1.0
  9
$DIMTOFL
 70
     0
  9
$DIMTVP
 40
0.0
  9
$DIMTIX
 70
     0
  9
$DIMSOXD
 70
     0
  9
$DIMSAH
 70
     0
  9
$DIMBLK1
  1

  9
$DIMBLK2
  1

  9
$DIMSTYLE
  2
ISO-25
  9
$DIMCLRD
 70
     0
  9
$DIMCLRE
 70
     0
  9
$DIMCLRT
 70
     0
  9
$DIMTFAC
 40
1.0
  9
$DIMGAP
 40
0.625
  9
$DIMJUST
 70
     0
  9
$DIMSD1
 70
     0
  9
$DIMSD2
 70
     0
  9
$DIMTOLJ
 70
     0
  9
$DIMTZIN
 70
     8
  9
$DIMALTZ
 70
     0
  9
$DIMALTTZ
 70
     0
  9
$DIMUPT
 70
     1
  9
$DIMDEC
 70
     2
  9
$DIMTDEC
 70
     2
  9
$DIMALTU
 70
     2
  9
$DIMALTTD
 70
     3
  9
$DIMTXSTY
  7
Standard
  9
$DIMAUNIT
 70
     0
  9
$DIMADEC
 70
     0
  9
$DIMALTRND
 40
0.0
  9
$DIMAZIN
 70
     0
  9
$DIMDSEP
 70
    46
  9
$DIMATFIT
 70
     3
  9
$DIMFRAC
 70
     0
  9
$DIMLDRBLK
  1

  9
$DIMLUNIT
 70
     2
  9
$DIMLWD
 70
    -2
  9
$DIMLWE
 70
    -2
  9
$DIMTMOVE
 70
     2
  9
$DIMFXL
 40
1.0
  9
$DIMFXLON
 70
     0
  9
$DIMJOGANG
 40
0.7853981633974483
  9
$DIMTFILL
 70
     0
  9
$DIMTFILLCLR
 70
     0
  9
$DIMARCSYM
 70
     0
  9
$DIMLTYPE
  6

  9
$DIMLTEX1
  6

  9
$DIMLTEX2
  6

  9
$DIMTXTDIRECTION
 70
     0
  9
$LUNITS
 70
     2
  9
$LUPREC
 70
     4
  9
$SKETCHINC
 40
1.0
  9
$FILLETRAD
 40
0.5
  9
$AUNITS
 70
     0
  9
$AUPREC
 70
     0
  9
$MENU
  1
.
  9
$ELEVATION
 40
0.0
  9
$PELEVATION
 40
0.0
  9
$THICKNESS
 40
0.0
  9
$LIMCHECK
 70
     0
  9
$CHAMFERA
 40
10.0
  9
$CHAMFERB
 40
10.0
  9
$CHAMFERC
 40
20.0
  9
$CHAMFERD
 40
0.0
  9
$SKPOLY
 70
     0
  9
$TDCREATE
 40
2453866.557479954
  9
$TDUCREATE
 40
2453866.182479954
  9
$TDUPDATE
 40
2459762.692269144
  9
$TDUUPDATE
 40
2459762.317269144
  9
$TDINDWG
 40
0.5335274769
  9
$TDUSRTIMER
 40
0.0018593519
  9
$USRTIMER
 70
     1
  9
$ANGBASE
 50
0.0
  9
$ANGDIR
 70
     0
  9
$PDMODE
 70
     0
  9
$PDSIZE
 40
0.0
  9
$PLINEWID
 40
0.0
  9
$SPLFRAME
 70
     0
  9
$SPLINETYPE
 70
     6
  9
$SPLINESEGS
 70
     8
  9
$HANDSEED
  5
2C6A
  9
$SURFTAB1
 70
     6
  9
$SURFTAB2
 70
     6
  9
$SURFTYPE
 70
     6
  9
$SURFU
 70
     6
  9
$SURFV
 70
     6
  9
$UCSBASE
  2

  9
$UCSNAME
  2

  9
$UCSORG
 10
0.0
 20
0.0
 30
0.0
  9
$UCSXDIR
 10
1.0
 20
0.0
 30
0.0
  9
$UCSYDIR
 10
0.0
 20
1.0
 30
0.0
  9
$UCSORTHOREF
  2

  9
$UCSORTHOVIEW
 70
     0
  9
$UCSORGTOP
 10
0.0
 20
0.0
 30
0.0
  9
$UCSORGBOTTOM
 10
0.0
 20
0.0
 30
0.0
  9
$UCSORGLEFT
 10
0.0
 20
0.0
 30
0.0
  9
$UCSORGRIGHT
 10
0.0
 20
0.0
 30
0.0
  9
$UCSORGFRONT
 10
0.0
 20
0.0
 30
0.0
  9
$UCSORGBACK
 10
0.0
 20
0.0
 30
0.0
  9
$PUCSBASE
  2

  9
$PUCSNAME
  2

  9
$PUCSORG
 10
0.0
 20
0.0
 30
0.0
  9
$PUCSXDIR
 10
1.0
 20
0.0
 30
0.0
  9
$PUCSYDIR
 10
0.0
 20
1.0
 30
0.0
  9
$PUCSORTHOREF
  2

  9
$PUCSORTHOVIEW
 70
     0
  9
$PUCSORGTOP
 10
0.0
 20
0.0
 30
0.0
  9
$PUCSORGBOTTOM
 10
0.0
 20
0.0
 30
0.0
  9
$PUCSORGLEFT
 10
0.0
 20
0.0
 30
0.0
  9
$PUCSORGRIGHT
 10
0.0
 20
0.0
 30
0.0
  9
$PUCSORGFRONT
 10
0.0
 20
0.0
 30
0.0
  9
$PUCSORGBACK
 10
0.0
 20
0.0
 30
0.0
  9
$USERI1
 70
     0
  9
$USERI2
 70
     0
  9
$USERI3
 70
     0
  9
$USERI4
 70
     0
  9
$USERI5
 70
     0
  9
$USERR1
 40
0.0
  9
$USERR2
 40
0.0
  9
$USERR3
 40
0.0
  9
$USERR4
 40
0.0
  9
$USERR5
 40
0.0
  9
$WORLDVIEW
 70
     1
  9
$SHADEDGE
 70
     3
  9
$SHADEDIF
 70
    70
  9
$TILEMODE
 70
     1
  9
$MAXACTVP
 70
    64
  9
$PINSBASE
 10
0.0
 20
0.0
 30
0.0
  9
$PLIMCHECK
 70
     0
  9
$PEXTMIN
 10
1.000000000000000E+20
 20
1.000000000000000E+20
 30
1.000000000000000E+20
  9
$PEXTMAX
 10
-1.000000000000000E+20
 20
-1.000000000000000E+20
 30
-1.000000000000000E+20
  9
$PLIMMIN
 10
0.0
 20
0.0
  9
$PLIMMAX
 10
0.0
 20
0.0
  9
$UNITMODE
 70
     0
  9
$VISRETAIN
 70
     1
  9
$PLINEGEN
 70
     0
  9
$PSLTSCALE
 70
     1
  9
$TREEDEPTH
 70
  3020
  9
$CMLSTYLE
  2
Standard
  9
$CMLJUST
 70
     0
  9
$CMLSCALE
 40
20.0
  9
$PROXYGRAPHICS
 70
     1
  9
$MEASUREMENT
 70
     1
  9
$CELWEIGHT
370
    -1
  9
$ENDCAPS
280
     0
  9
$JOINSTYLE
280
     0
  9
$LWDISPLAY
290
     0
  9
$INSUNITS
 70
     4
  9
$HYPERLINKBASE
  1

  9
$STYLESHEET
  1

  9
$XEDIT
290
     1
  9
$CEPSNTYPE
380
     0
  9
$PSTYLEMODE
290
     1
  9
$FINGERPRINTGUID
  2
{49B20B3B-064E-400B-9469-2837C497CFA5}
  9
$VERSIONGUID
  2
{CCDC3A7D-9D77-4BF9-B421-98E64B28052D}
  9
$EXTNAMES
290
     1
  9
$PSVPSCALE
 40
0.0
  9
$OLESTARTUP
290
     0
  9
$SORTENTS
280
    96
  9
$INDEXCTL
280
     0
  9
$HIDETEXT
280
     1
  9
$XCLIPFRAME
280
     2
  9
$HALOGAP
280
     0
  9
$OBSCOLOR
 70
   257
  9
$OBSLTYPE
280
     0
  9
$INTERSECTIONDISPLAY
280
     0
  9
$INTERSECTIONCOLOR
 70
   257
  9
$DIMASSOC
280
     2
  9
$PROJECTNAME
  1

  9
$CAMERADISPLAY
290
     0
  9
$LENSLENGTH
 40
50.0
  9
$CAMERAHEIGHT
 40
0.0
  9
$STEPSPERSEC
 40
2.0
  9
$STEPSIZE
 40
6.0
  9
$3DDWFPREC
 40
2.0
  9
$PSOLWIDTH
 40
0.25
  9
$PSOLHEIGHT
 40
4.0
  9
$LOFTANG1
 40
1.570796326794897
  9
$LOFTANG2
 40
1.570796326794897
  9
$LOFTMAG1
 40
0.0
  9
$LOFTMAG2
 40
0.0
  9
$LOFTPARAM
 70
     7
  9
$LOFTNORMALS
280
     1
  9
$LATITUDE
 40
37.795
  9
$LONGITUDE
 40
-122.394
  9
$NORTHDIRECTION
 40
0.0
  9
$TIMEZONE
 70
 -8000
  9
$LIGHTGLYPHDISPLAY
280
     1
  9
$TILEMODELIGHTSYNCH
280
     1
  9
$SOLIDHIST
280
     0
  9
$SHOWHIST
280
     1
  9
$DWFFRAME
280
     2
  9
$DGNFRAME
280
     2
  9
$REALWORLDSCALE
290
     1
  9
$INTERFERECOLOR
 62
   256
  9
$CSHADOW
280
     0
  9
$SHADOWPLANELOCATION
 40
0.0
  0
ENDSEC
  0
SECTION
  2
CLASSES
  0
CLASS
  1
ACDBDICTIONARYWDFLT
  2
AcDbDictionaryWithDefault
  3
ObjectDBX Classes
 90
        0
 91
        3
280
     0
281
     0
  0
CLASS
  1
ACDBPLACEHOLDER
  2
AcDbPlaceHolder
  3
ObjectDBX Classes
 90
        0
 91
        1
280
     0
281
     0
  0
CLASS
  1
LAYOUT
  2
AcDbLayout
  3
ObjectDBX Classes
 90
        0
 91
        1
280
     0
281
     0
  0
CLASS
  1
DICTIONARYVAR
  2
AcDbDictionaryVar
  3
ObjectDBX Classes
 90
        0
 91
        3
280
     0
281
     0
  0
CLASS
  1
SCALE
  2
AcDbScale
  3
ObjectDBX Classes
 90
     1153
 91
        3
280
     0
281
     0
  0
CLASS
  1
MATERIAL
  2
AcDbMaterial
  3
ObjectDBX Classes
 90
     1153
 91
        3
280
     0
281
     0
  0
CLASS
  1
VISUALSTYLE
  2
AcDbVisualStyle
  3
ObjectDBX Classes
 90
     4095
 91
        3
280
     0
281
     0
  0
CLASS
  1
TABLESTYLE
  2
AcDbTableStyle
  3
ObjectDBX Classes
 90
     4095
 91
        3
280
     0
281
     0
  0
CLASS
  1
RASTERVARIABLES
  2
AcDbRasterVariables
  3
ISM
 90
        0
 91
        3
280
     0
281
     0
  0
CLASS
  1
DIMASSOC
  2
AcDbDimAssoc
  3
"AcDbDimAssoc|Product Desc:     AcDim ARX App For Dimension|Company:          Autodesk, Inc.|WEB Address:      www.autodesk.com"
 90
        0
 91
        3
280
     0
281
     0
  0
CLASS
  1
MLEADERSTYLE
  2
AcDbMLeaderStyle
  3
ACDB_MLEADERSTYLE_CLASS
 90
     4095
 91
        3
280
     0
281
     0
  0
CLASS
  1
SUN
  2
AcDbSun
  3
SCENEOE
 90
     1153
 91
        3
280
     0
281
     0
  0
CLASS
  1
CELLSTYLEMAP
  2
AcDbCellStyleMap
  3
ObjectDBX Classes
 90
     1152
 91
        3
280
     0
281
     0
  0
ENDSEC
  0
SECTION
  2
TABLES
  0
TABLE
  2
VPORT
  5
8
330
0
100
AcDbSymbolTable
 70
     1
  0
VPORT
  5
934
330
8
100
AcDbSymbolTableRecord
100
AcDbViewportTableRecord
  2
*Active
 70
     0
 10
0.0
 20
0.0
 11
1.0
 21
1.0
 12
203.5267297076225
 22
393.8708675780121
 13
0.0
 23
0.0
 14
10.0
 24
10.0
 15
10.0
 25
10.0
 16
0.0
 26
0.0
 36
1.0
 17
0.0
 27
0.0
 37
0.0
 40
209.1
 41
1.737931034482759
 42
50.0
 43
0.0
 44
0.0
 50
0.0
 51
0.0
 71
    16
 72
   100
 73
     1
 74
     3
 75
     0
 76
     0
 77
     0
 78
     0
281
     0
 65
     1
110
0.0
120
0.0
130
0.0
111
1.0
121
0.0
131
0.0
112
0.0
122
1.0
132
0.0
 79
     0
146
0.0
348
A2E
 60
     3
 61
     5
292
     1
282
     1
141
0.0
142
0.0
 63
   256
361
A4A
  0
ENDTAB
  0
TABLE
  2
LTYPE
  5
5
330
0
100
AcDbSymbolTable
 70
     5
  0
LTYPE
  5
14
330
5
100
AcDbSymbolTableRecord
100
AcDbLinetypeTableRecord
  2
ByBlock
 70
     0
  3

 72
    65
 73
     0
 40
0.0
  0
LTYPE
  5
15
330
5
100
AcDbSymbolTableRecord
100
AcDbLinetypeTableRecord
  2
ByLayer
 70
     0
  3

 72
    65
 73
     0
 40
0.0
  0
LTYPE
  5
16
330
5
100
AcDbSymbolTableRecord
100
AcDbLinetypeTableRecord
  2
Continuous
 70
     0
  3
Solid line
 72
    65
 73
     0
 40
0.0
  0
LTYPE
  5
C6
330
5
100
AcDbSymbolTableRecord
100
AcDbLinetypeTableRecord
  2
ACAD_ISO02W100
 70
     0
  3
ISO dash __ __ __ __ __ __ __ __ __ __ __ __ __
 72
    65
 73
     2
 40
15.0
 49
12.0
 74
     0
 49
-3.0
 74
     0
  0
LTYPE
  5
63F
330
5
100
AcDbSymbolTableRecord
100
AcDbLinetypeTableRecord
  2
HIDDEN
 70
     0
  3
Hidden __ __ __ __ __ __ __ __ __ __ __ __ __ _
 72
    65
 73
     2
 40
4.5
 49
3.0
 74
     0
 49
-1.5
 74
     0
  0
LTYPE
  5
7A5
330
5
100
AcDbSymbolTableRecord
100
AcDbLinetypeTableRecord
  2
ACAD_ISO07W100
 70
     0
  3
ISO dot . . . . . . . . . . . . . . . . . . . .
 72
    65
 73
     2
 40
3.0
 49
0.0
 74
     0
 49
-3.0
 74
     0
  0
LTYPE
  5
A8D
330
5
100
AcDbSymbolTableRecord
100
AcDbLinetypeTableRecord
  2
CENTER2
 70
     0
  3
Center (.5x) ___ _ ___ _ ___ _ ___ _ ___ _ ___
 72
    65
 73
     4
 40
28.575
 49
19.05
 74
     0
 49
-3.175
 74
     0
 49
3.175
 74
     0
 49
-3.175
 74
     0
  0
ENDTAB
  0
TABLE
  2
LAYER
  5
2
102
{ACAD_XDICTIONARY
360
970
102
}
330
0
100
AcDbSymbolTable
 70
    17
  0
LAYER
  5
10
330
2
100
AcDbSymbolTableRecord
100
AcDbLayerTableRecord
  2
0
 70
     0
 62
     7
  6
Continuous
370
    -3
390
F
347
A45
  0
LAYER
  5
110
330
2
100
AcDbSymbolTableRecord
100
AcDbLayerTableRecord
  2
Defpoints
 70
     0
 62
     7
  6
Continuous
290
     0
370
    -3
390
F
347
A45
  0
LAYER
  5
4E7
330
2
100
AcDbSymbolTableRecord
100
AcDbLayerTableRecord
  2
100
 70
     0
 62
     7
  6
ACAD_ISO07W100
370
    -3
390
F
347
A45
  0
LAYER
  5
68D
330
2
100
AcDbSymbolTableRecord
100
AcDbLayerTableRecord
  2
用紙範囲
 70
     0
 62
    10
  6
Continuous
370
    -3
390
F
347
A45
  0
LAYER
  5
68E
330
2
100
AcDbSymbolTableRecord
100
AcDbLayerTableRecord
  2
枠
 70
     0
 62
   112
  6
Continuous
370
    -3
390
F
347
A45
  0
LAYER
  5
68F
330
2
100
AcDbSymbolTableRecord
100
AcDbLayerTableRecord
  2
寸法
 70
     0
 62
    90
  6
Continuous
370
    -3
390
F
347
A45
  0
LAYER
  5
690
330
2
100
AcDbSymbolTableRecord
100
AcDbLayerTableRecord
  2
金属部分
 70
     0
 62
   170
  6
Continuous
370
    -3
390
F
347
A45
  0
LAYER
  5
691
330
2
100
AcDbSymbolTableRecord
100
AcDbLayerTableRecord
  2
品番
 70
     0
 62
   244
  6
Continuous
370
    -3
390
F
347
A45
  0
LAYER
  5
786
330
2
100
AcDbSymbolTableRecord
100
AcDbLayerTableRecord
  2
文字
 70
     0
 62
    40
  6
Continuous
370
    -3
390
F
347
A45
  0
LAYER
  5
790
330
2
100
AcDbSymbolTableRecord
100
AcDbLayerTableRecord
  2
社名
 70
     0
 62
     1
  6
Continuous
370
    -3
390
F
347
A45
  0
LAYER
  5
880
330
2
100
AcDbSymbolTableRecord
100
AcDbLayerTableRecord
  2
樹脂部分
 70
     0
 62
    30
  6
Continuous
370
    -3
390
F
347
A45
  0
LAYER
  5
896
330
2
100
AcDbSymbolTableRecord
100
AcDbLayerTableRecord
  2
TOS_M1
 70
     0
 62
     7
  6
Continuous
370
    -3
390
F
347
A45
  0
LAYER
  5
897
330
2
100
AcDbSymbolTableRecord
100
AcDbLayerTableRecord
  2
TOS_S1
 70
     0
 62
     4
  6
Continuous
370
    -3
390
F
347
A45
  0
LAYER
  5
A57
330
2
100
AcDbSymbolTableRecord
100
AcDbLayerTableRecord
  2
補助
 70
     0
 62
     7
  6
HIDDEN
370
    -3
390
F
347
A45
1001
AcAecLayerStandard
1000

1000

  0
LAYER
  5
A86
102
{ACAD_XDICTIONARY
360
A87
102
}
330
2
100
AcDbSymbolTableRecord
100
AcDbLayerTableRecord
  2
硬質樹脂
 70
     0
 62
   220
  6
Continuous
370
    -3
390
F
347
A45
  0
LAYER
  5
A8A
102
{ACAD_XDICTIONARY
360
A8B
102
}
330
2
100
AcDbSymbolTableRecord
100
AcDbLayerTableRecord
  2
Hojo
 70
     0
 62
   111
  6
Continuous
370
    -3
390
F
347
A45
  0
LAYER
  5
2C3B
330
2
100
AcDbSymbolTableRecord
100
AcDbLayerTableRecord
  2
硬質樹脂部分
 70
     0
 62
   220
  6
Continuous
370
    -3
390
F
347
A45
1001
AcAecLayerStandard
1000

1000

  0
ENDTAB
  0
TABLE
  2
STYLE
  5
3
330
0
100
AcDbSymbolTable
 70
     2
  0
STYLE
  5
11
330
3
100
AcDbSymbolTableRecord
100
AcDbTextStyleTableRecord
  2
Standard
 70
     0
 40
0.0
 41
1.0
 50
0.0
 71
     0
 42
2.5
  3
txt.shx
  4
bigfont.shx
  0
STYLE
  5
C5
330
3
100
AcDbSymbolTableRecord
100
AcDbTextStyleTableRecord
  2

 70
     1
 40
0.0
 41
1.0
 50
0.0
 71
     0
 42
2.5
  3
ltypeshp.shx
  4

  0
ENDTAB
  0
TABLE
  2
VIEW
  5
6
330
0
100
AcDbSymbolTable
 70
     0
  0
ENDTAB
  0
TABLE
  2
UCS
  5
7
330
0
100
AcDbSymbolTable
 70
     0
  0
ENDTAB
  0
TABLE
  2
APPID
  5
9
330
0
100
AcDbSymbolTable
 70
     6
  0
APPID
  5
12
330
9
100
AcDbSymbolTableRecord
100
AcDbRegAppTableRecord
  2
ACAD
 70
     0
  0
APPID
  5
A58
330
9
100
AcDbSymbolTableRecord
100
AcDbRegAppTableRecord
  2
AcAecLayerStandard
 70
     0
  0
APPID
  5
A97
330
9
100
AcDbSymbolTableRecord
100
AcDbRegAppTableRecord
  2
ACAD_NAV_VCDISPLAY
 70
     0
  0
APPID
  5
A98
330
9
100
AcDbSymbolTableRecord
100
AcDbRegAppTableRecord
  2
ACAD_PSEXT
 70
     0
  0
APPID
  5
B15
330
9
100
AcDbSymbolTableRecord
100
AcDbRegAppTableRecord
  2
ACAD_DSTYLE_DIMRADIAL_EXTENSION
 70
     0
  0
APPID
  5
2B32
330
9
100
AcDbSymbolTableRecord
100
AcDbRegAppTableRecord
  2
PLOTTRANSPARENCY
 70
     0
  0
ENDTAB
  0
TABLE
  2
DIMSTYLE
  5
A
330
0
100
AcDbSymbolTable
 70
     4
100
AcDbDimStyleTable
  0
DIMSTYLE
105
27
102
{ACAD_REACTORS
330
2BF6
330
2BF9
330
2BFC
102
}
330
A
100
AcDbSymbolTableRecord
100
AcDbDimStyleTableRecord
  2
ISO-25
 70
     0
 41
2.5
 42
0.625
 43
3.75
 44
1.25
 77
     1
 78
     8
140
2.5
141
2.5
143
0.03937007874016
147
0.625
171
     3
178
     0
271
     2
272
     2
274
     3
279
     2
283
     0
284
     8
288
     1
340
11
  0
DIMSTYLE
105
4E8
330
A
100
AcDbSymbolTableRecord
100
AcDbDimStyleTableRecord
  2
Standard
 70
     0
178
     0
340
11
  0
DIMSTYLE
105
14C6
102
{ACAD_REACTORS
330
2C05
330
2C07
102
}
330
A
100
AcDbSymbolTableRecord
100
AcDbDimStyleTableRecord
  2
ISO-1
 70
     0
 41
2.5
 42
0.625
 43
3.75
 44
1.25
 77
     1
 78
     8
140
5.0
141
0.0
143
0.03937007874016
144
0.5
147
0.625
171
     3
178
     0
271
     2
272
     2
274
     3
279
     2
283
     0
284
     8
288
     1
340
11
  0
DIMSTYLE
105
2668
330
A
100
AcDbSymbolTableRecord
100
AcDbDimStyleTableRecord
  2
ISO-2
 70
     0
 41
2.5
 42
0.625
 43
3.75
 44
1.25
 77
     1
 78
     8
140
5.0
141
0.0
143
0.03937007874016
144
0.2
147
0.625
171
     3
178
     0
271
     2
272
     2
274
     3
279
     2
283
     0
284
     8
288
     1
340
11
  0
ENDTAB
  0
TABLE
  2
BLOCK_RECORD
  5
1
330
0
100
AcDbSymbolTable
 70
    73
  0
BLOCK_RECORD
  5
1F
330
1
100
AcDbSymbolTableRecord
100
AcDbBlockTableRecord
  2
*Model_Space
340
22
 70
     0
280
     1
281
     0
  0
BLOCK_RECORD
  5
1B
330
1
100
AcDbSymbolTableRecord
100
AcDbBlockTableRecord
  2
*Paper_Space
340
1E
 70
     0
280
     1
281
     0
  0
BLOCK_RECORD
  5
23
330
1
100
AcDbSymbolTableRecord
100
AcDbBlockTableRecord
  2
*Paper_Space0
340
26
 70
     0
280
     1
281
     0
  0
BLOCK_RECORD
  5
A91
330
1
100
AcDbSymbolTableRecord
100
AcDbBlockTableRecord
  2
_OPEN
340
0
 70
     0
280
     1
281
     0
  0
BLOCK_RECORD
  5
2169
330
1
100
AcDbSymbolTableRecord
100
AcDbBlockTableRecord
  2
*D2
340
0
 70
     0
280
     1
281
     0
  0
BLOCK_RECORD
  5
2178
330
1
100
AcDbSymbolTableRecord
100
AcDbBlockTableRecord
  2
*D3
340
0
 70
     0
280
     1
281
     0
  0
BLOCK_RECORD
  5
2188
330
1
100
AcDbSymbolTableRecord
100
AcDbBlockTableRecord
  2
*D4
340
0
 70
     0
280
     1
281
     0
  0
BLOCK_RECORD
  5
21A7
330
1
100
AcDbSymbolTableRecord
100
AcDbBlockTableRecord
  2
*D5
340
0
 70
     0
280
     1
281
     0
  0
BLOCK_RECORD
  5
21F4
330
1
100
AcDbSymbolTableRecord
100
AcDbBlockTableRecord
  2
*D6
340
0
 70
     0
280
     1
281
     0
  0
BLOCK_RECORD
  5
2203
330
1
100
AcDbSymbolTableRecord
100
AcDbBlockTableRecord
  2
*D7
340
0
 70
     0
280
     1
281
     0
  0
BLOCK_RECORD
  5
2212
330
1
100
AcDbSymbolTableRecord
100
AcDbBlockTableRecord
  2
*D8
340
0
 70
     0
280
     1
281
     0
  0
BLOCK_RECORD
  5
2222
330
1
100
AcDbSymbolTableRecord
100
AcDbBlockTableRecord
  2
*D9
340
0
 70
     0
280
     1
281
     0
  0
BLOCK_RECORD
  5
2242
330
1
100
AcDbSymbolTableRecord
100
AcDbBlockTableRecord
  2
*D10
340
0
 70
     0
280
     1
281
     0
  0
BLOCK_RECORD
  5
2251
330
1
100
AcDbSymbolTableRecord
100
AcDbBlockTableRecord
  2
*D11
340
0
 70
     0
280
     1
281
     0
  0
BLOCK_RECORD
  5
2261
330
1
100
AcDbSymbolTableRecord
100
AcDbBlockTableRecord
  2
*D12
340
0
 70
     0
280
     1
281
     0
  0
BLOCK_RECORD
  5
2270
330
1
100
AcDbSymbolTableRecord
100
AcDbBlockTableRecord
  2
*D13
340
0
 70
     0
280
     1
281
     0
  0
BLOCK_RECORD
  5
227F
330
1
100
AcDbSymbolTableRecord
100
AcDbBlockTableRecord
  2
*D14
340
0
 70
     0
280
     1
281
     0
  0
BLOCK_RECORD
  5
228F
330
1
100
AcDbSymbolTableRecord
100
AcDbBlockTableRecord
  2
*D15
340
0
 70
     0
280
     1
281
     0
  0
BLOCK_RECORD
  5
229F
330
1
100
AcDbSymbolTableRecord
100
AcDbBlockTableRecord
  2
*D16
340
0
 70
     0
280
     1
281
     0
  0
BLOCK_RECORD
  5
22AF
330
1
100
AcDbSymbolTableRecord
100
AcDbBlockTableRecord
  2
*D17
340
0
 70
     0
280
     1
281
     0
  0
BLOCK_RECORD
  5
22C2
330
1
100
AcDbSymbolTableRecord
100
AcDbBlockTableRecord
  2
*D18
340
0
 70
     0
280
     1
281
     0
  0
BLOCK_RECORD
  5
22D3
330
1
100
AcDbSymbolTableRecord
100
AcDbBlockTableRecord
  2
*D19
340
0
 70
     0
280
     1
281
     0
  0
BLOCK_RECORD
  5
22E3
330
1
100
AcDbSymbolTableRecord
100
AcDbBlockTableRecord
  2
*D20
340
0
 70
     0
280
     1
281
     0
  0
BLOCK_RECORD
  5
22F3
330
1
100
AcDbSymbolTableRecord
100
AcDbBlockTableRecord
  2
*D21
340
0
 70
     0
280
     1
281
     0
  0
BLOCK_RECORD
  5
2303
330
1
100
AcDbSymbolTableRecord
100
AcDbBlockTableRecord
  2
*D22
340
0
 70
     0
280
     1
281
     0
  0
BLOCK_RECORD
  5
2312
330
1
100
AcDbSymbolTableRecord
100
AcDbBlockTableRecord
  2
*D23
340
0
 70
     0
280
     1
281
     0
  0
BLOCK_RECORD
  5
2322
330
1
100
AcDbSymbolTableRecord
100
AcDbBlockTableRecord
  2
*D24
340
0
 70
     0
280
     1
281
     0
  0
BLOCK_RECORD
  5
2332
330
1
100
AcDbSymbolTableRecord
100
AcDbBlockTableRecord
  2
*D25
340
0
 70
     0
280
     1
281
     0
  0
BLOCK_RECORD
  5
2342
330
1
100
AcDbSymbolTableRecord
100
AcDbBlockTableRecord
  2
*D26
340
0
 70
     0
280
     1
281
     0
  0
BLOCK_RECORD
  5
2352
330
1
100
AcDbSymbolTableRecord
100
AcDbBlockTableRecord
  2
*D27
340
0
 70
     0
280
     1
281
     0
  0
BLOCK_RECORD
  5
2361
330
1
100
AcDbSymbolTableRecord
100
AcDbBlockTableRecord
  2
*D28
340
0
 70
     0
280
     1
281
     0
  0
BLOCK_RECORD
  5
2370
330
1
100
AcDbSymbolTableRecord
100
AcDbBlockTableRecord
  2
*D29
340
0
 70
     0
280
     1
281
     0
  0
BLOCK_RECORD
  5
2380
330
1
100
AcDbSymbolTableRecord
100
AcDbBlockTableRecord
  2
*D30
340
0
 70
     0
280
     1
281
     0
  0
BLOCK_RECORD
  5
2390
330
1
100
AcDbSymbolTableRecord
100
AcDbBlockTableRecord
  2
*D31
340
0
 70
     0
280
     1
281
     0
  0
BLOCK_RECORD
  5
23A2
330
1
100
AcDbSymbolTableRecord
100
AcDbBlockTableRecord
  2
*D32
340
0
 70
     0
280
     1
281
     0
  0
BLOCK_RECORD
  5
23B2
330
1
100
AcDbSymbolTableRecord
100
AcDbBlockTableRecord
  2
*D33
340
0
 70
     0
280
     1
281
     0
  0
BLOCK_RECORD
  5
23C2
330
1
100
AcDbSymbolTableRecord
100
AcDbBlockTableRecord
  2
*D34
340
0
 70
     0
280
     1
281
     0
  0
BLOCK_RECORD
  5
2402
330
1
100
AcDbSymbolTableRecord
100
AcDbBlockTableRecord
  2
*D35
340
0
 70
     0
280
     1
281
     0
  0
BLOCK_RECORD
  5
240D
330
1
100
AcDbSymbolTableRecord
100
AcDbBlockTableRecord
  2
*D36
340
0
 70
     0
280
     1
281
     0
  0
BLOCK_RECORD
  5
2418
330
1
100
AcDbSymbolTableRecord
100
AcDbBlockTableRecord
  2
*D37
340
0
 70
     0
280
     1
281
     0
  0
BLOCK_RECORD
  5
2423
330
1
100
AcDbSymbolTableRecord
100
AcDbBlockTableRecord
  2
*D38
340
0
 70
     0
280
     1
281
     0
  0
BLOCK_RECORD
  5
2634
330
1
100
AcDbSymbolTableRecord
100
AcDbBlockTableRecord
  2
*D39
340
0
 70
     0
280
     1
281
     0
  0
BLOCK_RECORD
  5
2649
330
1
100
AcDbSymbolTableRecord
100
AcDbBlockTableRecord
  2
*D40
340
0
 70
     0
280
     1
281
     0
  0
BLOCK_RECORD
  5
2675
330
1
100
AcDbSymbolTableRecord
100
AcDbBlockTableRecord
  2
*D41
340
0
 70
     0
280
     1
281
     0
  0
BLOCK_RECORD
  5
2685
330
1
100
AcDbSymbolTableRecord
100
AcDbBlockTableRecord
  2
*D42
340
0
 70
     0
280
     1
281
     0
  0
BLOCK_RECORD
  5
26B7
330
1
100
AcDbSymbolTableRecord
100
AcDbBlockTableRecord
  2
*D43
340
0
 70
     0
280
     1
281
     0
  0
BLOCK_RECORD
  5
26E9
330
1
100
AcDbSymbolTableRecord
100
AcDbBlockTableRecord
  2
*D44
340
0
 70
     0
280
     1
281
     0
  0
BLOCK_RECORD
  5
26F9
330
1
100
AcDbSymbolTableRecord
100
AcDbBlockTableRecord
  2
*D45
340
0
 70
     0
280
     1
281
     0
  0
BLOCK_RECORD
  5
27E2
330
1
100
AcDbSymbolTableRecord
100
AcDbBlockTableRecord
  2
*D46
340
0
 70
     0
280
     1
281
     0
  0
BLOCK_RECORD
  5
27F1
330
1
100
AcDbSymbolTableRecord
100
AcDbBlockTableRecord
  2
*D47
340
0
 70
     0
280
     1
281
     0
  0
BLOCK_RECORD
  5
2800
330
1
100
AcDbSymbolTableRecord
100
AcDbBlockTableRecord
  2
*D48
340
0
 70
     0
280
     1
281
     0
  0
BLOCK_RECORD
  5
280E
330
1
100
AcDbSymbolTableRecord
100
AcDbBlockTableRecord
  2
*D49
340
0
 70
     0
280
     1
281
     0
  0
BLOCK_RECORD
  5
2820
330
1
100
AcDbSymbolTableRecord
100
AcDbBlockTableRecord
  2
*D50
340
0
 70
     0
280
     1
281
     0
  0
BLOCK_RECORD
  5
282B
330
1
100
AcDbSymbolTableRecord
100
AcDbBlockTableRecord
  2
*D51
340
0
 70
     0
280
     1
281
     0
  0
BLOCK_RECORD
  5
28A6
330
1
100
AcDbSymbolTableRecord
100
AcDbBlockTableRecord
  2
*D52
340
0
 70
     0
280
     1
281
     0
  0
BLOCK_RECORD
  5
28B3
330
1
100
AcDbSymbolTableRecord
100
AcDbBlockTableRecord
  2
*D53
340
0
 70
     0
280
     1
281
     0
  0
BLOCK_RECORD
  5
28C0
330
1
100
AcDbSymbolTableRecord
100
AcDbBlockTableRecord
  2
*D54
340
0
 70
     0
280
     1
281
     0
  0
BLOCK_RECORD
  5
28CD
330
1
100
AcDbSymbolTableRecord
100
AcDbBlockTableRecord
  2
*D55
340
0
 70
     0
280
     1
281
     0
  0
BLOCK_RECORD
  5
28DA
330
1
100
AcDbSymbolTableRecord
100
AcDbBlockTableRecord
  2
*D56
340
0
 70
     0
280
     1
281
     0
  0
BLOCK_RECORD
  5
28E2
330
1
100
AcDbSymbolTableRecord
100
AcDbBlockTableRecord
  2
*D57
340
0
 70
     0
280
     1
281
     0
  0
BLOCK_RECORD
  5
296F
330
1
100
AcDbSymbolTableRecord
100
AcDbBlockTableRecord
  2
*D58
340
0
 70
     0
280
     1
281
     0
  0
BLOCK_RECORD
  5
297F
330
1
100
AcDbSymbolTableRecord
100
AcDbBlockTableRecord
  2
*D59
340
0
 70
     0
280
     1
281
     0
  0
BLOCK_RECORD
  5
298F
330
1
100
AcDbSymbolTableRecord
100
AcDbBlockTableRecord
  2
*D60
340
0
 70
     0
280
     1
281
     0
  0
BLOCK_RECORD
  5
2A0C
330
1
100
AcDbSymbolTableRecord
100
AcDbBlockTableRecord
  2
*D61
340
0
 70
     0
280
     1
281
     0
  0
BLOCK_RECORD
  5
2A1C
330
1
100
AcDbSymbolTableRecord
100
AcDbBlockTableRecord
  2
*D62
340
0
 70
     0
280
     1
281
     0
  0
BLOCK_RECORD
  5
2A2C
330
1
100
AcDbSymbolTableRecord
100
AcDbBlockTableRecord
  2
*D63
340
0
 70
     0
280
     1
281
     0
  0
BLOCK_RECORD
  5
2A88
330
1
100
AcDbSymbolTableRecord
100
AcDbBlockTableRecord
  2
*D64
340
0
 70
     0
280
     1
281
     0
  0
BLOCK_RECORD
  5
2A95
330
1
100
AcDbSymbolTableRecord
100
AcDbBlockTableRecord
  2
*D65
340
0
 70
     0
280
     1
281
     0
  0
BLOCK_RECORD
  5
2AA2
330
1
100
AcDbSymbolTableRecord
100
AcDbBlockTableRecord
  2
*D66
340
0
 70
     0
280
     1
281
     0
  0
BLOCK_RECORD
  5
2B85
330
1
100
AcDbSymbolTableRecord
100
AcDbBlockTableRecord
  2
*D67
340
0
 70
     0
280
     1
281
     0
  0
BLOCK_RECORD
  5
2B95
330
1
100
AcDbSymbolTableRecord
100
AcDbBlockTableRecord
  2
*D68
340
0
 70
     0
280
     1
281
     0
  0
BLOCK_RECORD
  5
2BA5
330
1
100
AcDbSymbolTableRecord
100
AcDbBlockTableRecord
  2
*D69
340
0
 70
     0
280
     1
281
     0
  0
BLOCK_RECORD
  5
2C09
330
1
100
AcDbSymbolTableRecord
100
AcDbBlockTableRecord
  2
*D70
340
0
 70
     0
280
     1
281
     0
  0
BLOCK_RECORD
  5
2C16
330
1
100
AcDbSymbolTableRecord
100
AcDbBlockTableRecord
  2
*D71
340
0
 70
     0
280
     1
281
     0
  0
BLOCK_RECORD
  5
2C23
330
1
100
AcDbSymbolTableRecord
100
AcDbBlockTableRecord
  2
*D72
340
0
 70
     0
280
     1
281
     0
  0
ENDTAB
  0
ENDSEC
  0
SECTION
  2
BLOCKS
  0
BLOCK
  5
20
330
1F
100
AcDbEntity
  8
0
100
AcDbBlockBegin
  2
*Model_Space
 70
     0
 10
0.0
 20
0.0
 30
0.0
  3
*Model_Space
  1
*Model_Space
  0
ENDBLK
  5
21
330
1F
100
AcDbEntity
  8
0
100
AcDbBlockEnd
  0
BLOCK
  5
1C
330
1B
100
AcDbEntity
 67
     1
  8
0
100
AcDbBlockBegin
  2
*Paper_Space
 70
     0
 10
0.0
 20
0.0
 30
0.0
  3
*Paper_Space
  1
*Paper_Space
  0
ENDBLK
  5
1D
330
1B
100
AcDbEntity
 67
     1
  8
0
100
AcDbBlockEnd
  0
BLOCK
  5
24
330
23
100
AcDbEntity
  8
0
100
AcDbBlockBegin
  2
*Paper_Space0
 70
     0
 10
0.0
 20
0.0
 30
0.0
  3
*Paper_Space0
  1
*Paper_Space0
  0
ENDBLK
  5
25
330
23
100
AcDbEntity
  8
0
100
AcDbBlockEnd
  0
BLOCK
  5
A92
330
A91
100
AcDbEntity
  8
0
100
AcDbBlockBegin
  2
_OPEN
 70
     0
 10
0.0
 20
0.0
 30
0.0
  3
_OPEN
  1
_OPEN
  0
LINE
  5
A93
330
A91
100
AcDbEntity
  8
0
  6
ByBlock
 62
     0
100
AcDbLine
 10
-1.0
 20
0.1666666666666667
 30
0.0
 11
0.0
 21
0.0
 31
0.0
  0
LINE
  5
A94
330
A91
100
AcDbEntity
  8
0
  6
ByBlock
 62
     0
100
AcDbLine
 10
0.0
 20
0.0
 30
0.0
 11
-1.0
 21
-0.1666666666666667
 31
0.0
  0
LINE
  5
A95
330
A91
100
AcDbEntity
  8
0
  6
ByBlock
 62
     0
100
AcDbLine
 10
0.0
 20
0.0
 30
0.0
 11
-1.0
 21
0.0
 31
0.0
  0
ENDBLK
  5
A96
330
A91
100
AcDbEntity
  8
0
100
AcDbBlockEnd
  0
BLOCK
  5
216A
330
2169
100
AcDbEntity
  8
0
100
AcDbBlockBegin
  2
*D2
 70
     1
 10
0.0
 20
0.0
 30
0.0
  3
*D2
  1
*D199
  0
LINE
  5
216C
330
2169
100
AcDbEntity
  8
寸法
  6
Continuous
 62
     0
370
    -2
100
AcDbLine
 10
257.0474773148973
 20
385.076840733911
 30
0.0
 11
257.0474773148973
 21
375.0539783339109
 31
0.0
  0
LINE
  5
216D
330
2169
100
AcDbEntity
  8
寸法
  6
Continuous
 62
     0
370
    -2
100
AcDbLine
 10
272.6474773148972
 20
385.470056733911
 30
0.0
 11
272.6474773148972
 21
375.0539783339109
 31
0.0
  0
LINE
  5
216E
330
2169
100
AcDbEntity
  8
寸法
  6
Continuous
 62
     0
370
    -2
100
AcDbLine
 10
259.5474773148973
 20
376.3039783339109
 30
0.0
 11
270.1474773148972
 21
376.3039783339109
 31
0.0
  0
SOLID
  5
216F
330
2169
100
AcDbEntity
  8
寸法
 62
     0
100
AcDbTrace
 10
259.5474773148973
 20
376.7206450005776
 30
0.0
 11
259.5474773148973
 21
375.8873116672443
 31
0.0
 12
257.0474773148973
 22
376.3039783339109
 32
0.0
 13
257.0474773148973
 23
376.3039783339109
 33
0.0
  0
SOLID
  5
2170
330
2169
100
AcDbEntity
  8
寸法
 62
     0
100
AcDbTrace
 10
270.1474773148972
 20
375.8873116672443
 30
0.0
 11
270.1474773148972
 21
376.7206450005776
 31
0.0
 12
272.6474773148972
 22
376.3039783339109
 32
0.0
 13
272.6474773148972
 23
376.3039783339109
 33
0.0
  0
MTEXT
  5
2171
330
2169
100
AcDbEntity
  8
寸法
  6
Continuous
 62
     0
100
AcDbMText
 10
264.9746773148971
 20
372.6667303339109
 30
0.0
 40
5.0
 41
0.0
 46
0.0
 71
     5
 72
     1
  1
7.8
 73
     1
 44
1.0
  0
POINT
  5
2172
330
2169
100
AcDbEntity
  8
Defpoints
 62
     0
100
AcDbPoint
 10
257.0474773148973
 20
385.701840733911
 30
0.0
  0
POINT
  5
2173
330
2169
100
AcDbEntity
  8
Defpoints
 62
     0
100
AcDbPoint
 10
272.6474773148972
 20
386.095056733911
 30
0.0
  0
POINT
  5
2174
330
2169
100
AcDbEntity
  8
Defpoints
 62
     0
100
AcDbPoint
 10
272.6474773148972
 20
376.3039783339109
 30
0.0
  0
ENDBLK
  5
216B
330
2169
100
AcDbEntity
  8
0
100
AcDbBlockEnd
  0
BLOCK
  5
2179
330
2178
100
AcDbEntity
  8
0
100
AcDbBlockBegin
  2
*D3
 70
     1
 10
0.0
 20
0.0
 30
0.0
  3
*D3
  1
*D200
  0
LINE
  5
217B
330
2178
100
AcDbEntity
  8
寸法
  6
Continuous
 62
     0
370
    -2
100
AcDbLine
 10
272.6575752035584
 20
406.2194282337387
 30
0.0
 11
283.6429173148971
 21
406.2194282337387
 31
0.0
  0
LINE
  5
217C
330
2178
100
AcDbEntity
  8
寸法
  6
Continuous
 62
     0
370
    -2
100
AcDbLine
 10
272.2724773148972
 20
386.2194253615934
 30
0.0
 11
283.6429173148971
 21
386.2194253615934
 31
0.0
  0
LINE
  5
217D
330
2178
100
AcDbEntity
  8
寸法
  6
Continuous
 62
     0
370
    -2
100
AcDbLine
 10
282.3929173148971
 20
403.7194282337387
 30
0.0
 11
282.3929173148971
 21
399.3444267976661
 31
0.0
  0
LINE
  5
217E
330
2178
100
AcDbEntity
  8
寸法
  6
Continuous
 62
     0
370
    -2
100
AcDbLine
 10
282.3929173148971
 20
388.7194253615934
 30
0.0
 11
282.3929173148971
 21
393.0944267976661
 31
0.0
  0
SOLID
  5
217F
330
2178
100
AcDbEntity
  8
寸法
 62
     0
100
AcDbTrace
 10
282.8095839815638
 20
403.7194282337387
 30
0.0
 11
281.9762506482304
 21
403.7194282337387
 31
0.0
 12
282.3929173148971
 22
406.2194282337387
 32
0.0
 13
282.3929173148971
 23
406.2194282337387
 33
0.0
  0
SOLID
  5
2180
330
2178
100
AcDbEntity
  8
寸法
 62
     0
100
AcDbTrace
 10
281.9762506482304
 20
388.7194253615934
 30
0.0
 11
282.8095839815638
 21
388.7194253615934
 31
0.0
 12
282.3929173148971
 22
386.2194253615934
 32
0.0
 13
282.3929173148971
 23
386.2194253615934
 33
0.0
  0
MTEXT
  5
2181
330
2178
100
AcDbEntity
  8
寸法
  6
Continuous
 62
     0
100
AcDbMText
 10
282.3929173148971
 20
396.2194267976661
 30
0.0
 40
5.0
 41
0.0
 46
0.0
 71
     5
 72
     1
  1
10
 73
     1
 44
1.0
  0
POINT
  5
2182
330
2178
100
AcDbEntity
  8
Defpoints
 62
     0
100
AcDbPoint
 10
272.0325752035584
 20
406.2194282337387
 30
0.0
  0
POINT
  5
2183
330
2178
100
AcDbEntity
  8
Defpoints
 62
     0
100
AcDbPoint
 10
271.6474773148972
 20
386.2194253615934
 30
0.0
  0
POINT
  5
2757
330
2178
100
AcDbEntity
  8
Defpoints
 62
     0
100
AcDbPoint
 10
282.3929173148971
 20
386.2194253615934
 30
0.0
  0
ENDBLK
  5
217A
330
2178
100
AcDbEntity
  8
0
100
AcDbBlockEnd
  0
BLOCK
  5
2189
330
2188
100
AcDbEntity
  8
0
100
AcDbBlockBegin
  2
*D4
 70
     1
 10
0.0
 20
0.0
 30
0.0
  3
*D4
  1
*D201
  0
LINE
  5
218B
330
2188
100
AcDbEntity
  8
寸法
  6
Continuous
 62
     0
370
    -2
100
AcDbLine
 10
256.6325752035584
 20
405.8444282337387
 30
0.0
 11
256.6325752035584
 21
414.135059421911
 31
0.0
  0
LINE
  5
218C
330
2188
100
AcDbEntity
  8
寸法
  6
Continuous
 62
     0
370
    -2
100
AcDbLine
 10
273.0325752035584
 20
405.8444282337387
 30
0.0
 11
273.0325752035584
 21
414.135059421911
 31
0.0
  0
LINE
  5
218D
330
2188
100
AcDbEntity
  8
寸法
  6
Continuous
 62
     0
370
    -2
100
AcDbLine
 10
259.1325752035584
 20
412.885059421911
 30
0.0
 11
270.5325752035584
 21
412.885059421911
 31
0.0
  0
SOLID
  5
218E
330
2188
100
AcDbEntity
  8
寸法
 62
     0
100
AcDbTrace
 10
259.1325752035584
 20
413.3017260885777
 30
0.0
 11
259.1325752035584
 21
412.4683927552443
 31
0.0
 12
256.6325752035584
 22
412.885059421911
 32
0.0
 13
256.6325752035584
 23
412.885059421911
 33
0.0
  0
SOLID
  5
218F
330
2188
100
AcDbEntity
  8
寸法
 62
     0
100
AcDbTrace
 10
270.5325752035584
 20
412.4683927552443
 30
0.0
 11
270.5325752035584
 21
413.3017260885777
 31
0.0
 12
273.0325752035584
 22
412.885059421911
 32
0.0
 13
273.0325752035584
 23
412.885059421911
 33
0.0
  0
MTEXT
  5
2190
330
2188
100
AcDbEntity
  8
寸法
  6
Continuous
 62
     0
100
AcDbMText
 10
265.0410816668971
 20
416.6943394219109
 30
0.0
 40
5.0
 41
0.0
 46
0.0
 71
     5
 72
     1
  1
8.2
 73
     1
 44
1.0
  0
POINT
  5
2191
330
2188
100
AcDbEntity
  8
Defpoints
 62
     0
100
AcDbPoint
 10
256.6325752035584
 20
405.2194282337387
 30
0.0
  0
POINT
  5
2192
330
2188
100
AcDbEntity
  8
Defpoints
 62
     0
100
AcDbPoint
 10
273.0325752035584
 20
405.2194282337387
 30
0.0
  0
POINT
  5
2193
330
2188
100
AcDbEntity
  8
Defpoints
 62
     0
100
AcDbPoint
 10
273.0325752035584
 20
412.885059421911
 30
0.0
  0
ENDBLK
  5
218A
330
2188
100
AcDbEntity
  8
0
100
AcDbBlockEnd
  0
BLOCK
  5
21A8
330
21A7
100
AcDbEntity
  8
0
100
AcDbBlockBegin
  2
*D5
 70
     1
 10
0.0
 20
0.0
 30
0.0
  3
*D5
  1
*D203
  0
LINE
  5
21AA
330
21A7
100
AcDbEntity
  8
寸法
  6
Continuous
 62
     0
370
    -2
100
AcDbLine
 10
256.4224773148973
 20
391.120717045603
 30
0.0
 11
253.7772120017291
 21
391.120717045603
 31
0.0
  0
LINE
  5
21AB
330
21A7
100
AcDbEntity
  8
寸法
  6
Continuous
 62
     0
370
    -2
100
AcDbLine
 10
256.4224773148973
 20
388.6194253615934
 30
0.0
 11
253.7772120017291
 21
388.6194253615934
 31
0.0
  0
LINE
  5
21AC
330
21A7
100
AcDbEntity
  8
寸法
  6
Continuous
 62
     0
370
    -2
100
AcDbLine
 10
255.0272120017291
 20
393.620717045603
 30
0.0
 11
255.0272120017291
 21
396.120717045603
 31
0.0
  0
LINE
  5
21AD
330
21A7
100
AcDbEntity
  8
寸法
  6
Continuous
 62
     0
370
    -2
100
AcDbLine
 10
255.0272120017291
 20
386.1194253615934
 30
0.0
 11
255.0272120017291
 21
383.6194253615934
 31
0.0
  0
SOLID
  5
21AE
330
21A7
100
AcDbEntity
  8
寸法
 62
     0
100
AcDbTrace
 10
254.6105453350625
 20
393.620717045603
 30
0.0
 11
255.4438786683958
 21
393.620717045603
 31
0.0
 12
255.0272120017291
 22
391.120717045603
 32
0.0
 13
255.0272120017291
 23
391.120717045603
 33
0.0
  0
SOLID
  5
21AF
330
21A7
100
AcDbEntity
  8
寸法
 62
     0
100
AcDbTrace
 10
255.4438786683958
 20
386.1194253615934
 30
0.0
 11
254.6105453350625
 21
386.1194253615934
 31
0.0
 12
255.0272120017291
 22
388.6194253615934
 32
0.0
 13
255.0272120017291
 23
388.6194253615934
 33
0.0
  0
MTEXT
  5
21B0
330
21A7
100
AcDbEntity
  8
寸法
  6
Continuous
 62
     0
100
AcDbMText
 10
247.1029973406092
 20
389.8795078570333
 30
0.0
 40
5.0
 41
0.0
 46
0.0
 71
     5
 72
     1
  1
1.25
 73
     1
 44
1.0
  0
POINT
  5
21B1
330
21A7
100
AcDbEntity
  8
Defpoints
 62
     0
100
AcDbPoint
 10
257.0474773148973
 20
391.120717045603
 30
0.0
  0
POINT
  5
21B2
330
21A7
100
AcDbEntity
  8
Defpoints
 62
     0
100
AcDbPoint
 10
257.0474773148973
 20
388.6194253615934
 30
0.0
  0
POINT
  5
21B3
330
21A7
100
AcDbEntity
  8
Defpoints
 62
     0
100
AcDbPoint
 10
255.0272120017291
 20
388.6194253615934
 30
0.0
  0
ENDBLK
  5
21A9
330
21A7
100
AcDbEntity
  8
0
100
AcDbBlockEnd
  0
BLOCK
  5
21F5
330
21F4
100
AcDbEntity
  8
0
100
AcDbBlockBegin
  2
*D6
 70
     1
 10
0.0
 20
0.0
 30
0.0
  3
*D6
  1
*D204
  0
LINE
  5
21F7
330
21F4
100
AcDbEntity
  8
寸法
  6
Continuous
 62
     0
370
    -2
100
AcDbLine
 10
167.6049246685685
 20
387.1944253615935
 30
0.0
 11
167.6049246685685
 21
343.6438058106234
 31
0.0
  0
LINE
  5
21F8
330
21F4
100
AcDbEntity
  8
寸法
  6
Continuous
 62
     0
370
    -2
100
AcDbLine
 10
183.2049246685685
 20
387.1944253615935
 30
0.0
 11
183.2049246685685
 21
343.6438058106234
 31
0.0
  0
LINE
  5
21F9
330
21F4
100
AcDbEntity
  8
寸法
  6
Continuous
 62
     0
370
    -2
100
AcDbLine
 10
170.1049246685685
 20
344.8938058106234
 30
0.0
 11
180.7049246685685
 21
344.8938058106234
 31
0.0
  0
SOLID
  5
21FA
330
21F4
100
AcDbEntity
  8
寸法
 62
     0
100
AcDbTrace
 10
170.1049246685685
 20
345.3104724772901
 30
0.0
 11
170.1049246685685
 21
344.4771391439567
 31
0.0
 12
167.6049246685685
 22
344.8938058106234
 32
0.0
 13
167.6049246685685
 23
344.8938058106234
 33
0.0
  0
SOLID
  5
21FB
330
21F4
100
AcDbEntity
  8
寸法
 62
     0
100
AcDbTrace
 10
180.7049246685685
 20
344.4771391439567
 30
0.0
 11
180.7049246685685
 21
345.3104724772901
 31
0.0
 12
183.2049246685685
 22
344.8938058106234
 32
0.0
 13
183.2049246685685
 23
344.8938058106234
 33
0.0
  0
MTEXT
  5
21FC
330
21F4
100
AcDbEntity
  8
寸法
  6
Continuous
 62
     0
100
AcDbMText
 10
175.4940583107396
 20
339.3738058106234
 30
0.0
 40
5.0
 41
0.0
 46
0.0
 71
     5
 72
     1
  1
7.8
 73
     1
 44
1.0
  0
POINT
  5
21FD
330
21F4
100
AcDbEntity
  8
Defpoints
 62
     0
100
AcDbPoint
 10
167.6049246685685
 20
387.8194253615935
 30
0.0
  0
POINT
  5
21FE
330
21F4
100
AcDbEntity
  8
Defpoints
 62
     0
100
AcDbPoint
 10
183.2049246685685
 20
387.8194253615935
 30
0.0
  0
POINT
  5
21FF
330
21F4
100
AcDbEntity
  8
Defpoints
 62
     0
100
AcDbPoint
 10
183.2049246685685
 20
344.8938058106234
 30
0.0
  0
ENDBLK
  5
21F6
330
21F4
100
AcDbEntity
  8
0
100
AcDbBlockEnd
  0
BLOCK
  5
2204
330
2203
100
AcDbEntity
  8
0
100
AcDbBlockBegin
  2
*D7
 70
     1
 10
0.0
 20
0.0
 30
0.0
  3
*D7
  1
*D205
  0
LINE
  5
2206
330
2203
100
AcDbEntity
  8
寸法
  6
Continuous
 62
     0
370
    -2
100
AcDbLine
 10
168.6049246685685
 20
385.5944253615934
 30
0.0
 11
168.6049246685685
 21
354.3699530874235
 31
0.0
  0
LINE
  5
2207
330
2203
100
AcDbEntity
  8
寸法
  6
Continuous
 62
     0
370
    -2
100
AcDbLine
 10
182.2049246685685
 20
385.5944253615934
 30
0.0
 11
182.2049246685685
 21
354.3699530874235
 31
0.0
  0
LINE
  5
2208
330
2203
100
AcDbEntity
  8
寸法
  6
Continuous
 62
     0
370
    -2
100
AcDbLine
 10
171.1049246685685
 20
355.6199530874235
 30
0.0
 11
179.7049246685685
 21
355.6199530874235
 31
0.0
  0
SOLID
  5
2209
330
2203
100
AcDbEntity
  8
寸法
 62
     0
100
AcDbTrace
 10
171.1049246685685
 20
356.0366197540902
 30
0.0
 11
171.1049246685685
 21
355.2032864207569
 31
0.0
 12
168.6049246685685
 22
355.6199530874235
 32
0.0
 13
168.6049246685685
 23
355.6199530874235
 33
0.0
  0
SOLID
  5
220A
330
2203
100
AcDbEntity
  8
寸法
 62
     0
100
AcDbTrace
 10
179.7049246685685
 20
355.2032864207569
 30
0.0
 11
179.7049246685685
 21
356.0366197540902
 31
0.0
 12
182.2049246685685
 22
355.6199530874235
 32
0.0
 13
182.2049246685685
 23
355.6199530874235
 33
0.0
  0
MTEXT
  5
220B
330
2203
100
AcDbEntity
  8
寸法
  6
Continuous
 62
     0
100
AcDbMText
 10
175.0489457859396
 20
351.7799530874235
 30
0.0
 40
5.0
 41
0.0
 46
0.0
 71
     5
 72
     1
  1
6.8
 73
     1
 44
1.0
  0
POINT
  5
220C
330
2203
100
AcDbEntity
  8
Defpoints
 62
     0
100
AcDbPoint
 10
168.6049246685685
 20
386.2194253615934
 30
0.0
  0
POINT
  5
220D
330
2203
100
AcDbEntity
  8
Defpoints
 62
     0
100
AcDbPoint
 10
182.2049246685685
 20
386.2194253615934
 30
0.0
  0
POINT
  5
220E
330
2203
100
AcDbEntity
  8
Defpoints
 62
     0
100
AcDbPoint
 10
182.2049246685685
 20
355.6199530874235
 30
0.0
  0
ENDBLK
  5
2205
330
2203
100
AcDbEntity
  8
0
100
AcDbBlockEnd
  0
BLOCK
  5
2213
330
2212
100
AcDbEntity
  8
0
100
AcDbBlockBegin
  2
*D8
 70
     1
 10
0.0
 20
0.0
 30
0.0
  3
*D8
  1
*D206
  0
LINE
  5
2215
330
2212
100
AcDbEntity
  8
寸法
  6
Continuous
 62
     0
370
    -2
100
AcDbLine
 10
168.6049246685685
 20
385.5944253615934
 30
0.0
 11
168.6049246685685
 21
354.3699530874235
 31
0.0
  0
LINE
  5
2216
330
2212
100
AcDbEntity
  8
寸法
  6
Continuous
 62
     0
370
    -2
100
AcDbLine
 10
167.6049246685685
 20
387.1944253615935
 30
0.0
 11
167.6049246685685
 21
354.3699530874235
 31
0.0
  0
LINE
  5
2217
330
2212
100
AcDbEntity
  8
寸法
  6
Continuous
 62
     0
370
    -2
100
AcDbLine
 10
171.1049246685685
 20
355.6199530874235
 30
0.0
 11
173.6049246685685
 21
355.6199530874235
 31
0.0
  0
LINE
  5
2218
330
2212
100
AcDbEntity
  8
寸法
  6
Continuous
 62
     0
370
    -2
100
AcDbLine
 10
165.1049246685685
 20
355.6199530874235
 30
0.0
 11
162.6049246685685
 21
355.6199530874235
 31
0.0
  0
SOLID
  5
2219
330
2212
100
AcDbEntity
  8
寸法
 62
     0
100
AcDbTrace
 10
171.1049246685685
 20
356.0366197540902
 30
0.0
 11
171.1049246685685
 21
355.2032864207569
 31
0.0
 12
168.6049246685685
 22
355.6199530874235
 32
0.0
 13
168.6049246685685
 23
355.6199530874235
 33
0.0
  0
SOLID
  5
221A
330
2212
100
AcDbEntity
  8
寸法
 62
     0
100
AcDbTrace
 10
165.1049246685685
 20
355.2032864207569
 30
0.0
 11
165.1049246685685
 21
356.0366197540902
 31
0.0
 12
167.6049246685685
 22
355.6199530874235
 32
0.0
 13
167.6049246685685
 23
355.6199530874235
 33
0.0
  0
MTEXT
  5
221B
330
2212
100
AcDbEntity
  8
寸法
  6
Continuous
 62
     0
100
AcDbMText
 10
156.8010691779397
 20
355.0245749114236
 30
0.0
 40
5.0
 41
0.0
 46
0.0
 71
     5
 72
     1
  1
0.5
 73
     1
 44
1.0
  0
POINT
  5
221C
330
2212
100
AcDbEntity
  8
Defpoints
 62
     0
100
AcDbPoint
 10
168.6049246685685
 20
386.2194253615934
 30
0.0
  0
POINT
  5
221D
330
2212
100
AcDbEntity
  8
Defpoints
 62
     0
100
AcDbPoint
 10
167.6049246685685
 20
387.8194253615935
 30
0.0
  0
POINT
  5
221E
330
2212
100
AcDbEntity
  8
Defpoints
 62
     0
100
AcDbPoint
 10
167.6049246685685
 20
355.6199530874235
 30
0.0
  0
ENDBLK
  5
2214
330
2212
100
AcDbEntity
  8
0
100
AcDbBlockEnd
  0
BLOCK
  5
2223
330
2222
100
AcDbEntity
  8
0
100
AcDbBlockBegin
  2
*D9
 70
     1
 10
0.0
 20
0.0
 30
0.0
  3
*D9
  1
*D207
  0
LINE
  5
2225
330
2222
100
AcDbEntity
  8
寸法
  6
Continuous
 62
     0
370
    -2
100
AcDbLine
 10
166.9799246685685
 20
387.8194253615935
 30
0.0
 11
158.2443318115396
 21
387.8194253615935
 31
0.0
  0
LINE
  5
2226
330
2222
100
AcDbEntity
  8
寸法
  6
Continuous
 62
     0
370
    -2
100
AcDbLine
 10
167.9799246685685
 20
386.2194253615934
 30
0.0
 11
158.2443318115396
 21
386.2194253615934
 31
0.0
  0
LINE
  5
2227
330
2222
100
AcDbEntity
  8
寸法
  6
Continuous
 62
     0
370
    -2
100
AcDbLine
 10
159.4943318115396
 20
390.3194253615935
 30
0.0
 11
159.4943318115396
 21
392.8194253615935
 31
0.0
  0
LINE
  5
2228
330
2222
100
AcDbEntity
  8
寸法
  6
Continuous
 62
     0
370
    -2
100
AcDbLine
 10
159.4943318115396
 20
383.7194253615934
 30
0.0
 11
159.4943318115396
 21
381.2194253615934
 31
0.0
  0
SOLID
  5
2229
330
2222
100
AcDbEntity
  8
寸法
 62
     0
100
AcDbTrace
 10
159.077665144873
 20
390.3194253615935
 30
0.0
 11
159.9109984782063
 21
390.3194253615935
 31
0.0
 12
159.4943318115396
 22
387.8194253615935
 32
0.0
 13
159.4943318115396
 23
387.8194253615935
 33
0.0
  0
SOLID
  5
222A
330
2222
100
AcDbEntity
  8
寸法
 62
     0
100
AcDbTrace
 10
159.9109984782063
 20
383.7194253615934
 30
0.0
 11
159.077665144873
 21
383.7194253615934
 31
0.0
 12
159.4943318115396
 22
386.2194253615934
 32
0.0
 13
159.4943318115396
 23
386.2194253615934
 33
0.0
  0
MTEXT
  5
222B
330
2222
100
AcDbEntity
  8
寸法
  6
Continuous
 62
     0
100
AcDbMText
 10
159.4440001635396
 20
378.6014600800635
 30
0.0
 40
5.0
 41
0.0
 46
0.0
 71
     5
 72
     1
  1
0.8
 73
     1
 44
1.0
  0
POINT
  5
222C
330
2222
100
AcDbEntity
  8
Defpoints
 62
     0
100
AcDbPoint
 10
167.6049246685685
 20
387.8194253615935
 30
0.0
  0
POINT
  5
222D
330
2222
100
AcDbEntity
  8
Defpoints
 62
     0
100
AcDbPoint
 10
168.6049246685685
 20
386.2194253615934
 30
0.0
  0
POINT
  5
222E
330
2222
100
AcDbEntity
  8
Defpoints
 62
     0
100
AcDbPoint
 10
159.4943318115396
 20
386.2194253615934
 30
0.0
  0
ENDBLK
  5
2224
330
2222
100
AcDbEntity
  8
0
100
AcDbBlockEnd
  0
BLOCK
  5
2243
330
2242
100
AcDbEntity
  8
0
100
AcDbBlockBegin
  2
*D10
 70
     1
 10
0.0
 20
0.0
 30
0.0
  3
*D10
  1
*D209
  0
LINE
  5
2245
330
2242
100
AcDbEntity
  8
寸法
  6
Continuous
 62
     0
370
    -2
100
AcDbLine
 10
169.2049246685685
 20
385.5944253615934
 30
0.0
 11
169.2049246685685
 21
367.4293916000635
 31
0.0
  0
LINE
  5
2246
330
2242
100
AcDbEntity
  8
寸法
  6
Continuous
 62
     0
370
    -2
100
AcDbLine
 10
181.6049246685686
 20
385.5944253615934
 30
0.0
 11
181.6049246685686
 21
367.4293916000635
 31
0.0
  0
LINE
  5
2247
330
2242
100
AcDbEntity
  8
寸法
  6
Continuous
 62
     0
370
    -2
100
AcDbLine
 10
171.7049246685685
 20
368.6793916000635
 30
0.0
 11
179.1049246685686
 21
368.6793916000635
 31
0.0
  0
SOLID
  5
2248
330
2242
100
AcDbEntity
  8
寸法
 62
     0
100
AcDbTrace
 10
171.7049246685685
 20
369.0960582667302
 30
0.0
 11
171.7049246685685
 21
368.2627249333968
 31
0.0
 12
169.2049246685685
 22
368.6793916000635
 32
0.0
 13
169.2049246685685
 23
368.6793916000635
 33
0.0
  0
SOLID
  5
2249
330
2242
100
AcDbEntity
  8
寸法
 62
     0
100
AcDbTrace
 10
179.1049246685686
 20
368.2627249333968
 30
0.0
 11
179.1049246685686
 21
369.0960582667302
 31
0.0
 12
181.6049246685686
 22
368.6793916000635
 32
0.0
 13
181.6049246685686
 23
368.6793916000635
 33
0.0
  0
MTEXT
  5
224A
330
2242
100
AcDbEntity
  8
寸法
  6
Continuous
 62
     0
100
AcDbMText
 10
175.3007179875396
 20
364.3785916000635
 30
0.0
 40
5.0
 41
0.0
 46
0.0
 71
     5
 72
     1
  1
6.2
 73
     1
 44
1.0
  0
POINT
  5
224B
330
2242
100
AcDbEntity
  8
Defpoints
 62
     0
100
AcDbPoint
 10
169.2049246685685
 20
386.2194253615934
 30
0.0
  0
POINT
  5
224C
330
2242
100
AcDbEntity
  8
Defpoints
 62
     0
100
AcDbPoint
 10
181.6049246685686
 20
386.2194253615934
 30
0.0
  0
POINT
  5
224D
330
2242
100
AcDbEntity
  8
Defpoints
 62
     0
100
AcDbPoint
 10
181.6049246685686
 20
368.6793916000635
 30
0.0
  0
ENDBLK
  5
2244
330
2242
100
AcDbEntity
  8
0
100
AcDbBlockEnd
  0
BLOCK
  5
2252
330
2251
100
AcDbEntity
  8
0
100
AcDbBlockBegin
  2
*D11
 70
     1
 10
0.0
 20
0.0
 30
0.0
  3
*D11
  1
*D210
  0
LINE
  5
2254
330
2251
100
AcDbEntity
  8
寸法
  6
Continuous
 62
     0
370
    -2
100
AcDbLine
 10
169.2049246685685
 20
385.5944253615934
 30
0.0
 11
169.2049246685685
 21
367.4293916000635
 31
0.0
  0
LINE
  5
2255
330
2251
100
AcDbEntity
  8
寸法
  6
Continuous
 62
     0
370
    -2
100
AcDbLine
 10
167.6049246685685
 20
385.5944253615934
 30
0.0
 11
167.6049246685685
 21
367.4293916000635
 31
0.0
  0
LINE
  5
2256
330
2251
100
AcDbEntity
  8
寸法
  6
Continuous
 62
     0
370
    -2
100
AcDbLine
 10
171.7049246685685
 20
368.6793916000635
 30
0.0
 11
174.2049246685685
 21
368.6793916000635
 31
0.0
  0
LINE
  5
2257
330
2251
100
AcDbEntity
  8
寸法
  6
Continuous
 62
     0
370
    -2
100
AcDbLine
 10
165.1049246685685
 20
368.6793916000635
 30
0.0
 11
162.6049246685685
 21
368.6793916000635
 31
0.0
  0
SOLID
  5
2258
330
2251
100
AcDbEntity
  8
寸法
 62
     0
100
AcDbTrace
 10
171.7049246685685
 20
369.0960582667302
 30
0.0
 11
171.7049246685685
 21
368.2627249333968
 31
0.0
 12
169.2049246685685
 22
368.6793916000635
 32
0.0
 13
169.2049246685685
 23
368.6793916000635
 33
0.0
  0
SOLID
  5
2259
330
2251
100
AcDbEntity
  8
寸法
 62
     0
100
AcDbTrace
 10
165.1049246685685
 20
368.2627249333968
 30
0.0
 11
165.1049246685685
 21
369.0960582667302
 31
0.0
 12
167.6049246685685
 22
368.6793916000635
 32
0.0
 13
167.6049246685685
 23
368.6793916000635
 33
0.0
  0
MTEXT
  5
225A
330
2251
100
AcDbEntity
  8
寸法
  6
Continuous
 62
     0
100
AcDbMText
 10
157.1243463328837
 20
368.5396805790076
 30
0.0
 40
5.0
 41
0.0
 46
0.0
 71
     5
 72
     1
  1
0.8
 73
     1
 44
1.0
  0
POINT
  5
225B
330
2251
100
AcDbEntity
  8
Defpoints
 62
     0
100
AcDbPoint
 10
169.2049246685685
 20
386.2194253615934
 30
0.0
  0
POINT
  5
225C
330
2251
100
AcDbEntity
  8
Defpoints
 62
     0
100
AcDbPoint
 10
167.6049246685685
 20
386.2194253615934
 30
0.0
  0
POINT
  5
225D
330
2251
100
AcDbEntity
  8
Defpoints
 62
     0
100
AcDbPoint
 10
167.6049246685685
 20
368.6793916000635
 30
0.0
  0
ENDBLK
  5
2253
330
2251
100
AcDbEntity
  8
0
100
AcDbBlockEnd
  0
BLOCK
  5
2262
330
2261
100
AcDbEntity
  8
0
100
AcDbBlockBegin
  2
*D12
 70
     1
 10
0.0
 20
0.0
 30
0.0
  3
*D12
  1
*D211
  0
LINE
  5
2264
330
2261
100
AcDbEntity
  8
寸法
  6
Continuous
 62
     0
370
    -2
100
AcDbLine
 10
169.8049246685685
 20
398.4444253615935
 30
0.0
 11
169.8049246685685
 21
410.2750435774074
 31
0.0
  0
LINE
  5
2265
330
2261
100
AcDbEntity
  8
寸法
  6
Continuous
 62
     0
370
    -2
100
AcDbLine
 10
181.0049246685685
 20
398.4444253615935
 30
0.0
 11
181.0049246685685
 21
410.2750435774074
 31
0.0
  0
LINE
  5
2266
330
2261
100
AcDbEntity
  8
寸法
  6
Continuous
 62
     0
370
    -2
100
AcDbLine
 10
172.3049246685685
 20
409.0250435774074
 30
0.0
 11
178.5049246685685
 21
409.0250435774074
 31
0.0
  0
SOLID
  5
2267
330
2261
100
AcDbEntity
  8
寸法
 62
     0
100
AcDbTrace
 10
172.3049246685685
 20
409.4417102440741
 30
0.0
 11
172.3049246685685
 21
408.6083769107407
 31
0.0
 12
169.8049246685685
 22
409.0250435774074
 32
0.0
 13
169.8049246685685
 23
409.0250435774074
 33
0.0
  0
SOLID
  5
2268
330
2261
100
AcDbEntity
  8
寸法
 62
     0
100
AcDbTrace
 10
178.5049246685685
 20
408.6083769107407
 30
0.0
 11
178.5049246685685
 21
409.4417102440741
 31
0.0
 12
181.0049246685685
 22
409.0250435774074
 32
0.0
 13
181.0049246685685
 23
409.0250435774074
 33
0.0
  0
MTEXT
  5
2269
330
2261
100
AcDbEntity
  8
寸法
  6
Continuous
 62
     0
100
AcDbMText
 10
175.4049246685685
 20
412.9590435774074
 30
0.0
 40
5.0
 41
0.0
 46
0.0
 71
     5
 72
     1
  1
5.6
 73
     1
 44
1.0
  0
POINT
  5
226A
330
2261
100
AcDbEntity
  8
Defpoints
 62
     0
100
AcDbPoint
 10
169.8049246685685
 20
397.8194253615935
 30
0.0
  0
POINT
  5
226B
330
2261
100
AcDbEntity
  8
Defpoints
 62
     0
100
AcDbPoint
 10
181.0049246685685
 20
397.8194253615935
 30
0.0
  0
POINT
  5
226C
330
2261
100
AcDbEntity
  8
Defpoints
 62
     0
100
AcDbPoint
 10
181.0049246685685
 20
409.0250435774074
 30
0.0
  0
ENDBLK
  5
2263
330
2261
100
AcDbEntity
  8
0
100
AcDbBlockEnd
  0
BLOCK
  5
2271
330
2270
100
AcDbEntity
  8
0
100
AcDbBlockBegin
  2
*D13
 70
     1
 10
0.0
 20
0.0
 30
0.0
  3
*D13
  1
*D212
  0
LINE
  5
2273
330
2270
100
AcDbEntity
  8
寸法
  6
Continuous
 62
     0
370
    -2
100
AcDbLine
 10
171.2049246685685
 20
394.7898419400581
 30
0.0
 11
171.2049246685685
 21
403.3669613746463
 31
0.0
  0
LINE
  5
2274
330
2270
100
AcDbEntity
  8
寸法
  6
Continuous
 62
     0
370
    -2
100
AcDbLine
 10
179.6049246685686
 20
395.6354055588324
 30
0.0
 11
179.6049246685686
 21
403.3669613746463
 31
0.0
  0
LINE
  5
2275
330
2270
100
AcDbEntity
  8
寸法
  6
Continuous
 62
     0
370
    -2
100
AcDbLine
 10
173.7049246685685
 20
402.1169613746463
 30
0.0
 11
177.1049246685686
 21
402.1169613746463
 31
0.0
  0
SOLID
  5
2276
330
2270
100
AcDbEntity
  8
寸法
 62
     0
100
AcDbTrace
 10
173.7049246685685
 20
402.533628041313
 30
0.0
 11
173.7049246685685
 21
401.7002947079797
 31
0.0
 12
171.2049246685685
 22
402.1169613746463
 32
0.0
 13
171.2049246685685
 23
402.1169613746463
 33
0.0
  0
SOLID
  5
2277
330
2270
100
AcDbEntity
  8
寸法
 62
     0
100
AcDbTrace
 10
177.1049246685686
 20
401.7002947079797
 30
0.0
 11
177.1049246685686
 21
402.533628041313
 31
0.0
 12
179.6049246685686
 22
402.1169613746463
 32
0.0
 13
179.6049246685686
 23
402.1169613746463
 33
0.0
  0
MTEXT
  5
2278
330
2270
100
AcDbEntity
  8
寸法
  6
Continuous
 62
     0
100
AcDbMText
 10
175.4049246685685
 20
405.9704781746463
 30
0.0
 40
5.0
 41
0.0
 46
0.0
 71
     5
 72
     1
  1
4.2
 73
     1
 44
1.0
  0
POINT
  5
2279
330
2270
100
AcDbEntity
  8
Defpoints
 62
     0
100
AcDbPoint
 10
171.2049246685685
 20
394.1648419400581
 30
0.0
  0
POINT
  5
227A
330
2270
100
AcDbEntity
  8
Defpoints
 62
     0
100
AcDbPoint
 10
179.6049246685686
 20
395.0104055588324
 30
0.0
  0
POINT
  5
227B
330
2270
100
AcDbEntity
  8
Defpoints
 62
     0
100
AcDbPoint
 10
179.6049246685686
 20
402.1169613746463
 30
0.0
  0
ENDBLK
  5
2272
330
2270
100
AcDbEntity
  8
0
100
AcDbBlockEnd
  0
BLOCK
  5
2280
330
227F
100
AcDbEntity
  8
0
100
AcDbBlockBegin
  2
*D14
 70
     1
 10
0.0
 20
0.0
 30
0.0
  3
*D14
  1
*D213
  0
LINE
  5
2282
330
227F
100
AcDbEntity
  8
寸法
  6
Continuous
 62
     0
370
    -2
100
AcDbLine
 10
169.8049246685685
 20
398.4444253615935
 30
0.0
 11
169.8049246685685
 21
410.2750435774074
 31
0.0
  0
LINE
  5
2283
330
227F
100
AcDbEntity
  8
寸法
  6
Continuous
 62
     0
370
    -2
100
AcDbLine
 10
167.6049246685685
 20
398.8444253615934
 30
0.0
 11
167.6049246685685
 21
410.2750435774074
 31
0.0
  0
LINE
  5
2284
330
227F
100
AcDbEntity
  8
寸法
  6
Continuous
 62
     0
370
    -2
100
AcDbLine
 10
172.3049246685685
 20
409.0250435774074
 30
0.0
 11
174.8049246685685
 21
409.0250435774074
 31
0.0
  0
LINE
  5
2285
330
227F
100
AcDbEntity
  8
寸法
  6
Continuous
 62
     0
370
    -2
100
AcDbLine
 10
165.1049246685685
 20
409.0250435774074
 30
0.0
 11
162.6049246685685
 21
409.0250435774074
 31
0.0
  0
SOLID
  5
2286
330
227F
100
AcDbEntity
  8
寸法
 62
     0
100
AcDbTrace
 10
172.3049246685685
 20
409.4417102440741
 30
0.0
 11
172.3049246685685
 21
408.6083769107407
 31
0.0
 12
169.8049246685685
 22
409.0250435774074
 32
0.0
 13
169.8049246685685
 23
409.0250435774074
 33
0.0
  0
SOLID
  5
2287
330
227F
100
AcDbEntity
  8
寸法
 62
     0
100
AcDbTrace
 10
165.1049246685685
 20
408.6083769107407
 30
0.0
 11
165.1049246685685
 21
409.4417102440741
 31
0.0
 12
167.6049246685685
 22
409.0250435774074
 32
0.0
 13
167.6049246685685
 23
409.0250435774074
 33
0.0
  0
MTEXT
  5
2288
330
227F
100
AcDbEntity
  8
寸法
  6
Continuous
 62
     0
100
AcDbMText
 10
158.9677093348931
 20
409.0832457555579
 30
0.0
 40
5.0
 41
0.0
 46
0.0
 71
     5
 72
     1
  1
1.1
 73
     1
 44
1.0
  0
POINT
  5
2289
330
227F
100
AcDbEntity
  8
Defpoints
 62
     0
100
AcDbPoint
 10
169.8049246685685
 20
397.8194253615935
 30
0.0
  0
POINT
  5
228A
330
227F
100
AcDbEntity
  8
Defpoints
 62
     0
100
AcDbPoint
 10
167.6049246685685
 20
398.2194253615934
 30
0.0
  0
POINT
  5
228B
330
227F
100
AcDbEntity
  8
Defpoints
 62
     0
100
AcDbPoint
 10
167.6049246685685
 20
409.0250435774074
 30
0.0
  0
ENDBLK
  5
2281
330
227F
100
AcDbEntity
  8
0
100
AcDbBlockEnd
  0
BLOCK
  5
2290
330
228F
100
AcDbEntity
  8
0
100
AcDbBlockBegin
  2
*D15
 70
     1
 10
0.0
 20
0.0
 30
0.0
  3
*D15
  1
*D214
  0
LINE
  5
2292
330
228F
100
AcDbEntity
  8
寸法
  6
Continuous
 62
     0
370
    -2
100
AcDbLine
 10
171.2049246685685
 20
394.7898419400581
 30
0.0
 11
171.2049246685685
 21
403.3669613746463
 31
0.0
  0
LINE
  5
2293
330
228F
100
AcDbEntity
  8
寸法
  6
Continuous
 62
     0
370
    -2
100
AcDbLine
 10
169.8049246685685
 20
399.0354055588324
 30
0.0
 11
169.8049246685685
 21
403.3669613746463
 31
0.0
  0
LINE
  5
2294
330
228F
100
AcDbEntity
  8
寸法
  6
Continuous
 62
     0
370
    -2
100
AcDbLine
 10
173.7049246685685
 20
402.1169613746463
 30
0.0
 11
176.2049246685685
 21
402.1169613746463
 31
0.0
  0
LINE
  5
2295
330
228F
100
AcDbEntity
  8
寸法
  6
Continuous
 62
     0
370
    -2
100
AcDbLine
 10
167.3049246685685
 20
402.1169613746463
 30
0.0
 11
164.8049246685685
 21
402.1169613746463
 31
0.0
  0
SOLID
  5
2296
330
228F
100
AcDbEntity
  8
寸法
 62
     0
100
AcDbTrace
 10
173.7049246685685
 20
402.533628041313
 30
0.0
 11
173.7049246685685
 21
401.7002947079797
 31
0.0
 12
171.2049246685685
 22
402.1169613746463
 32
0.0
 13
171.2049246685685
 23
402.1169613746463
 33
0.0
  0
SOLID
  5
2297
330
228F
100
AcDbEntity
  8
寸法
 62
     0
100
AcDbTrace
 10
167.3049246685685
 20
401.7002947079797
 30
0.0
 11
167.3049246685685
 21
402.533628041313
 31
0.0
 12
169.8049246685685
 22
402.1169613746463
 32
0.0
 13
169.8049246685685
 23
402.1169613746463
 33
0.0
  0
MTEXT
  5
2298
330
228F
100
AcDbEntity
  8
寸法
  6
Continuous
 62
     0
100
AcDbMText
 10
160.3728431179331
 20
401.7906776903968
 30
0.0
 40
5.0
 41
0.0
 46
0.0
 71
     5
 72
     1
  1
0.7
 73
     1
 44
1.0
  0
POINT
  5
2299
330
228F
100
AcDbEntity
  8
Defpoints
 62
     0
100
AcDbPoint
 10
171.2049246685685
 20
394.1648419400581
 30
0.0
  0
POINT
  5
229A
330
228F
100
AcDbEntity
  8
Defpoints
 62
     0
100
AcDbPoint
 10
169.8049246685685
 20
398.4104055588324
 30
0.0
  0
POINT
  5
229B
330
228F
100
AcDbEntity
  8
Defpoints
 62
     0
100
AcDbPoint
 10
169.8049246685685
 20
402.1169613746463
 30
0.0
  0
ENDBLK
  5
2291
330
228F
100
AcDbEntity
  8
0
100
AcDbBlockEnd
  0
BLOCK
  5
22A0
330
229F
100
AcDbEntity
  8
0
100
AcDbBlockBegin
  2
*D16
 70
     1
 10
0.0
 20
0.0
 30
0.0
  3
*D16
  1
*D215
  0
LINE
  5
22A2
330
229F
100
AcDbEntity
  8
寸法
  6
Continuous
 62
     0
370
    -2
100
AcDbLine
 10
183.8299246685685
 20
398.2194253615934
 30
0.0
 11
222.7618515201091
 21
398.2194253615934
 31
0.0
  0
LINE
  5
22A3
330
229F
100
AcDbEntity
  8
寸法
  6
Continuous
 62
     0
370
    -2
100
AcDbLine
 10
182.8299246685685
 20
386.2194253615934
 30
0.0
 11
222.7618515201091
 21
386.2194253615934
 31
0.0
  0
LINE
  5
22A4
330
229F
100
AcDbEntity
  8
寸法
  6
Continuous
 62
     0
370
    -2
100
AcDbLine
 10
221.5118515201091
 20
395.7194253615934
 30
0.0
 11
221.5118515201091
 21
388.7194253615934
 31
0.0
  0
SOLID
  5
22A5
330
229F
100
AcDbEntity
  8
寸法
 62
     0
100
AcDbTrace
 10
221.9285181867757
 20
395.7194253615934
 30
0.0
 11
221.0951848534424
 21
395.7194253615934
 31
0.0
 12
221.5118515201091
 22
398.2194253615934
 32
0.0
 13
221.5118515201091
 23
398.2194253615934
 33
0.0
  0
SOLID
  5
22A6
330
229F
100
AcDbEntity
  8
寸法
 62
     0
100
AcDbTrace
 10
221.0951848534424
 20
388.7194253615934
 30
0.0
 11
221.9285181867757
 21
388.7194253615934
 31
0.0
 12
221.5118515201091
 22
386.2194253615934
 32
0.0
 13
221.5118515201091
 23
386.2194253615934
 33
0.0
  0
MTEXT
  5
22A7
330
229F
100
AcDbEntity
  8
寸法
  6
Continuous
 62
     0
100
AcDbMText
 10
226.2304435201091
 20
392.3817578489978
 30
0.0
 40
5.0
 41
0.0
 46
0.0
 71
     5
 72
     1
  1
6
 73
     1
 44
1.0
  0
POINT
  5
22A8
330
229F
100
AcDbEntity
  8
Defpoints
 62
     0
100
AcDbPoint
 10
183.2049246685685
 20
398.2194253615934
 30
0.0
  0
POINT
  5
22A9
330
229F
100
AcDbEntity
  8
Defpoints
 62
     0
100
AcDbPoint
 10
182.2049246685685
 20
386.2194253615934
 30
0.0
  0
POINT
  5
22AA
330
229F
100
AcDbEntity
  8
Defpoints
 62
     0
100
AcDbPoint
 10
221.5118515201091
 20
386.2194253615934
 30
0.0
  0
ENDBLK
  5
22A1
330
229F
100
AcDbEntity
  8
0
100
AcDbBlockEnd
  0
BLOCK
  5
22B0
330
22AF
100
AcDbEntity
  8
0
100
AcDbBlockBegin
  2
*D17
 70
     1
 10
0.0
 20
0.0
 30
0.0
  3
*D17
  1
*D216
  0
LINE
  5
22B2
330
22AF
100
AcDbEntity
  8
寸法
  6
Continuous
 62
     0
370
    -2
100
AcDbLine
 10
183.018329109406
 20
387.687076452737
 30
0.0
 11
184.9146649098712
 21
386.0579937255945
 31
0.0
  0
MTEXT
  5
22B3
330
22AF
100
AcDbEntity
  8
寸法
  6
Continuous
 62
     0
100
AcDbMText
 10
188.1825044522053
 20
382.3834615289978
 30
0.0
 40
5.0
 41
0.0
 46
0.0
 71
     5
 72
     1
  1
R1
 73
     1
 44
1.0
  0
SOLID
  5
22B4
330
22AF
100
AcDbEntity
  8
寸法
 62
     0
100
AcDbTrace
 10
183.289842897263
 20
388.0031324194812
 30
0.0
 11
182.7468153215489
 21
387.3710204859927
 31
0.0
 12
181.1219933089407
 22
389.3161591798794
 32
0.0
 13
181.1219933089407
 23
389.3161591798794
 33
0.0
  0
POINT
  5
22B5
330
22AF
100
AcDbEntity
  8
Defpoints
 62
     0
100
AcDbPoint
 10
181.1219933089407
 20
389.3161591798794
 30
0.0
  0
POINT
  5
22B6
330
22AF
100
AcDbEntity
  8
Defpoints
 62
     0
100
AcDbPoint
 10
179.6049246685686
 20
390.6194253615934
 30
0.0
  0
ENDBLK
  5
22B1
330
22AF
100
AcDbEntity
  8
0
100
AcDbBlockEnd
  0
BLOCK
  5
22C3
330
22C2
100
AcDbEntity
  8
0
100
AcDbBlockBegin
  2
*D18
 70
     1
 10
0.0
 20
0.0
 30
0.0
  3
*D18
  1
*D217
  0
LINE
  5
22C5
330
22C2
100
AcDbEntity
  8
寸法
  6
Continuous
 62
     0
370
    -2
100
AcDbLine
 10
181.6302801981234
 20
396.6104055588324
 30
0.0
 11
199.4639670979651
 21
396.6104055588324
 31
0.0
  0
LINE
  5
22C6
330
22C2
100
AcDbEntity
  8
寸法
  6
Continuous
 62
     0
370
    -2
100
AcDbLine
 10
183.8299246685685
 20
398.2194253615934
 30
0.0
 11
199.4639670979651
 21
398.2194253615934
 31
0.0
  0
LINE
  5
22C7
330
22C2
100
AcDbEntity
  8
寸法
  6
Continuous
 62
     0
370
    -2
100
AcDbLine
 10
198.2139670979651
 20
394.1104055588324
 30
0.0
 11
198.2139670979651
 21
391.6104055588324
 31
0.0
  0
LINE
  5
22C8
330
22C2
100
AcDbEntity
  8
寸法
  6
Continuous
 62
     0
370
    -2
100
AcDbLine
 10
198.2139670979651
 20
400.7194253615934
 30
0.0
 11
198.2139670979651
 21
403.2194253615934
 31
0.0
  0
SOLID
  5
22C9
330
22C2
100
AcDbEntity
  8
寸法
 62
     0
100
AcDbTrace
 10
198.6306337646318
 20
394.1104055588324
 30
0.0
 11
197.7973004312985
 21
394.1104055588324
 31
0.0
 12
198.2139670979651
 22
396.6104055588324
 32
0.0
 13
198.2139670979651
 23
396.6104055588324
 33
0.0
  0
SOLID
  5
22CA
330
22C2
100
AcDbEntity
  8
寸法
 62
     0
100
AcDbTrace
 10
197.7973004312985
 20
400.7194253615934
 30
0.0
 11
198.6306337646318
 21
400.7194253615934
 31
0.0
 12
198.2139670979651
 22
398.2194253615934
 32
0.0
 13
198.2139670979651
 23
398.2194253615934
 33
0.0
  0
MTEXT
  5
22CB
330
22C2
100
AcDbEntity
  8
寸法
  6
Continuous
 62
     0
100
AcDbMText
 10
199.6112743097411
 20
406.5766019537017
 30
0.0
 40
5.0
 41
0.0
 46
0.0
 71
     5
 72
     1
  1
0.8
 73
     1
 44
1.0
  0
POINT
  5
22CC
330
22C2
100
AcDbEntity
  8
Defpoints
 62
     0
100
AcDbPoint
 10
181.0052801981234
 20
396.6104055588324
 30
0.0
  0
POINT
  5
22CD
330
22C2
100
AcDbEntity
  8
Defpoints
 62
     0
100
AcDbPoint
 10
183.2049246685685
 20
398.2194253615934
 30
0.0
  0
POINT
  5
22CE
330
22C2
100
AcDbEntity
  8
Defpoints
 62
     0
100
AcDbPoint
 10
198.2139670979651
 20
398.2194253615934
 30
0.0
  0
ENDBLK
  5
22C4
330
22C2
100
AcDbEntity
  8
0
100
AcDbBlockEnd
  0
BLOCK
  5
22D4
330
22D3
100
AcDbEntity
  8
0
100
AcDbBlockBegin
  2
*D19
 70
     1
 10
0.0
 20
0.0
 30
0.0
  3
*D19
  1
*D218
  0
LINE
  5
22D6
330
22D3
100
AcDbEntity
  8
寸法
  6
Continuous
 62
     0
370
    -2
100
AcDbLine
 10
181.6302801981234
 20
396.6104055588324
 30
0.0
 11
199.4639670979651
 21
396.6104055588324
 31
0.0
  0
LINE
  5
22D7
330
22D3
100
AcDbEntity
  8
寸法
  6
Continuous
 62
     0
370
    -2
100
AcDbLine
 10
182.2302801981235
 20
393.0194253615935
 30
0.0
 11
199.4639670979651
 21
393.0194253615935
 31
0.0
  0
LINE
  5
22D8
330
22D3
100
AcDbEntity
  8
寸法
  6
Continuous
 62
     0
370
    -2
100
AcDbLine
 10
198.2139670979651
 20
399.1104055588324
 30
0.0
 11
198.2139670979651
 21
401.6104055588324
 31
0.0
  0
LINE
  5
22D9
330
22D3
100
AcDbEntity
  8
寸法
  6
Continuous
 62
     0
370
    -2
100
AcDbLine
 10
198.2139670979651
 20
390.5194253615935
 30
0.0
 11
198.2139670979651
 21
388.0194253615935
 31
0.0
  0
SOLID
  5
22DA
330
22D3
100
AcDbEntity
  8
寸法
 62
     0
100
AcDbTrace
 10
197.7973004312985
 20
399.1104055588324
 30
0.0
 11
198.6306337646318
 21
399.1104055588324
 31
0.0
 12
198.2139670979651
 22
396.6104055588324
 32
0.0
 13
198.2139670979651
 23
396.6104055588324
 33
0.0
  0
SOLID
  5
22DB
330
22D3
100
AcDbEntity
  8
寸法
 62
     0
100
AcDbTrace
 10
198.6306337646318
 20
390.5194253615935
 30
0.0
 11
197.7973004312985
 21
390.5194253615935
 31
0.0
 12
198.2139670979651
 22
393.0194253615935
 32
0.0
 13
198.2139670979651
 23
393.0194253615935
 33
0.0
  0
MTEXT
  5
22DC
330
22D3
100
AcDbEntity
  8
寸法
  6
Continuous
 62
     0
100
AcDbMText
 10
207.4474728984372
 20
395.5665539537017
 30
0.0
 40
5.0
 41
0.0
 46
0.0
 71
     5
 72
     1
  1
1.8
 73
     1
 44
1.0
  0
POINT
  5
22DD
330
22D3
100
AcDbEntity
  8
Defpoints
 62
     0
100
AcDbPoint
 10
181.0052801981234
 20
396.6104055588324
 30
0.0
  0
POINT
  5
22DE
330
22D3
100
AcDbEntity
  8
Defpoints
 62
     0
100
AcDbPoint
 10
181.6052801981235
 20
393.0194253615935
 30
0.0
  0
POINT
  5
22DF
330
22D3
100
AcDbEntity
  8
Defpoints
 62
     0
100
AcDbPoint
 10
198.2139670979651
 20
393.0194253615935
 30
0.0
  0
ENDBLK
  5
22D5
330
22D3
100
AcDbEntity
  8
0
100
AcDbBlockEnd
  0
BLOCK
  5
22E4
330
22E3
100
AcDbEntity
  8
0
100
AcDbBlockBegin
  2
*D20
 70
     1
 10
0.0
 20
0.0
 30
0.0
  3
*D20
  1
*D219
  0
LINE
  5
22E6
330
22E3
100
AcDbEntity
  8
寸法
  6
Continuous
 62
     0
370
    -2
100
AcDbLine
 10
182.2302801981235
 20
393.0194253615935
 30
0.0
 11
199.4639670979651
 21
393.0194253615935
 31
0.0
  0
LINE
  5
22E7
330
22E3
100
AcDbEntity
  8
寸法
  6
Continuous
 62
     0
370
    -2
100
AcDbLine
 10
183.8299246685685
 20
388.6194253615934
 30
0.0
 11
199.4639670979651
 21
388.6194253615934
 31
0.0
  0
LINE
  5
22E8
330
22E3
100
AcDbEntity
  8
寸法
  6
Continuous
 62
     0
370
    -2
100
AcDbLine
 10
198.2139670979651
 20
395.5194253615935
 30
0.0
 11
198.2139670979651
 21
398.0194253615935
 31
0.0
  0
LINE
  5
22E9
330
22E3
100
AcDbEntity
  8
寸法
  6
Continuous
 62
     0
370
    -2
100
AcDbLine
 10
198.2139670979651
 20
386.1194253615934
 30
0.0
 11
198.2139670979651
 21
383.6194253615934
 31
0.0
  0
SOLID
  5
22EA
330
22E3
100
AcDbEntity
  8
寸法
 62
     0
100
AcDbTrace
 10
197.7973004312985
 20
395.5194253615935
 30
0.0
 11
198.6306337646318
 21
395.5194253615935
 31
0.0
 12
198.2139670979651
 22
393.0194253615935
 32
0.0
 13
198.2139670979651
 23
393.0194253615935
 33
0.0
  0
SOLID
  5
22EB
330
22E3
100
AcDbEntity
  8
寸法
 62
     0
100
AcDbTrace
 10
198.6306337646318
 20
386.1194253615934
 30
0.0
 11
197.7973004312985
 21
386.1194253615934
 31
0.0
 12
198.2139670979651
 22
388.6194253615934
 32
0.0
 13
198.2139670979651
 23
388.6194253615934
 33
0.0
  0
MTEXT
  5
22EC
330
22E3
100
AcDbEntity
  8
寸法
  6
Continuous
 62
     0
100
AcDbMText
 10
207.2239360697411
 20
389.8413289937017
 30
0.0
 40
5.0
 41
0.0
 46
0.0
 71
     5
 72
     1
  1
2.2
 73
     1
 44
1.0
  0
POINT
  5
22ED
330
22E3
100
AcDbEntity
  8
Defpoints
 62
     0
100
AcDbPoint
 10
181.6052801981235
 20
393.0194253615935
 30
0.0
  0
POINT
  5
22EE
330
22E3
100
AcDbEntity
  8
Defpoints
 62
     0
100
AcDbPoint
 10
183.2049246685685
 20
388.6194253615934
 30
0.0
  0
POINT
  5
22EF
330
22E3
100
AcDbEntity
  8
Defpoints
 62
     0
100
AcDbPoint
 10
198.2139670979651
 20
388.6194253615934
 30
0.0
  0
ENDBLK
  5
22E5
330
22E3
100
AcDbEntity
  8
0
100
AcDbBlockEnd
  0
BLOCK
  5
22F4
330
22F3
100
AcDbEntity
  8
0
100
AcDbBlockBegin
  2
*D21
 70
     1
 10
0.0
 20
0.0
 30
0.0
  3
*D21
  1
*D220
  0
LINE
  5
22F6
330
22F3
100
AcDbEntity
  8
寸法
  6
Continuous
 62
     0
370
    -2
100
AcDbLine
 10
183.8299246685685
 20
388.6194253615934
 30
0.0
 11
199.4639670979651
 21
388.6194253615934
 31
0.0
  0
LINE
  5
22F7
330
22F3
100
AcDbEntity
  8
寸法
  6
Continuous
 62
     0
370
    -2
100
AcDbLine
 10
182.8299246685685
 20
386.2194253615934
 30
0.0
 11
199.4639670979651
 21
386.2194253615934
 31
0.0
  0
LINE
  5
22F8
330
22F3
100
AcDbEntity
  8
寸法
  6
Continuous
 62
     0
370
    -2
100
AcDbLine
 10
198.2139670979651
 20
391.1194253615934
 30
0.0
 11
198.2139670979651
 21
393.6194253615934
 31
0.0
  0
LINE
  5
22F9
330
22F3
100
AcDbEntity
  8
寸法
  6
Continuous
 62
     0
370
    -2
100
AcDbLine
 10
198.2139670979651
 20
383.7194253615934
 30
0.0
 11
198.2139670979651
 21
381.2194253615934
 31
0.0
  0
SOLID
  5
22FA
330
22F3
100
AcDbEntity
  8
寸法
 62
     0
100
AcDbTrace
 10
197.7973004312985
 20
391.1194253615934
 30
0.0
 11
198.6306337646318
 21
391.1194253615934
 31
0.0
 12
198.2139670979651
 22
388.6194253615934
 32
0.0
 13
198.2139670979651
 23
388.6194253615934
 33
0.0
  0
SOLID
  5
22FB
330
22F3
100
AcDbEntity
  8
寸法
 62
     0
100
AcDbTrace
 10
198.6306337646318
 20
383.7194253615934
 30
0.0
 11
197.7973004312985
 21
383.7194253615934
 31
0.0
 12
198.2139670979651
 22
386.2194253615934
 32
0.0
 13
198.2139670979651
 23
386.2194253615934
 33
0.0
  0
MTEXT
  5
22FC
330
22F3
100
AcDbEntity
  8
寸法
  6
Continuous
 62
     0
100
AcDbMText
 10
198.3529831097411
 20
378.0133917137018
 30
0.0
 40
5.0
 41
0.0
 46
0.0
 71
     5
 72
     1
  1
1.2
 73
     1
 44
1.0
  0
POINT
  5
22FD
330
22F3
100
AcDbEntity
  8
Defpoints
 62
     0
100
AcDbPoint
 10
183.2049246685685
 20
388.6194253615934
 30
0.0
  0
POINT
  5
22FE
330
22F3
100
AcDbEntity
  8
Defpoints
 62
     0
100
AcDbPoint
 10
182.2049246685685
 20
386.2194253615934
 30
0.0
  0
POINT
  5
22FF
330
22F3
100
AcDbEntity
  8
Defpoints
 62
     0
100
AcDbPoint
 10
198.2139670979651
 20
386.2194253615934
 30
0.0
  0
ENDBLK
  5
22F5
330
22F3
100
AcDbEntity
  8
0
100
AcDbBlockEnd
  0
BLOCK
  5
2304
330
2303
100
AcDbEntity
  8
0
100
AcDbBlockBegin
  2
*D22
 70
     1
 10
0.0
 20
0.0
 30
0.0
  3
*D22
  1
*D221
  0
LINE
  5
2306
330
2303
100
AcDbEntity
  8
寸法
  6
Continuous
 62
     0
370
    -2
100
AcDbLine
 10
167.2049246685686
 20
457.0244985937015
 30
0.0
 11
167.2049246685686
 21
479.4250243729014
 31
0.0
  0
LINE
  5
2307
330
2303
100
AcDbEntity
  8
寸法
  6
Continuous
 62
     0
370
    -2
100
AcDbLine
 10
183.6049246685685
 20
457.0244985937015
 30
0.0
 11
183.6049246685685
 21
479.4250243729014
 31
0.0
  0
LINE
  5
2308
330
2303
100
AcDbEntity
  8
寸法
  6
Continuous
 62
     0
370
    -2
100
AcDbLine
 10
169.7049246685686
 20
478.1750243729014
 30
0.0
 11
181.1049246685685
 21
478.1750243729014
 31
0.0
  0
SOLID
  5
2309
330
2303
100
AcDbEntity
  8
寸法
 62
     0
100
AcDbTrace
 10
169.7049246685686
 20
478.5916910395681
 30
0.0
 11
169.7049246685686
 21
477.7583577062347
 31
0.0
 12
167.2049246685686
 22
478.1750243729014
 32
0.0
 13
167.2049246685686
 23
478.1750243729014
 33
0.0
  0
SOLID
  5
230A
330
2303
100
AcDbEntity
  8
寸法
 62
     0
100
AcDbTrace
 10
181.1049246685685
 20
477.7583577062347
 30
0.0
 11
181.1049246685685
 21
478.5916910395681
 31
0.0
 12
183.6049246685685
 22
478.1750243729014
 32
0.0
 13
183.6049246685685
 23
478.1750243729014
 33
0.0
  0
MTEXT
  5
230B
330
2303
100
AcDbEntity
  8
寸法
  6
Continuous
 62
     0
100
AcDbMText
 10
175.2182841113411
 20
481.5050723729014
 30
0.0
 40
5.0
 41
0.0
 46
0.0
 71
     5
 72
     1
  1
8.2
 73
     1
 44
1.0
  0
POINT
  5
230C
330
2303
100
AcDbEntity
  8
Defpoints
 62
     0
100
AcDbPoint
 10
167.2049246685686
 20
456.3994985937015
 30
0.0
  0
POINT
  5
230D
330
2303
100
AcDbEntity
  8
Defpoints
 62
     0
100
AcDbPoint
 10
183.6049246685685
 20
456.3994985937015
 30
0.0
  0
POINT
  5
230E
330
2303
100
AcDbEntity
  8
Defpoints
 62
     0
100
AcDbPoint
 10
183.6049246685685
 20
478.1750243729014
 30
0.0
  0
ENDBLK
  5
2305
330
2303
100
AcDbEntity
  8
0
100
AcDbBlockEnd
  0
BLOCK
  5
2313
330
2312
100
AcDbEntity
  8
0
100
AcDbBlockBegin
  2
*D23
 70
     1
 10
0.0
 20
0.0
 30
0.0
  3
*D23
  1
*D222
  0
LINE
  5
2315
330
2312
100
AcDbEntity
  8
寸法
  6
Continuous
 62
     0
370
    -2
100
AcDbLine
 10
183.2299246685685
 20
457.3994985937015
 30
0.0
 11
213.8836056854852
 21
457.3994985937015
 31
0.0
  0
LINE
  5
2316
330
2312
100
AcDbEntity
  8
寸法
  6
Continuous
 62
     0
370
    -2
100
AcDbLine
 10
184.0299246685686
 20
452.9995456611682
 30
0.0
 11
213.8836056854852
 21
452.9995456611682
 31
0.0
  0
LINE
  5
2317
330
2312
100
AcDbEntity
  8
寸法
  6
Continuous
 62
     0
370
    -2
100
AcDbLine
 10
212.6336056854852
 20
459.8994985937015
 30
0.0
 11
212.6336056854852
 21
462.3994985937015
 31
0.0
  0
LINE
  5
2318
330
2312
100
AcDbEntity
  8
寸法
  6
Continuous
 62
     0
370
    -2
100
AcDbLine
 10
212.6336056854852
 20
450.4995456611682
 30
0.0
 11
212.6336056854852
 21
447.9995456611682
 31
0.0
  0
SOLID
  5
2319
330
2312
100
AcDbEntity
  8
寸法
 62
     0
100
AcDbTrace
 10
212.2169390188185
 20
459.8994985937015
 30
0.0
 11
213.0502723521518
 21
459.8994985937015
 31
0.0
 12
212.6336056854852
 22
457.3994985937015
 32
0.0
 13
212.6336056854852
 23
457.3994985937015
 33
0.0
  0
SOLID
  5
231A
330
2312
100
AcDbEntity
  8
寸法
 62
     0
100
AcDbTrace
 10
213.0502723521518
 20
450.4995456611682
 30
0.0
 11
212.2169390188185
 21
450.4995456611682
 31
0.0
 12
212.6336056854852
 22
452.9995456611682
 32
0.0
 13
212.6336056854852
 23
452.9995456611682
 33
0.0
  0
MTEXT
  5
231B
330
2312
100
AcDbEntity
  8
寸法
  6
Continuous
 62
     0
100
AcDbMText
 10
212.6336056854852
 20
465.5633110367094
 30
0.0
 40
5.0
 41
0.0
 46
0.0
 71
     5
 72
     1
  1
2.2
 73
     1
 44
1.0
  0
POINT
  5
231C
330
2312
100
AcDbEntity
  8
Defpoints
 62
     0
100
AcDbPoint
 10
182.6049246685685
 20
457.3994985937015
 30
0.0
  0
POINT
  5
231D
330
2312
100
AcDbEntity
  8
Defpoints
 62
     0
100
AcDbPoint
 10
183.4049246685686
 20
452.9995456611682
 30
0.0
  0
POINT
  5
231E
330
2312
100
AcDbEntity
  8
Defpoints
 62
     0
100
AcDbPoint
 10
212.6336056854852
 20
452.9995456611682
 30
0.0
  0
ENDBLK
  5
2314
330
2312
100
AcDbEntity
  8
0
100
AcDbBlockEnd
  0
BLOCK
  5
2323
330
2322
100
AcDbEntity
  8
0
100
AcDbBlockBegin
  2
*D24
 70
     1
 10
0.0
 20
0.0
 30
0.0
  3
*D24
  1
*D223
  0
LINE
  5
2325
330
2322
100
AcDbEntity
  8
寸法
  6
Continuous
 62
     0
370
    -2
100
AcDbLine
 10
183.2299246685685
 20
457.3994985937015
 30
0.0
 11
197.4585801494852
 21
457.3994985937015
 31
0.0
  0
LINE
  5
2326
330
2322
100
AcDbEntity
  8
寸法
  6
Continuous
 62
     0
370
    -2
100
AcDbLine
 10
184.2299246685685
 20
453.3995456611682
 30
0.0
 11
197.4585801494852
 21
453.3995456611682
 31
0.0
  0
LINE
  5
2327
330
2322
100
AcDbEntity
  8
寸法
  6
Continuous
 62
     0
370
    -2
100
AcDbLine
 10
196.2085801494852
 20
459.8994985937015
 30
0.0
 11
196.2085801494852
 21
462.3994985937015
 31
0.0
  0
LINE
  5
2328
330
2322
100
AcDbEntity
  8
寸法
  6
Continuous
 62
     0
370
    -2
100
AcDbLine
 10
196.2085801494852
 20
450.8995456611682
 30
0.0
 11
196.2085801494852
 21
448.3995456611682
 31
0.0
  0
SOLID
  5
2329
330
2322
100
AcDbEntity
  8
寸法
 62
     0
100
AcDbTrace
 10
195.7919134828185
 20
459.8994985937015
 30
0.0
 11
196.6252468161518
 21
459.8994985937015
 31
0.0
 12
196.2085801494852
 22
457.3994985937015
 32
0.0
 13
196.2085801494852
 23
457.3994985937015
 33
0.0
  0
SOLID
  5
232A
330
2322
100
AcDbEntity
  8
寸法
 62
     0
100
AcDbTrace
 10
196.6252468161518
 20
450.8995456611682
 30
0.0
 11
195.7919134828185
 21
450.8995456611682
 31
0.0
 12
196.2085801494852
 22
453.3995456611682
 32
0.0
 13
196.2085801494852
 23
453.3995456611682
 33
0.0
  0
MTEXT
  5
232B
330
2322
100
AcDbEntity
  8
寸法
  6
Continuous
 62
     0
100
AcDbMText
 10
196.2085801494852
 20
466.6602607967095
 30
0.0
 40
5.0
 41
0.0
 46
0.0
 71
     5
 72
     1
  1
2
 73
     1
 44
1.0
  0
POINT
  5
232C
330
2322
100
AcDbEntity
  8
Defpoints
 62
     0
100
AcDbPoint
 10
182.6049246685685
 20
457.3994985937015
 30
0.0
  0
POINT
  5
232D
330
2322
100
AcDbEntity
  8
Defpoints
 62
     0
100
AcDbPoint
 10
183.6049246685685
 20
453.3995456611682
 30
0.0
  0
POINT
  5
232E
330
2322
100
AcDbEntity
  8
Defpoints
 62
     0
100
AcDbPoint
 10
196.2085801494852
 20
453.3995456611682
 30
0.0
  0
ENDBLK
  5
2324
330
2322
100
AcDbEntity
  8
0
100
AcDbBlockEnd
  0
BLOCK
  5
2333
330
2332
100
AcDbEntity
  8
0
100
AcDbBlockBegin
  2
*D25
 70
     1
 10
0.0
 20
0.0
 30
0.0
  3
*D25
  1
*D224
  0
LINE
  5
2335
330
2332
100
AcDbEntity
  8
寸法
  6
Continuous
 62
     0
370
    -2
100
AcDbLine
 10
183.2299246685685
 20
457.3994985937015
 30
0.0
 11
233.1106884374851
 21
457.3994985937015
 31
0.0
  0
LINE
  5
2336
330
2332
100
AcDbEntity
  8
寸法
  6
Continuous
 62
     0
370
    -2
100
AcDbLine
 10
183.4299246685686
 20
449.3994957215563
 30
0.0
 11
233.1106884374851
 21
449.3994957215563
 31
0.0
  0
LINE
  5
2337
330
2332
100
AcDbEntity
  8
寸法
  6
Continuous
 62
     0
370
    -2
100
AcDbLine
 10
231.8606884374851
 20
454.8994985937015
 30
0.0
 11
231.8606884374851
 21
451.8994957215563
 31
0.0
  0
SOLID
  5
2338
330
2332
100
AcDbEntity
  8
寸法
 62
     0
100
AcDbTrace
 10
232.2773551041518
 20
454.8994985937015
 30
0.0
 11
231.4440217708185
 21
454.8994985937015
 31
0.0
 12
231.8606884374851
 22
457.3994985937015
 32
0.0
 13
231.8606884374851
 23
457.3994985937015
 33
0.0
  0
SOLID
  5
2339
330
2332
100
AcDbEntity
  8
寸法
 62
     0
100
AcDbTrace
 10
231.4440217708185
 20
451.8994957215563
 30
0.0
 11
232.2773551041518
 21
451.8994957215563
 31
0.0
 12
231.8606884374851
 22
449.3994957215563
 32
0.0
 13
231.8606884374851
 23
449.3994957215563
 33
0.0
  0
MTEXT
  5
233A
330
2332
100
AcDbEntity
  8
寸法
  6
Continuous
 62
     0
100
AcDbMText
 10
238.6368804374851
 20
453.8792779523196
 30
0.0
 40
5.0
 41
0.0
 46
0.0
 71
     5
 72
     1
  1
4
 73
     1
 44
1.0
  0
POINT
  5
233B
330
2332
100
AcDbEntity
  8
Defpoints
 62
     0
100
AcDbPoint
 10
182.6049246685685
 20
457.3994985937015
 30
0.0
  0
POINT
  5
233C
330
2332
100
AcDbEntity
  8
Defpoints
 62
     0
100
AcDbPoint
 10
182.8049246685686
 20
449.3994957215563
 30
0.0
  0
POINT
  5
233D
330
2332
100
AcDbEntity
  8
Defpoints
 62
     0
100
AcDbPoint
 10
231.8606884374851
 20
449.3994957215563
 30
0.0
  0
ENDBLK
  5
2334
330
2332
100
AcDbEntity
  8
0
100
AcDbBlockEnd
  0
BLOCK
  5
2343
330
2342
100
AcDbEntity
  8
0
100
AcDbBlockBegin
  2
*D26
 70
     1
 10
0.0
 20
0.0
 30
0.0
  3
*D26
  1
*D225
  0
LINE
  5
2345
330
2342
100
AcDbEntity
  8
寸法
  6
Continuous
 62
     0
370
    -2
100
AcDbLine
 10
172.9998267799073
 20
441.6757874055659
 30
0.0
 11
172.9998267799073
 21
436.1424116211376
 31
0.0
  0
LINE
  5
2346
330
2342
100
AcDbEntity
  8
寸法
  6
Continuous
 62
     0
370
    -2
100
AcDbLine
 10
177.7998267799074
 20
441.6757874055659
 30
0.0
 11
177.7998267799074
 21
436.1424116211376
 31
0.0
  0
LINE
  5
2347
330
2342
100
AcDbEntity
  8
寸法
  6
Continuous
 62
     0
370
    -2
100
AcDbLine
 10
170.4998267799073
 20
437.3924116211376
 30
0.0
 11
167.9998267799073
 21
437.3924116211376
 31
0.0
  0
LINE
  5
2348
330
2342
100
AcDbEntity
  8
寸法
  6
Continuous
 62
     0
370
    -2
100
AcDbLine
 10
180.2998267799074
 20
437.3924116211376
 30
0.0
 11
182.7998267799074
 21
437.3924116211376
 31
0.0
  0
SOLID
  5
2349
330
2342
100
AcDbEntity
  8
寸法
 62
     0
100
AcDbTrace
 10
170.4998267799073
 20
436.9757449544709
 30
0.0
 11
170.4998267799073
 21
437.8090782878043
 31
0.0
 12
172.9998267799073
 22
437.3924116211376
 32
0.0
 13
172.9998267799073
 23
437.3924116211376
 33
0.0
  0
SOLID
  5
234A
330
2342
100
AcDbEntity
  8
寸法
 62
     0
100
AcDbTrace
 10
180.2998267799074
 20
437.8090782878043
 30
0.0
 11
180.2998267799074
 21
436.9757449544709
 31
0.0
 12
177.7998267799074
 22
437.3924116211376
 32
0.0
 13
177.7998267799074
 23
437.3924116211376
 33
0.0
  0
MTEXT
  5
234B
330
2342
100
AcDbEntity
  8
寸法
  6
Continuous
 62
     0
100
AcDbMText
 10
175.3860709848253
 20
433.1302358367095
 30
0.0
 40
5.0
 41
0.0
 46
0.0
 71
     5
 72
     1
  1
2.4
 73
     1
 44
1.0
  0
POINT
  5
234C
330
2342
100
AcDbEntity
  8
Defpoints
 62
     0
100
AcDbPoint
 10
172.9998267799073
 20
442.3007874055659
 30
0.0
  0
POINT
  5
234D
330
2342
100
AcDbEntity
  8
Defpoints
 62
     0
100
AcDbPoint
 10
177.7998267799074
 20
442.3007874055659
 30
0.0
  0
POINT
  5
234E
330
2342
100
AcDbEntity
  8
Defpoints
 62
     0
100
AcDbPoint
 10
177.7998267799074
 20
437.3924116211376
 30
0.0
  0
ENDBLK
  5
2344
330
2342
100
AcDbEntity
  8
0
100
AcDbBlockEnd
  0
BLOCK
  5
2353
330
2352
100
AcDbEntity
  8
0
100
AcDbBlockBegin
  2
*D27
 70
     1
 10
0.0
 20
0.0
 30
0.0
  3
*D27
  1
*D226
  0
LINE
  5
2355
330
2352
100
AcDbEntity
  8
寸法
  6
Continuous
 62
     0
370
    -2
100
AcDbLine
 10
169.9025819495976
 20
443.912718715041
 30
0.0
 11
169.9025819495976
 21
424.1387958367094
 31
0.0
  0
LINE
  5
2356
330
2352
100
AcDbEntity
  8
寸法
  6
Continuous
 62
     0
370
    -2
100
AcDbLine
 10
180.9025819495976
 20
443.9129223297641
 30
0.0
 11
180.9025819495976
 21
424.1387958367094
 31
0.0
  0
LINE
  5
2357
330
2352
100
AcDbEntity
  8
寸法
  6
Continuous
 62
     0
370
    -2
100
AcDbLine
 10
172.4025819495976
 20
425.3887958367094
 30
0.0
 11
178.4025819495976
 21
425.3887958367094
 31
0.0
  0
SOLID
  5
2358
330
2352
100
AcDbEntity
  8
寸法
 62
     0
100
AcDbTrace
 10
172.4025819495976
 20
425.8054625033761
 30
0.0
 11
172.4025819495976
 21
424.9721291700427
 31
0.0
 12
169.9025819495976
 22
425.3887958367094
 32
0.0
 13
169.9025819495976
 23
425.3887958367094
 33
0.0
  0
SOLID
  5
2359
330
2352
100
AcDbEntity
  8
寸法
 62
     0
100
AcDbTrace
 10
178.4025819495976
 20
424.9721291700427
 30
0.0
 11
178.4025819495976
 21
425.8054625033761
 31
0.0
 12
180.9025819495976
 22
425.3887958367094
 32
0.0
 13
180.9025819495976
 23
425.3887958367094
 33
0.0
  0
MTEXT
  5
235A
330
2352
100
AcDbEntity
  8
寸法
  6
Continuous
 62
     0
100
AcDbMText
 10
175.4049246685685
 20
421.4566358367096
 30
0.0
 40
5.0
 41
0.0
 46
0.0
 71
     5
 72
     1
  1
5.5
 73
     1
 44
1.0
  0
POINT
  5
235B
330
2352
100
AcDbEntity
  8
Defpoints
 62
     0
100
AcDbPoint
 10
169.9025819495976
 20
444.537718715041
 30
0.0
  0
POINT
  5
235C
330
2352
100
AcDbEntity
  8
Defpoints
 62
     0
100
AcDbPoint
 10
180.9025819495976
 20
444.5379223297641
 30
0.0
  0
POINT
  5
235D
330
2352
100
AcDbEntity
  8
Defpoints
 62
     0
100
AcDbPoint
 10
180.9025819495976
 20
425.3887958367094
 30
0.0
  0
ENDBLK
  5
2354
330
2352
100
AcDbEntity
  8
0
100
AcDbBlockEnd
  0
BLOCK
  5
2362
330
2361
100
AcDbEntity
  8
0
100
AcDbBlockBegin
  2
*D28
 70
     1
 10
0.0
 20
0.0
 30
0.0
  3
*D28
  1
*D227
  0
LINE
  5
2364
330
2361
100
AcDbEntity
  8
寸法
  6
Continuous
 62
     0
370
    -2
100
AcDbLine
 10
183.4299246685686
 20
449.3994957215563
 30
0.0
 11
233.1106884374851
 21
449.3994957215563
 31
0.0
  0
LINE
  5
2365
330
2361
100
AcDbEntity
  8
寸法
  6
Continuous
 62
     0
370
    -2
100
AcDbLine
 10
180.6444307427453
 20
442.3007874055659
 30
0.0
 11
233.1106884374851
 21
442.3007874055659
 31
0.0
  0
LINE
  5
2366
330
2361
100
AcDbEntity
  8
寸法
  6
Continuous
 62
     0
370
    -2
100
AcDbLine
 10
231.8606884374851
 20
446.8994957215563
 30
0.0
 11
231.8606884374851
 21
444.8007874055659
 31
0.0
  0
SOLID
  5
2367
330
2361
100
AcDbEntity
  8
寸法
 62
     0
100
AcDbTrace
 10
232.2773551041518
 20
446.8994957215563
 30
0.0
 11
231.4440217708185
 21
446.8994957215563
 31
0.0
 12
231.8606884374851
 22
449.3994957215563
 32
0.0
 13
231.8606884374851
 23
449.3994957215563
 33
0.0
  0
SOLID
  5
2368
330
2361
100
AcDbEntity
  8
寸法
 62
     0
100
AcDbTrace
 10
231.4440217708185
 20
444.8007874055659
 30
0.0
 11
232.2773551041518
 21
444.8007874055659
 31
0.0
 12
231.8606884374851
 22
442.3007874055659
 32
0.0
 13
231.8606884374851
 23
442.3007874055659
 33
0.0
  0
MTEXT
  5
2369
330
2361
100
AcDbEntity
  8
寸法
  6
Continuous
 62
     0
100
AcDbMText
 10
240.6097444374851
 20
445.7917910367094
 30
0.0
 40
5.0
 41
0.0
 46
0.0
 71
     5
 72
     1
  1
3.55
 73
     1
 44
1.0
  0
POINT
  5
236A
330
2361
100
AcDbEntity
  8
Defpoints
 62
     0
100
AcDbPoint
 10
182.8049246685686
 20
449.3994957215563
 30
0.0
  0
POINT
  5
236B
330
2361
100
AcDbEntity
  8
Defpoints
 62
     0
100
AcDbPoint
 10
180.0194307427453
 20
442.3007874055659
 30
0.0
  0
POINT
  5
236C
330
2361
100
AcDbEntity
  8
Defpoints
 62
     0
100
AcDbPoint
 10
231.8606884374851
 20
442.3007874055659
 30
0.0
  0
ENDBLK
  5
2363
330
2361
100
AcDbEntity
  8
0
100
AcDbBlockEnd
  0
BLOCK
  5
2371
330
2370
100
AcDbEntity
  8
0
100
AcDbBlockBegin
  2
*D29
 70
     1
 10
0.0
 20
0.0
 30
0.0
  3
*D29
  1
*D228
  0
LINE
  5
2373
330
2370
100
AcDbEntity
  8
寸法
  6
Continuous
 62
     0
370
    -2
100
AcDbLine
 10
183.2299246685685
 20
457.3994985937015
 30
0.0
 11
250.303712437485
 21
457.3994985937015
 31
0.0
  0
LINE
  5
2374
330
2370
100
AcDbEntity
  8
寸法
  6
Continuous
 62
     0
370
    -2
100
AcDbLine
 10
180.6444307427453
 20
442.3007874055659
 30
0.0
 11
250.303712437485
 21
442.3007874055659
 31
0.0
  0
LINE
  5
2375
330
2370
100
AcDbEntity
  8
寸法
  6
Continuous
 62
     0
370
    -2
100
AcDbLine
 10
249.053712437485
 20
454.8994985937015
 30
0.0
 11
249.053712437485
 21
444.8007874055659
 31
0.0
  0
SOLID
  5
2376
330
2370
100
AcDbEntity
  8
寸法
 62
     0
100
AcDbTrace
 10
249.4703791041517
 20
454.8994985937015
 30
0.0
 11
248.6370457708184
 21
454.8994985937015
 31
0.0
 12
249.053712437485
 22
457.3994985937015
 32
0.0
 13
249.053712437485
 23
457.3994985937015
 33
0.0
  0
SOLID
  5
2377
330
2370
100
AcDbEntity
  8
寸法
 62
     0
100
AcDbTrace
 10
248.6370457708184
 20
444.8007874055659
 30
0.0
 11
249.4703791041517
 21
444.8007874055659
 31
0.0
 12
249.053712437485
 22
442.3007874055659
 32
0.0
 13
249.053712437485
 23
442.3007874055659
 33
0.0
  0
MTEXT
  5
2378
330
2370
100
AcDbEntity
  8
寸法
  6
Continuous
 62
     0
100
AcDbMText
 10
257.507856437485
 20
449.9632538904676
 30
0.0
 40
5.0
 41
0.0
 46
0.0
 71
     5
 72
     1
  1
7.55
 73
     1
 44
1.0
  0
POINT
  5
2379
330
2370
100
AcDbEntity
  8
Defpoints
 62
     0
100
AcDbPoint
 10
182.6049246685685
 20
457.3994985937015
 30
0.0
  0
POINT
  5
237A
330
2370
100
AcDbEntity
  8
Defpoints
 62
     0
100
AcDbPoint
 10
180.0194307427453
 20
442.3007874055659
 30
0.0
  0
POINT
  5
237B
330
2370
100
AcDbEntity
  8
Defpoints
 62
     0
100
AcDbPoint
 10
249.053712437485
 20
442.3007874055659
 30
0.0
  0
ENDBLK
  5
2372
330
2370
100
AcDbEntity
  8
0
100
AcDbBlockEnd
  0
BLOCK
  5
2381
330
2380
100
AcDbEntity
  8
0
100
AcDbBlockBegin
  2
*D30
 70
     1
 10
0.0
 20
0.0
 30
0.0
  3
*D30
  1
*D229
  0
LINE
  5
2383
330
2380
100
AcDbEntity
  8
寸法
  6
Continuous
 62
     0
370
    -2
100
AcDbLine
 10
184.0299246685686
 20
452.9995456611682
 30
0.0
 11
213.8836056854852
 21
452.9995456611682
 31
0.0
  0
LINE
  5
2384
330
2380
100
AcDbEntity
  8
寸法
  6
Continuous
 62
     0
370
    -2
100
AcDbLine
 10
183.4299246685686
 20
449.3994957215563
 30
0.0
 11
213.8836056854852
 21
449.3994957215563
 31
0.0
  0
LINE
  5
2385
330
2380
100
AcDbEntity
  8
寸法
  6
Continuous
 62
     0
370
    -2
100
AcDbLine
 10
212.6336056854852
 20
455.4995456611682
 30
0.0
 11
212.6336056854852
 21
457.9995456611682
 31
0.0
  0
LINE
  5
2386
330
2380
100
AcDbEntity
  8
寸法
  6
Continuous
 62
     0
370
    -2
100
AcDbLine
 10
212.6336056854852
 20
446.8994957215563
 30
0.0
 11
212.6336056854852
 21
444.3994957215563
 31
0.0
  0
SOLID
  5
2387
330
2380
100
AcDbEntity
  8
寸法
 62
     0
100
AcDbTrace
 10
212.2169390188185
 20
455.4995456611682
 30
0.0
 11
213.0502723521518
 21
455.4995456611682
 31
0.0
 12
212.6336056854852
 22
452.9995456611682
 32
0.0
 13
212.6336056854852
 23
452.9995456611682
 33
0.0
  0
SOLID
  5
2388
330
2380
100
AcDbEntity
  8
寸法
 62
     0
100
AcDbTrace
 10
213.0502723521518
 20
446.8994957215563
 30
0.0
 11
212.2169390188185
 21
446.8994957215563
 31
0.0
 12
212.6336056854852
 22
449.3994957215563
 32
0.0
 13
212.6336056854852
 23
449.3994957215563
 33
0.0
  0
MTEXT
  5
2389
330
2380
100
AcDbEntity
  8
寸法
  6
Continuous
 62
     0
100
AcDbMText
 10
218.7284536854851
 20
452.1189559647094
 30
0.0
 40
5.0
 41
0.0
 46
0.0
 71
     5
 72
     1
  1
1.8
 73
     1
 44
1.0
  0
POINT
  5
238A
330
2380
100
AcDbEntity
  8
Defpoints
 62
     0
100
AcDbPoint
 10
183.4049246685686
 20
452.9995456611682
 30
0.0
  0
POINT
  5
238B
330
2380
100
AcDbEntity
  8
Defpoints
 62
     0
100
AcDbPoint
 10
182.8049246685686
 20
449.3994957215563
 30
0.0
  0
POINT
  5
238C
330
2380
100
AcDbEntity
  8
Defpoints
 62
     0
100
AcDbPoint
 10
212.6336056854852
 20
449.3994957215563
 30
0.0
  0
ENDBLK
  5
2382
330
2380
100
AcDbEntity
  8
0
100
AcDbBlockEnd
  0
BLOCK
  5
2391
330
2390
100
AcDbEntity
  8
0
100
AcDbBlockBegin
  2
*D31
 70
     1
 10
0.0
 20
0.0
 30
0.0
  3
*D31
  1
*D230
  0
LINE
  5
2393
330
2390
100
AcDbEntity
  8
寸法
  6
Continuous
 62
     0
370
    -2
100
AcDbLine
 10
181.5279374791525
 20
447.7850739387405
 30
0.0
 11
197.4613353191754
 21
447.7850739387405
 31
0.0
  0
LINE
  5
2394
330
2390
100
AcDbEntity
  8
寸法
  6
Continuous
 62
     0
370
    -2
100
AcDbLine
 10
181.5275819495976
 20
444.5379223297641
 30
0.0
 11
197.4613353191754
 21
444.5379223297641
 31
0.0
  0
LINE
  5
2395
330
2390
100
AcDbEntity
  8
寸法
  6
Continuous
 62
     0
370
    -2
100
AcDbLine
 10
196.2113353191754
 20
450.2850739387405
 30
0.0
 11
196.2113353191754
 21
452.7850739387405
 31
0.0
  0
LINE
  5
2396
330
2390
100
AcDbEntity
  8
寸法
  6
Continuous
 62
     0
370
    -2
100
AcDbLine
 10
196.2113353191754
 20
442.0379223297641
 30
0.0
 11
196.2113353191754
 21
439.5379223297641
 31
0.0
  0
SOLID
  5
2397
330
2390
100
AcDbEntity
  8
寸法
 62
     0
100
AcDbTrace
 10
195.7946686525088
 20
450.2850739387405
 30
0.0
 11
196.6280019858421
 21
450.2850739387405
 31
0.0
 12
196.2113353191754
 22
447.7850739387405
 32
0.0
 13
196.2113353191754
 23
447.7850739387405
 33
0.0
  0
SOLID
  5
2398
330
2390
100
AcDbEntity
  8
寸法
 62
     0
100
AcDbTrace
 10
196.6280019858421
 20
442.0379223297641
 30
0.0
 11
195.7946686525088
 21
442.0379223297641
 31
0.0
 12
196.2113353191754
 22
444.5379223297641
 32
0.0
 13
196.2113353191754
 23
444.5379223297641
 33
0.0
  0
MTEXT
  5
2399
330
2390
100
AcDbEntity
  8
寸法
  6
Continuous
 62
     0
100
AcDbMText
 10
204.5125182951755
 20
446.1030797031117
 30
0.0
 40
5.0
 41
0.0
 46
0.0
 71
     5
 72
     1
  1
1.62
 73
     1
 44
1.0
  0
POINT
  5
239A
330
2390
100
AcDbEntity
  8
Defpoints
 62
     0
100
AcDbPoint
 10
180.9029374791525
 20
447.7850739387405
 30
0.0
  0
POINT
  5
239D
330
2390
100
AcDbEntity
  8
Defpoints
 62
     0
100
AcDbPoint
 10
180.9025819495976
 20
444.5379223297641
 30
0.0
  0
POINT
  5
239E
330
2390
100
AcDbEntity
  8
Defpoints
 62
     0
100
AcDbPoint
 10
196.2113353191754
 20
444.5379223297641
 30
0.0
  0
ENDBLK
  5
2392
330
2390
100
AcDbEntity
  8
0
100
AcDbBlockEnd
  0
BLOCK
  5
23A3
330
23A2
100
AcDbEntity
  8
0
100
AcDbBlockBegin
  2
*D32
 70
     1
 10
0.0
 20
0.0
 30
0.0
  3
*D32
  1
*D231
  0
LINE
  5
23A5
330
23A2
100
AcDbEntity
  8
寸法
  6
Continuous
 62
     0
370
    -2
100
AcDbLine
 10
167.4049246685686
 20
456.9033456607094
 30
0.0
 11
167.4049246685686
 21
470.8308429407094
 31
0.0
  0
LINE
  5
23A6
330
23A2
100
AcDbEntity
  8
寸法
  6
Continuous
 62
     0
370
    -2
100
AcDbLine
 10
183.4049246685686
 20
456.5158926344054
 30
0.0
 11
183.4049246685686
 21
470.8308429407094
 31
0.0
  0
LINE
  5
23A7
330
23A2
100
AcDbEntity
  8
寸法
  6
Continuous
 62
     0
370
    -2
100
AcDbLine
 10
169.9049246685686
 20
469.5808429407094
 30
0.0
 11
172.9902897388186
 21
469.5808429407094
 31
0.0
  0
LINE
  5
23A8
330
23A2
100
AcDbEntity
  8
寸法
  6
Continuous
 62
     0
370
    -2
100
AcDbLine
 10
180.9049246685686
 20
469.5808429407094
 30
0.0
 11
177.5736230721519
 21
469.5808429407094
 31
0.0
  0
SOLID
  5
23A9
330
23A2
100
AcDbEntity
  8
寸法
 62
     0
100
AcDbTrace
 10
169.9049246685686
 20
469.9975096073761
 30
0.0
 11
169.9049246685686
 21
469.1641762740427
 31
0.0
 12
167.4049246685686
 22
469.5808429407094
 32
0.0
 13
167.4049246685686
 23
469.5808429407094
 33
0.0
  0
SOLID
  5
23AA
330
23A2
100
AcDbEntity
  8
寸法
 62
     0
100
AcDbTrace
 10
180.9049246685686
 20
469.1641762740427
 30
0.0
 11
180.9049246685686
 21
469.9975096073761
 31
0.0
 12
183.4049246685686
 22
469.5808429407094
 32
0.0
 13
183.4049246685686
 23
469.5808429407094
 33
0.0
  0
MTEXT
  5
23AB
330
23A2
100
AcDbEntity
  8
寸法
  6
Continuous
 62
     0
100
AcDbMText
 10
175.2819564054852
 20
469.5808429407094
 30
0.0
 40
5.0
 41
0.0
 46
0.0
 71
     5
 72
     1
  1
8
 73
     1
 44
1.0
  0
POINT
  5
23AC
330
23A2
100
AcDbEntity
  8
Defpoints
 62
     0
100
AcDbPoint
 10
167.4049246685686
 20
456.2783456607094
 30
0.0
  0
POINT
  5
23AD
330
23A2
100
AcDbEntity
  8
Defpoints
 62
     0
100
AcDbPoint
 10
183.4049246685686
 20
455.8908926344054
 30
0.0
  0
POINT
  5
23AE
330
23A2
100
AcDbEntity
  8
Defpoints
 62
     0
100
AcDbPoint
 10
183.4049246685686
 20
469.5808429407094
 30
0.0
  0
ENDBLK
  5
23A4
330
23A2
100
AcDbEntity
  8
0
100
AcDbBlockEnd
  0
BLOCK
  5
23B3
330
23B2
100
AcDbEntity
  8
0
100
AcDbBlockBegin
  2
*D33
 70
     1
 10
0.0
 20
0.0
 30
0.0
  3
*D33
  1
*D232
  0
LINE
  5
23B5
330
23B2
100
AcDbEntity
  8
寸法
  6
Continuous
 62
     0
370
    -2
100
AcDbLine
 10
167.3799246685685
 20
449.3994957215563
 30
0.0
 11
160.2861419020612
 21
449.3994957215563
 31
0.0
  0
LINE
  5
23B6
330
23B2
100
AcDbEntity
  8
寸法
  6
Continuous
 62
     0
370
    -2
100
AcDbLine
 10
166.7799246685686
 20
450.3995456611682
 30
0.0
 11
160.2861419020612
 21
450.3995456611682
 31
0.0
  0
LINE
  5
23B7
330
23B2
100
AcDbEntity
  8
寸法
  6
Continuous
 62
     0
370
    -2
100
AcDbLine
 10
161.5361419020612
 20
446.8994957215563
 30
0.0
 11
161.5361419020612
 21
444.3994957215563
 31
0.0
  0
LINE
  5
23B8
330
23B2
100
AcDbEntity
  8
寸法
  6
Continuous
 62
     0
370
    -2
100
AcDbLine
 10
161.5361419020612
 20
452.8995456611682
 30
0.0
 11
161.5361419020612
 21
455.3995456611682
 31
0.0
  0
SOLID
  5
23B9
330
23B2
100
AcDbEntity
  8
寸法
 62
     0
100
AcDbTrace
 10
161.9528085687278
 20
446.8994957215563
 30
0.0
 11
161.1194752353945
 21
446.8994957215563
 31
0.0
 12
161.5361419020612
 22
449.3994957215563
 32
0.0
 13
161.5361419020612
 23
449.3994957215563
 33
0.0
  0
SOLID
  5
23BA
330
23B2
100
AcDbEntity
  8
寸法
 62
     0
100
AcDbTrace
 10
161.1194752353945
 20
452.8995456611682
 30
0.0
 11
161.9528085687278
 21
452.8995456611682
 31
0.0
 12
161.5361419020612
 22
450.3995456611682
 32
0.0
 13
161.5361419020612
 23
450.3995456611682
 33
0.0
  0
MTEXT
  5
23BB
330
23B2
100
AcDbEntity
  8
寸法
  6
Continuous
 62
     0
100
AcDbMText
 10
154.8923643660612
 20
449.7608462973815
 30
0.0
 40
5.0
 41
0.0
 46
0.0
 71
     5
 72
     1
  1
0.5
 73
     1
 44
1.0
  0
POINT
  5
23BC
330
23B2
100
AcDbEntity
  8
Defpoints
 62
     0
100
AcDbPoint
 10
168.0049246685685
 20
449.3994957215563
 30
0.0
  0
POINT
  5
23BD
330
23B2
100
AcDbEntity
  8
Defpoints
 62
     0
100
AcDbPoint
 10
167.4049246685686
 20
450.3995456611682
 30
0.0
  0
POINT
  5
23BE
330
23B2
100
AcDbEntity
  8
Defpoints
 62
     0
100
AcDbPoint
 10
161.5361419020612
 20
450.3995456611682
 30
0.0
  0
ENDBLK
  5
23B4
330
23B2
100
AcDbEntity
  8
0
100
AcDbBlockEnd
  0
BLOCK
  5
23C3
330
23C2
100
AcDbEntity
  8
0
100
AcDbBlockBegin
  2
*D34
 70
     1
 10
0.0
 20
0.0
 30
0.0
  3
*D34
  1
*D233
  0
LINE
  5
23C5
330
23C2
100
AcDbEntity
  8
寸法
  6
Continuous
 62
     0
370
    -2
100
AcDbLine
 10
168.0049246685685
 20
448.7744957215563
 30
0.0
 11
168.0049246685685
 21
440.6650074493815
 31
0.0
  0
LINE
  5
23C6
330
23C2
100
AcDbEntity
  8
寸法
  6
Continuous
 62
     0
370
    -2
100
AcDbLine
 10
167.4049246685686
 20
449.7745456611682
 30
0.0
 11
167.4049246685686
 21
440.6650074493815
 31
0.0
  0
LINE
  5
23C7
330
23C2
100
AcDbEntity
  8
寸法
  6
Continuous
 62
     0
370
    -2
100
AcDbLine
 10
170.5049246685685
 20
441.9150074493815
 30
0.0
 11
173.0049246685685
 21
441.9150074493815
 31
0.0
  0
LINE
  5
23C8
330
23C2
100
AcDbEntity
  8
寸法
  6
Continuous
 62
     0
370
    -2
100
AcDbLine
 10
164.9049246685686
 20
441.9150074493815
 30
0.0
 11
162.4049246685686
 21
441.9150074493815
 31
0.0
  0
SOLID
  5
23C9
330
23C2
100
AcDbEntity
  8
寸法
 62
     0
100
AcDbTrace
 10
170.5049246685685
 20
442.3316741160482
 30
0.0
 11
170.5049246685685
 21
441.4983407827148
 31
0.0
 12
168.0049246685685
 22
441.9150074493815
 32
0.0
 13
168.0049246685685
 23
441.9150074493815
 33
0.0
  0
SOLID
  5
23CA
330
23C2
100
AcDbEntity
  8
寸法
 62
     0
100
AcDbTrace
 10
164.9049246685686
 20
441.4983407827148
 30
0.0
 11
164.9049246685686
 21
442.3316741160482
 31
0.0
 12
167.4049246685686
 22
441.9150074493815
 32
0.0
 13
167.4049246685686
 23
441.9150074493815
 33
0.0
  0
MTEXT
  5
23CB
330
23C2
100
AcDbEntity
  8
寸法
  6
Continuous
 62
     0
100
AcDbMText
 10
156.8859694860612
 20
441.5626859133815
 30
0.0
 40
5.0
 41
0.0
 46
0.0
 71
     5
 72
     1
  1
0.3
 73
     1
 44
1.0
  0
POINT
  5
23CC
330
23C2
100
AcDbEntity
  8
Defpoints
 62
     0
100
AcDbPoint
 10
168.0049246685685
 20
449.3994957215563
 30
0.0
  0
POINT
  5
23CD
330
23C2
100
AcDbEntity
  8
Defpoints
 62
     0
100
AcDbPoint
 10
167.4049246685686
 20
450.3995456611682
 30
0.0
  0
POINT
  5
23CE
330
23C2
100
AcDbEntity
  8
Defpoints
 62
     0
100
AcDbPoint
 10
167.4049246685686
 20
441.9150074493815
 30
0.0
  0
ENDBLK
  5
23C4
330
23C2
100
AcDbEntity
  8
0
100
AcDbBlockEnd
  0
BLOCK
  5
2403
330
2402
100
AcDbEntity
  8
0
100
AcDbBlockBegin
  2
*D35
 70
     1
 10
0.0
 20
0.0
 30
0.0
  3
*D35
  1
*D234
  0
LINE
  5
2405
330
2402
100
AcDbEntity
  8
寸法
  6
Continuous
 62
     0
370
    -2
100
AcDbLine
 10
165.8007637597706
 20
458.9431200916072
 30
0.0
 11
164.083505967772
 21
460.7599925901112
 31
0.0
  0
MTEXT
  5
2406
330
2402
100
AcDbEntity
  8
寸法
  6
Continuous
 62
     0
100
AcDbMText
 10
159.431164080568
 20
463.8236459580667
 30
0.0
 40
5.0
 41
0.0
 46
0.0
 71
     5
 72
     1
  1
R0.5
 73
     1
 44
1.0
  0
SOLID
  5
2407
330
2402
100
AcDbEntity
  8
寸法
 62
     0
100
AcDbTrace
 10
165.4979516766866
 20
458.6569104596074
 30
0.0
 11
166.1035758428546
 21
459.229329723607
 31
0.0
 12
167.5180215517692
 22
457.1262475931031
 32
0.0
 13
167.5180215517692
 23
457.1262475931031
 33
0.0
  0
POINT
  5
2408
330
2402
100
AcDbEntity
  8
Defpoints
 62
     0
100
AcDbPoint
 10
167.5180215517692
 20
457.1262475931031
 30
0.0
  0
POINT
  5
2409
330
2402
100
AcDbEntity
  8
Defpoints
 62
     0
100
AcDbPoint
 10
168.2049246685686
 20
456.3994985937015
 30
0.0
  0
ENDBLK
  5
2404
330
2402
100
AcDbEntity
  8
0
100
AcDbBlockEnd
  0
BLOCK
  5
240E
330
240D
100
AcDbEntity
  8
0
100
AcDbBlockBegin
  2
*D36
 70
     1
 10
0.0
 20
0.0
 30
0.0
  3
*D36
  1
*D235
  0
LINE
  5
2410
330
240D
100
AcDbEntity
  8
寸法
  6
Continuous
 62
     0
370
    -2
100
AcDbLine
 10
183.2776804405521
 20
459.8342328878301
 30
0.0
 11
183.7582202776832
 21
462.2876145264933
 31
0.0
  0
MTEXT
  5
2411
330
240D
100
AcDbEntity
  8
寸法
  6
Continuous
 62
     0
100
AcDbMText
 10
187.5627199205679
 20
463.7607313980667
 30
0.0
 40
5.0
 41
0.0
 46
0.0
 71
     5
 72
     1
  1
R0.5
 73
     1
 44
1.0
  0
SOLID
  5
2412
330
240D
100
AcDbEntity
  8
寸法
 62
     0
100
AcDbTrace
 10
182.8687835007749
 20
459.9143228606853
 30
0.0
 11
183.6865773803293
 21
459.7541429149749
 31
0.0
 12
182.797140603421
 22
457.3808512491668
 32
0.0
 13
182.797140603421
 23
457.3808512491668
 33
0.0
  0
POINT
  5
2413
330
240D
100
AcDbEntity
  8
Defpoints
 62
     0
100
AcDbPoint
 10
182.797140603421
 20
457.3808512491668
 30
0.0
  0
POINT
  5
2414
330
240D
100
AcDbEntity
  8
Defpoints
 62
     0
100
AcDbPoint
 10
182.6049246685685
 20
456.3994985937015
 30
0.0
  0
ENDBLK
  5
240F
330
240D
100
AcDbEntity
  8
0
100
AcDbBlockEnd
  0
BLOCK
  5
2419
330
2418
100
AcDbEntity
  8
0
100
AcDbBlockBegin
  2
*D37
 70
     1
 10
0.0
 20
0.0
 30
0.0
  3
*D37
  1
*D236
  0
LINE
  5
241B
330
2418
100
AcDbEntity
  8
寸法
  6
Continuous
 62
     0
370
    -2
100
AcDbLine
 10
254.5958022113585
 20
406.9595459866065
 30
0.0
 11
252.4266786455015
 21
408.2024872386549
 31
0.0
  0
MTEXT
  5
241C
330
2418
100
AcDbEntity
  8
寸法
  6
Continuous
 62
     0
100
AcDbMText
 10
247.0882495205679
 20
411.8978795580667
 30
0.0
 40
5.0
 41
0.0
 46
0.0
 71
     5
 72
     1
  1
R0.5
 73
     1
 44
1.0
  0
SOLID
  5
241D
330
2418
100
AcDbEntity
  8
寸法
 62
     0
100
AcDbTrace
 10
254.3886453360171
 20
406.598025392297
 30
0.0
 11
254.8029590867
 21
407.321066580916
 31
0.0
 12
256.7649257772156
 22
405.7166047345581
 32
0.0
 13
256.7649257772156
 23
405.7166047345581
 33
0.0
  0
POINT
  5
241E
330
2418
100
AcDbEntity
  8
Defpoints
 62
     0
100
AcDbPoint
 10
256.7649257772156
 20
405.7166047345581
 30
0.0
  0
POINT
  5
241F
330
2418
100
AcDbEntity
  8
Defpoints
 62
     0
100
AcDbPoint
 10
257.6325752035584
 20
405.2194282337387
 30
0.0
  0
ENDBLK
  5
241A
330
2418
100
AcDbEntity
  8
0
100
AcDbBlockEnd
  0
BLOCK
  5
2424
330
2423
100
AcDbEntity
  8
0
100
AcDbBlockBegin
  2
*D38
 70
     1
 10
0.0
 20
0.0
 30
0.0
  3
*D38
  1
*D237
  0
LINE
  5
2426
330
2423
100
AcDbEntity
  8
寸法
  6
Continuous
 62
     0
370
    -2
100
AcDbLine
 10
274.9381581628267
 20
407.170732327623
 30
0.0
 11
277.0135745623041
 21
408.5645209661118
 31
0.0
  0
MTEXT
  5
2427
330
2423
100
AcDbEntity
  8
寸法
  6
Continuous
 62
     0
100
AcDbMText
 10
282.1631167205679
 20
412.2910955580667
 30
0.0
 40
5.0
 41
0.0
 46
0.0
 71
     5
 72
     1
  1
R0.5
 73
     1
 44
1.0
  0
SOLID
  5
2428
330
2423
100
AcDbEntity
  8
寸法
 62
     0
100
AcDbTrace
 10
274.7058600564119
 20
407.5166350608692
 30
0.0
 11
275.1704562692415
 21
406.8248295943768
 31
0.0
 12
272.8627417633493
 22
405.7769436891342
 32
0.0
 13
272.8627417633493
 23
405.7769436891342
 33
0.0
  0
POINT
  5
2429
330
2423
100
AcDbEntity
  8
Defpoints
 62
     0
100
AcDbPoint
 10
272.8627417633493
 20
405.7769436891342
 30
0.0
  0
POINT
  5
242A
330
2423
100
AcDbEntity
  8
Defpoints
 62
     0
100
AcDbPoint
 10
272.0325752035584
 20
405.2194282337387
 30
0.0
  0
ENDBLK
  5
2425
330
2423
100
AcDbEntity
  8
0
100
AcDbBlockEnd
  0
BLOCK
  5
2635
330
2634
100
AcDbEntity
  8
0
100
AcDbBlockBegin
  2
*D39
 70
     1
 10
0.0
 20
0.0
 30
0.0
  3
*D39
  1
*D246
  0
LINE
  5
2637
330
2634
100
AcDbEntity
  8
寸法
  6
Continuous
 62
     0
370
    -2
100
AcDbLine
 10
101.1913552595975
 20
387.5405572148966
 30
0.0
 11
103.8944157423237
 21
382.8187669463952
 31
0.0
  0
LINE
  5
2638
330
2634
100
AcDbEntity
  8
寸法
  6
Continuous
 62
     0
370
    -2
100
AcDbLine
 10
97.38084465820813
 20
397.8194253615934
 30
0.0
 11
97.38084465820813
 21
407.30748112664
 31
0.0
  0
ARC
  5
2639
330
2634
100
AcDbEntity
  8
寸法
  6
Continuous
 62
     0
370
    -2
100
AcDbCircle
 10
97.38084465820813
 20
394.1968758546908
 30
0.0
 40
11.86060527194921
100
AcDbArc
 50
311.8890126107831
 51
357.238869806676
  0
ARC
  5
263A
330
2634
100
AcDbEntity
  8
寸法
  6
Continuous
 62
     0
370
    -2
100
AcDbCircle
 10
97.38084465820813
 20
394.1968758546908
 30
0.0
 40
11.86060527194921
100
AcDbArc
 50
28.60590846108555
 51
77.90062179685818
  0
SOLID
  5
263B
330
2634
100
AcDbEntity
  8
寸法
 62
     0
100
AcDbTrace
 10
105.0560856863116
 20
385.7051475066842
 30
0.0
 11
105.5440141782395
 21
385.0295957091073
 31
0.0
 12
103.2733945395449
 22
383.9035861321119
 32
0.0
 13
103.2733945395449
 23
383.9035861321119
 33
0.0
  0
SOLID
  5
263C
330
2634
100
AcDbEntity
  8
寸法
 62
     0
100
AcDbTrace
 10
99.91083471370199
 20
406.2083500439601
 30
0.0
 11
99.82300895415746
 21
405.3796576520529
 31
0.0
 12
97.38084465820813
 22
406.05748112664
 32
0.0
 13
97.38084465820813
 23
406.05748112664
 33
0.0
  0
MTEXT
  5
263D
330
2634
100
AcDbEntity
  8
寸法
  6
Continuous
 62
     0
100
AcDbMText
 10
108.9632811126081
 20
396.7505248510834
 30
0.0
 40
5.0
 41
0.0
 46
0.0
 71
     5
 72
     1
  1
150%%d
 73
     1
 44
1.0
  0
POINT
  5
263E
330
2634
100
AcDbEntity
  8
Defpoints
 62
     0
100
AcDbPoint
 10
106.4759191174689
 20
401.809600596693
 30
0.0
  0
POINT
  5
263F
330
2634
100
AcDbEntity
  8
Defpoints
 62
     0
100
AcDbPoint
 10
97.38084465820813
 20
394.1968758546908
 30
0.0
  0
POINT
  5
2640
330
2634
100
AcDbEntity
  8
Defpoints
 62
     0
100
AcDbPoint
 10
97.38084465820813
 20
397.1944253615934
 30
0.0
  0
POINT
  5
2641
330
2634
100
AcDbEntity
  8
Defpoints
 62
     0
100
AcDbPoint
 10
97.38084465820813
 20
394.1968758546908
 30
0.0
  0
POINT
  5
2642
330
2634
100
AcDbEntity
  8
Defpoints
 62
     0
100
AcDbPoint
 10
100.8808446582081
 20
388.0829668077549
 30
0.0
  0
ENDBLK
  5
2636
330
2634
100
AcDbEntity
  8
0
100
AcDbBlockEnd
  0
BLOCK
  5
264A
330
2649
100
AcDbEntity
  8
0
100
AcDbBlockBegin
  2
*D40
 70
     1
 10
0.0
 20
0.0
 30
0.0
  3
*D40
  1
*D247
  0
LINE
  5
264C
330
2649
100
AcDbEntity
  8
寸法
  6
Continuous
 62
     0
370
    -2
100
AcDbLine
 10
95.88084465820808
 20
380.3817853566833
 30
0.0
 11
95.88084465820808
 21
371.0457972267628
 31
0.0
  0
LINE
  5
264D
330
2649
100
AcDbEntity
  8
寸法
  6
Continuous
 62
     0
370
    -2
100
AcDbLine
 10
101.4231973907767
 20
388.3935767133847
 30
0.0
 11
108.1802141771468
 21
392.2633762374206
 31
0.0
  0
ARC
  5
264E
330
2649
100
AcDbEntity
  8
寸法
  6
Continuous
 62
     0
370
    -2
100
AcDbCircle
 10
95.88084465820808
 20
385.2194253615935
 30
0.0
 40
12.9236281348307
100
AcDbArc
 50
281.1008867409532
 51
320.1345582131145
  0
ARC
  5
264F
330
2649
100
AcDbEntity
  8
寸法
  6
Continuous
 62
     0
370
    -2
100
AcDbCircle
 10
95.88084465820808
 20
385.2194253615935
 30
0.0
 40
12.9236281348307
100
AcDbArc
 50
350.9453501229332
 51
18.6992379164204
  0
SOLID
  5
2650
330
2649
100
AcDbEntity
  8
寸法
 62
     0
100
AcDbTrace
 10
98.32882237213022
 20
372.9523154848879
 30
0.0
 11
98.40942409293177
 21
372.122889293447
 31
0.0
 12
95.88084465820808
 22
372.2957972267628
 32
0.0
 13
95.88084465820808
 23
372.2957972267628
 33
0.0
  0
SOLID
  5
2651
330
2649
100
AcDbEntity
  8
寸法
 62
     0
100
AcDbTrace
 10
108.5021949675514
 20
389.5338763476181
 30
0.0
 11
107.7423913606974
 21
389.1916148635798
 31
0.0
 12
107.0955087120096
 22
391.642156426161
 32
0.0
 13
107.0955087120096
 23
391.642156426161
 33
0.0
  0
MTEXT
  5
2652
330
2649
100
AcDbEntity
  8
寸法
  6
Continuous
 62
     0
100
AcDbMText
 10
107.7301557366081
 20
380.0605503742834
 30
0.0
 40
5.0
 41
0.0
 46
0.0
 71
     5
 72
     1
  1
120%%d
 73
     1
 44
1.0
  0
POINT
  5
2653
330
2649
100
AcDbEntity
  8
Defpoints
 62
     0
100
AcDbPoint
 10
104.1764750029364
 20
375.3096987583511
 30
0.0
  0
POINT
  5
2654
330
2649
100
AcDbEntity
  8
Defpoints
 62
     0
100
AcDbPoint
 10
95.88084465820808
 20
385.2194253615935
 30
0.0
  0
POINT
  5
2655
330
2649
100
AcDbEntity
  8
Defpoints
 62
     0
100
AcDbPoint
 10
100.8808446582081
 20
388.0829668077549
 30
0.0
  0
POINT
  5
2656
330
2649
100
AcDbEntity
  8
Defpoints
 62
     0
100
AcDbPoint
 10
95.88084465820808
 20
385.2194253615935
 30
0.0
  0
POINT
  5
2657
330
2649
100
AcDbEntity
  8
Defpoints
 62
     0
100
AcDbPoint
 10
95.88084465820808
 20
381.0067853566833
 30
0.0
  0
ENDBLK
  5
264B
330
2649
100
AcDbEntity
  8
0
100
AcDbBlockEnd
  0
BLOCK
  5
2676
330
2675
100
AcDbEntity
  8
0
100
AcDbBlockBegin
  2
*D41
 70
     1
 10
0.0
 20
0.0
 30
0.0
  3
*D41
  1
*D249
  0
LINE
  5
2678
330
2675
100
AcDbEntity
  8
寸法
  6
Continuous
 62
     0
370
    -2
100
AcDbLine
 10
97.38084465820813
 20
399.0510862462833
 30
0.0
 11
97.38084465820813
 21
413.1240734462833
 31
0.0
  0
LINE
  5
2679
330
2675
100
AcDbEntity
  8
寸法
  6
Continuous
 62
     0
370
    -2
100
AcDbLine
 10
100.8808446582081
 20
398.8937998462833
 30
0.0
 11
100.8808446582081
 21
413.1240734462833
 31
0.0
  0
LINE
  5
267A
330
2675
100
AcDbEntity
  8
寸法
  6
Continuous
 62
     0
370
    -2
100
AcDbLine
 10
94.88084465820813
 20
411.8740734462833
 30
0.0
 11
92.38084465820813
 21
411.8740734462833
 31
0.0
  0
LINE
  5
267B
330
2675
100
AcDbEntity
  8
寸法
  6
Continuous
 62
     0
370
    -2
100
AcDbLine
 10
103.3808446582081
 20
411.8740734462833
 30
0.0
 11
105.8808446582081
 21
411.8740734462833
 31
0.0
  0
SOLID
  5
267C
330
2675
100
AcDbEntity
  8
寸法
 62
     0
100
AcDbTrace
 10
94.88084465820813
 20
411.4574067796166
 30
0.0
 11
94.88084465820813
 21
412.29074011295
 31
0.0
 12
97.38084465820813
 22
411.8740734462833
 32
0.0
 13
97.38084465820813
 23
411.8740734462833
 33
0.0
  0
SOLID
  5
267D
330
2675
100
AcDbEntity
  8
寸法
 62
     0
100
AcDbTrace
 10
103.3808446582081
 20
412.29074011295
 30
0.0
 11
103.3808446582081
 21
411.4574067796166
 31
0.0
 12
100.8808446582081
 22
411.8740734462833
 32
0.0
 13
100.8808446582081
 23
411.8740734462833
 33
0.0
  0
MTEXT
  5
267E
330
2675
100
AcDbEntity
  8
寸法
  6
Continuous
 62
     0
100
AcDbMText
 10
99.9138080886081
 20
417.2218110462833
 30
0.0
 40
5.0
 41
0.0
 46
0.0
 71
     5
 72
     1
  1
0.7
 73
     1
 44
1.0
  0
POINT
  5
267F
330
2675
100
AcDbEntity
  8
Defpoints
 62
     0
100
AcDbPoint
 10
97.38084465820813
 20
398.4260862462833
 30
0.0
  0
POINT
  5
2680
330
2675
100
AcDbEntity
  8
Defpoints
 62
     0
100
AcDbPoint
 10
100.8808446582081
 20
398.2687998462833
 30
0.0
  0
POINT
  5
2681
330
2675
100
AcDbEntity
  8
Defpoints
 62
     0
100
AcDbPoint
 10
100.8808446582081
 20
411.8740734462833
 30
0.0
  0
ENDBLK
  5
2677
330
2675
100
AcDbEntity
  8
0
100
AcDbBlockEnd
  0
BLOCK
  5
2686
330
2685
100
AcDbEntity
  8
0
100
AcDbBlockBegin
  2
*D42
 70
     1
 10
0.0
 20
0.0
 30
0.0
  3
*D42
  1
*D250
  0
LINE
  5
2688
330
2685
100
AcDbEntity
  8
寸法
  6
Continuous
 62
     0
370
    -2
100
AcDbLine
 10
95.26664793354254
 20
394.1968758546908
 30
0.0
 11
81.44094728860816
 21
394.1968758546908
 31
0.0
  0
LINE
  5
2689
330
2685
100
AcDbEntity
  8
寸法
  6
Continuous
 62
     0
370
    -2
100
AcDbLine
 10
95.25584465820808
 20
385.2194253615935
 30
0.0
 11
81.44094728860816
 21
385.2194253615935
 31
0.0
  0
LINE
  5
268A
330
2685
100
AcDbEntity
  8
寸法
  6
Continuous
 62
     0
370
    -2
100
AcDbLine
 10
82.69094728860816
 20
391.6968758546908
 30
0.0
 11
82.69094728860816
 21
387.7194253615935
 31
0.0
  0
SOLID
  5
268B
330
2685
100
AcDbEntity
  8
寸法
 62
     0
100
AcDbTrace
 10
83.10761395527483
 20
391.6968758546908
 30
0.0
 11
82.27428062194149
 21
391.6968758546908
 31
0.0
 12
82.69094728860816
 22
394.1968758546908
 32
0.0
 13
82.69094728860816
 23
394.1968758546908
 33
0.0
  0
SOLID
  5
268C
330
2685
100
AcDbEntity
  8
寸法
 62
     0
100
AcDbTrace
 10
82.27428062194149
 20
387.7194253615935
 30
0.0
 11
83.10761395527483
 21
387.7194253615935
 31
0.0
 12
82.69094728860816
 22
385.2194253615935
 32
0.0
 13
82.69094728860816
 23
385.2194253615935
 33
0.0
  0
MTEXT
  5
268D
330
2685
100
AcDbEntity
  8
寸法
  6
Continuous
 62
     0
100
AcDbMText
 10
75.53441608860817
 20
389.6758366462834
 30
0.0
 40
5.0
 41
0.0
 46
0.0
 71
     5
 72
     1
  1
1.8
 73
     1
 44
1.0
  0
POINT
  5
268E
330
2685
100
AcDbEntity
  8
Defpoints
 62
     0
100
AcDbPoint
 10
95.89164793354254
 20
394.1968758546908
 30
0.0
  0
POINT
  5
268F
330
2685
100
AcDbEntity
  8
Defpoints
 62
     0
100
AcDbPoint
 10
95.88084465820808
 20
385.2194253615935
 30
0.0
  0
POINT
  5
2690
330
2685
100
AcDbEntity
  8
Defpoints
 62
     0
100
AcDbPoint
 10
82.69094728860816
 20
385.2194253615935
 30
0.0
  0
ENDBLK
  5
2687
330
2685
100
AcDbEntity
  8
0
100
AcDbBlockEnd
  0
BLOCK
  5
26B8
330
26B7
100
AcDbEntity
  8
0
100
AcDbBlockBegin
  2
*D43
 70
     1
 10
0.0
 20
0.0
 30
0.0
  3
*D43
  1
*D252
  0
LINE
  5
26BA
330
26B7
100
AcDbEntity
  8
寸法
  6
Continuous
 62
     0
370
    -2
100
AcDbLine
 10
95.26664793354254
 20
394.1968758546908
 30
0.0
 11
81.44094728860816
 21
394.1968758546908
 31
0.0
  0
LINE
  5
26BB
330
26B7
100
AcDbEntity
  8
寸法
  6
Continuous
 62
     0
370
    -2
100
AcDbLine
 10
94.35599577354259
 20
398.2194253615934
 30
0.0
 11
81.44094728860816
 21
398.2194253615934
 31
0.0
  0
LINE
  5
26BC
330
26B7
100
AcDbEntity
  8
寸法
  6
Continuous
 62
     0
370
    -2
100
AcDbLine
 10
82.69094728860816
 20
391.6968758546908
 30
0.0
 11
82.69094728860816
 21
389.1968758546908
 31
0.0
  0
LINE
  5
26BD
330
26B7
100
AcDbEntity
  8
寸法
  6
Continuous
 62
     0
370
    -2
100
AcDbLine
 10
82.69094728860816
 20
400.7194253615934
 30
0.0
 11
82.69094728860816
 21
403.2194253615934
 31
0.0
  0
SOLID
  5
26BE
330
26B7
100
AcDbEntity
  8
寸法
 62
     0
100
AcDbTrace
 10
83.10761395527483
 20
391.6968758546908
 30
0.0
 11
82.27428062194149
 21
391.6968758546908
 31
0.0
 12
82.69094728860816
 22
394.1968758546908
 32
0.0
 13
82.69094728860816
 23
394.1968758546908
 33
0.0
  0
SOLID
  5
26BF
330
26B7
100
AcDbEntity
  8
寸法
 62
     0
100
AcDbTrace
 10
82.27428062194149
 20
400.7194253615934
 30
0.0
 11
83.10761395527483
 21
400.7194253615934
 31
0.0
 12
82.69094728860816
 22
398.2194253615934
 32
0.0
 13
82.69094728860816
 23
398.2194253615934
 33
0.0
  0
MTEXT
  5
26C0
330
26B7
100
AcDbEntity
  8
寸法
  6
Continuous
 62
     0
100
AcDbMText
 10
75.94773241354252
 20
396.8800239504922
 30
0.0
 40
5.0
 41
0.0
 46
0.0
 71
     5
 72
     1
  1
0.8
 73
     1
 44
1.0
  0
POINT
  5
26C1
330
26B7
100
AcDbEntity
  8
Defpoints
 62
     0
100
AcDbPoint
 10
95.89164793354254
 20
394.1968758546908
 30
0.0
  0
POINT
  5
26C2
330
26B7
100
AcDbEntity
  8
Defpoints
 62
     0
100
AcDbPoint
 10
94.98099577354259
 20
398.2194253615934
 30
0.0
  0
POINT
  5
26C3
330
26B7
100
AcDbEntity
  8
Defpoints
 62
     0
100
AcDbPoint
 10
82.69094728860816
 20
398.2194253615934
 30
0.0
  0
ENDBLK
  5
26B9
330
26B7
100
AcDbEntity
  8
0
100
AcDbBlockEnd
  0
BLOCK
  5
26EA
330
26E9
100
AcDbEntity
  8
0
100
AcDbBlockBegin
  2
*D44
 70
     1
 10
0.0
 20
0.0
 30
0.0
  3
*D44
  1
*D253
  0
LINE
  5
26EC
330
26E9
100
AcDbEntity
  8
寸法
  6
Continuous
 62
     0
370
    -2
100
AcDbLine
 10
94.02415738093967
 20
445.9182399259162
 30
0.0
 11
100.8276274504705
 21
445.9182399259162
 31
0.0
  0
LINE
  5
26ED
330
26E9
100
AcDbEntity
  8
寸法
  6
Continuous
 62
     0
370
    -2
100
AcDbLine
 10
92.52386708082437
 20
444.4182399540075
 30
0.0
 11
100.8276274504705
 21
444.4182399540075
 31
0.0
  0
LINE
  5
26EE
330
26E9
100
AcDbEntity
  8
寸法
  6
Continuous
 62
     0
370
    -2
100
AcDbLine
 10
99.57762745047054
 20
448.4182399259162
 30
0.0
 11
99.57762745047054
 21
450.9182399259162
 31
0.0
  0
LINE
  5
26EF
330
26E9
100
AcDbEntity
  8
寸法
  6
Continuous
 62
     0
370
    -2
100
AcDbLine
 10
99.57762745047054
 20
441.9182399540075
 30
0.0
 11
99.57762745047054
 21
439.4182399540075
 31
0.0
  0
SOLID
  5
26F0
330
26E9
100
AcDbEntity
  8
寸法
 62
     0
100
AcDbTrace
 10
99.16096078380387
 20
448.4182399259162
 30
0.0
 11
99.99429411713722
 21
448.4182399259162
 31
0.0
 12
99.57762745047054
 22
445.9182399259162
 32
0.0
 13
99.57762745047054
 23
445.9182399259162
 33
0.0
  0
SOLID
  5
26F1
330
26E9
100
AcDbEntity
  8
寸法
 62
     0
100
AcDbTrace
 10
99.99429411713722
 20
441.9182399540075
 30
0.0
 11
99.16096078380387
 21
441.9182399540075
 31
0.0
 12
99.57762745047054
 22
444.4182399540075
 32
0.0
 13
99.57762745047054
 23
444.4182399540075
 33
0.0
  0
MTEXT
  5
26F2
330
26E9
100
AcDbEntity
  8
寸法
  6
Continuous
 62
     0
100
AcDbMText
 10
99.57762745047054
 20
437.821922656371
 30
0.0
 40
5.0
 41
0.0
 46
0.0
 71
     5
 72
     1
  1
0.3
 73
     1
 44
1.0
  0
POINT
  5
26F3
330
26E9
100
AcDbEntity
  8
Defpoints
 62
     0
100
AcDbPoint
 10
93.39915738093967
 20
445.9182399259162
 30
0.0
  0
POINT
  5
26F4
330
26E9
100
AcDbEntity
  8
Defpoints
 62
     0
100
AcDbPoint
 10
91.89886708082437
 20
444.4182399540075
 30
0.0
  0
POINT
  5
26F5
330
26E9
100
AcDbEntity
  8
Defpoints
 62
     0
100
AcDbPoint
 10
99.57762745047054
 20
444.4182399540075
 30
0.0
  0
ENDBLK
  5
26EB
330
26E9
100
AcDbEntity
  8
0
100
AcDbBlockEnd
  0
BLOCK
  5
26FA
330
26F9
100
AcDbEntity
  8
0
100
AcDbBlockBegin
  2
*D45
 70
     1
 10
0.0
 20
0.0
 30
0.0
  3
*D45
  1
*D254
  0
LINE
  5
26FC
330
26F9
100
AcDbEntity
  8
寸法
  6
Continuous
 62
     0
370
    -2
100
AcDbLine
 10
90.3991573809397
 20
446.5432399259162
 30
0.0
 11
90.3991573809397
 21
451.182975456371
 31
0.0
  0
LINE
  5
26FD
330
26F9
100
AcDbEntity
  8
寸法
  6
Continuous
 62
     0
370
    -2
100
AcDbLine
 10
93.39915738093967
 20
446.5432399259162
 30
0.0
 11
93.39915738093967
 21
451.182975456371
 31
0.0
  0
LINE
  5
26FE
330
26F9
100
AcDbEntity
  8
寸法
  6
Continuous
 62
     0
370
    -2
100
AcDbLine
 10
87.8991573809397
 20
449.932975456371
 30
0.0
 11
85.3991573809397
 21
449.932975456371
 31
0.0
  0
LINE
  5
26FF
330
26F9
100
AcDbEntity
  8
寸法
  6
Continuous
 62
     0
370
    -2
100
AcDbLine
 10
95.89915738093967
 20
449.932975456371
 30
0.0
 11
98.39915738093967
 21
449.932975456371
 31
0.0
  0
SOLID
  5
2700
330
26F9
100
AcDbEntity
  8
寸法
 62
     0
100
AcDbTrace
 10
87.8991573809397
 20
449.5163087897043
 30
0.0
 11
87.8991573809397
 21
450.3496421230377
 31
0.0
 12
90.3991573809397
 22
449.932975456371
 32
0.0
 13
90.3991573809397
 23
449.932975456371
 33
0.0
  0
SOLID
  5
2701
330
26F9
100
AcDbEntity
  8
寸法
 62
     0
100
AcDbTrace
 10
95.89915738093967
 20
450.3496421230377
 30
0.0
 11
95.89915738093967
 21
449.5163087897043
 31
0.0
 12
93.39915738093967
 22
449.932975456371
 32
0.0
 13
93.39915738093967
 23
449.932975456371
 33
0.0
  0
MTEXT
  5
2702
330
26F9
100
AcDbEntity
  8
寸法
  6
Continuous
 62
     0
100
AcDbMText
 10
92.48338166487054
 20
453.471919456371
 30
0.0
 40
5.0
 41
0.0
 46
0.0
 71
     5
 72
     1
  1
0.6
 73
     1
 44
1.0
  0
POINT
  5
2703
330
26F9
100
AcDbEntity
  8
Defpoints
 62
     0
100
AcDbPoint
 10
90.3991573809397
 20
445.9182399259162
 30
0.0
  0
POINT
  5
2704
330
26F9
100
AcDbEntity
  8
Defpoints
 62
     0
100
AcDbPoint
 10
93.39915738093967
 20
445.9182399259162
 30
0.0
  0
POINT
  5
2705
330
26F9
100
AcDbEntity
  8
Defpoints
 62
     0
100
AcDbPoint
 10
93.39915738093967
 20
449.932975456371
 30
0.0
  0
ENDBLK
  5
26FB
330
26F9
100
AcDbEntity
  8
0
100
AcDbBlockEnd
  0
BLOCK
  5
27E3
330
27E2
100
AcDbEntity
  8
0
100
AcDbBlockBegin
  2
*D46
 70
     1
 10
0.0
 20
0.0
 30
0.0
  3
*D46
  1
*D199
  0
LINE
  5
27E4
330
27E2
100
AcDbEntity
  8
寸法
  6
Continuous
 62
     0
370
    -2
100
AcDbLine
 10
17.04256112766276
 20
14.91011040000012
 30
0.0
 11
17.04256112766276
 21
4.887248
 31
0.0
  0
LINE
  5
27E5
330
27E2
100
AcDbEntity
  8
寸法
  6
Continuous
 62
     0
370
    -2
100
AcDbLine
 10
32.64256112766262
 20
15.30332640000012
 30
0.0
 11
32.64256112766262
 21
4.887248
 31
0.0
  0
LINE
  5
27E6
330
27E2
100
AcDbEntity
  8
寸法
  6
Continuous
 62
     0
370
    -2
100
AcDbLine
 10
19.54256112766276
 20
6.137248
 30
0.0
 11
30.14256112766262
 21
6.137248
 31
0.0
  0
LINE
  5
27E7
330
27E2
100
AcDbEntity
  8
寸法
  6
Continuous
 62
     0
370
    -2
100
AcDbLine
 10
30.14256112766262
 20
6.137248
 30
0.0
 11
19.54256112766276
 21
6.137248
 31
0.0
  0
SOLID
  5
27E8
330
27E2
100
AcDbEntity
  8
寸法
 62
     0
100
AcDbTrace
 10
19.54256112766276
 20
6.553914666666667
 30
0.0
 11
19.54256112766276
 21
5.720581333333333
 31
0.0
 12
17.04256112766276
 22
6.137248
 32
0.0
 13
17.04256112766276
 23
6.137248
 33
0.0
  0
SOLID
  5
27E9
330
27E2
100
AcDbEntity
  8
寸法
 62
     0
100
AcDbTrace
 10
30.14256112766262
 20
5.720581333333333
 30
0.0
 11
30.14256112766262
 21
6.553914666666667
 31
0.0
 12
32.64256112766262
 22
6.137248
 32
0.0
 13
32.64256112766262
 23
6.137248
 33
0.0
  0
MTEXT
  5
27EA
330
27E2
100
AcDbEntity
  8
寸法
  6
Continuous
 62
     0
100
AcDbMText
 10
24.96976112766257
 20
2.5
 30
0.0
 40
5.0
 41
0.0
 46
0.0
 71
     5
 72
     1
  1
7.8
 73
     1
 44
1.0
  0
POINT
  5
27EB
330
27E2
100
AcDbEntity
  8
Defpoints
 62
     0
100
AcDbPoint
 10
17.04256112766276
 20
15.53511040000012
 30
0.0
  0
POINT
  5
27EC
330
27E2
100
AcDbEntity
  8
Defpoints
 62
     0
100
AcDbPoint
 10
32.64256112766262
 20
15.92832640000012
 30
0.0
  0
POINT
  5
285B
330
27E2
100
AcDbEntity
  8
Defpoints
 62
     0
100
AcDbPoint
 10
32.64256112766262
 20
6.137248
 30
0.0
  0
ENDBLK
  5
27ED
330
27E2
100
AcDbEntity
  8
0
100
AcDbBlockEnd
  0
BLOCK
  5
27F2
330
27F1
100
AcDbEntity
  8
0
100
AcDbBlockBegin
  2
*D47
 70
     1
 10
0.0
 20
0.0
 30
0.0
  3
*D47
  1
*D200
  0
LINE
  5
27F3
330
27F1
100
AcDbEntity
  8
寸法
  6
Continuous
 62
     0
370
    -2
100
AcDbLine
 10
32.65265901632384
 20
36.05269789982782
 30
0.0
 11
43.63800112766253
 21
36.05269789982782
 31
0.0
  0
LINE
  5
27F4
330
27F1
100
AcDbEntity
  8
寸法
  6
Continuous
 62
     0
370
    -2
100
AcDbLine
 10
32.26756112766262
 20
16.05269502768249
 30
0.0
 11
43.63800112766253
 21
16.05269502768249
 31
0.0
  0
LINE
  5
27F5
330
27F1
100
AcDbEntity
  8
寸法
  6
Continuous
 62
     0
370
    -2
100
AcDbLine
 10
42.38800112766253
 20
33.55269789982782
 30
0.0
 11
42.38800112766253
 21
29.17769646375518
 31
0.0
  0
LINE
  5
27F6
330
27F1
100
AcDbEntity
  8
寸法
  6
Continuous
 62
     0
370
    -2
100
AcDbLine
 10
42.38800112766253
 20
18.55269502768249
 30
0.0
 11
42.38800112766253
 21
22.92769646375518
 31
0.0
  0
SOLID
  5
27F7
330
27F1
100
AcDbEntity
  8
寸法
 62
     0
100
AcDbTrace
 10
42.8046677943292
 20
33.55269789982782
 30
0.0
 11
41.97133446099587
 21
33.55269789982782
 31
0.0
 12
42.38800112766253
 22
36.05269789982782
 32
0.0
 13
42.38800112766253
 23
36.05269789982782
 33
0.0
  0
SOLID
  5
27F8
330
27F1
100
AcDbEntity
  8
寸法
 62
     0
100
AcDbTrace
 10
41.97133446099587
 20
18.55269502768249
 30
0.0
 11
42.8046677943292
 21
18.55269502768249
 31
0.0
 12
42.38800112766253
 22
16.05269502768249
 32
0.0
 13
42.38800112766253
 23
16.05269502768249
 33
0.0
  0
MTEXT
  5
27F9
330
27F1
100
AcDbEntity
  8
寸法
  6
Continuous
 62
     0
100
AcDbMText
 10
42.38800112766253
 20
26.05269646375518
 30
0.0
 40
5.0
 41
0.0
 46
0.0
 71
     5
 72
     1
  1
10
 73
     1
 44
1.0
  0
POINT
  5
27FA
330
27F1
100
AcDbEntity
  8
Defpoints
 62
     0
100
AcDbPoint
 10
32.02765901632384
 20
36.05269789982782
 30
0.0
  0
POINT
  5
27FB
330
27F1
100
AcDbEntity
  8
Defpoints
 62
     0
100
AcDbPoint
 10
31.64256112766262
 20
16.05269502768249
 30
0.0
  0
POINT
  5
27FC
330
27F1
100
AcDbEntity
  8
Defpoints
 62
     0
100
AcDbPoint
 10
42.38800112766253
 20
16.05269502768249
 30
0.0
  0
ENDBLK
  5
27FD
330
27F1
100
AcDbEntity
  8
0
100
AcDbBlockEnd
  0
BLOCK
  5
2801
330
2800
100
AcDbEntity
  8
0
100
AcDbBlockBegin
  2
*D48
 70
     1
 10
0.0
 20
0.0
 30
0.0
  3
*D48
  1
*D201
  0
LINE
  5
2802
330
2800
100
AcDbEntity
  8
寸法
  6
Continuous
 62
     0
370
    -2
100
AcDbLine
 10
16.62765901632386
 20
35.67769789982782
 30
0.0
 11
16.62765901632386
 21
43.96832908800013
 31
0.0
  0
LINE
  5
2803
330
2800
100
AcDbEntity
  8
寸法
  6
Continuous
 62
     0
370
    -2
100
AcDbLine
 10
33.02765901632384
 20
35.67769789982782
 30
0.0
 11
33.02765901632384
 21
43.96832908800013
 31
0.0
  0
LINE
  5
2804
330
2800
100
AcDbEntity
  8
寸法
  6
Continuous
 62
     0
370
    -2
100
AcDbLine
 10
19.12765901632386
 20
42.71832908800013
 30
0.0
 11
30.52765901632384
 21
42.71832908800013
 31
0.0
  0
LINE
  5
2805
330
2800
100
AcDbEntity
  8
寸法
  6
Continuous
 62
     0
370
    -2
100
AcDbLine
 10
30.52765901632384
 20
42.71832908800013
 30
0.0
 11
19.12765901632386
 21
42.71832908800013
 31
0.0
  0
SOLID
  5
2806
330
2800
100
AcDbEntity
  8
寸法
 62
     0
100
AcDbTrace
 10
19.12765901632386
 20
43.1349957546668
 30
0.0
 11
19.12765901632386
 21
42.30166242133347
 31
0.0
 12
16.62765901632386
 22
42.71832908800013
 32
0.0
 13
16.62765901632386
 23
42.71832908800013
 33
0.0
  0
SOLID
  5
2807
330
2800
100
AcDbEntity
  8
寸法
 62
     0
100
AcDbTrace
 10
30.52765901632384
 20
42.30166242133347
 30
0.0
 11
30.52765901632384
 21
43.1349957546668
 31
0.0
 12
33.02765901632384
 22
42.71832908800013
 32
0.0
 13
33.02765901632384
 23
42.71832908800013
 33
0.0
  0
MTEXT
  5
2808
330
2800
100
AcDbEntity
  8
寸法
  6
Continuous
 62
     0
100
AcDbMText
 10
25.03616547966257
 20
46.52760908800002
 30
0.0
 40
5.0
 41
0.0
 46
0.0
 71
     5
 72
     1
  1
8.2
 73
     1
 44
1.0
  0
POINT
  5
2809
330
2800
100
AcDbEntity
  8
Defpoints
 62
     0
100
AcDbPoint
 10
16.62765901632386
 20
35.05269789982782
 30
0.0
  0
POINT
  5
280A
330
2800
100
AcDbEntity
  8
Defpoints
 62
     0
100
AcDbPoint
 10
33.02765901632384
 20
35.05269789982782
 30
0.0
  0
POINT
  5
285C
330
2800
100
AcDbEntity
  8
Defpoints
 62
     0
100
AcDbPoint
 10
33.02765901632384
 20
42.71832908800013
 30
0.0
  0
ENDBLK
  5
280B
330
2800
100
AcDbEntity
  8
0
100
AcDbBlockEnd
  0
BLOCK
  5
280F
330
280E
100
AcDbEntity
  8
0
100
AcDbBlockBegin
  2
*D49
 70
     1
 10
0.0
 20
0.0
 30
0.0
  3
*D49
  1
*D203
  0
LINE
  5
2810
330
280E
100
AcDbEntity
  8
寸法
  6
Continuous
 62
     0
370
    -2
100
AcDbLine
 10
16.41756112766276
 20
20.9539867116921
 30
0.0
 11
13.77229581449456
 21
20.9539867116921
 31
0.0
  0
LINE
  5
2811
330
280E
100
AcDbEntity
  8
寸法
  6
Continuous
 62
     0
370
    -2
100
AcDbLine
 10
16.41756112766276
 20
18.45269502768252
 30
0.0
 11
13.77229581449456
 21
18.45269502768252
 31
0.0
  0
LINE
  5
2812
330
280E
100
AcDbEntity
  8
寸法
  6
Continuous
 62
     0
370
    -2
100
AcDbLine
 10
15.02229581449456
 20
23.4539867116921
 30
0.0
 11
15.02229581449456
 21
25.9539867116921
 31
0.0
  0
LINE
  5
2813
330
280E
100
AcDbEntity
  8
寸法
  6
Continuous
 62
     0
370
    -2
100
AcDbLine
 10
15.02229581449456
 20
15.95269502768252
 30
0.0
 11
15.02229581449456
 21
13.45269502768252
 31
0.0
  0
SOLID
  5
2814
330
280E
100
AcDbEntity
  8
寸法
 62
     0
100
AcDbTrace
 10
14.60562914782789
 20
23.4539867116921
 30
0.0
 11
15.43896248116122
 21
23.4539867116921
 31
0.0
 12
15.02229581449456
 22
20.9539867116921
 32
0.0
 13
15.02229581449456
 23
20.9539867116921
 33
0.0
  0
SOLID
  5
2815
330
280E
100
AcDbEntity
  8
寸法
 62
     0
100
AcDbTrace
 10
15.43896248116122
 20
15.95269502768252
 30
0.0
 11
14.60562914782789
 21
15.95269502768252
 31
0.0
 12
15.02229581449456
 22
18.45269502768252
 32
0.0
 13
15.02229581449456
 23
18.45269502768252
 33
0.0
  0
MTEXT
  5
2816
330
280E
100
AcDbEntity
  8
寸法
  6
Continuous
 62
     0
100
AcDbMText
 10
7.098081153374636
 20
19.71277752312238
 30
0.0
 40
5.0
 41
0.0
 46
0.0
 71
     5
 72
     1
  1
1.25
 73
     1
 44
1.0
  0
POINT
  5
2817
330
280E
100
AcDbEntity
  8
Defpoints
 62
     0
100
AcDbPoint
 10
17.04256112766276
 20
20.9539867116921
 30
0.0
  0
POINT
  5
2818
330
280E
100
AcDbEntity
  8
Defpoints
 62
     0
100
AcDbPoint
 10
17.04256112766276
 20
18.45269502768252
 30
0.0
  0
POINT
  5
2819
330
280E
100
AcDbEntity
  8
Defpoints
 62
     0
100
AcDbPoint
 10
15.02229581449456
 20
18.45269502768252
 30
0.0
  0
ENDBLK
  5
281A
330
280E
100
AcDbEntity
  8
0
100
AcDbBlockEnd
  0
BLOCK
  5
2821
330
2820
100
AcDbEntity
  8
0
100
AcDbBlockBegin
  2
*D50
 70
     1
 10
0.0
 20
0.0
 30
0.0
  3
*D50
  1
*D236
  0
LINE
  5
2822
330
2820
100
AcDbEntity
  8
寸法
  6
Continuous
 62
     0
370
    -2
100
AcDbLine
 10
14.59088602412398
 20
36.79281565269557
 30
0.0
 11
12.42176245826693
 21
38.03575690474395
 31
0.0
  0
MTEXT
  5
2823
330
2820
100
AcDbEntity
  8
寸法
  6
Continuous
 62
     0
100
AcDbMText
 10
7.083333333333343
 20
41.73114922415579
 30
0.0
 40
5.0
 41
0.0
 46
0.0
 71
     5
 72
     1
  1
R0.5
 73
     1
 44
1.0
  0
SOLID
  5
2824
330
2820
100
AcDbEntity
  8
寸法
 62
     0
100
AcDbTrace
 10
14.38372914878258
 20
36.43129505838606
 30
0.0
 11
14.79804289946537
 21
37.15433624700508
 31
0.0
 12
16.76000958998102
 22
35.54987440064718
 32
0.0
 13
16.76000958998102
 23
35.54987440064718
 33
0.0
  0
POINT
  5
2825
330
2820
100
AcDbEntity
  8
Defpoints
 62
     0
100
AcDbPoint
 10
16.76000958998102
 20
35.54987440064718
 30
0.0
  0
POINT
  5
2826
330
2820
100
AcDbEntity
  8
Defpoints
 62
     0
100
AcDbPoint
 10
17.62765901632386
 20
35.05269789982782
 30
0.0
  0
ENDBLK
  5
2827
330
2820
100
AcDbEntity
  8
0
100
AcDbBlockEnd
  0
BLOCK
  5
282C
330
282B
100
AcDbEntity
  8
0
100
AcDbBlockBegin
  2
*D51
 70
     1
 10
0.0
 20
0.0
 30
0.0
  3
*D51
  1
*D237
  0
LINE
  5
282D
330
282B
100
AcDbEntity
  8
寸法
  6
Continuous
 62
     0
370
    -2
100
AcDbLine
 10
34.93324197559205
 20
37.00400199371216
 30
0.0
 11
37.00865837506937
 21
38.39779063220099
 31
0.0
  0
MTEXT
  5
282E
330
282B
100
AcDbEntity
  8
寸法
  6
Continuous
 62
     0
100
AcDbMText
 10
42.15820053333337
 20
42.12436522415578
 30
0.0
 40
5.0
 41
0.0
 46
0.0
 71
     5
 72
     1
  1
R0.5
 73
     1
 44
1.0
  0
SOLID
  5
282F
330
282B
100
AcDbEntity
  8
寸法
 62
     0
100
AcDbTrace
 10
34.70094386917724
 20
37.34990472695838
 30
0.0
 11
35.16554008200686
 21
36.65809926046594
 31
0.0
 12
32.85782557611472
 22
35.61021335522332
 32
0.0
 13
32.85782557611472
 23
35.61021335522332
 33
0.0
  0
POINT
  5
2830
330
282B
100
AcDbEntity
  8
Defpoints
 62
     0
100
AcDbPoint
 10
32.85782557611472
 20
35.61021335522332
 30
0.0
  0
POINT
  5
2831
330
282B
100
AcDbEntity
  8
Defpoints
 62
     0
100
AcDbPoint
 10
32.02765901632384
 20
35.05269789982782
 30
0.0
  0
ENDBLK
  5
2832
330
282B
100
AcDbEntity
  8
0
100
AcDbBlockEnd
  0
BLOCK
  5
28A7
330
28A6
100
AcDbEntity
  8
0
100
AcDbBlockBegin
  2
*D52
 70
     1
 10
0.0
 20
0.0
 30
0.0
  3
*D52
  1

  0
LINE
  5
28A9
330
28A6
100
AcDbEntity
  8
寸法
  6
Continuous
 62
     0
370
    -2
100
AcDbLine
 10
175.3578931904418
 20
384.4959477139034
 30
0.0
 11
175.3578931904418
 21
374.4730853139033
 31
0.0
  0
LINE
  5
28AA
330
28A6
100
AcDbEntity
  8
寸法
  6
Continuous
 62
     0
370
    -2
100
AcDbLine
 10
190.9578931904417
 20
384.8891637139034
 30
0.0
 11
190.9578931904417
 21
374.4730853139033
 31
0.0
  0
LINE
  5
28AB
330
28A6
100
AcDbEntity
  8
寸法
  6
Continuous
 62
     0
370
    -2
100
AcDbLine
 10
177.8578931904418
 20
375.7230853139033
 30
0.0
 11
188.4578931904417
 21
375.7230853139033
 31
0.0
  0
LINE
  5
28AC
330
28A6
100
AcDbEntity
  8
寸法
  6
Continuous
 62
     0
370
    -2
100
AcDbLine
 10
188.4578931904417
 20
375.7230853139033
 30
0.0
 11
177.8578931904418
 21
375.7230853139033
 31
0.0
  0
SOLID
  5
28AD
330
28A6
100
AcDbEntity
  8
寸法
 62
     0
100
AcDbTrace
 10
177.8578931904418
 20
376.13975198057
 30
0.0
 11
177.8578931904418
 21
375.3064186472366
 31
0.0
 12
175.3578931904418
 22
375.7230853139033
 32
0.0
 13
175.3578931904418
 23
375.7230853139033
 33
0.0
  0
SOLID
  5
28AE
330
28A6
100
AcDbEntity
  8
寸法
 62
     0
100
AcDbTrace
 10
188.4578931904417
 20
375.3064186472366
 30
0.0
 11
188.4578931904417
 21
376.13975198057
 31
0.0
 12
190.9578931904417
 22
375.7230853139033
 32
0.0
 13
190.9578931904417
 23
375.7230853139033
 33
0.0
  0
MTEXT
  5
28AF
330
28A6
100
AcDbEntity
  8
寸法
  6
Continuous
 62
     0
100
AcDbMText
 10
183.2850931904416
 20
372.0858373139033
 30
0.0
 40
5.0
 41
0.0
 46
0.0
 71
     5
 72
     1
  1
7.8
 73
     1
 44
1.0
  0
POINT
  5
28B0
330
28A6
100
AcDbEntity
  8
Defpoints
 62
     0
100
AcDbPoint
 10
175.3578931904418
 20
385.1209477139034
 30
0.0
  0
POINT
  5
28B1
330
28A6
100
AcDbEntity
  8
Defpoints
 62
     0
100
AcDbPoint
 10
190.9578931904417
 20
385.5141637139034
 30
0.0
  0
POINT
  5
28B2
330
28A6
100
AcDbEntity
  8
Defpoints
 62
     0
100
AcDbPoint
 10
190.9578931904417
 20
375.7230853139033
 30
0.0
  0
ENDBLK
  5
28A8
330
28A6
100
AcDbEntity
  8
0
100
AcDbBlockEnd
  0
BLOCK
  5
28B4
330
28B3
100
AcDbEntity
  8
0
100
AcDbBlockBegin
  2
*D53
 70
     1
 10
0.0
 20
0.0
 30
0.0
  3
*D53
  1

  0
LINE
  5
28B6
330
28B3
100
AcDbEntity
  8
寸法
  6
Continuous
 62
     0
370
    -2
100
AcDbLine
 10
190.9679910791029
 20
405.6385352137311
 30
0.0
 11
201.9533331904416
 21
405.6385352137311
 31
0.0
  0
LINE
  5
28B7
330
28B3
100
AcDbEntity
  8
寸法
  6
Continuous
 62
     0
370
    -2
100
AcDbLine
 10
190.5828931904417
 20
385.6385323415858
 30
0.0
 11
201.9533331904416
 21
385.6385323415858
 31
0.0
  0
LINE
  5
28B8
330
28B3
100
AcDbEntity
  8
寸法
  6
Continuous
 62
     0
370
    -2
100
AcDbLine
 10
200.7033331904416
 20
403.1385352137311
 30
0.0
 11
200.7033331904416
 21
398.7635337776585
 31
0.0
  0
LINE
  5
28B9
330
28B3
100
AcDbEntity
  8
寸法
  6
Continuous
 62
     0
370
    -2
100
AcDbLine
 10
200.7033331904416
 20
388.1385323415858
 30
0.0
 11
200.7033331904416
 21
392.5135337776585
 31
0.0
  0
SOLID
  5
28BA
330
28B3
100
AcDbEntity
  8
寸法
 62
     0
100
AcDbTrace
 10
201.1199998571082
 20
403.1385352137311
 30
0.0
 11
200.2866665237749
 21
403.1385352137311
 31
0.0
 12
200.7033331904416
 22
405.6385352137311
 32
0.0
 13
200.7033331904416
 23
405.6385352137311
 33
0.0
  0
SOLID
  5
28BB
330
28B3
100
AcDbEntity
  8
寸法
 62
     0
100
AcDbTrace
 10
200.2866665237749
 20
388.1385323415858
 30
0.0
 11
201.1199998571082
 21
388.1385323415858
 31
0.0
 12
200.7033331904416
 22
385.6385323415858
 32
0.0
 13
200.7033331904416
 23
385.6385323415858
 33
0.0
  0
MTEXT
  5
28BC
330
28B3
100
AcDbEntity
  8
寸法
  6
Continuous
 62
     0
100
AcDbMText
 10
200.7033331904416
 20
395.6385337776585
 30
0.0
 40
5.0
 41
0.0
 46
0.0
 71
     5
 72
     1
  1
10
 73
     1
 44
1.0
  0
POINT
  5
28BD
330
28B3
100
AcDbEntity
  8
Defpoints
 62
     0
100
AcDbPoint
 10
190.3429910791029
 20
405.6385352137311
 30
0.0
  0
POINT
  5
28BE
330
28B3
100
AcDbEntity
  8
Defpoints
 62
     0
100
AcDbPoint
 10
189.9578931904417
 20
385.6385323415858
 30
0.0
  0
POINT
  5
28BF
330
28B3
100
AcDbEntity
  8
Defpoints
 62
     0
100
AcDbPoint
 10
200.7033331904416
 20
385.6385323415858
 30
0.0
  0
ENDBLK
  5
28B5
330
28B3
100
AcDbEntity
  8
0
100
AcDbBlockEnd
  0
BLOCK
  5
28C1
330
28C0
100
AcDbEntity
  8
0
100
AcDbBlockBegin
  2
*D54
 70
     1
 10
0.0
 20
0.0
 30
0.0
  3
*D54
  1

  0
LINE
  5
28C3
330
28C0
100
AcDbEntity
  8
寸法
  6
Continuous
 62
     0
370
    -2
100
AcDbLine
 10
174.9429910791029
 20
405.2635352137311
 30
0.0
 11
174.9429910791029
 21
413.5541664019034
 31
0.0
  0
LINE
  5
28C4
330
28C0
100
AcDbEntity
  8
寸法
  6
Continuous
 62
     0
370
    -2
100
AcDbLine
 10
191.3429910791029
 20
405.2635352137311
 30
0.0
 11
191.3429910791029
 21
413.5541664019034
 31
0.0
  0
LINE
  5
28C5
330
28C0
100
AcDbEntity
  8
寸法
  6
Continuous
 62
     0
370
    -2
100
AcDbLine
 10
177.4429910791029
 20
412.3041664019034
 30
0.0
 11
188.8429910791029
 21
412.3041664019034
 31
0.0
  0
LINE
  5
28C6
330
28C0
100
AcDbEntity
  8
寸法
  6
Continuous
 62
     0
370
    -2
100
AcDbLine
 10
188.8429910791029
 20
412.3041664019034
 30
0.0
 11
177.4429910791029
 21
412.3041664019034
 31
0.0
  0
SOLID
  5
28C7
330
28C0
100
AcDbEntity
  8
寸法
 62
     0
100
AcDbTrace
 10
177.4429910791029
 20
412.7208330685701
 30
0.0
 11
177.4429910791029
 21
411.8874997352368
 31
0.0
 12
174.9429910791029
 22
412.3041664019034
 32
0.0
 13
174.9429910791029
 23
412.3041664019034
 33
0.0
  0
SOLID
  5
28C8
330
28C0
100
AcDbEntity
  8
寸法
 62
     0
100
AcDbTrace
 10
188.8429910791029
 20
411.8874997352368
 30
0.0
 11
188.8429910791029
 21
412.7208330685701
 31
0.0
 12
191.3429910791029
 22
412.3041664019034
 32
0.0
 13
191.3429910791029
 23
412.3041664019034
 33
0.0
  0
MTEXT
  5
28C9
330
28C0
100
AcDbEntity
  8
寸法
  6
Continuous
 62
     0
100
AcDbMText
 10
183.3514975424416
 20
416.1134464019033
 30
0.0
 40
5.0
 41
0.0
 46
0.0
 71
     5
 72
     1
  1
8.2
 73
     1
 44
1.0
  0
POINT
  5
28CA
330
28C0
100
AcDbEntity
  8
Defpoints
 62
     0
100
AcDbPoint
 10
174.9429910791029
 20
404.6385352137311
 30
0.0
  0
POINT
  5
28CB
330
28C0
100
AcDbEntity
  8
Defpoints
 62
     0
100
AcDbPoint
 10
191.3429910791029
 20
404.6385352137311
 30
0.0
  0
POINT
  5
28CC
330
28C0
100
AcDbEntity
  8
Defpoints
 62
     0
100
AcDbPoint
 10
191.3429910791029
 20
412.3041664019034
 30
0.0
  0
ENDBLK
  5
28C2
330
28C0
100
AcDbEntity
  8
0
100
AcDbBlockEnd
  0
BLOCK
  5
28CE
330
28CD
100
AcDbEntity
  8
0
100
AcDbBlockBegin
  2
*D55
 70
     1
 10
0.0
 20
0.0
 30
0.0
  3
*D55
  1

  0
LINE
  5
28D0
330
28CD
100
AcDbEntity
  8
寸法
  6
Continuous
 62
     0
370
    -2
100
AcDbLine
 10
174.7328931904418
 20
390.5398240255954
 30
0.0
 11
172.0876278772736
 21
390.5398240255954
 31
0.0
  0
LINE
  5
28D1
330
28CD
100
AcDbEntity
  8
寸法
  6
Continuous
 62
     0
370
    -2
100
AcDbLine
 10
174.7328931904418
 20
388.0385323415858
 30
0.0
 11
172.0876278772736
 21
388.0385323415858
 31
0.0
  0
LINE
  5
28D2
330
28CD
100
AcDbEntity
  8
寸法
  6
Continuous
 62
     0
370
    -2
100
AcDbLine
 10
173.3376278772736
 20
393.0398240255954
 30
0.0
 11
173.3376278772736
 21
395.5398240255954
 31
0.0
  0
LINE
  5
28D3
330
28CD
100
AcDbEntity
  8
寸法
  6
Continuous
 62
     0
370
    -2
100
AcDbLine
 10
173.3376278772736
 20
385.5385323415858
 30
0.0
 11
173.3376278772736
 21
383.0385323415858
 31
0.0
  0
SOLID
  5
28D4
330
28CD
100
AcDbEntity
  8
寸法
 62
     0
100
AcDbTrace
 10
172.9209612106069
 20
393.0398240255954
 30
0.0
 11
173.7542945439403
 21
393.0398240255954
 31
0.0
 12
173.3376278772736
 22
390.5398240255954
 32
0.0
 13
173.3376278772736
 23
390.5398240255954
 33
0.0
  0
SOLID
  5
28D5
330
28CD
100
AcDbEntity
  8
寸法
 62
     0
100
AcDbTrace
 10
173.7542945439403
 20
385.5385323415858
 30
0.0
 11
172.9209612106069
 21
385.5385323415858
 31
0.0
 12
173.3376278772736
 22
388.0385323415858
 32
0.0
 13
173.3376278772736
 23
388.0385323415858
 33
0.0
  0
MTEXT
  5
28D6
330
28CD
100
AcDbEntity
  8
寸法
  6
Continuous
 62
     0
100
AcDbMText
 10
165.4134132161537
 20
389.2986148370257
 30
0.0
 40
5.0
 41
0.0
 46
0.0
 71
     5
 72
     1
  1
1.25
 73
     1
 44
1.0
  0
POINT
  5
28D7
330
28CD
100
AcDbEntity
  8
Defpoints
 62
     0
100
AcDbPoint
 10
175.3578931904418
 20
390.5398240255954
 30
0.0
  0
POINT
  5
28D8
330
28CD
100
AcDbEntity
  8
Defpoints
 62
     0
100
AcDbPoint
 10
175.3578931904418
 20
388.0385323415858
 30
0.0
  0
POINT
  5
28D9
330
28CD
100
AcDbEntity
  8
Defpoints
 62
     0
100
AcDbPoint
 10
173.3376278772736
 20
388.0385323415858
 30
0.0
  0
ENDBLK
  5
28CF
330
28CD
100
AcDbEntity
  8
0
100
AcDbBlockEnd
  0
BLOCK
  5
28DB
330
28DA
100
AcDbEntity
  8
0
100
AcDbBlockBegin
  2
*D56
 70
     1
 10
0.0
 20
0.0
 30
0.0
  3
*D56
  1

  0
LINE
  5
28DD
330
28DA
100
AcDbEntity
  8
寸法
  6
Continuous
 62
     0
370
    -2
100
AcDbLine
 10
172.906218086903
 20
406.3786529665989
 30
0.0
 11
170.737094521046
 21
407.6215942186473
 31
0.0
  0
MTEXT
  5
28DE
330
28DA
100
AcDbEntity
  8
寸法
  6
Continuous
 62
     0
100
AcDbMText
 10
165.3986653961124
 20
411.3169865380591
 30
0.0
 40
5.0
 41
0.0
 46
0.0
 71
     5
 72
     1
  1
R0.5
 73
     1
 44
1.0
  0
SOLID
  5
28DF
330
28DA
100
AcDbEntity
  8
寸法
 62
     0
100
AcDbTrace
 10
172.6990612115616
 20
406.0171323722894
 30
0.0
 11
173.1133749622444
 21
406.7401735609084
 31
0.0
 12
175.0753416527601
 22
405.1357117145505
 32
0.0
 13
175.0753416527601
 23
405.1357117145505
 33
0.0
  0
POINT
  5
28E0
330
28DA
100
AcDbEntity
  8
Defpoints
 62
     0
100
AcDbPoint
 10
175.0753416527601
 20
405.1357117145505
 30
0.0
  0
POINT
  5
28E1
330
28DA
100
AcDbEntity
  8
Defpoints
 62
     0
100
AcDbPoint
 10
175.9429910791029
 20
404.6385352137311
 30
0.0
  0
ENDBLK
  5
28DC
330
28DA
100
AcDbEntity
  8
0
100
AcDbBlockEnd
  0
BLOCK
  5
28E3
330
28E2
100
AcDbEntity
  8
0
100
AcDbBlockBegin
  2
*D57
 70
     1
 10
0.0
 20
0.0
 30
0.0
  3
*D57
  1

  0
LINE
  5
28E5
330
28E2
100
AcDbEntity
  8
寸法
  6
Continuous
 62
     0
370
    -2
100
AcDbLine
 10
193.2485740383711
 20
406.5898393076155
 30
0.0
 11
195.3239904378484
 21
407.9836279461043
 31
0.0
  0
MTEXT
  5
28E6
330
28E2
100
AcDbEntity
  8
寸法
  6
Continuous
 62
     0
100
AcDbMText
 10
200.4735325961124
 20
411.7102025380591
 30
0.0
 40
5.0
 41
0.0
 46
0.0
 71
     5
 72
     1
  1
R0.5
 73
     1
 44
1.0
  0
SOLID
  5
28E7
330
28E2
100
AcDbEntity
  8
寸法
 62
     0
100
AcDbTrace
 10
193.0162759319563
 20
406.9357420408617
 30
0.0
 11
193.4808721447859
 21
406.2439365743692
 31
0.0
 12
191.1731576388938
 22
405.1960506691266
 32
0.0
 13
191.1731576388938
 23
405.1960506691266
 33
0.0
  0
POINT
  5
28E8
330
28E2
100
AcDbEntity
  8
Defpoints
 62
     0
100
AcDbPoint
 10
191.1731576388938
 20
405.1960506691266
 30
0.0
  0
POINT
  5
28E9
330
28E2
100
AcDbEntity
  8
Defpoints
 62
     0
100
AcDbPoint
 10
190.3429910791029
 20
404.6385352137311
 30
0.0
  0
ENDBLK
  5
28E4
330
28E2
100
AcDbEntity
  8
0
100
AcDbBlockEnd
  0
BLOCK
  5
2970
330
296F
100
AcDbEntity
  8
0
100
AcDbBlockBegin
  2
*D58
 70
     1
 10
0.0
 20
0.0
 30
0.0
  3
*D58
  1

  0
LINE
  5
2972
330
296F
100
AcDbEntity
  8
硬質樹脂
  6
Continuous
 62
     0
370
    -2
100
AcDbLine
 10
124.225159216974
 20
403.5638749971414
 30
0.0
 11
124.225159216974
 21
409.1612992756895
 31
0.0
  0
LINE
  5
2973
330
296F
100
AcDbEntity
  8
硬質樹脂
  6
Continuous
 62
     0
370
    -2
100
AcDbLine
 10
132.4251592169739
 20
403.5638749971414
 30
0.0
 11
132.4251592169739
 21
409.1612992756895
 31
0.0
  0
LINE
  5
2974
330
296F
100
AcDbEntity
  8
硬質樹脂
  6
Continuous
 62
     0
370
    -2
100
AcDbLine
 10
121.725159216974
 20
407.9112992756895
 30
0.0
 11
119.225159216974
 21
407.9112992756895
 31
0.0
  0
LINE
  5
2975
330
296F
100
AcDbEntity
  8
硬質樹脂
  6
Continuous
 62
     0
370
    -2
100
AcDbLine
 10
134.9251592169739
 20
407.9112992756895
 30
0.0
 11
137.4251592169739
 21
407.9112992756895
 31
0.0
  0
SOLID
  5
2976
330
296F
100
AcDbEntity
  8
硬質樹脂
 62
     0
100
AcDbTrace
 10
121.725159216974
 20
407.4946326090228
 30
0.0
 11
121.725159216974
 21
408.3279659423562
 31
0.0
 12
124.225159216974
 22
407.9112992756895
 32
0.0
 13
124.225159216974
 23
407.9112992756895
 33
0.0
  0
SOLID
  5
2977
330
296F
100
AcDbEntity
  8
硬質樹脂
 62
     0
100
AcDbTrace
 10
134.9251592169739
 20
408.3279659423562
 30
0.0
 11
134.9251592169739
 21
407.4946326090228
 31
0.0
 12
132.4251592169739
 22
407.9112992756895
 32
0.0
 13
132.4251592169739
 23
407.9112992756895
 33
0.0
  0
MTEXT
  5
2978
330
296F
100
AcDbEntity
  8
硬質樹脂
  6
Continuous
 62
     0
100
AcDbMText
 10
128.325159216974
 20
407.9112992756895
 30
0.0
 40
2.5
 41
0.0
 46
0.0
 71
     5
 72
     1
  1
8.2
 73
     1
 44
1.0
  0
POINT
  5
2979
330
296F
100
AcDbEntity
  8
Defpoints
 62
     0
100
AcDbPoint
 10
124.225159216974
 20
402.9388749971414
 30
0.0
  0
POINT
  5
297A
330
296F
100
AcDbEntity
  8
Defpoints
 62
     0
100
AcDbPoint
 10
132.4251592169739
 20
402.9388749971414
 30
0.0
  0
POINT
  5
297B
330
296F
100
AcDbEntity
  8
Defpoints
 62
     0
100
AcDbPoint
 10
132.4251592169739
 20
407.9112992756895
 30
0.0
  0
ENDBLK
  5
2971
330
296F
100
AcDbEntity
  8
0
100
AcDbBlockEnd
  0
BLOCK
  5
2980
330
297F
100
AcDbEntity
  8
0
100
AcDbBlockBegin
  2
*D59
 70
     1
 10
0.0
 20
0.0
 30
0.0
  3
*D59
  1

  0
LINE
  5
2982
330
297F
100
AcDbEntity
  8
硬質樹脂
  6
Continuous
 62
     0
370
    -2
100
AcDbLine
 10
132.5501592169739
 20
403.4388749971414
 30
0.0
 11
139.7266573452257
 21
403.4388749971414
 31
0.0
  0
LINE
  5
2983
330
297F
100
AcDbEntity
  8
硬質樹脂
  6
Continuous
 62
     0
370
    -2
100
AcDbLine
 10
132.3576102726433
 20
393.4388735610688
 30
0.0
 11
139.7266573452257
 21
393.4388735610688
 31
0.0
  0
LINE
  5
2984
330
297F
100
AcDbEntity
  8
硬質樹脂
  6
Continuous
 62
     0
370
    -2
100
AcDbLine
 10
138.4766573452257
 20
400.9388749971414
 30
0.0
 11
138.4766573452257
 21
400.3245979709794
 31
0.0
  0
LINE
  5
2985
330
297F
100
AcDbEntity
  8
硬質樹脂
  6
Continuous
 62
     0
370
    -2
100
AcDbLine
 10
138.4766573452257
 20
395.9388735610688
 30
0.0
 11
138.4766573452257
 21
396.5745979709794
 31
0.0
  0
SOLID
  5
2986
330
297F
100
AcDbEntity
  8
硬質樹脂
 62
     0
100
AcDbTrace
 10
138.8933240118924
 20
400.9388749971414
 30
0.0
 11
138.059990678559
 21
400.9388749971414
 31
0.0
 12
138.4766573452257
 22
403.4388749971414
 32
0.0
 13
138.4766573452257
 23
403.4388749971414
 33
0.0
  0
SOLID
  5
2987
330
297F
100
AcDbEntity
  8
硬質樹脂
 62
     0
100
AcDbTrace
 10
138.059990678559
 20
395.9388735610688
 30
0.0
 11
138.8933240118924
 21
395.9388735610688
 31
0.0
 12
138.4766573452257
 22
393.4388735610688
 32
0.0
 13
138.4766573452257
 23
393.4388735610688
 33
0.0
  0
MTEXT
  5
2988
330
297F
100
AcDbEntity
  8
硬質樹脂
  6
Continuous
 62
     0
100
AcDbMText
 10
138.4766573452257
 20
398.4495979709794
 30
0.0
 40
2.5
 41
0.0
 46
0.0
 71
     5
 72
     1
  1
10
 73
     1
 44
1.0
  0
POINT
  5
2989
330
297F
100
AcDbEntity
  8
Defpoints
 62
     0
100
AcDbPoint
 10
131.9251592169739
 20
403.4388749971414
 30
0.0
  0
POINT
  5
298A
330
297F
100
AcDbEntity
  8
Defpoints
 62
     0
100
AcDbPoint
 10
131.7326102726433
 20
393.4388735610688
 30
0.0
  0
POINT
  5
298B
330
297F
100
AcDbEntity
  8
Defpoints
 62
     0
100
AcDbPoint
 10
138.4766573452257
 20
393.4388735610688
 30
0.0
  0
ENDBLK
  5
2981
330
297F
100
AcDbEntity
  8
0
100
AcDbBlockEnd
  0
BLOCK
  5
2990
330
298F
100
AcDbEntity
  8
0
100
AcDbBlockBegin
  2
*D60
 70
     1
 10
0.0
 20
0.0
 30
0.0
  3
*D60
  1

  0
LINE
  5
2992
330
298F
100
AcDbEntity
  8
寸法
  6
Continuous
 62
     0
370
    -2
100
AcDbLine
 10
124.4326102726434
 20
393.6138735610688
 30
0.0
 11
124.4326102726434
 21
384.2955769557513
 31
0.0
  0
LINE
  5
2993
330
298F
100
AcDbEntity
  8
寸法
  6
Continuous
 62
     0
370
    -2
100
AcDbLine
 10
132.2326102726433
 20
393.6138735610688
 30
0.0
 11
132.2326102726433
 21
384.2955769557513
 31
0.0
  0
LINE
  5
2994
330
298F
100
AcDbEntity
  8
寸法
  6
Continuous
 62
     0
370
    -2
100
AcDbLine
 10
121.9326102726434
 20
385.5455769557513
 30
0.0
 11
119.4326102726434
 21
385.5455769557513
 31
0.0
  0
LINE
  5
2995
330
298F
100
AcDbEntity
  8
寸法
  6
Continuous
 62
     0
370
    -2
100
AcDbLine
 10
134.7326102726433
 20
385.5455769557513
 30
0.0
 11
137.2326102726433
 21
385.5455769557513
 31
0.0
  0
SOLID
  5
2996
330
298F
100
AcDbEntity
  8
寸法
 62
     0
100
AcDbTrace
 10
121.9326102726434
 20
385.1289102890846
 30
0.0
 11
121.9326102726434
 21
385.962243622418
 31
0.0
 12
124.4326102726434
 22
385.5455769557513
 32
0.0
 13
124.4326102726434
 23
385.5455769557513
 33
0.0
  0
SOLID
  5
2997
330
298F
100
AcDbEntity
  8
寸法
 62
     0
100
AcDbTrace
 10
134.7326102726433
 20
385.962243622418
 30
0.0
 11
134.7326102726433
 21
385.1289102890846
 31
0.0
 12
132.2326102726433
 22
385.5455769557513
 32
0.0
 13
132.2326102726433
 23
385.5455769557513
 33
0.0
  0
MTEXT
  5
2998
330
298F
100
AcDbEntity
  8
寸法
  6
Continuous
 62
     0
100
AcDbMText
 10
128.3326102726434
 20
385.5455769557513
 30
0.0
 40
2.5
 41
0.0
 46
0.0
 71
     5
 72
     1
  1
7.8
 73
     1
 44
1.0
  0
POINT
  5
2999
330
298F
100
AcDbEntity
  8
Defpoints
 62
     0
100
AcDbPoint
 10
124.4326102726434
 20
394.2388735610688
 30
0.0
  0
POINT
  5
299A
330
298F
100
AcDbEntity
  8
Defpoints
 62
     0
100
AcDbPoint
 10
132.2326102726433
 20
394.2388735610688
 30
0.0
  0
POINT
  5
299B
330
298F
100
AcDbEntity
  8
Defpoints
 62
     0
100
AcDbPoint
 10
132.2326102726433
 20
385.5455769557513
 30
0.0
  0
ENDBLK
  5
2991
330
298F
100
AcDbEntity
  8
0
100
AcDbBlockEnd
  0
BLOCK
  5
2A0D
330
2A0C
100
AcDbEntity
  8
0
100
AcDbBlockBegin
  2
*D61
 70
     1
 10
0.0
 20
0.0
 30
0.0
  3
*D61
  1

  0
LINE
  5
2A0E
330
2A0C
100
AcDbEntity
  8
硬質樹脂
  6
Continuous
 62
     0
370
    -2
100
AcDbLine
 10
5.0
 20
19.2682980413901
 30
0.0
 11
5.0
 21
24.86572231993819
 31
0.0
  0
LINE
  5
2A0F
330
2A0C
100
AcDbEntity
  8
硬質樹脂
  6
Continuous
 62
     0
370
    -2
100
AcDbLine
 10
13.19999999999989
 20
19.2682980413901
 30
0.0
 11
13.19999999999989
 21
24.86572231993819
 31
0.0
  0
LINE
  5
2A10
330
2A0C
100
AcDbEntity
  8
硬質樹脂
  6
Continuous
 62
     0
370
    -2
100
AcDbLine
 10
2.5
 20
23.61572231993819
 30
0.0
 11
0.0
 21
23.61572231993819
 31
0.0
  0
LINE
  5
2A11
330
2A0C
100
AcDbEntity
  8
硬質樹脂
  6
Continuous
 62
     0
370
    -2
100
AcDbLine
 10
15.69999999999989
 20
23.61572231993819
 30
0.0
 11
18.19999999999989
 21
23.61572231993819
 31
0.0
  0
SOLID
  5
2A12
330
2A0C
100
AcDbEntity
  8
硬質樹脂
 62
     0
100
AcDbTrace
 10
2.5
 20
23.19905565327152
 30
0.0
 11
2.5
 21
24.03238898660485
 31
0.0
 12
5.0
 22
23.61572231993819
 32
0.0
 13
5.0
 23
23.61572231993819
 33
0.0
  0
SOLID
  5
2A13
330
2A0C
100
AcDbEntity
  8
硬質樹脂
 62
     0
100
AcDbTrace
 10
15.69999999999989
 20
24.03238898660485
 30
0.0
 11
15.69999999999989
 21
23.19905565327152
 31
0.0
 12
13.19999999999989
 22
23.61572231993819
 32
0.0
 13
13.19999999999989
 23
23.61572231993819
 33
0.0
  0
MTEXT
  5
2A14
330
2A0C
100
AcDbEntity
  8
硬質樹脂
  6
Continuous
 62
     0
100
AcDbMText
 10
9.099999999999952
 20
23.61572231993819
 30
0.0
 40
2.5
 41
0.0
 46
0.0
 71
     5
 72
     1
  1
8.2
 73
     1
 44
1.0
  0
POINT
  5
2A15
330
2A0C
100
AcDbEntity
  8
Defpoints
 62
     0
100
AcDbPoint
 10
5.0
 20
18.6432980413901
 30
0.0
  0
POINT
  5
2A16
330
2A0C
100
AcDbEntity
  8
Defpoints
 62
     0
100
AcDbPoint
 10
13.19999999999989
 20
18.6432980413901
 30
0.0
  0
POINT
  5
2A17
330
2A0C
100
AcDbEntity
  8
Defpoints
 62
     0
100
AcDbPoint
 10
13.19999999999989
 20
23.61572231993819
 30
0.0
  0
ENDBLK
  5
2A18
330
2A0C
100
AcDbEntity
  8
0
100
AcDbBlockEnd
  0
BLOCK
  5
2A1D
330
2A1C
100
AcDbEntity
  8
0
100
AcDbBlockBegin
  2
*D62
 70
     1
 10
0.0
 20
0.0
 30
0.0
  3
*D62
  1

  0
LINE
  5
2A1E
330
2A1C
100
AcDbEntity
  8
硬質樹脂
  6
Continuous
 62
     0
370
    -2
100
AcDbLine
 10
13.32499999999989
 20
19.1432980413901
 30
0.0
 11
20.5014981282517
 21
19.1432980413901
 31
0.0
  0
LINE
  5
2A1F
330
2A1C
100
AcDbEntity
  8
硬質樹脂
  6
Continuous
 62
     0
370
    -2
100
AcDbLine
 10
13.13245105566931
 20
9.143296605317516
 30
0.0
 11
20.5014981282517
 21
9.143296605317516
 31
0.0
  0
LINE
  5
2A20
330
2A1C
100
AcDbEntity
  8
硬質樹脂
  6
Continuous
 62
     0
370
    -2
100
AcDbLine
 10
19.2514981282517
 20
16.6432980413901
 30
0.0
 11
19.2514981282517
 21
16.02902101522812
 31
0.0
  0
LINE
  5
2A21
330
2A1C
100
AcDbEntity
  8
硬質樹脂
  6
Continuous
 62
     0
370
    -2
100
AcDbLine
 10
19.2514981282517
 20
11.64329660531752
 30
0.0
 11
19.2514981282517
 21
12.27902101522812
 31
0.0
  0
SOLID
  5
2A22
330
2A1C
100
AcDbEntity
  8
硬質樹脂
 62
     0
100
AcDbTrace
 10
19.66816479491836
 20
16.6432980413901
 30
0.0
 11
18.83483146158503
 21
16.6432980413901
 31
0.0
 12
19.2514981282517
 22
19.1432980413901
 32
0.0
 13
19.2514981282517
 23
19.1432980413901
 33
0.0
  0
SOLID
  5
2A23
330
2A1C
100
AcDbEntity
  8
硬質樹脂
 62
     0
100
AcDbTrace
 10
18.83483146158503
 20
11.64329660531752
 30
0.0
 11
19.66816479491836
 21
11.64329660531752
 31
0.0
 12
19.2514981282517
 22
9.143296605317516
 32
0.0
 13
19.2514981282517
 23
9.143296605317516
 33
0.0
  0
MTEXT
  5
2A24
330
2A1C
100
AcDbEntity
  8
硬質樹脂
  6
Continuous
 62
     0
100
AcDbMText
 10
19.2514981282517
 20
14.15402101522812
 30
0.0
 40
2.5
 41
0.0
 46
0.0
 71
     5
 72
     1
  1
10
 73
     1
 44
1.0
  0
POINT
  5
2A25
330
2A1C
100
AcDbEntity
  8
Defpoints
 62
     0
100
AcDbPoint
 10
12.69999999999989
 20
19.1432980413901
 30
0.0
  0
POINT
  5
2A26
330
2A1C
100
AcDbEntity
  8
Defpoints
 62
     0
100
AcDbPoint
 10
12.50745105566931
 20
9.143296605317516
 30
0.0
  0
POINT
  5
2A27
330
2A1C
100
AcDbEntity
  8
Defpoints
 62
     0
100
AcDbPoint
 10
19.2514981282517
 20
9.143296605317516
 30
0.0
  0
ENDBLK
  5
2A28
330
2A1C
100
AcDbEntity
  8
0
100
AcDbBlockEnd
  0
BLOCK
  5
2A2D
330
2A2C
100
AcDbEntity
  8
0
100
AcDbBlockBegin
  2
*D63
 70
     1
 10
0.0
 20
0.0
 30
0.0
  3
*D63
  1

  0
LINE
  5
2A2E
330
2A2C
100
AcDbEntity
  8
寸法
  6
Continuous
 62
     0
370
    -2
100
AcDbLine
 10
5.207451055669409
 20
9.318296605317528
 30
0.0
 11
5.207451055669409
 21
0.0
 31
0.0
  0
LINE
  5
2A2F
330
2A2C
100
AcDbEntity
  8
寸法
  6
Continuous
 62
     0
370
    -2
100
AcDbLine
 10
13.00745105566931
 20
9.318296605317528
 30
0.0
 11
13.00745105566931
 21
0.0
 31
0.0
  0
LINE
  5
2A30
330
2A2C
100
AcDbEntity
  8
寸法
  6
Continuous
 62
     0
370
    -2
100
AcDbLine
 10
2.707451055669409
 20
1.25
 30
0.0
 11
0.2074510556694094
 21
1.25
 31
0.0
  0
LINE
  5
2A31
330
2A2C
100
AcDbEntity
  8
寸法
  6
Continuous
 62
     0
370
    -2
100
AcDbLine
 10
15.50745105566931
 20
1.25
 30
0.0
 11
18.00745105566931
 21
1.25
 31
0.0
  0
SOLID
  5
2A32
330
2A2C
100
AcDbEntity
  8
寸法
 62
     0
100
AcDbTrace
 10
2.707451055669409
 20
0.8333333333333333
 30
0.0
 11
2.707451055669409
 21
1.666666666666667
 31
0.0
 12
5.207451055669409
 22
1.25
 32
0.0
 13
5.207451055669409
 23
1.25
 33
0.0
  0
SOLID
  5
2A33
330
2A2C
100
AcDbEntity
  8
寸法
 62
     0
100
AcDbTrace
 10
15.50745105566931
 20
1.666666666666667
 30
0.0
 11
15.50745105566931
 21
0.8333333333333333
 31
0.0
 12
13.00745105566931
 22
1.25
 32
0.0
 13
13.00745105566931
 23
1.25
 33
0.0
  0
MTEXT
  5
2A34
330
2A2C
100
AcDbEntity
  8
寸法
  6
Continuous
 62
     0
100
AcDbMText
 10
9.107451055669358
 20
1.25
 30
0.0
 40
2.5
 41
0.0
 46
0.0
 71
     5
 72
     1
  1
7.8
 73
     1
 44
1.0
  0
POINT
  5
2A35
330
2A2C
100
AcDbEntity
  8
Defpoints
 62
     0
100
AcDbPoint
 10
5.207451055669409
 20
9.943296605317528
 30
0.0
  0
POINT
  5
2A36
330
2A2C
100
AcDbEntity
  8
Defpoints
 62
     0
100
AcDbPoint
 10
13.00745105566931
 20
9.943296605317528
 30
0.0
  0
POINT
  5
2A37
330
2A2C
100
AcDbEntity
  8
Defpoints
 62
     0
100
AcDbPoint
 10
13.00745105566931
 20
1.25
 30
0.0
  0
ENDBLK
  5
2A38
330
2A2C
100
AcDbEntity
  8
0
100
AcDbBlockEnd
  0
BLOCK
  5
2A89
330
2A88
100
AcDbEntity
  8
0
100
AcDbBlockBegin
  2
*D64
 70
     1
 10
0.0
 20
0.0
 30
0.0
  3
*D64
  1

  0
LINE
  5
2A8B
330
2A88
100
AcDbEntity
  8
寸法
  6
Continuous
 62
     0
370
    -2
100
AcDbLine
 10
191.2219021214156
 20
406.0730276883677
 30
0.0
 11
191.2219021214156
 21
411.6704519669158
 31
0.0
  0
LINE
  5
2A8C
330
2A88
100
AcDbEntity
  8
寸法
  6
Continuous
 62
     0
370
    -2
100
AcDbLine
 10
199.4219021214155
 20
406.0730276883677
 30
0.0
 11
199.4219021214155
 21
411.6704519669158
 31
0.0
  0
LINE
  5
2A8D
330
2A88
100
AcDbEntity
  8
寸法
  6
Continuous
 62
     0
370
    -2
100
AcDbLine
 10
188.7219021214156
 20
410.4204519669158
 30
0.0
 11
186.2219021214156
 21
410.4204519669158
 31
0.0
  0
LINE
  5
2A8E
330
2A88
100
AcDbEntity
  8
寸法
  6
Continuous
 62
     0
370
    -2
100
AcDbLine
 10
201.9219021214155
 20
410.4204519669158
 30
0.0
 11
204.4219021214155
 21
410.4204519669158
 31
0.0
  0
SOLID
  5
2A8F
330
2A88
100
AcDbEntity
  8
寸法
 62
     0
100
AcDbTrace
 10
188.7219021214156
 20
410.0037853002491
 30
0.0
 11
188.7219021214156
 21
410.8371186335825
 31
0.0
 12
191.2219021214156
 22
410.4204519669158
 32
0.0
 13
191.2219021214156
 23
410.4204519669158
 33
0.0
  0
SOLID
  5
2A90
330
2A88
100
AcDbEntity
  8
寸法
 62
     0
100
AcDbTrace
 10
201.9219021214155
 20
410.8371186335825
 30
0.0
 11
201.9219021214155
 21
410.0037853002491
 31
0.0
 12
199.4219021214155
 22
410.4204519669158
 32
0.0
 13
199.4219021214155
 23
410.4204519669158
 33
0.0
  0
MTEXT
  5
2A91
330
2A88
100
AcDbEntity
  8
寸法
  6
Continuous
 62
     0
100
AcDbMText
 10
195.3219021214156
 20
410.4204519669158
 30
0.0
 40
2.5
 41
0.0
 46
0.0
 71
     5
 72
     1
  1
8.2
 73
     1
 44
1.0
  0
POINT
  5
2A92
330
2A88
100
AcDbEntity
  8
Defpoints
 62
     0
100
AcDbPoint
 10
191.2219021214156
 20
405.4480276883677
 30
0.0
  0
POINT
  5
2A93
330
2A88
100
AcDbEntity
  8
Defpoints
 62
     0
100
AcDbPoint
 10
199.4219021214155
 20
405.4480276883677
 30
0.0
  0
POINT
  5
2A94
330
2A88
100
AcDbEntity
  8
Defpoints
 62
     0
100
AcDbPoint
 10
199.4219021214155
 20
410.4204519669158
 30
0.0
  0
ENDBLK
  5
2A8A
330
2A88
100
AcDbEntity
  8
0
100
AcDbBlockEnd
  0
BLOCK
  5
2A96
330
2A95
100
AcDbEntity
  8
0
100
AcDbBlockBegin
  2
*D65
 70
     1
 10
0.0
 20
0.0
 30
0.0
  3
*D65
  1

  0
LINE
  5
2A98
330
2A95
100
AcDbEntity
  8
寸法
  6
Continuous
 62
     0
370
    -2
100
AcDbLine
 10
199.5469021214155
 20
405.9480276883677
 30
0.0
 11
206.7234002496673
 21
405.9480276883677
 31
0.0
  0
LINE
  5
2A99
330
2A95
100
AcDbEntity
  8
寸法
  6
Continuous
 62
     0
370
    -2
100
AcDbLine
 10
199.3543531770849
 20
395.9480262522952
 30
0.0
 11
206.7234002496673
 21
395.9480262522952
 31
0.0
  0
LINE
  5
2A9A
330
2A95
100
AcDbEntity
  8
寸法
  6
Continuous
 62
     0
370
    -2
100
AcDbLine
 10
205.4734002496673
 20
403.4480276883677
 30
0.0
 11
205.4734002496673
 21
402.8337506622058
 31
0.0
  0
LINE
  5
2A9B
330
2A95
100
AcDbEntity
  8
寸法
  6
Continuous
 62
     0
370
    -2
100
AcDbLine
 10
205.4734002496673
 20
398.4480262522952
 30
0.0
 11
205.4734002496673
 21
399.0837506622058
 31
0.0
  0
SOLID
  5
2A9C
330
2A95
100
AcDbEntity
  8
寸法
 62
     0
100
AcDbTrace
 10
205.890066916334
 20
403.4480276883677
 30
0.0
 11
205.0567335830006
 21
403.4480276883677
 31
0.0
 12
205.4734002496673
 22
405.9480276883677
 32
0.0
 13
205.4734002496673
 23
405.9480276883677
 33
0.0
  0
SOLID
  5
2A9D
330
2A95
100
AcDbEntity
  8
寸法
 62
     0
100
AcDbTrace
 10
205.0567335830006
 20
398.4480262522952
 30
0.0
 11
205.890066916334
 21
398.4480262522952
 31
0.0
 12
205.4734002496673
 22
395.9480262522952
 32
0.0
 13
205.4734002496673
 23
395.9480262522952
 33
0.0
  0
MTEXT
  5
2A9E
330
2A95
100
AcDbEntity
  8
寸法
  6
Continuous
 62
     0
100
AcDbMText
 10
205.4734002496673
 20
400.9587506622058
 30
0.0
 40
2.5
 41
0.0
 46
0.0
 71
     5
 72
     1
  1
10
 73
     1
 44
1.0
  0
POINT
  5
2A9F
330
2A95
100
AcDbEntity
  8
Defpoints
 62
     0
100
AcDbPoint
 10
198.9219021214155
 20
405.9480276883677
 30
0.0
  0
POINT
  5
2AA0
330
2A95
100
AcDbEntity
  8
Defpoints
 62
     0
100
AcDbPoint
 10
198.7293531770849
 20
395.9480262522952
 30
0.0
  0
POINT
  5
2AA1
330
2A95
100
AcDbEntity
  8
Defpoints
 62
     0
100
AcDbPoint
 10
205.4734002496673
 20
395.9480262522952
 30
0.0
  0
ENDBLK
  5
2A97
330
2A95
100
AcDbEntity
  8
0
100
AcDbBlockEnd
  0
BLOCK
  5
2AA3
330
2AA2
100
AcDbEntity
  8
0
100
AcDbBlockBegin
  2
*D66
 70
     1
 10
0.0
 20
0.0
 30
0.0
  3
*D66
  1

  0
LINE
  5
2AA5
330
2AA2
100
AcDbEntity
  8
寸法
  6
Continuous
 62
     0
370
    -2
100
AcDbLine
 10
191.429353177085
 20
396.1230262522952
 30
0.0
 11
191.429353177085
 21
386.8047296469776
 31
0.0
  0
LINE
  5
2AA6
330
2AA2
100
AcDbEntity
  8
寸法
  6
Continuous
 62
     0
370
    -2
100
AcDbLine
 10
199.2293531770849
 20
396.1230262522952
 30
0.0
 11
199.2293531770849
 21
386.8047296469776
 31
0.0
  0
LINE
  5
2AA7
330
2AA2
100
AcDbEntity
  8
寸法
  6
Continuous
 62
     0
370
    -2
100
AcDbLine
 10
188.929353177085
 20
388.0547296469776
 30
0.0
 11
186.429353177085
 21
388.0547296469776
 31
0.0
  0
LINE
  5
2AA8
330
2AA2
100
AcDbEntity
  8
寸法
  6
Continuous
 62
     0
370
    -2
100
AcDbLine
 10
201.7293531770849
 20
388.0547296469776
 30
0.0
 11
204.2293531770849
 21
388.0547296469776
 31
0.0
  0
SOLID
  5
2AA9
330
2AA2
100
AcDbEntity
  8
寸法
 62
     0
100
AcDbTrace
 10
188.929353177085
 20
387.638062980311
 30
0.0
 11
188.929353177085
 21
388.4713963136443
 31
0.0
 12
191.429353177085
 22
388.0547296469776
 32
0.0
 13
191.429353177085
 23
388.0547296469776
 33
0.0
  0
SOLID
  5
2AAA
330
2AA2
100
AcDbEntity
  8
寸法
 62
     0
100
AcDbTrace
 10
201.7293531770849
 20
388.4713963136443
 30
0.0
 11
201.7293531770849
 21
387.638062980311
 31
0.0
 12
199.2293531770849
 22
388.0547296469776
 32
0.0
 13
199.2293531770849
 23
388.0547296469776
 33
0.0
  0
MTEXT
  5
2AAB
330
2AA2
100
AcDbEntity
  8
寸法
  6
Continuous
 62
     0
100
AcDbMText
 10
195.329353177085
 20
388.0547296469776
 30
0.0
 40
2.5
 41
0.0
 46
0.0
 71
     5
 72
     1
  1
7.8
 73
     1
 44
1.0
  0
POINT
  5
2AAC
330
2AA2
100
AcDbEntity
  8
Defpoints
 62
     0
100
AcDbPoint
 10
191.429353177085
 20
396.7480262522952
 30
0.0
  0
POINT
  5
2AAD
330
2AA2
100
AcDbEntity
  8
Defpoints
 62
     0
100
AcDbPoint
 10
199.2293531770849
 20
396.7480262522952
 30
0.0
  0
POINT
  5
2AAE
330
2AA2
100
AcDbEntity
  8
Defpoints
 62
     0
100
AcDbPoint
 10
199.2293531770849
 20
388.0547296469776
 30
0.0
  0
ENDBLK
  5
2AA4
330
2AA2
100
AcDbEntity
  8
0
100
AcDbBlockEnd
  0
BLOCK
  5
2B86
330
2B85
100
AcDbEntity
  8
0
100
AcDbBlockBegin
  2
*D67
 70
     1
 10
0.0
 20
0.0
 30
0.0
  3
*D67
  1

  0
LINE
  5
2B87
330
2B85
100
AcDbEntity
  8
寸法
  6
Continuous
 62
     0
370
    -2
100
AcDbLine
 10
13.8951446872276
 20
19.2682980413901
 30
0.0
 11
13.8951446872276
 21
24.86572231993819
 31
0.0
  0
LINE
  5
2B88
330
2B85
100
AcDbEntity
  8
寸法
  6
Continuous
 62
     0
370
    -2
100
AcDbLine
 10
22.0951446872275
 20
19.2682980413901
 30
0.0
 11
22.0951446872275
 21
24.86572231993819
 31
0.0
  0
LINE
  5
2B89
330
2B85
100
AcDbEntity
  8
寸法
  6
Continuous
 62
     0
370
    -2
100
AcDbLine
 10
11.3951446872276
 20
23.61572231993819
 30
0.0
 11
8.8951446872276
 21
23.61572231993819
 31
0.0
  0
LINE
  5
2B8A
330
2B85
100
AcDbEntity
  8
寸法
  6
Continuous
 62
     0
370
    -2
100
AcDbLine
 10
24.5951446872275
 20
23.61572231993819
 30
0.0
 11
27.0951446872275
 21
23.61572231993819
 31
0.0
  0
SOLID
  5
2B8B
330
2B85
100
AcDbEntity
  8
寸法
 62
     0
100
AcDbTrace
 10
11.3951446872276
 20
23.19905565327152
 30
0.0
 11
11.3951446872276
 21
24.03238898660485
 31
0.0
 12
13.8951446872276
 22
23.61572231993819
 32
0.0
 13
13.8951446872276
 23
23.61572231993819
 33
0.0
  0
SOLID
  5
2B8C
330
2B85
100
AcDbEntity
  8
寸法
 62
     0
100
AcDbTrace
 10
24.5951446872275
 20
24.03238898660485
 30
0.0
 11
24.5951446872275
 21
23.19905565327152
 31
0.0
 12
22.0951446872275
 22
23.61572231993819
 32
0.0
 13
22.0951446872275
 23
23.61572231993819
 33
0.0
  0
MTEXT
  5
2B8D
330
2B85
100
AcDbEntity
  8
寸法
  6
Continuous
 62
     0
100
AcDbMText
 10
17.99514468722759
 20
23.61572231993819
 30
0.0
 40
2.5
 41
0.0
 46
0.0
 71
     5
 72
     1
  1
8.2
 73
     1
 44
1.0
  0
POINT
  5
2B8E
330
2B85
100
AcDbEntity
  8
Defpoints
 62
     0
100
AcDbPoint
 10
13.8951446872276
 20
18.6432980413901
 30
0.0
  0
POINT
  5
2B8F
330
2B85
100
AcDbEntity
  8
Defpoints
 62
     0
100
AcDbPoint
 10
22.0951446872275
 20
18.6432980413901
 30
0.0
  0
POINT
  5
2B90
330
2B85
100
AcDbEntity
  8
Defpoints
 62
     0
100
AcDbPoint
 10
22.0951446872275
 20
23.61572231993819
 30
0.0
  0
ENDBLK
  5
2B91
330
2B85
100
AcDbEntity
  8
0
100
AcDbBlockEnd
  0
BLOCK
  5
2B96
330
2B95
100
AcDbEntity
  8
0
100
AcDbBlockBegin
  2
*D68
 70
     1
 10
0.0
 20
0.0
 30
0.0
  3
*D68
  1

  0
LINE
  5
2B97
330
2B95
100
AcDbEntity
  8
寸法
  6
Continuous
 62
     0
370
    -2
100
AcDbLine
 10
22.2201446872275
 20
19.1432980413901
 30
0.0
 11
29.39664281547928
 21
19.1432980413901
 31
0.0
  0
LINE
  5
2B98
330
2B95
100
AcDbEntity
  8
寸法
  6
Continuous
 62
     0
370
    -2
100
AcDbLine
 10
22.02759574289689
 20
9.14329660531763
 30
0.0
 11
29.39664281547928
 21
9.14329660531763
 31
0.0
  0
LINE
  5
2B99
330
2B95
100
AcDbEntity
  8
寸法
  6
Continuous
 62
     0
370
    -2
100
AcDbLine
 10
28.14664281547928
 20
16.6432980413901
 30
0.0
 11
28.14664281547928
 21
16.02902101522818
 31
0.0
  0
LINE
  5
2B9A
330
2B95
100
AcDbEntity
  8
寸法
  6
Continuous
 62
     0
370
    -2
100
AcDbLine
 10
28.14664281547928
 20
11.64329660531763
 30
0.0
 11
28.14664281547928
 21
12.27902101522818
 31
0.0
  0
SOLID
  5
2B9B
330
2B95
100
AcDbEntity
  8
寸法
 62
     0
100
AcDbTrace
 10
28.56330948214595
 20
16.6432980413901
 30
0.0
 11
27.72997614881261
 21
16.6432980413901
 31
0.0
 12
28.14664281547928
 22
19.1432980413901
 32
0.0
 13
28.14664281547928
 23
19.1432980413901
 33
0.0
  0
SOLID
  5
2B9C
330
2B95
100
AcDbEntity
  8
寸法
 62
     0
100
AcDbTrace
 10
27.72997614881261
 20
11.64329660531763
 30
0.0
 11
28.56330948214595
 21
11.64329660531763
 31
0.0
 12
28.14664281547928
 22
9.14329660531763
 32
0.0
 13
28.14664281547928
 23
9.14329660531763
 33
0.0
  0
MTEXT
  5
2B9D
330
2B95
100
AcDbEntity
  8
寸法
  6
Continuous
 62
     0
100
AcDbMText
 10
28.14664281547928
 20
14.15402101522818
 30
0.0
 40
2.5
 41
0.0
 46
0.0
 71
     5
 72
     1
  1
10
 73
     1
 44
1.0
  0
POINT
  5
2B9E
330
2B95
100
AcDbEntity
  8
Defpoints
 62
     0
100
AcDbPoint
 10
21.5951446872275
 20
19.1432980413901
 30
0.0
  0
POINT
  5
2B9F
330
2B95
100
AcDbEntity
  8
Defpoints
 62
     0
100
AcDbPoint
 10
21.40259574289689
 20
9.14329660531763
 30
0.0
  0
POINT
  5
2BA0
330
2B95
100
AcDbEntity
  8
Defpoints
 62
     0
100
AcDbPoint
 10
28.14664281547928
 20
9.14329660531763
 30
0.0
  0
ENDBLK
  5
2BA1
330
2B95
100
AcDbEntity
  8
0
100
AcDbBlockEnd
  0
BLOCK
  5
2BA6
330
2BA5
100
AcDbEntity
  8
0
100
AcDbBlockBegin
  2
*D69
 70
     1
 10
0.0
 20
0.0
 30
0.0
  3
*D69
  1

  0
LINE
  5
2BA7
330
2BA5
100
AcDbEntity
  8
寸法
  6
Continuous
 62
     0
370
    -2
100
AcDbLine
 10
14.10259574289699
 20
9.318296605317585
 30
0.0
 11
14.10259574289699
 21
0.0
 31
0.0
  0
LINE
  5
2BA8
330
2BA5
100
AcDbEntity
  8
寸法
  6
Continuous
 62
     0
370
    -2
100
AcDbLine
 10
21.90259574289689
 20
9.318296605317585
 30
0.0
 11
21.90259574289689
 21
0.0
 31
0.0
  0
LINE
  5
2BA9
330
2BA5
100
AcDbEntity
  8
寸法
  6
Continuous
 62
     0
370
    -2
100
AcDbLine
 10
11.60259574289699
 20
1.25
 30
0.0
 11
9.102595742896995
 21
1.25
 31
0.0
  0
LINE
  5
2BAA
330
2BA5
100
AcDbEntity
  8
寸法
  6
Continuous
 62
     0
370
    -2
100
AcDbLine
 10
24.40259574289689
 20
1.25
 30
0.0
 11
26.90259574289689
 21
1.25
 31
0.0
  0
SOLID
  5
2BAB
330
2BA5
100
AcDbEntity
  8
寸法
 62
     0
100
AcDbTrace
 10
11.60259574289699
 20
0.8333333333333333
 30
0.0
 11
11.60259574289699
 21
1.666666666666667
 31
0.0
 12
14.10259574289699
 22
1.25
 32
0.0
 13
14.10259574289699
 23
1.25
 33
0.0
  0
SOLID
  5
2BAC
330
2BA5
100
AcDbEntity
  8
寸法
 62
     0
100
AcDbTrace
 10
24.40259574289689
 20
1.666666666666667
 30
0.0
 11
24.40259574289689
 21
0.8333333333333333
 31
0.0
 12
21.90259574289689
 22
1.25
 32
0.0
 13
21.90259574289689
 23
1.25
 33
0.0
  0
MTEXT
  5
2BAD
330
2BA5
100
AcDbEntity
  8
寸法
  6
Continuous
 62
     0
100
AcDbMText
 10
18.002595742897
 20
1.25
 30
0.0
 40
2.5
 41
0.0
 46
0.0
 71
     5
 72
     1
  1
7.8
 73
     1
 44
1.0
  0
POINT
  5
2BAE
330
2BA5
100
AcDbEntity
  8
Defpoints
 62
     0
100
AcDbPoint
 10
14.10259574289699
 20
9.943296605317585
 30
0.0
  0
POINT
  5
2BAF
330
2BA5
100
AcDbEntity
  8
Defpoints
 62
     0
100
AcDbPoint
 10
21.90259574289689
 20
9.943296605317585
 30
0.0
  0
POINT
  5
2BB0
330
2BA5
100
AcDbEntity
  8
Defpoints
 62
     0
100
AcDbPoint
 10
21.90259574289689
 20
1.25
 30
0.0
  0
ENDBLK
  5
2BB1
330
2BA5
100
AcDbEntity
  8
0
100
AcDbBlockEnd
  0
BLOCK
  5
2C0A
330
2C09
100
AcDbEntity
  8
0
100
AcDbBlockBegin
  2
*D70
 70
     1
 10
0.0
 20
0.0
 30
0.0
  3
*D70
  1

  0
LINE
  5
2C0C
330
2C09
100
AcDbEntity
  8
寸法
  6
Continuous
 62
     0
370
    -2
100
AcDbLine
 10
176.4191897695644
 20
403.0958690140846
 30
0.0
 11
176.4191897695644
 21
409.2208690140846
 31
0.0
  0
LINE
  5
2C0D
330
2C09
100
AcDbEntity
  8
寸法
  6
Continuous
 62
     0
370
    -2
100
AcDbLine
 10
184.6191897695643
 20
403.0958690140846
 30
0.0
 11
184.6191897695643
 21
409.2208690140846
 31
0.0
  0
LINE
  5
2C0E
330
2C09
100
AcDbEntity
  8
寸法
  6
Continuous
 62
     0
370
    -2
100
AcDbLine
 10
173.9191897695644
 20
407.9708690140846
 30
0.0
 11
171.4191897695644
 21
407.9708690140846
 31
0.0
  0
LINE
  5
2C0F
330
2C09
100
AcDbEntity
  8
寸法
  6
Continuous
 62
     0
370
    -2
100
AcDbLine
 10
187.1191897695643
 20
407.9708690140846
 30
0.0
 11
189.6191897695643
 21
407.9708690140846
 31
0.0
  0
SOLID
  5
2C10
330
2C09
100
AcDbEntity
  8
寸法
 62
     0
100
AcDbTrace
 10
173.9191897695644
 20
407.5542023474179
 30
0.0
 11
173.9191897695644
 21
408.3875356807513
 31
0.0
 12
176.4191897695644
 22
407.9708690140846
 32
0.0
 13
176.4191897695644
 23
407.9708690140846
 33
0.0
  0
SOLID
  5
2C11
330
2C09
100
AcDbEntity
  8
寸法
 62
     0
100
AcDbTrace
 10
187.1191897695643
 20
408.3875356807513
 30
0.0
 11
187.1191897695643
 21
407.5542023474179
 31
0.0
 12
184.6191897695643
 22
407.9708690140846
 32
0.0
 13
184.6191897695643
 23
407.9708690140846
 33
0.0
  0
MTEXT
  5
2C12
330
2C09
100
AcDbEntity
  8
寸法
  6
Continuous
 62
     0
100
AcDbMText
 10
180.5191897695644
 20
407.9708690140846
 30
0.0
 40
2.5
 41
0.0
 46
0.0
 71
     5
 72
     1
  1
8.2
 73
     1
 44
1.0
  0
POINT
  5
2C13
330
2C09
100
AcDbEntity
  8
Defpoints
 62
     0
100
AcDbPoint
 10
176.4191897695644
 20
402.4708690140846
 30
0.0
  0
POINT
  5
2C14
330
2C09
100
AcDbEntity
  8
Defpoints
 62
     0
100
AcDbPoint
 10
184.6191897695643
 20
402.4708690140846
 30
0.0
  0
POINT
  5
2C15
330
2C09
100
AcDbEntity
  8
Defpoints
 62
     0
100
AcDbPoint
 10
184.6191897695643
 20
407.9708690140846
 30
0.0
  0
ENDBLK
  5
2C0B
330
2C09
100
AcDbEntity
  8
0
100
AcDbBlockEnd
  0
BLOCK
  5
2C17
330
2C16
100
AcDbEntity
  8
0
100
AcDbBlockBegin
  2
*D71
 70
     1
 10
0.0
 20
0.0
 30
0.0
  3
*D71
  1

  0
LINE
  5
2C19
330
2C16
100
AcDbEntity
  8
寸法
  6
Continuous
 62
     0
370
    -2
100
AcDbLine
 10
184.7441897695643
 20
402.9708690140846
 30
0.0
 11
190.6766408252337
 21
402.9708690140846
 31
0.0
  0
LINE
  5
2C1A
330
2C16
100
AcDbEntity
  8
寸法
  6
Continuous
 62
     0
370
    -2
100
AcDbLine
 10
184.5516408252337
 20
392.970867578012
 30
0.0
 11
190.6766408252337
 21
392.970867578012
 31
0.0
  0
LINE
  5
2C1B
330
2C16
100
AcDbEntity
  8
寸法
  6
Continuous
 62
     0
370
    -2
100
AcDbLine
 10
189.4266408252337
 20
400.4708690140846
 30
0.0
 11
189.4266408252337
 21
399.8565919879226
 31
0.0
  0
LINE
  5
2C1C
330
2C16
100
AcDbEntity
  8
寸法
  6
Continuous
 62
     0
370
    -2
100
AcDbLine
 10
189.4266408252337
 20
395.470867578012
 30
0.0
 11
189.4266408252337
 21
396.1065919879226
 31
0.0
  0
SOLID
  5
2C1D
330
2C16
100
AcDbEntity
  8
寸法
 62
     0
100
AcDbTrace
 10
189.8433074919004
 20
400.4708690140846
 30
0.0
 11
189.009974158567
 21
400.4708690140846
 31
0.0
 12
189.4266408252337
 22
402.9708690140846
 32
0.0
 13
189.4266408252337
 23
402.9708690140846
 33
0.0
  0
SOLID
  5
2C1E
330
2C16
100
AcDbEntity
  8
寸法
 62
     0
100
AcDbTrace
 10
189.009974158567
 20
395.470867578012
 30
0.0
 11
189.8433074919004
 21
395.470867578012
 31
0.0
 12
189.4266408252337
 22
392.970867578012
 32
0.0
 13
189.4266408252337
 23
392.970867578012
 33
0.0
  0
MTEXT
  5
2C1F
330
2C16
100
AcDbEntity
  8
寸法
  6
Continuous
 62
     0
100
AcDbMText
 10
189.4266408252337
 20
397.9815919879226
 30
0.0
 40
2.5
 41
0.0
 46
0.0
 71
     5
 72
     1
  1
10
 73
     1
 44
1.0
  0
POINT
  5
2C20
330
2C16
100
AcDbEntity
  8
Defpoints
 62
     0
100
AcDbPoint
 10
184.1191897695643
 20
402.9708690140846
 30
0.0
  0
POINT
  5
2C21
330
2C16
100
AcDbEntity
  8
Defpoints
 62
     0
100
AcDbPoint
 10
183.9266408252337
 20
392.970867578012
 30
0.0
  0
POINT
  5
2C22
330
2C16
100
AcDbEntity
  8
Defpoints
 62
     0
100
AcDbPoint
 10
189.4266408252337
 20
392.970867578012
 30
0.0
  0
ENDBLK
  5
2C18
330
2C16
100
AcDbEntity
  8
0
100
AcDbBlockEnd
  0
BLOCK
  5
2C24
330
2C23
100
AcDbEntity
  8
0
100
AcDbBlockBegin
  2
*D72
 70
     1
 10
0.0
 20
0.0
 30
0.0
  3
*D72
  1

  0
LINE
  5
2C26
330
2C23
100
AcDbEntity
  8
寸法
  6
Continuous
 62
     0
370
    -2
100
AcDbLine
 10
176.6266408252338
 20
393.145867578012
 30
0.0
 11
176.6266408252338
 21
386.720867578012
 31
0.0
  0
LINE
  5
2C27
330
2C23
100
AcDbEntity
  8
寸法
  6
Continuous
 62
     0
370
    -2
100
AcDbLine
 10
184.4266408252337
 20
393.145867578012
 30
0.0
 11
184.4266408252337
 21
386.720867578012
 31
0.0
  0
LINE
  5
2C28
330
2C23
100
AcDbEntity
  8
寸法
  6
Continuous
 62
     0
370
    -2
100
AcDbLine
 10
174.1266408252338
 20
387.970867578012
 30
0.0
 11
171.6266408252338
 21
387.970867578012
 31
0.0
  0
LINE
  5
2C29
330
2C23
100
AcDbEntity
  8
寸法
  6
Continuous
 62
     0
370
    -2
100
AcDbLine
 10
186.9266408252337
 20
387.970867578012
 30
0.0
 11
189.4266408252337
 21
387.970867578012
 31
0.0
  0
SOLID
  5
2C2A
330
2C23
100
AcDbEntity
  8
寸法
 62
     0
100
AcDbTrace
 10
174.1266408252338
 20
387.5542009113453
 30
0.0
 11
174.1266408252338
 21
388.3875342446787
 31
0.0
 12
176.6266408252338
 22
387.970867578012
 32
0.0
 13
176.6266408252338
 23
387.970867578012
 33
0.0
  0
SOLID
  5
2C2B
330
2C23
100
AcDbEntity
  8
寸法
 62
     0
100
AcDbTrace
 10
186.9266408252337
 20
388.3875342446787
 30
0.0
 11
186.9266408252337
 21
387.5542009113453
 31
0.0
 12
184.4266408252337
 22
387.970867578012
 32
0.0
 13
184.4266408252337
 23
387.970867578012
 33
0.0
  0
MTEXT
  5
2C2C
330
2C23
100
AcDbEntity
  8
寸法
  6
Continuous
 62
     0
100
AcDbMText
 10
180.5266408252338
 20
387.970867578012
 30
0.0
 40
2.5
 41
0.0
 46
0.0
 71
     5
 72
     1
  1
7.8
 73
     1
 44
1.0
  0
POINT
  5
2C2D
330
2C23
100
AcDbEntity
  8
Defpoints
 62
     0
100
AcDbPoint
 10
176.6266408252338
 20
393.770867578012
 30
0.0
  0
POINT
  5
2C2E
330
2C23
100
AcDbEntity
  8
Defpoints
 62
     0
100
AcDbPoint
 10
184.4266408252337
 20
393.770867578012
 30
0.0
  0
POINT
  5
2C2F
330
2C23
100
AcDbEntity
  8
Defpoints
 62
     0
100
AcDbPoint
 10
184.4266408252337
 20
387.970867578012
 30
0.0
  0
ENDBLK
  5
2C25
330
2C23
100
AcDbEntity
  8
0
100
AcDbBlockEnd
  0
ENDSEC
  0
SECTION
  2
ENTITIES
  0
LINE
  5
664
330
1F
100
AcDbEntity
  8
用紙範囲
  6
HIDDEN
100
AcDbLine
 10
57.52672970762251
 20
496.3708675780121
 30
0.0
 11
57.52672970762251
 21
291.3708675780121
 31
0.0
  0
LINE
  5
665
330
1F
100
AcDbEntity
  8
用紙範囲
  6
HIDDEN
100
AcDbLine
 10
349.5267297076225
 20
496.3708675780121
 30
0.0
 11
349.5267297076225
 21
291.3708675780121
 31
0.0
  0
LINE
  5
666
330
1F
100
AcDbEntity
  8
用紙範囲
  6
HIDDEN
100
AcDbLine
 10
57.52672970762251
 20
496.3708675780121
 30
0.0
 11
349.5267297076225
 21
496.3708675780121
 31
0.0
  0
LINE
  5
667
330
1F
100
AcDbEntity
  8
用紙範囲
  6
HIDDEN
100
AcDbLine
 10
57.52672970762251
 20
291.3708675780121
 30
0.0
 11
349.5267297076225
 21
291.3708675780121
 31
0.0
  0
LINE
  5
668
330
1F
100
AcDbEntity
  8
枠
  6
Continuous
100
AcDbLine
 10
68.52672970762254
 20
484.8708675780121
 30
0.0
 11
338.5267297076225
 21
484.8708675780121
 31
0.0
  0
LINE
  5
669
330
1F
100
AcDbEntity
  8
枠
  6
Continuous
100
AcDbLine
 10
68.52672970762254
 20
302.8708675780121
 30
0.0
 11
338.5267297076225
 21
302.8708675780121
 31
0.0
  0
LINE
  5
66A
330
1F
100
AcDbEntity
  8
枠
  6
Continuous
100
AcDbLine
 10
68.52672970762254
 20
484.8708675780121
 30
0.0
 11
68.52672970762254
 21
302.8708675780121
 31
0.0
  0
LINE
  5
66B
330
1F
100
AcDbEntity
  8
枠
  6
Continuous
100
AcDbLine
 10
338.5267297076225
 20
484.8708675780121
 30
0.0
 11
338.5267297076225
 21
302.8708675780121
 31
0.0
  0
LINE
  5
673
330
1F
100
AcDbEntity
  8
枠
  6
Continuous
100
AcDbLine
 10
67.52672970762254
 20
485.8708675780121
 30
0.0
 11
339.5267297076225
 21
485.8708675780121
 31
0.0
  0
LINE
  5
674
330
1F
100
AcDbEntity
  8
枠
  6
Continuous
100
AcDbLine
 10
67.52672970762254
 20
485.8708675780121
 30
0.0
 11
67.52672970762254
 21
301.8708675780121
 31
0.0
  0
LINE
  5
675
330
1F
100
AcDbEntity
  8
枠
  6
Continuous
100
AcDbLine
 10
67.52672970762254
 20
301.8708675780121
 30
0.0
 11
339.5267297076225
 21
301.8708675780121
 31
0.0
  0
LINE
  5
676
330
1F
100
AcDbEntity
  8
枠
  6
Continuous
100
AcDbLine
 10
339.5267297076225
 20
485.8708675780121
 30
0.0
 11
339.5267297076225
 21
301.8708675780121
 31
0.0
  0
LINE
  5
677
330
1F
100
AcDbEntity
  8
枠
  6
Continuous
100
AcDbLine
 10
293.5267297076225
 20
484.8708675780121
 30
0.0
 11
293.5267297076225
 21
302.8708675780121
 31
0.0
  0
LINE
  5
678
330
1F
100
AcDbEntity
  8
枠
  6
Continuous
100
AcDbLine
 10
293.5267297076225
 20
462.7369141073677
 30
0.0
 11
338.5267297076225
 21
462.7369141073677
 31
0.0
  0
LINE
  5
679
330
1F
100
AcDbEntity
  8
枠
  6
Continuous
100
AcDbLine
 10
293.5267297076225
 20
440.6029606367232
 30
0.0
 11
338.5267297076225
 21
440.6029606367232
 31
0.0
  0
LINE
  5
67A
330
1F
100
AcDbEntity
  8
枠
  6
Continuous
100
AcDbLine
 10
293.5267297076225
 20
323.22709449966
 30
0.0
 11
338.5267297076225
 21
323.22709449966
 31
0.0
  0
LINE
  5
67B
330
1F
100
AcDbEntity
  8
枠
  6
Continuous
100
AcDbLine
 10
293.5267297076225
 20
333.243783422855
 30
0.0
 11
338.5267297076225
 21
333.243783422855
 31
0.0
  0
LINE
  5
67D
330
1F
100
AcDbEntity
  8
枠
  6
Continuous
100
AcDbLine
 10
292.5267297076225
 20
484.8708675780121
 30
0.0
 11
292.5267297076225
 21
302.8708675780121
 31
0.0
  0
MTEXT
  5
A15
330
1F
100
AcDbEntity
  8
文字
100
AcDbMText
 10
295.6041647381666
 20
483.3747369917864
 30
0.0
 40
2.5
 41
19.50744578598591
 46
2.8275
 71
     1
 72
     5
  1
{\fＭＳ Ｐゴシック|b0|i0|c0|p0;名称}
 73
     1
 44
1.0
1001
ACAD
1000
ACAD_MTEXT_DEFINED_HEIGHT_BEGIN
1070
    46
1040
2.8275
1000
ACAD_MTEXT_DEFINED_HEIGHT_END
  0
MTEXT
  5
A17
330
1F
100
AcDbEntity
  8
文字
100
AcDbMText
 10
296.4698050179672
 20
475.2302002440271
 30
0.0
 40
2.5
 41
45.0
 46
7.509469696969697
 71
     1
 72
     5
  1
{\pxql;\fＭＳ Ｐゴシック|b0|i0|c0|p0;Ｐｒｅｖｉｏ Ｍ　室内木階段用\P土足用ノンスリップ}
 73
     1
 44
1.0
1001
ACAD
1000
ACAD_MTEXT_DEFINED_HEIGHT_BEGIN
1070
    46
1040
7.509469696969697
1000
ACAD_MTEXT_DEFINED_HEIGHT_END
  0
MTEXT
  5
A18
330
1F
100
AcDbEntity
  8
文字
100
AcDbMText
 10
295.6041647381666
 20
461.0474724591359
 30
0.0
 40
2.5
 41
12.9189203585147
 46
2.84
 71
     1
 72
     5
  1
{\fＭＳ Ｐゴシック|b0|i0|c0|p0;品番}
 73
     1
 44
1.0
1001
ACAD
1000
ACAD_MTEXT_DEFINED_HEIGHT_BEGIN
1070
    46
1040
2.84
1000
ACAD_MTEXT_DEFINED_HEIGHT_END
  0
MTEXT
  5
A1C
330
1F
100
AcDbEntity
  8
文字
100
AcDbMText
 10
295.6041647381666
 20
439.4398760442832
 30
0.0
 40
2.5
 41
9.970036363636382
 46
2.8125
 71
     1
 72
     5
  1
{\fＭＳ Ｐゴシック|b0|i0|c0|p0;仕様}
 73
     1
 44
1.0
1001
ACAD
1000
ACAD_MTEXT_DEFINED_HEIGHT_BEGIN
1070
    46
1040
2.8125
1000
ACAD_MTEXT_DEFINED_HEIGHT_END
  0
MTEXT
  5
A1D
330
1F
100
AcDbEntity
  8
文字
100
AcDbMText
 10
302.9061632016749
 20
430.2137592914022
 30
0.0
 40
2.0
 41
31.03349346991041
 46
2.33
 71
     1
 72
     5
  1
{\fＭＳ Ｐゴシック|b0|i0|c0|p0;材質：アルミ製}
 73
     1
 44
1.0
1001
ACAD
1000
ACAD_MTEXT_DEFINED_HEIGHT_BEGIN
1070
    46
1040
2.33
1000
ACAD_MTEXT_DEFINED_HEIGHT_END
  0
MTEXT
  5
A1E
330
1F
100
AcDbEntity
  8
文字
100
AcDbMText
 10
302.9061632016749
 20
421.8799252308422
 30
0.0
 40
2.0
 41
31.03349346991041
 46
2.124
 71
     1
 72
     5
  1
{\fＭＳ Ｐゴシック|b0|i0|c0|p0;仕上：シルバー}
 73
     1
 44
1.0
1001
ACAD
1000
ACAD_MTEXT_DEFINED_HEIGHT_BEGIN
1070
    46
1040
2.124
1000
ACAD_MTEXT_DEFINED_HEIGHT_END
  0
MTEXT
  5
A21
330
1F
100
AcDbEntity
  8
社名
100
AcDbMText
 10
293.5267297076225
 20
313.0816063637261
 30
0.0
 40
5.0
 41
45.0
 46
5.0
 71
     1
 72
     5
  1
{\pxqc;\fＭＳ Ｐゴシック|b0|i0|c0|p0;\T1.15;\W1.3;AFOLA}
 73
     1
 44
1.0
1001
ACAD
1000
ACAD_MTEXT_DEFINED_HEIGHT_BEGIN
1070
    46
1040
5.0
1000
ACAD_MTEXT_DEFINED_HEIGHT_END
  0
MTEXT
  5
A22
330
1F
100
AcDbEntity
  8
社名
100
AcDbMText
 10
293.5267297076225
 20
318.6474852208689
 30
0.0
 40
3.0
 41
45.0
 46
3.375
 71
     1
 72
     5
  1
{\pxqc;\fＭＳ Ｐゴシック|b0|i0|c0|p0;株式会社ＡＳＳＩＳＴ}
 73
     1
 44
1.0
1001
ACAD
1000
ACAD_MTEXT_DEFINED_HEIGHT_BEGIN
1070
    46
1040
3.375
1000
ACAD_MTEXT_DEFINED_HEIGHT_END
  0
MTEXT
  5
A24
330
1F
100
AcDbEntity
  8
文字
100
AcDbMText
 10
295.6041647381666
 20
331.9437378736688
 30
0.0
 40
2.5
 41
9.970036363636382
 46
2.8275
 71
     1
 72
     5
  1
{\fＭＳ Ｐゴシック|b0|i0|c0|p0;縮尺}
 73
     1
 44
1.0
1001
ACAD
1000
ACAD_MTEXT_DEFINED_HEIGHT_BEGIN
1070
    46
1040
2.8275
1000
ACAD_MTEXT_DEFINED_HEIGHT_END
  0
MTEXT
  5
A25
330
1F
100
AcDbEntity
  8
文字
100
AcDbMText
 10
308.8123133777314
 20
327.5126227904422
 30
0.0
 40
2.5
 41
28.36545556978234
 46
2.5
 71
     1
 72
     5
  1
{\fＭＳ Ｐゴシック|b0|i0|c0|p0;1：１ }
 73
     1
 44
1.0
1001
ACAD
1000
ACAD_MTEXT_DEFINED_HEIGHT_BEGIN
1070
    46
1040
2.5
1000
ACAD_MTEXT_DEFINED_HEIGHT_END
  0
MTEXT
  5
DF8
330
1F
100
AcDbEntity
  8
文字
100
AcDbMText
 10
311.3369183798495
 20
426.1770396994721
 30
0.0
 40
2.0
 41
31.03349346991041
 46
2.228
 71
     1
 72
     5
  1
{\fＭＳ Ｐゴシック|b0|i0|c0|p0;（A6063S-T5)}
 73
     1
 44
1.0
1001
ACAD
1000
ACAD_MTEXT_DEFINED_HEIGHT_BEGIN
1070
    46
1040
2.228
1000
ACAD_MTEXT_DEFINED_HEIGHT_END
  0
MTEXT
  5
13F5
330
1F
100
AcDbEntity
  8
文字
100
AcDbMText
 10
297.0646774427637
 20
434.4408312914022
 30
0.0
 40
2.0
 41
31.03349346991041
 46
2.25
 71
     1
 72
     5
  1
{\fＭＳ Ｐゴシック|b0|i0|c0|p0;ベース部分}
 73
     1
 44
1.0
1001
ACAD
1000
ACAD_MTEXT_DEFINED_HEIGHT_BEGIN
1070
    46
1040
2.25
1000
ACAD_MTEXT_DEFINED_HEIGHT_END
  0
MTEXT
  5
13F6
330
1F
100
AcDbEntity
  8
文字
100
AcDbMText
 10
302.9061632016749
 20
408.7589112914022
 30
0.0
 40
2.0
 41
31.03349346991041
 46
2.238
 71
     1
 72
     5
  1
{\fＭＳ Ｐゴシック|b0|i0|c0|p0;材質：軟硬同時成型品}
 73
     1
 44
1.0
1001
ACAD
1000
ACAD_MTEXT_DEFINED_HEIGHT_BEGIN
1070
    46
1040
2.238
1000
ACAD_MTEXT_DEFINED_HEIGHT_END
  0
MTEXT
  5
13F9
330
1F
100
AcDbEntity
  8
文字
100
AcDbMText
 10
297.0646774427637
 20
412.9859832914022
 30
0.0
 40
2.0
 41
31.03349346991041
 46
2.25
 71
     1
 72
     5
  1
{\fＭＳ Ｐゴシック|b0|i0|c0|p0;タイヤ部分}
 73
     1
 44
1.0
1001
ACAD
1000
ACAD_MTEXT_DEFINED_HEIGHT_BEGIN
1070
    46
1040
2.25
1000
ACAD_MTEXT_DEFINED_HEIGHT_END
  0
LINE
  5
2496
330
1F
100
AcDbEntity
  8
枠
  6
Continuous
100
AcDbLine
 10
293.5267297076225
 20
343.243783422855
 30
0.0
 11
338.5267297076225
 21
343.243783422855
 31
0.0
  0
MTEXT
  5
2497
330
1F
100
AcDbEntity
  8
文字
100
AcDbMText
 10
295.6041647381666
 20
341.9437378736688
 30
0.0
 40
2.5
 41
9.970036363636382
 46
2.5
 71
     1
 72
     5
  1
{\fＭＳ Ｐゴシック|b0|i0|c0|p0;Date}
 73
     1
 44
1.0
1001
ACAD
1000
ACAD_MTEXT_DEFINED_HEIGHT_BEGIN
1070
    46
1040
2.5
1000
ACAD_MTEXT_DEFINED_HEIGHT_END
  0
MTEXT
  5
2498
330
1F
100
AcDbEntity
  8
文字
100
AcDbMText
 10
303.6518938676224
 20
337.5126227904422
 30
0.0
 40
2.5
 41
28.36545556978234
 46
2.627860447667875
 71
     1
 72
     5
  1
{\fＭＳ Ｐゴシック|b0|i0|c0|p0;2022年6月24日}
 73
     1
 44
1.0
1001
ACAD
1000
ACAD_MTEXT_DEFINED_HEIGHT_BEGIN
1070
    46
1040
2.627860447667875
1000
ACAD_MTEXT_DEFINED_HEIGHT_END
  0
MTEXT
  5
2756
330
1F
100
AcDbEntity
  8
文字
100
AcDbMText
 10
293.5267297076225
 20
452.3189316725985
 30
0.0
 40
2.5
 41
45.0
 46
2.5
 71
     1
 72
     5
  1
{\pxqc;\fＭＳ Ｐゴシック|b0|i0|c0|p0;ＰVＭ３０５}
 73
     1
 44
1.0
1001
ACAD
1000
ACAD_MTEXT_DEFINED_HEIGHT_BEGIN
1070
    46
1040
2.5
1000
ACAD_MTEXT_DEFINED_HEIGHT_END
  0
MTEXT
  5
27B0
330
1F
100
AcDbEntity
  8
文字
100
AcDbMText
 10
300.8012553763119
 20
399.0044956265858
 30
0.0
 40
2.0
 41
31.03349346991041
 46
2.182
 71
     1
 72
     5
  1
{\fＭＳ Ｐゴシック|b0|i0|c0|p0;カラー：５色}
 73
     1
 44
1.0
1001
ACAD
1000
ACAD_MTEXT_DEFINED_HEIGHT_BEGIN
1070
    46
1040
2.182
1000
ACAD_MTEXT_DEFINED_HEIGHT_END
  0
MTEXT
  5
27B1
330
1F
100
AcDbEntity
  8
文字
100
AcDbMText
 10
310.3818958661921
 20
394.8278236265858
 30
0.0
 40
2.0
 41
31.03349346991041
 46
2.124
 71
     1
 72
     5
  1
{\fＭＳ Ｐゴシック|b0|i0|c0|p0;ＮＲ：ノワール}
 73
     1
 44
1.0
1001
ACAD
1000
ACAD_MTEXT_DEFINED_HEIGHT_BEGIN
1070
    46
1040
2.124
1000
ACAD_MTEXT_DEFINED_HEIGHT_END
  0
MTEXT
  5
27B2
330
1F
100
AcDbEntity
  8
文字
100
AcDbMText
 10
310.3818958661921
 20
391.2102364265858
 30
0.0
 40
2.0
 41
31.03349346991041
 46
2.182
 71
     1
 72
     5
  1
{\fＭＳ Ｐゴシック|b0|i0|c0|p0;ＥＢ：エボニー}
 73
     1
 44
1.0
1001
ACAD
1000
ACAD_MTEXT_DEFINED_HEIGHT_BEGIN
1070
    46
1040
2.182
1000
ACAD_MTEXT_DEFINED_HEIGHT_END
  0
MTEXT
  5
27B3
330
1F
100
AcDbEntity
  8
文字
100
AcDbMText
 10
310.3818958661921
 20
387.5140060265857
 30
0.0
 40
2.0
 41
31.03349346991041
 46
2.194
 71
     1
 72
     5
  1
{\fＭＳ Ｐゴシック|b0|i0|c0|p0;ＣＡ：カカオ}
 73
     1
 44
1.0
1001
ACAD
1000
ACAD_MTEXT_DEFINED_HEIGHT_BEGIN
1070
    46
1040
2.194
1000
ACAD_MTEXT_DEFINED_HEIGHT_END
  0
MTEXT
  5
27B4
330
1F
100
AcDbEntity
  8
文字
100
AcDbMText
 10
310.3818958661921
 20
383.8912227580144
 30
0.0
 40
2.0
 41
31.03349346991041
 46
2.102
 71
     1
 72
     5
  1
{\fＭＳ Ｐゴシック|b0|i0|c0|p0;ＳＤ：サンド}
 73
     1
 44
1.0
1001
ACAD
1000
ACAD_MTEXT_DEFINED_HEIGHT_BEGIN
1070
    46
1040
2.102
1000
ACAD_MTEXT_DEFINED_HEIGHT_END
  0
MTEXT
  5
27B5
330
1F
100
AcDbEntity
  8
文字
100
AcDbMText
 10
310.3818958661921
 20
380.2736355580144
 30
0.0
 40
2.0
 41
31.03349346991041
 46
2.194
 71
     1
 72
     5
  1
{\fＭＳ Ｐゴシック|b0|i0|c0|p0;ＡＳ：アッシュ}
 73
     1
 44
1.0
1001
ACAD
1000
ACAD_MTEXT_DEFINED_HEIGHT_BEGIN
1070
    46
1040
2.194
1000
ACAD_MTEXT_DEFINED_HEIGHT_END
  0
LINE
  5
2BBF
330
1F
100
AcDbEntity
  8
金属部分
  6
Continuous
100
AcDbLine
 10
177.1266408252338
 20
392.970867578012
 30
0.0
 11
183.9266408252337
 21
392.970867578012
 31
0.0
  0
LINE
  5
2BC0
330
1F
100
AcDbEntity
  8
金属部分
  6
Continuous
100
AcDbLine
 10
184.4266408252337
 20
393.770867578012
 30
0.0
 11
184.4266408252337
 21
398.970867578012
 31
0.0
  0
LINE
  5
2BC1
102
{ACAD_REACTORS
330
2BFE
102
}
330
1F
100
AcDbEntity
  8
金属部分
  6
Continuous
100
AcDbLine
 10
176.6266408252338
 20
393.770867578012
 30
0.0
 11
176.6266408252338
 21
398.970867578012
 31
0.0
  0
LINE
  5
2BC2
102
{ACAD_REACTORS
330
2BFB
102
}
330
1F
100
AcDbEntity
  8
樹脂部分
  6
Continuous
100
AcDbLine
 10
176.9191897695644
 20
402.9708690140846
 30
0.0
 11
184.1191897695643
 21
402.9708690140846
 31
0.0
  0
LINE
  5
2BC3
330
1F
100
AcDbEntity
  8
金属部分
  6
Continuous
100
AcDbLine
 10
176.6266408252338
 20
393.770867578012
 30
0.0
 11
177.1266408252338
 21
392.970867578012
 31
0.0
  0
LINE
  5
2BC4
102
{ACAD_REACTORS
330
2BFB
330
2BFE
102
}
330
1F
100
AcDbEntity
  8
金属部分
  6
Continuous
100
AcDbLine
 10
184.4266408252337
 20
393.770867578012
 30
0.0
 11
183.9266408252337
 21
392.970867578012
 31
0.0
  0
LINE
  5
2BC5
330
1F
100
AcDbEntity
  8
硬質樹脂
  6
Continuous
100
AcDbLine
 10
184.5191897695643
 20
399.470867578012
 30
0.0
 11
184.2191897695644
 21
398.970867578012
 31
0.0
  0
LINE
  5
2BC6
330
1F
100
AcDbEntity
  8
樹脂部分
  6
Continuous
100
AcDbLine
 10
176.5191897695643
 20
400.970892547818
 30
0.0
 11
176.4191897695644
 21
400.970892547818
 31
0.0
  0
LINE
  5
2BC7
102
{ACAD_REACTORS
330
2BF8
102
}
330
1F
100
AcDbEntity
  8
樹脂部分
  6
Continuous
100
AcDbLine
 10
176.4191897695644
 20
400.970892547818
 30
0.0
 11
176.4191897695644
 21
402.4708690140846
 31
0.0
  0
LINE
  5
2BC8
330
1F
100
AcDbEntity
  8
樹脂部分
  6
Continuous
100
AcDbLine
 10
176.5191897695643
 20
400.7708925478179
 30
0.0
 11
184.5191897695643
 21
400.7708925478179
 31
0.0
  0
LINE
  5
2BC9
330
1F
100
AcDbEntity
  8
樹脂部分
  6
Continuous
100
AcDbLine
 10
184.5191897695643
 20
400.970892547818
 30
0.0
 11
184.6191897695643
 21
400.970892547818
 31
0.0
  0
LINE
  5
2BCA
330
1F
100
AcDbEntity
  8
樹脂部分
  6
Continuous
100
AcDbLine
 10
184.6191897695643
 20
400.970892547818
 30
0.0
 11
184.6191897695643
 21
402.4708690140846
 31
0.0
  0
LINE
  5
2BCB
330
1F
100
AcDbEntity
  8
硬質樹脂
  6
Continuous
100
AcDbLine
 10
184.5191897695643
 20
400.7708925478179
 30
0.0
 11
184.5191897695643
 21
399.470867578012
 31
0.0
  0
LINE
  5
2BCC
330
1F
100
AcDbEntity
  8
硬質樹脂
  6
Continuous
100
AcDbLine
 10
176.5191897695643
 20
400.7708925478179
 30
0.0
 11
176.5191897695643
 21
399.470892547818
 31
0.0
  0
LINE
  5
2BCD
330
1F
100
AcDbEntity
  8
硬質樹脂
  6
Continuous
100
AcDbLine
 10
176.5191897695643
 20
399.470892547818
 30
0.0
 11
176.8191897695643
 21
398.970867578012
 31
0.0
  0
LINE
  5
2BCE
330
1F
100
AcDbEntity
  8
樹脂部分
  6
Continuous
100
AcDbLine
 10
176.5191897695643
 20
400.970892547818
 30
0.0
 11
176.5191897695643
 21
400.7708925478179
 31
0.0
  0
LINE
  5
2BCF
330
1F
100
AcDbEntity
  8
樹脂部分
  6
Continuous
100
AcDbLine
 10
184.5191897695643
 20
400.970892547818
 30
0.0
 11
184.5191897695643
 21
400.7708925478179
 31
0.0
  0
ARC
  5
2BD0
330
1F
100
AcDbEntity
  8
樹脂部分
  6
Continuous
100
AcDbCircle
 10
176.9191897695644
 20
402.4708690140846
 30
0.0
 40
0.5000000000000002
100
AcDbArc
 50
90.0
 51
180.0
  0
ARC
  5
2BD1
102
{ACAD_REACTORS
330
2BF8
102
}
330
1F
100
AcDbEntity
  8
樹脂部分
  6
Continuous
100
AcDbCircle
 10
184.1191897695643
 20
402.4708690140846
 30
0.0
 40
0.5000000000000002
100
AcDbArc
 50
0.0
 51
90.0
  0
LINE
  5
2BD2
330
1F
100
AcDbEntity
  8
金属部分
  6
Continuous
100
AcDbLine
 10
178.4266408252337
 20
394.1708675780121
 30
0.0
 11
180.2267297076226
 21
394.1708675780121
 31
0.0
  0
LINE
  5
2BD3
330
1F
100
AcDbEntity
  8
金属部分
  6
Continuous
100
AcDbLine
 10
177.7266408252338
 20
398.770867578012
 30
0.0
 11
177.7266408252338
 21
398.1663576766314
 31
0.0
  0
LINE
  5
2BD4
330
1F
100
AcDbEntity
  8
金属部分
  6
Continuous
100
AcDbLine
 10
177.4266408252337
 20
396.3708675780119
 30
0.0
 11
177.4266408252337
 21
395.1708675780121
 31
0.0
  0
LINE
  5
2BD5
330
1F
100
AcDbEntity
  8
金属部分
  6
Continuous
100
AcDbLine
 10
177.7266408252338
 20
398.1663576766314
 30
0.0
 11
178.4266408252337
 21
396.9435758672445
 31
0.0
  0
LINE
  5
2BD6
330
1F
100
AcDbEntity
  8
金属部分
  6
Continuous
100
AcDbLine
 10
178.4266408252337
 20
396.9435758672445
 30
0.0
 11
177.4266408252337
 21
396.3708675780119
 31
0.0
  0
ARC
  5
2BD7
330
1F
100
AcDbEntity
  8
金属部分
  6
Continuous
100
AcDbCircle
 10
177.5266408252338
 20
398.770867578012
 30
0.0
 40
0.2000000000000001
100
AcDbArc
 50
0.0
 51
90.0
  0
ARC
  5
2BD8
330
1F
100
AcDbEntity
  8
金属部分
  6
Continuous
100
AcDbCircle
 10
178.4266408252337
 20
395.1708675780121
 30
0.0
 40
1.0
100
AcDbArc
 50
180.0
 51
270.0
  0
LINE
  5
2BD9
330
1F
100
AcDbEntity
  8
金属部分
  6
Continuous
100
AcDbLine
 10
183.3266408252338
 20
398.770867578012
 30
0.0
 11
183.3268185900112
 21
398.1663576766314
 31
0.0
  0
LINE
  5
2BDA
330
1F
100
AcDbEntity
  8
金属部分
  6
Continuous
100
AcDbLine
 10
183.6268185900113
 20
396.3708675780119
 30
0.0
 11
183.6266408252338
 21
395.1708675780121
 31
0.0
  0
ARC
  5
2BDB
330
1F
100
AcDbEntity
  8
金属部分
  6
Continuous
100
AcDbCircle
 10
183.5266408252338
 20
398.770867578012
 30
0.0
 40
0.2000000000000001
100
AcDbArc
 50
90.0
 51
180.0
  0
ARC
  5
2BDC
330
1F
100
AcDbEntity
  8
金属部分
  6
Continuous
100
AcDbCircle
 10
182.6266408252338
 20
395.1708675780121
 30
0.0
 40
1.0
100
AcDbArc
 50
270.0
 51
0.0
  0
LINE
  5
2BDD
330
1F
100
AcDbEntity
  8
金属部分
  6
Continuous
100
AcDbLine
 10
183.3268185900112
 20
398.1663576766314
 30
0.0
 11
182.6268185900113
 21
396.9435758672445
 31
0.0
  0
LINE
  5
2BDE
330
1F
100
AcDbEntity
  8
金属部分
  6
Continuous
100
AcDbLine
 10
182.6268185900113
 20
396.9435758672445
 30
0.0
 11
183.6268185900113
 21
396.3708675780119
 31
0.0
  0
LINE
  5
2BDF
330
1F
100
AcDbEntity
  8
金属部分
  6
Continuous
100
AcDbLine
 10
184.4266408252338
 20
398.970867578012
 30
0.0
 11
183.5266408252338
 21
398.970867578012
 31
0.0
  0
LINE
  5
2BE0
330
1F
100
AcDbEntity
  8
金属部分
  6
Continuous
100
AcDbLine
 10
176.6266408252338
 20
398.970867578012
 30
0.0
 11
177.5266408252338
 21
398.970867578012
 31
0.0
  0
LINE
  5
2BE1
330
1F
100
AcDbEntity
  8
硬質樹脂
  6
Continuous
100
AcDbLine
 10
178.4666408252337
 20
396.9408675780119
 30
0.0
 11
177.7666408252338
 21
396.5399717755495
 31
0.0
  0
LINE
  5
2BE2
330
1F
100
AcDbEntity
  8
硬質樹脂
  6
Continuous
100
AcDbLine
 10
177.7666408252338
 20
398.8708675780119
 30
0.0
 11
177.7666408252338
 21
398.1636493873993
 31
0.0
  0
LINE
  5
2BE3
330
1F
100
AcDbEntity
  8
硬質樹脂
  6
Continuous
100
AcDbLine
 10
177.7666408252338
 20
398.1636493873993
 30
0.0
 11
178.4666408252337
 21
396.9408675780119
 31
0.0
  0
ARC
  5
2BE4
330
1F
100
AcDbEntity
  8
硬質樹脂
  6
Continuous
100
AcDbCircle
 10
177.6666408252337
 20
398.8708675780119
 30
0.0
 40
0.1000000000000001
100
AcDbArc
 50
0.0
 51
90.0
  0
LINE
  5
2BE5
330
1F
100
AcDbEntity
  8
硬質樹脂
  6
Continuous
100
AcDbLine
 10
182.5666408252338
 20
396.9408675780119
 30
0.0
 11
183.2666408252338
 21
396.5400735829111
 31
0.0
  0
LINE
  5
2BE6
330
1F
100
AcDbEntity
  8
硬質樹脂
  6
Continuous
100
AcDbLine
 10
183.2666408252338
 20
398.8708675780119
 30
0.0
 11
183.2668185900112
 21
398.1636493873993
 31
0.0
  0
LINE
  5
2BE7
330
1F
100
AcDbEntity
  8
硬質樹脂
  6
Continuous
100
AcDbLine
 10
183.2668185900112
 20
398.1636493873993
 30
0.0
 11
182.5666408252338
 21
396.9408675780119
 31
0.0
  0
ARC
  5
2BE8
330
1F
100
AcDbEntity
  8
硬質樹脂
  6
Continuous
100
AcDbCircle
 10
183.3666408252338
 20
398.8708675780119
 30
0.0
 40
0.1000000000000001
100
AcDbArc
 50
90.0
 51
180.0
  0
LINE
  5
2BE9
330
1F
100
AcDbEntity
  8
硬質樹脂
  6
Continuous
100
AcDbLine
 10
179.3166408252337
 20
395.4215134200169
 30
0.0
 11
179.3166408252337
 21
398.7608675780245
 31
0.0
  0
LINE
  5
2BEA
330
1F
100
AcDbEntity
  8
硬質樹脂
  6
Continuous
100
AcDbLine
 10
183.2666408252338
 20
396.5400735829111
 30
0.0
 11
182.2166408252338
 21
395.4215134200169
 31
0.0
  0
LINE
  5
2BEB
330
1F
100
AcDbEntity
  8
硬質樹脂
  6
Continuous
100
AcDbLine
 10
181.7166408252338
 20
395.4215134200169
 30
0.0
 11
182.2166408252338
 21
395.4215134200169
 31
0.0
  0
LINE
  5
2BEC
330
1F
100
AcDbEntity
  8
硬質樹脂
  6
Continuous
100
AcDbLine
 10
182.2166408252338
 20
395.4215134200169
 30
0.0
 11
181.7166408252338
 21
395.4215134200169
 31
0.0
  0
LINE
  5
2BED
330
1F
100
AcDbEntity
  8
硬質樹脂
  6
Continuous
100
AcDbLine
 10
177.7666408252338
 20
396.5399717755495
 30
0.0
 11
178.8166408252337
 21
395.4215134200169
 31
0.0
  0
LINE
  5
2BEE
330
1F
100
AcDbEntity
  8
硬質樹脂
  6
Continuous
100
AcDbLine
 10
178.8166408252337
 20
395.4215134200169
 30
0.0
 11
179.3166408252337
 21
395.4215134200169
 31
0.0
  0
LINE
  5
2BEF
330
1F
100
AcDbEntity
  8
硬質樹脂
  6
Continuous
100
AcDbLine
 10
177.6666408252337
 20
398.970867578012
 30
0.0
 11
176.8191897695643
 21
398.970867578012
 31
0.0
  0
LINE
  5
2BF0
330
1F
100
AcDbEntity
  8
硬質樹脂
  6
Continuous
100
AcDbLine
 10
184.2191897695644
 20
398.970867578012
 30
0.0
 11
183.3666408252338
 21
398.970867578012
 31
0.0
  0
LINE
  5
2BF1
330
1F
100
AcDbEntity
  8
金属部分
  6
Continuous
100
AcDbLine
 10
180.8267297076225
 20
394.1708675780121
 30
0.0
 11
180.5267297076225
 21
393.8708675780119
 31
0.0
  0
LINE
  5
2BF2
330
1F
100
AcDbEntity
  8
金属部分
  6
Continuous
100
AcDbLine
 10
180.2267297076225
 20
394.1708675780122
 30
0.0
 11
180.5267297076225
 21
393.8708675780119
 31
0.0
  0
LINE
  5
2BF3
330
1F
100
AcDbEntity
  8
金属部分
  6
Continuous
100
AcDbLine
 10
180.8267297076225
 20
394.1708675780121
 30
0.0
 11
182.6268185900113
 21
394.1708675780121
 31
0.0
  0
LINE
  5
2BF4
330
1F
100
AcDbEntity
  8
硬質樹脂
  6
Continuous
100
AcDbLine
 10
181.7166408252338
 20
395.4215134200169
 30
0.0
 11
181.7166408252338
 21
398.7608675780095
 31
0.0
  0
ARC
  5
2BF5
330
1F
100
AcDbEntity
  8
硬質樹脂
  6
Continuous
100
AcDbCircle
 10
180.5166408252338
 20
398.7677490947548
 30
0.0
 40
1.200019731201389
100
AcDbArc
 50
359.6714353799724
 51
180.3285646200277
  0
DIMENSION
  5
2BF6
102
{ACAD_REACTORS
330
2BF8
102
}
102
{ACAD_XDICTIONARY
360
2BF7
102
}
330
1F
100
AcDbEntity
  8
寸法
  6
Continuous
100
AcDbDimension
280
     0
  2
*D70
 10
184.6191897695643
 20
407.9708690140846
 30
0.0
 11
180.5191897695644
 21
407.9708690140846
 31
0.0
 70
   160
 71
     5
 42
8.199999999999875
 73
     0
 74
     0
 75
     0
  3
ISO-25
100
AcDbAlignedDimension
 13
176.4191897695644
 23
402.4708690140846
 33
0.0
 14
184.6191897695643
 24
402.4708690140846
 34
0.0
100
AcDbRotatedDimension
  0
DIMENSION
  5
2BF9
102
{ACAD_REACTORS
330
2BFB
102
}
102
{ACAD_XDICTIONARY
360
2BFA
102
}
330
1F
100
AcDbEntity
  8
寸法
  6
Continuous
100
AcDbDimension
280
     0
  2
*D71
 10
189.4266408252337
 20
392.970867578012
 30
0.0
 11
189.4266408252337
 21
397.9815919879226
 31
0.0
 70
   160
 71
     5
 42
10.00000143607258
 73
     0
 74
     0
 75
     0
  3
ISO-25
100
AcDbAlignedDimension
 13
184.1191897695643
 23
402.9708690140846
 33
0.0
 14
183.9266408252337
 24
392.970867578012
 34
0.0
 50
90.0
100
AcDbRotatedDimension
  0
DIMENSION
  5
2BFC
102
{ACAD_REACTORS
330
2BFE
102
}
102
{ACAD_XDICTIONARY
360
2BFD
102
}
330
1F
100
AcDbEntity
  8
寸法
  6
Continuous
100
AcDbDimension
280
     0
  2
*D72
 10
184.4266408252337
 20
387.970867578012
 30
0.0
 11
180.5266408252338
 21
387.970867578012
 31
0.0
 70
   160
 71
     5
 42
7.799999999999898
 73
     0
 74
     0
 75
     0
  3
ISO-25
100
AcDbAlignedDimension
 13
176.6266408252338
 23
393.770867578012
 33
0.0
 14
184.4266408252337
 24
393.770867578012
 34
0.0
100
AcDbRotatedDimension
  0
LINE
  5
2BFF
330
1F
100
AcDbEntity
  8
金属部分
  6
Continuous
100
AcDbLine
 10
181.0266408252338
 20
392.470867578012
 30
0.0
 11
180.0266408252338
 21
392.470867578012
 31
0.0
  0
LINE
  5
2C00
330
1F
100
AcDbEntity
  8
TOS_M1
  6
Continuous
100
AcDbLine
 10
180.5266408252338
 20
391.470867578012
 30
0.0
 11
180.0266408252338
 21
392.470867578012
 31
0.0
  0
LINE
  5
2C01
330
1F
100
AcDbEntity
  8
TOS_M1
  6
Continuous
100
AcDbLine
 10
180.5266408252338
 20
391.470867578012
 30
0.0
 11
181.0266408252338
 21
392.470867578012
 31
0.0
  0
HATCH
  5
2C02
330
1F
100
AcDbEntity
  8
TOS_M1
  6
Continuous
100
AcDbHatch
 10
0.0
 20
0.0
 30
0.0
210
0.0
220
0.0
230
1.0
  2
SOLID
 70
     1
 71
     0
 91
        1
 92
        7
 72
     0
 73
     1
 93
        3
 10
180.5266408252338
 20
391.470867578012
 10
181.0266408252338
 20
392.470867578012
 10
180.0266408252338
 20
392.470867578012
 97
        0
 75
     0
 76
     1
 47
0.0
 98
        1
 10
180.4663152283059
 20
392.2659469867185
1001
ACAD
1010
0.0
1020
0.0
1030
0.0
  0
LEADER
  5
2C05
330
1F
100
AcDbEntity
  8
TOS_M1
  6
Continuous
100
AcDbLeader
  3
ISO-1
 76
     2
 10
177.5511027950485
 20
401.7771779242714
 30
0.0
 10
168.8144597378955
 20
406.259776518184
 30
0.0
  0
LEADER
  5
2C07
330
1F
100
AcDbEntity
  8
TOS_M1
  6
Continuous
100
AcDbLeader
  3
ISO-1
 76
     2
 10
177.7793449337927
 20
399.866967548066
 30
0.0
 10
169.235990439851
 20
399.866967548066
 30
0.0
  0
MTEXT
  5
2C4B
330
1F
100
AcDbEntity
  8
文字
  6
Continuous
100
AcDbMText
 10
163.7022149964942
 20
407.5959703530962
 30
0.0
 40
1.5
 41
5.425950091795197
 46
1.704545454545455
 71
     1
 72
     5
  1
{\fＭＳ Ｐゴシック|b0|i0|c0|p0;軟質}
 73
     1
 44
1.0
1001
ACAD
1000
ACAD_MTEXT_DEFINED_HEIGHT_BEGIN
1070
    46
1040
1.704545454545455
1000
ACAD_MTEXT_DEFINED_HEIGHT_END
  0
MTEXT
  5
2C60
330
1F
100
AcDbEntity
  8
文字
  6
Continuous
100
AcDbMText
 10
164.4280320721356
 20
401.0569893928434
 30
0.0
 40
1.5
 41
5.425950091795187
 46
1.704545454545455
 71
     1
 72
     5
  1
{\fＭＳ Ｐゴシック|b0|i0|c0|p0;\C6;硬質}
 73
     1
 44
1.0
1001
ACAD
1000
ACAD_MTEXT_DEFINED_HEIGHT_BEGIN
1070
    46
1040
1.704545454545455
1000
ACAD_MTEXT_DEFINED_HEIGHT_END
  0
ENDSEC
  0
SECTION
  2
OBJECTS
  0
DICTIONARY
  5
C
330
0
100
AcDbDictionary
281
     1
  3
ACAD_COLOR
350
A9A
  3
ACAD_DETAILVIEWSTYLE
350
A4E
  3
ACAD_GROUP
350
D
  3
ACAD_IMAGE_VARS
350
96F
  3
ACAD_LAYOUT
350
1A
  3
ACAD_MATERIAL
350
A42
  3
ACAD_MLEADERSTYLE
350
A48
  3
ACAD_MLINESTYLE
350
17
  3
ACAD_PLOTSETTINGS
350
19
  3
ACAD_PLOTSTYLENAME
350
E
  3
ACAD_SCALELIST
350
935
  3
ACAD_SECTIONVIEWSTYLE
350
A4F
  3
ACAD_TABLESTYLE
350
A46
  3
ACAD_VISUALSTYLE
350
A29
  3
ACDB_RECOMPOSE_DATA
350
2C69
  3
AcDbVariableDictionary
350
3E1
  3
APPDATA
350
96E
  3
DimOffsetDictionary
350
14C9
  0
SUN
  5
A4A
330
934
100
AcDbSun
 90
        1
290
     0
 63
     7
421
 16777215
 40
1.0
291
     1
 91
  2455826
 92
 54000000
292
     0
 70
     2
 71
   256
280
     1
  0
DICTIONARY
  5
970
330
2
100
AcDbDictionary
280
     1
281
     1
  3
ACAD_LAYERSTATES
360
971
  3
ACLYDICTIONARY
360
24BD
  0
DICTIONARY
  5
A87
330
A86
100
AcDbDictionary
280
     1
281
     1
  3
ADSK_XREC_LAYER_RECONCILED
360
A88
  0
DICTIONARY
  5
A8B
330
A8A
100
AcDbDictionary
280
     1
281
     1
  3
ADSK_XREC_LAYER_RECONCILED
360
A8C
  0
DICTIONARY
  5
2BF7
330
2BF6
100
AcDbDictionary
280
     1
281
     1
  3
ACAD_DIMASSOC
360
2BF8
  0
DICTIONARY
  5
2BFA
330
2BF9
100
AcDbDictionary
280
     1
281
     1
  3
ACAD_DIMASSOC
360
2BFB
  0
DICTIONARY
  5
2BFD
330
2BFC
100
AcDbDictionary
280
     1
281
     1
  3
ACAD_DIMASSOC
360
2BFE
  0
DICTIONARY
  5
A9A
102
{ACAD_REACTORS
330
C
102
}
330
C
100
AcDbDictionary
281
     1
  0
DICTIONARY
  5
A4E
102
{ACAD_REACTORS
330
C
102
}
330
C
100
AcDbDictionary
281
     1
  0
DICTIONARY
  5
D
102
{ACAD_REACTORS
330
C
102
}
330
C
100
AcDbDictionary
281
     1
  0
RASTERVARIABLES
  5
96F
102
{ACAD_REACTORS
330
C
102
}
330
C
100
AcDbRasterVariables
 90
        0
 70
     1
 71
     1
 72
     1
  0
DICTIONARY
  5
1A
102
{ACAD_REACTORS
330
C
102
}
330
C
100
AcDbDictionary
281
     1
  3
Model
350
22
  3
ﾚｲｱｳﾄ1
350
1E
  3
ﾚｲｱｳﾄ2
350
26
  0
DICTIONARY
  5
A42
102
{ACAD_REACTORS
330
C
102
}
330
C
100
AcDbDictionary
281
     1
  3
ByBlock
350
A44
  3
ByLayer
350
A43
  3
Global
350
A45
  0
DICTIONARY
  5
A48
102
{ACAD_REACTORS
330
C
102
}
330
C
100
AcDbDictionary
281
     1
  3
Standard
350
A49
  0
DICTIONARY
  5
17
102
{ACAD_REACTORS
330
C
102
}
330
C
100
AcDbDictionary
281
     1
  3
Standard
350
18
  0
DICTIONARY
  5
19
102
{ACAD_REACTORS
330
C
102
}
330
C
100
AcDbDictionary
281
     1
  0
ACDBDICTIONARYWDFLT
  5
E
102
{ACAD_REACTORS
330
C
102
}
330
C
100
AcDbDictionary
281
     1
  3
Normal
350
F
100
AcDbDictionaryWithDefault
340
F
  0
DICTIONARY
  5
935
102
{ACAD_REACTORS
330
C
102
}
330
C
100
AcDbDictionary
281
     1
  3
A0
350
936
  3
A1
350
937
  3
A2
350
938
  3
A3
350
939
  3
A4
350
93A
  3
A5
350
93B
  3
A6
350
93C
  3
A7
350
93D
  3
A8
350
93E
  3
A9
350
93F
  3
B0
350
940
  3
B1
350
941
  3
B2
350
942
  3
B3
350
943
  3
B4
350
944
  3
B5
350
945
  3
B6
350
946
  3
B7
350
947
  3
B8
350
948
  3
B9
350
949
  3
C0
350
94A
  3
C1
350
94B
  3
C2
350
94C
  3
C3
350
94D
  3
C4
350
94E
  3
C5
350
94F
  3
C6
350
950
  3
C7
350
951
  3
C8
350
952
  3
C9
350
953
  3
D0
350
954
  3
D1
350
955
  3
D2
350
956
  0
DICTIONARY
  5
A4F
102
{ACAD_REACTORS
330
C
102
}
330
C
100
AcDbDictionary
281
     1
  0
DICTIONARY
  5
A46
102
{ACAD_REACTORS
330
C
102
}
330
C
100
AcDbDictionary
281
     1
  3
Standard
350
A47
  0
DICTIONARY
  5
A29
102
{ACAD_REACTORS
330
C
102
}
330
C
100
AcDbDictionary
281
     1
  3
2dWireframe
350
A2E
  3
Basic
350
A31
  3
Brighten
350
A35
  3
ColorChange
350
A39
  3
Conceptual
350
A33
  3
Dim
350
A34
  3
EdgeColorOff
350
A3C
  3
Facepattern
350
A38
  3
Flat
350
A2A
  3
FlatWithEdges
350
A2B
  3
Gouraud
350
A2C
  3
GouraudWithEdges
350
A2D
  3
Hidden
350
A30
  3
JitterOff
350
A3A
  3
Linepattern
350
A37
  3
OverhangOff
350
A3B
  3
Realistic
350
A32
  3
Shaded
350
A41
  3
Shaded with edges
350
A40
  3
Shades of Gray
350
A3D
  3
Sketchy
350
A3E
  3
Thicken
350
A36
  3
Wireframe
350
A2F
  3
X-Ray
350
A3F
  0
XRECORD
  5
2C69
102
{ACAD_REACTORS
330
C
102
}
330
C
100
AcDbXrecord
280
     1
 90
        1
330
A47
  0
DICTIONARY
  5
3E1
102
{ACAD_REACTORS
330
C
102
}
330
C
100
AcDbDictionary
281
     1
  3
CANNOSCALE
350
137E
  3
CMLEADERSTYLE
350
A4C
  3
CTABLESTYLE
350
A4B
  3
HPTRANSPARENCY
350
14C8
  3
MSLTSCALE
350
A4D
  3
SORTENTS
350
3E2
  0
DICTIONARY
  5
96E
102
{ACAD_REACTORS
330
C
102
}
330
C
100
AcDbDictionary
281
     1
  0
DICTIONARY
  5
14C9
102
{ACAD_REACTORS
330
C
102
}
330
C
100
AcDbDictionary
281
     1
  3
DIMRAILANGLE
350
2731
  3
DIMRAILFIRSTOFFSET
350
272F
  3
DIMRAILOFFSET
350
2730
  3
DIMRAILSENABLED
350
2732
  0
DICTIONARY
  5
971
102
{ACAD_REACTORS
330
970
102
}
330
970
100
AcDbDictionary
281
     1
  0
DICTIONARY
  5
24BD
102
{ACAD_REACTORS
330
970
102
}
330
970
100
AcDbDictionary
281
     1
1001
ACAD
1000
<All
  0
XRECORD
  5
A88
102
{ACAD_REACTORS
330
A87
102
}
330
A87
100
AcDbXrecord
280
     1
290
     1
  0
XRECORD
  5
A8C
102
{ACAD_REACTORS
330
A8B
102
}
330
A8B
100
AcDbXrecord
280
     1
290
     1
  0
DIMASSOC
  5
2BF8
102
{ACAD_REACTORS
330
2BF7
102
}
330
2BF7
100
AcDbDimAssoc
330
2BF6
 90
        3
 70
     0
 71
     1
  1
AcDbOsnapPointRef
 72
     1
331
2BC7
 73
     0
 91
        0
 40
0.0
 10
0.0
 20
0.0
 30
0.0
 75
     0
  1
AcDbOsnapPointRef
 72
    13
331
2BD1
 73
     0
 91
        0
 40
0.0
 10
0.0
 20
0.0
 30
0.0
 75
     0
  0
DIMASSOC
  5
2BFB
102
{ACAD_REACTORS
330
2BFA
102
}
330
2BFA
100
AcDbDimAssoc
330
2BF9
 90
        3
 70
     0
 71
     1
  1
AcDbOsnapPointRef
 72
     1
331
2BC2
 73
     0
 91
        0
 40
0.0
 10
0.0
 20
0.0
 30
0.0
 75
     0
  1
AcDbOsnapPointRef
 72
     1
331
2BC4
 73
     0
 91
        0
 40
0.0
 10
0.0
 20
0.0
 30
0.0
 75
     0
  0
DIMASSOC
  5
2BFE
102
{ACAD_REACTORS
330
2BFD
102
}
330
2BFD
100
AcDbDimAssoc
330
2BFC
 90
        3
 70
     0
 71
     1
  1
AcDbOsnapPointRef
 72
    13
331
2BC1
 73
     0
 91
        0
 40
0.0
 10
0.0
 20
0.0
 30
0.0
 75
     0
  1
AcDbOsnapPointRef
 72
    13
331
2BC4
 73
     0
 91
        0
 40
0.0
 10
0.0
 20
0.0
 30
0.0
 75
     0
  0
LAYOUT
  5
22
102
{ACAD_REACTORS
330
1A
102
}
330
1A
100
AcDbPlotSettings
  1

  2
RICOH IPSiO NX850 RPCS
  4
A4
  6

 40
5.873749732971191
 41
5.873747825622559
 42
5.873748779296875
 43
5.873748779296875
 44
209.9733276367188
 45
296.9259948730469
 46
56.21
 47
68.71
 48
0.0
 49
0.0
140
0.0
141
0.0
142
1.0
143
1.0
 70
 11940
 72
     1
 73
     1
 74
     0
  7

 75
     0
 76
     0
 77
     2
 78
   300
147
1.0
148
-86.56519164515282
149
-171.1912652483589
100
AcDbLayout
  1
Model
 70
     1
 71
     0
 10
0.0
 20
0.0
 11
12.0
 21
9.0
 12
0.0
 22
0.0
 32
0.0
 14
57.52672970762251
 24
291.3708675780121
 34
0.0
 15
349.5267297076225
 25
496.3708675780121
 35
0.0
146
0.0
 13
0.0
 23
0.0
 33
0.0
 16
1.0
 26
0.0
 36
0.0
 17
0.0
 27
1.0
 37
0.0
 76
     0
330
1F
331
934
  0
LAYOUT
  5
1E
102
{ACAD_REACTORS
330
1A
102
}
330
1A
100
AcDbPlotSettings
  1

  2
RICOH IPSiO NX850 RPCS
  4

  6

 40
0.0
 41
0.0
 42
0.0
 43
0.0
 44
0.0
 45
0.0
 46
0.0
 47
0.0
 48
0.0
 49
0.0
140
0.0
141
0.0
142
1.0
143
1.0
 70
   688
 72
     0
 73
     0
 74
     5
  7

 75
    16
 76
     0
 77
     2
 78
   300
147
1.0
148
0.0
149
0.0
100
AcDbLayout
  1
ﾚｲｱｳﾄ1
 70
     1
 71
     1
 10
0.0
 20
0.0
 11
420.0
 21
297.0
 12
0.0
 22
0.0
 32
0.0
 14
1.000000000000000E+20
 24
1.000000000000000E+20
 34
1.000000000000000E+20
 15
-1.000000000000000E+20
 25
-1.000000000000000E+20
 35
-1.000000000000000E+20
146
0.0
 13
0.0
 23
0.0
 33
0.0
 16
1.0
 26
0.0
 36
0.0
 17
0.0
 27
1.0
 37
0.0
 76
     0
330
1B
  0
LAYOUT
  5
26
102
{ACAD_REACTORS
330
1A
102
}
330
1A
100
AcDbPlotSettings
  1

  2
RICOH IPSiO NX850 RPCS
  4

  6

 40
0.0
 41
0.0
 42
0.0
 43
0.0
 44
0.0
 45
0.0
 46
0.0
 47
0.0
 48
0.0
 49
0.0
140
0.0
141
0.0
142
1.0
143
1.0
 70
   688
 72
     0
 73
     0
 74
     5
  7

 75
    16
 76
     0
 77
     2
 78
   300
147
1.0
148
0.0
149
0.0
100
AcDbLayout
  1
ﾚｲｱｳﾄ2
 70
     1
 71
     2
 10
0.0
 20
0.0
 11
12.0
 21
9.0
 12
0.0
 22
0.0
 32
0.0
 14
0.0
 24
0.0
 34
0.0
 15
0.0
 25
0.0
 35
0.0
146
0.0
 13
0.0
 23
0.0
 33
0.0
 16
1.0
 26
0.0
 36
0.0
 17
0.0
 27
1.0
 37
0.0
 76
     0
330
23
  0
MATERIAL
  5
A44
102
{ACAD_REACTORS
330
A42
102
}
330
A42
100
AcDbMaterial
  1
ByBlock
 72
     1
 94
      127
  0
MATERIAL
  5
A43
102
{ACAD_REACTORS
330
A42
102
}
330
A42
100
AcDbMaterial
  1
ByLayer
 72
     1
 94
      127
  0
MATERIAL
  5
A45
102
{ACAD_REACTORS
330
A42
102
}
330
A42
100
AcDbMaterial
  1
Global
 72
     1
 94
      127
  0
MLEADERSTYLE
  5
A49
102
{ACAD_REACTORS
330
A48
102
}
330
A48
100
AcDbMLeaderStyle
179
     2
170
     2
171
     1
172
     0
 90
        2
 40
0.0
 41
0.0
173
     1
 91
-1056964608
340
14
 92
       -2
290
     1
 42
2.0
291
     1
 43
8.0
  3
Standard
341
0
 44
4.0
300

342
11
174
     1
178
     6
175
     1
176
     0
 93
-1056964608
 45
4.0
292
     0
297
     0
 46
4.0
343
0
 94
-1056964608
 47
1.0
 49
1.0
140
1.0
293
     1
141
0.0
294
     1
177
     0
142
1.0
295
     0
296
     0
143
3.75
271
     0
272
     9
273
     9
  0
MLINESTYLE
  5
18
102
{ACAD_REACTORS
330
17
102
}
330
17
100
AcDbMlineStyle
  2
STANDARD
 70
     0
  3

 62
   256
 51
90.0
 52
90.0
 71
     2
 49
0.5
 62
   256
  6
BYLAYER
 49
-0.5
 62
   256
  6
BYLAYER
  0
ACDBPLACEHOLDER
  5
F
102
{ACAD_REACTORS
330
E
102
}
330
E
  0
SCALE
  5
936
102
{ACAD_REACTORS
330
935
102
}
330
935
100
AcDbScale
 70
     0
300
1:1
140
1.0
141
1.0
290
     1
  0
SCALE
  5
937
102
{ACAD_REACTORS
330
935
102
}
330
935
100
AcDbScale
 70
     0
300
1:2
140
1.0
141
2.0
290
     0
  0
SCALE
  5
938
102
{ACAD_REACTORS
330
935
102
}
330
935
100
AcDbScale
 70
     0
300
1:4
140
1.0
141
4.0
290
     0
  0
SCALE
  5
939
102
{ACAD_REACTORS
330
935
102
}
330
935
100
AcDbScale
 70
     0
300
1:5
140
1.0
141
5.0
290
     0
  0
SCALE
  5
93A
102
{ACAD_REACTORS
330
935
102
}
330
935
100
AcDbScale
 70
     0
300
1:8
140
1.0
141
8.0
290
     0
  0
SCALE
  5
93B
102
{ACAD_REACTORS
330
935
102
}
330
935
100
AcDbScale
 70
     0
300
1:10
140
1.0
141
10.0
290
     0
  0
SCALE
  5
93C
102
{ACAD_REACTORS
330
935
102
}
330
935
100
AcDbScale
 70
     0
300
1:16
140
1.0
141
16.0
290
     0
  0
SCALE
  5
93D
102
{ACAD_REACTORS
330
935
102
}
330
935
100
AcDbScale
 70
     0
300
1:20
140
1.0
141
20.0
290
     0
  0
SCALE
  5
93E
102
{ACAD_REACTORS
330
935
102
}
330
935
100
AcDbScale
 70
     0
300
1:30
140
1.0
141
30.0
290
     0
  0
SCALE
  5
93F
102
{ACAD_REACTORS
330
935
102
}
330
935
100
AcDbScale
 70
     0
300
1:40
140
1.0
141
40.0
290
     0
  0
SCALE
  5
940
102
{ACAD_REACTORS
330
935
102
}
330
935
100
AcDbScale
 70
     0
300
1:50
140
1.0
141
50.0
290
     0
  0
SCALE
  5
941
102
{ACAD_REACTORS
330
935
102
}
330
935
100
AcDbScale
 70
     0
300
1:100
140
1.0
141
100.0
290
     0
  0
SCALE
  5
942
102
{ACAD_REACTORS
330
935
102
}
330
935
100
AcDbScale
 70
     0
300
2:1
140
2.0
141
1.0
290
     0
  0
SCALE
  5
943
102
{ACAD_REACTORS
330
935
102
}
330
935
100
AcDbScale
 70
     0
300
4:1
140
4.0
141
1.0
290
     0
  0
SCALE
  5
944
102
{ACAD_REACTORS
330
935
102
}
330
935
100
AcDbScale
 70
     0
300
8:1
140
8.0
141
1.0
290
     0
  0
SCALE
  5
945
102
{ACAD_REACTORS
330
935
102
}
330
935
100
AcDbScale
 70
     0
300
10:1
140
10.0
141
1.0
290
     0
  0
SCALE
  5
946
102
{ACAD_REACTORS
330
935
102
}
330
935
100
AcDbScale
 70
     0
300
100:1
140
100.0
141
1.0
290
     0
  0
SCALE
  5
947
102
{ACAD_REACTORS
330
935
102
}
330
935
100
AcDbScale
 70
     0
300
1/128" = 1'-0"
140
0.0078125
141
12.0
290
     0
  0
SCALE
  5
948
102
{ACAD_REACTORS
330
935
102
}
330
935
100
AcDbScale
 70
     0
300
1/64" = 1'-0"
140
0.015625
141
12.0
290
     0
  0
SCALE
  5
949
102
{ACAD_REACTORS
330
935
102
}
330
935
100
AcDbScale
 70
     0
300
1/32" = 1'-0"
140
0.03125
141
12.0
290
     0
  0
SCALE
  5
94A
102
{ACAD_REACTORS
330
935
102
}
330
935
100
AcDbScale
 70
     0
300
1/16" = 1'-0"
140
0.0625
141
12.0
290
     0
  0
SCALE
  5
94B
102
{ACAD_REACTORS
330
935
102
}
330
935
100
AcDbScale
 70
     0
300
3/32" = 1'-0"
140
0.09375
141
12.0
290
     0
  0
SCALE
  5
94C
102
{ACAD_REACTORS
330
935
102
}
330
935
100
AcDbScale
 70
     0
300
1/8" = 1'-0"
140
0.125
141
12.0
290
     0
  0
SCALE
  5
94D
102
{ACAD_REACTORS
330
935
102
}
330
935
100
AcDbScale
 70
     0
300
3/16" = 1'-0"
140
0.1875
141
12.0
290
     0
  0
SCALE
  5
94E
102
{ACAD_REACTORS
330
935
102
}
330
935
100
AcDbScale
 70
     0
300
1/4" = 1'-0"
140
0.25
141
12.0
290
     0
  0
SCALE
  5
94F
102
{ACAD_REACTORS
330
935
102
}
330
935
100
AcDbScale
 70
     0
300
3/8" = 1'-0"
140
0.375
141
12.0
290
     0
  0
SCALE
  5
950
102
{ACAD_REACTORS
330
935
102
}
330
935
100
AcDbScale
 70
     0
300
1/2" = 1'-0"
140
0.5
141
12.0
290
     0
  0
SCALE
  5
951
102
{ACAD_REACTORS
330
935
102
}
330
935
100
AcDbScale
 70
     0
300
3/4" = 1'-0"
140
0.75
141
12.0
290
     0
  0
SCALE
  5
952
102
{ACAD_REACTORS
330
935
102
}
330
935
100
AcDbScale
 70
     0
300
1" = 1'-0"
140
1.0
141
12.0
290
     0
  0
SCALE
  5
953
102
{ACAD_REACTORS
330
935
102
}
330
935
100
AcDbScale
 70
     0
300
1-1/2" = 1'-0"
140
1.5
141
12.0
290
     0
  0
SCALE
  5
954
102
{ACAD_REACTORS
330
935
102
}
330
935
100
AcDbScale
 70
     0
300
3" = 1'-0"
140
3.0
141
12.0
290
     0
  0
SCALE
  5
955
102
{ACAD_REACTORS
330
935
102
}
330
935
100
AcDbScale
 70
     0
300
6" = 1'-0"
140
6.0
141
12.0
290
     0
  0
SCALE
  5
956
102
{ACAD_REACTORS
330
935
102
}
330
935
100
AcDbScale
 70
     0
300
1'-0" = 1'-0"
140
12.0
141
12.0
290
     0
  0
TABLESTYLE
  5
A47
102
{ACAD_REACTORS
330
A46
102
}
102
{ACAD_XDICTIONARY
360
2C67
102
}
330
A46
100
AcDbTableStyle
  3
Standard
 70
     0
 71
     0
 40
1.5
 41
1.5
280
     0
281
     0
  7
Standard
140
4.5
170
     2
 62
     0
 63
   257
283
     0
 90
        4
 91
        0
  1

274
    -2
284
     1
 64
     0
275
    -2
285
     1
 65
     0
276
    -2
286
     1
 66
     0
277
    -2
287
     1
 67
     0
278
    -2
288
     1
 68
     0
279
    -2
289
     1
 69
     0
  7
Standard
140
6.0
170
     5
 62
     0
 63
   257
283
     0
 90
        4
 91
        0
  1

274
    -2
284
     1
 64
     0
275
    -2
285
     1
 65
     0
276
    -2
286
     1
 66
     0
277
    -2
287
     1
 67
     0
278
    -2
288
     1
 68
     0
279
    -2
289
     1
 69
     0
  7
Standard
140
4.5
170
     5
 62
     0
 63
   257
283
     0
 90
        4
 91
        0
  1

274
    -2
284
     1
 64
     0
275
    -2
285
     1
 65
     0
276
    -2
286
     1
 66
     0
277
    -2
287
     1
 67
     0
278
    -2
288
     1
 68
     0
279
    -2
289
     1
 69
     0
  0
VISUALSTYLE
  5
A2E
102
{ACAD_REACTORS
330
A29
102
}
330
A29
100
AcDbVisualStyle
  2
2dWireframe
 70
     4
177
     2
291
     0
 71
     0
176
     1
 72
     2
176
     1
 73
     0
176
     1
 90
        0
176
     1
 40
0.6
176
     1
 41
30.0
176
     1
 62
     5
 63
     7
421
 16777215
176
     1
 74
     1
176
     1
 91
        4
176
     1
 64
     7
176
     1
 65
   257
176
     1
 75
     1
176
     1
175
     1
176
     1
 42
1.0
176
     1
 92
        0
176
     1
 66
   257
176
     1
 43
1.0
176
     1
 76
     1
176
     1
 77
     6
176
     1
 78
     2
176
     1
 67
     7
176
     1
 79
     5
176
     1
170
     0
176
     1
171
     0
176
     1
290
     0
176
     1
 93
        1
176
     1
 44
0.0
176
     1
173
     0
176
     1
  0
VISUALSTYLE
  5
A31
102
{ACAD_REACTORS
330
A29
102
}
330
A29
100
AcDbVisualStyle
  2
Basic
 70
     7
177
     2
291
     1
 71
     1
176
     1
 72
     0
176
     1
 73
     1
176
     1
 90
        0
176
     1
 40
0.6
176
     1
 41
30.0
176
     1
 62
     5
 63
     7
421
 16777215
176
     1
 74
     0
176
     1
 91
        4
176
     1
 64
     7
176
     1
 65
   257
176
     1
 75
     1
176
     1
175
     1
176
     1
 42
1.0
176
     1
 92
        8
176
     1
 66
     7
176
     1
 43
1.0
176
     1
 76
     1
176
     1
 77
     6
176
     1
 78
     2
176
     1
 67
     7
176
     1
 79
     5
176
     1
170
     0
176
     1
171
     0
176
     1
290
     0
176
     1
 93
        1
176
     1
 44
0.0
176
     1
173
     0
176
     1
  0
VISUALSTYLE
  5
A35
102
{ACAD_REACTORS
330
A29
102
}
330
A29
100
AcDbVisualStyle
  2
Brighten
 70
    12
177
     2
291
     1
 71
     2
176
     1
 72
     2
176
     1
 73
     0
176
     1
 90
        0
176
     1
 40
0.6
176
     1
 41
30.0
176
     1
 62
     5
 63
     7
421
 16777215
176
     1
 74
     1
176
     1
 91
        4
176
     1
 64
     7
176
     1
 65
   257
176
     1
 75
     1
176
     1
175
     1
176
     1
 42
1.0
176
     1
 92
        8
176
     1
 66
     7
176
     1
 43
1.0
176
     1
 76
     1
176
     1
 77
     6
176
     1
 78
     2
176
     1
 67
     7
176
     1
 79
     5
176
     1
170
     0
176
     1
171
     0
176
     1
290
     0
176
     1
 93
        1
176
     1
 44
50.0
176
     1
173
     0
176
     1
  0
VISUALSTYLE
  5
A39
102
{ACAD_REACTORS
330
A29
102
}
330
A29
100
AcDbVisualStyle
  2
ColorChange
 70
    16
177
     2
291
     1
 71
     2
176
     1
 72
     2
176
     1
 73
     3
176
     1
 90
        0
176
     1
 40
0.6
176
     1
 41
30.0
176
     1
 62
     5
 63
     8
421
  8421504
176
     1
 74
     1
176
     1
 91
        4
176
     1
 64
     7
176
     1
 65
   257
176
     1
 75
     1
176
     1
175
     1
176
     1
 42
1.0
176
     1
 92
        8
176
     1
 66
     8
424
  8421504
176
     1
 43
1.0
176
     1
 76
     1
176
     1
 77
     6
176
     1
 78
     2
176
     1
 67
     7
176
     1
 79
     5
176
     1
170
     0
176
     1
171
     0
176
     1
290
     0
176
     1
 93
        1
176
     1
 44
0.0
176
     1
173
     0
176
     1
  0
VISUALSTYLE
  5
A33
102
{ACAD_REACTORS
330
A29
102
}
330
A29
100
AcDbVisualStyle
  2
Conceptual
 70
     9
177
     2
291
     0
 71
     3
176
     1
 72
     2
176
     1
 73
     0
176
     1
 90
        0
176
     1
 40
0.6
176
     1
 41
30.0
176
     1
 62
     5
 63
     7
421
 16777215
176
     1
 74
     2
176
     1
 91
        2
176
     1
 64
     7
176
     1
 65
   257
176
     1
 75
     1
176
     1
175
     1
176
     1
 42
179.0
176
     1
 92
        8
176
     1
 66
     7
176
     1
 43
1.0
176
     1
 76
     1
176
     1
 77
     6
176
     1
 78
     2
176
     1
 67
     7
176
     1
 79
     3
176
     1
170
     0
176
     1
171
     0
176
     1
290
     0
176
     1
 93
        1
176
     1
 44
0.0
176
     1
173
     0
176
     1
  0
VISUALSTYLE
  5
A34
102
{ACAD_REACTORS
330
A29
102
}
330
A29
100
AcDbVisualStyle
  2
Dim
 70
    11
177
     2
291
     1
 71
     2
176
     1
 72
     2
176
     1
 73
     0
176
     1
 90
        0
176
     1
 40
0.6
176
     1
 41
30.0
176
     1
 62
     5
 63
     7
421
 16777215
176
     1
 74
     1
176
     1
 91
        4
176
     1
 64
     7
176
     1
 65
   257
176
     1
 75
     1
176
     1
175
     1
176
     1
 42
1.0
176
     1
 92
        8
176
     1
 66
     7
176
     1
 43
1.0
176
     1
 76
     1
176
     1
 77
     6
176
     1
 78
     2
176
     1
 67
     7
176
     1
 79
     5
176
     1
170
     0
176
     1
171
     0
176
     1
290
     0
176
     1
 93
        1
176
     1
 44
-50.0
176
     1
173
     0
176
     1
  0
VISUALSTYLE
  5
A3C
102
{ACAD_REACTORS
330
A29
102
}
330
A29
100
AcDbVisualStyle
  2
EdgeColorOff
 70
    22
177
     2
291
     1
 71
     2
176
     0
 72
     2
176
     0
 73
     0
176
     0
 90
        0
176
     0
 40
0.6
176
     0
 41
30.0
176
     0
 62
     5
 63
     7
421
 16777215
176
     0
 74
     1
176
     0
 91
        4
176
     0
 64
     7
176
     0
 65
   257
176
     0
 75
     1
176
     0
175
     1
176
     0
 42
1.0
176
     0
 92
        8
176
     2
 66
     7
176
     0
 43
1.0
176
     0
 76
     1
176
     0
 77
     6
176
     0
 78
     2
176
     0
 67
     7
176
     0
 79
     5
176
     0
170
     0
176
     0
171
     0
176
     0
290
     0
176
     0
 93
        1
176
     0
 44
0.0
176
     0
173
     0
176
     0
  0
VISUALSTYLE
  5
A38
102
{ACAD_REACTORS
330
A29
102
}
330
A29
100
AcDbVisualStyle
  2
Facepattern
 70
    15
177
     2
291
     1
 71
     2
176
     1
 72
     2
176
     1
 73
     0
176
     1
 90
        0
176
     1
 40
0.6
176
     1
 41
30.0
176
     1
 62
     5
 63
     7
421
 16777215
176
     1
 74
     1
176
     1
 91
        4
176
     1
 64
     7
176
     1
 65
   257
176
     1
 75
     1
176
     1
175
     1
176
     1
 42
1.0
176
     1
 92
        8
176
     1
 66
     7
176
     1
 43
1.0
176
     1
 76
     1
176
     1
 77
     6
176
     1
 78
     2
176
     1
 67
     7
176
     1
 79
     5
176
     1
170
     0
176
     1
171
     0
176
     1
290
     0
176
     1
 93
        1
176
     1
 44
0.0
176
     1
173
     0
176
     1
  0
VISUALSTYLE
  5
A2A
102
{ACAD_REACTORS
330
A29
102
}
330
A29
100
AcDbVisualStyle
  2
Flat
 70
     0
177
     2
291
     1
 71
     2
176
     1
 72
     1
176
     1
 73
     1
176
     1
 90
        2
176
     1
 40
0.6
176
     1
 41
30.0
176
     1
 62
     5
 63
     7
421
 16777215
176
     1
 74
     0
176
     1
 91
        0
176
     1
 64
     7
176
     1
 65
   257
176
     1
 75
     1
176
     1
175
     1
176
     1
 42
1.0
176
     1
 92
        8
176
     1
 66
     7
176
     1
 43
1.0
176
     1
 76
     1
176
     1
 77
     6
176
     1
 78
     2
176
     1
 67
     7
176
     1
 79
     5
176
     1
170
     0
176
     1
171
     0
176
     1
290
     0
176
     1
 93
       13
176
     1
 44
0.0
176
     1
173
     0
176
     1
  0
VISUALSTYLE
  5
A2B
102
{ACAD_REACTORS
330
A29
102
}
330
A29
100
AcDbVisualStyle
  2
FlatWithEdges
 70
     1
177
     2
291
     1
 71
     2
176
     1
 72
     1
176
     1
 73
     1
176
     1
 90
        2
176
     1
 40
0.6
176
     1
 41
30.0
176
     1
 62
     5
 63
     7
421
 16777215
176
     1
 74
     1
176
     1
 91
        0
176
     1
 64
     7
176
     1
 65
   257
176
     1
 75
     1
176
     1
175
     1
176
     1
 42
1.0
176
     1
 92
        0
176
     1
 66
   257
176
     1
 43
1.0
176
     1
 76
     1
176
     1
 77
     6
176
     1
 78
     2
176
     1
 67
     7
176
     1
 79
     5
176
     1
170
     0
176
     1
171
     0
176
     1
290
     0
176
     1
 93
       13
176
     1
 44
0.0
176
     1
173
     0
176
     1
  0
VISUALSTYLE
  5
A2C
102
{ACAD_REACTORS
330
A29
102
}
330
A29
100
AcDbVisualStyle
  2
Gouraud
 70
     2
177
     2
291
     1
 71
     2
176
     1
 72
     2
176
     1
 73
     1
176
     1
 90
        2
176
     1
 40
0.6
176
     1
 41
30.0
176
     1
 62
     5
 63
     7
421
 16777215
176
     1
 74
     0
176
     1
 91
        0
176
     1
 64
     7
176
     1
 65
   257
176
     1
 75
     1
176
     1
175
     1
176
     1
 42
1.0
176
     1
 92
        0
176
     1
 66
     7
176
     1
 43
1.0
176
     1
 76
     1
176
     1
 77
     6
176
     1
 78
     2
176
     1
 67
     7
176
     1
 79
     5
176
     1
170
     0
176
     1
171
     0
176
     1
290
     0
176
     1
 93
       13
176
     1
 44
0.0
176
     1
173
     0
176
     1
  0
VISUALSTYLE
  5
A2D
102
{ACAD_REACTORS
330
A29
102
}
330
A29
100
AcDbVisualStyle
  2
GouraudWithEdges
 70
     3
177
     2
291
     1
 71
     2
176
     1
 72
     2
176
     1
 73
     1
176
     1
 90
        2
176
     1
 40
0.6
176
     1
 41
30.0
176
     1
 62
     5
 63
     7
421
 16777215
176
     1
 74
     1
176
     1
 91
        0
176
     1
 64
     7
176
     1
 65
   257
176
     1
 75
     1
176
     1
175
     1
176
     1
 42
1.0
176
     1
 92
        0
176
     1
 66
   257
176
     1
 43
1.0
176
     1
 76
     1
176
     1
 77
     6
176
     1
 78
     2
176
     1
 67
     7
176
     1
 79
     5
176
     1
170
     0
176
     1
171
     0
176
     1
290
     0
176
     1
 93
       13
176
     1
 44
0.0
176
     1
173
     0
176
     1
  0
VISUALSTYLE
  5
A30
102
{ACAD_REACTORS
330
A29
102
}
330
A29
100
AcDbVisualStyle
  2
Hidden
 70
     6
177
     2
291
     0
 71
     1
176
     1
 72
     2
176
     1
 73
     2
176
     1
 90
        0
176
     1
 40
0.6
176
     1
 41
30.0
176
     1
 62
     5
 63
     7
421
 16777215
176
     1
 74
     2
176
     1
 91
        2
176
     1
 64
     7
176
     1
 65
   257
176
     1
 75
     2
176
     1
175
     1
176
     1
 42
40.0
176
     1
 92
        0
176
     1
 66
   257
176
     1
 43
1.0
176
     1
 76
     1
176
     1
 77
     6
176
     1
 78
     2
176
     1
 67
     7
176
     1
 79
     3
176
     1
170
     0
176
     1
171
     0
176
     1
290
     0
176
     1
 93
        1
176
     1
 44
0.0
176
     1
173
     0
176
     1
  0
VISUALSTYLE
  5
A3A
102
{ACAD_REACTORS
330
A29
102
}
330
A29
100
AcDbVisualStyle
  2
JitterOff
 70
    20
177
     2
291
     1
 71
     2
176
     0
 72
     2
176
     0
 73
     0
176
     0
 90
        0
176
     0
 40
0.6
176
     0
 41
30.0
176
     0
 62
     5
 63
     7
421
 16777215
176
     0
 74
     1
176
     0
 91
        4
176
     0
 64
     7
176
     0
 65
   257
176
     0
 75
     1
176
     0
175
     1
176
     0
 42
1.0
176
     0
 92
       10
176
     2
 66
     7
176
     0
 43
1.0
176
     0
 76
     1
176
     0
 77
     6
176
     0
 78
     2
176
     0
 67
     7
176
     0
 79
     5
176
     0
170
     0
176
     0
171
     0
176
     0
290
     0
176
     0
 93
        1
176
     0
 44
0.0
176
     0
173
     0
176
     0
  0
VISUALSTYLE
  5
A37
102
{ACAD_REACTORS
330
A29
102
}
330
A29
100
AcDbVisualStyle
  2
Linepattern
 70
    14
177
     2
291
     1
 71
     2
176
     1
 72
     2
176
     1
 73
     0
176
     1
 90
        0
176
     1
 40
0.6
176
     1
 41
30.0
176
     1
 62
     5
 63
     7
421
 16777215
176
     1
 74
     1
176
     1
 91
        4
176
     1
 64
     7
176
     1
 65
   257
176
     1
 75
     7
176
     1
175
     7
176
     1
 42
1.0
176
     1
 92
        8
176
     1
 66
     7
176
     1
 43
1.0
176
     1
 76
     1
176
     1
 77
     6
176
     1
 78
     2
176
     1
 67
     7
176
     1
 79
     5
176
     1
170
     0
176
     1
171
     0
176
     1
290
     0
176
     1
 93
        1
176
     1
 44
0.0
176
     1
173
     0
176
     1
  0
VISUALSTYLE
  5
A3B
102
{ACAD_REACTORS
330
A29
102
}
330
A29
100
AcDbVisualStyle
  2
OverhangOff
 70
    21
177
     2
291
     1
 71
     2
176
     0
 72
     2
176
     0
 73
     0
176
     0
 90
        0
176
     0
 40
0.6
176
     0
 41
30.0
176
     0
 62
     5
 63
     7
421
 16777215
176
     0
 74
     1
176
     0
 91
        4
176
     0
 64
     7
176
     0
 65
   257
176
     0
 75
     1
176
     0
175
     1
176
     0
 42
1.0
176
     0
 92
        9
176
     2
 66
     7
176
     0
 43
1.0
176
     0
 76
     1
176
     0
 77
     6
176
     0
 78
     2
176
     0
 67
     7
176
     0
 79
     5
176
     0
170
     0
176
     0
171
     0
176
     0
290
     0
176
     0
 93
        1
176
     0
 44
0.0
176
     0
173
     0
176
     0
  0
VISUALSTYLE
  5
A32
102
{ACAD_REACTORS
330
A29
102
}
330
A29
100
AcDbVisualStyle
  2
Realistic
 70
     8
177
     2
291
     0
 71
     2
176
     1
 72
     3
176
     1
 73
     0
176
     1
 90
        2
176
     1
 40
0.6
176
     1
 41
30.0
176
     1
 62
     5
 63
     7
421
 16777215
176
     1
 74
     0
176
     1
 91
        0
176
     1
 64
     7
176
     1
 65
   257
176
     1
 75
     1
176
     1
175
     1
176
     1
 42
1.0
176
     1
 92
        8
176
     1
 66
   257
176
     1
 43
1.0
176
     1
 76
     1
176
     1
 77
     6
176
     1
 78
     2
176
     1
 67
     7
176
     1
 79
     3
176
     1
170
     0
176
     1
171
     0
176
     1
290
     0
176
     1
 93
       13
176
     1
 44
0.0
176
     1
173
     0
176
     1
  0
VISUALSTYLE
  5
A41
102
{ACAD_REACTORS
330
A29
102
}
330
A29
100
AcDbVisualStyle
  2
Shaded
 70
    27
177
     2
291
     0
 71
     2
176
     1
 72
     2
176
     1
 73
     1
176
     1
 90
        2
176
     1
 40
0.6
176
     1
 41
30.0
176
     1
 62
     5
 63
     7
421
 16777215
176
     1
 74
     0
176
     1
 91
        4
176
     1
 64
     7
176
     1
 65
   257
176
     1
 75
     1
176
     1
175
     1
176
     1
 42
1.0
176
     1
 92
        8
176
     1
 66
   257
176
     1
 43
1.0
176
     1
 76
     1
176
     1
 77
     6
176
     1
 78
     2
176
     1
 67
     8
425
  7895160
176
     1
 79
     3
176
     1
170
     0
176
     1
171
     0
176
     1
290
     0
176
     1
 93
        5
176
     1
 44
0.0
176
     1
173
     0
176
     1
  0
VISUALSTYLE
  5
A40
102
{ACAD_REACTORS
330
A29
102
}
330
A29
100
AcDbVisualStyle
  2
Shaded with edges
 70
    26
177
     2
291
     0
 71
     2
176
     1
 72
     2
176
     1
 73
     1
176
     1
 90
        2
176
     1
 40
0.6
176
     1
 41
30.0
176
     1
 62
     5
 63
     7
421
 16777215
176
     1
 74
     1
176
     1
 91
       10
176
     1
 64
     7
176
     1
 65
   257
176
     1
 75
     2
176
     1
175
     1
176
     1
 42
1.0
176
     1
 92
        8
176
     1
 66
   257
176
     1
 43
1.0
176
     1
 76
     1
176
     1
 77
     6
176
     1
 78
     2
176
     1
 67
     7
176
     1
 79
     3
176
     1
170
     0
176
     1
171
     0
176
     1
290
     0
176
     1
 93
        5
176
     1
 44
0.0
176
     1
173
     0
176
     1
  0
VISUALSTYLE
  5
A3D
102
{ACAD_REACTORS
330
A29
102
}
330
A29
100
AcDbVisualStyle
  2
Shades of Gray
 70
    23
177
     2
291
     0
 71
     2
176
     1
 72
     2
176
     1
 73
     3
176
     1
 90
        0
176
     1
 40
0.6
176
     1
 41
30.0
176
     1
 62
     5
 63
     7
421
 16777215
176
     1
 74
     2
176
     1
 91
        2
176
     1
 64
     7
176
     1
 65
     7
176
     1
 75
     1
176
     1
175
     1
176
     1
 42
40.0
176
     1
 92
        8
176
     1
 66
     7
176
     1
 43
1.0
176
     1
 76
     1
176
     1
 77
     6
176
     1
 78
     2
176
     1
 67
     7
176
     1
 79
     3
176
     1
170
     0
176
     1
171
     0
176
     1
290
     0
176
     1
 93
        1
176
     1
 44
0.0
176
     1
173
     0
176
     1
  0
VISUALSTYLE
  5
A3E
102
{ACAD_REACTORS
330
A29
102
}
330
A29
100
AcDbVisualStyle
  2
Sketchy
 70
    24
177
     2
291
     0
 71
     1
176
     1
 72
     2
176
     1
 73
     2
176
     1
 90
        0
176
     1
 40
0.6
176
     1
 41
30.0
176
     1
 62
     5
 63
     7
421
 16777215
176
     1
 74
     2
176
     1
 91
        2
176
     1
 64
     7
176
     1
 65
     7
176
     1
 75
     1
176
     1
175
     1
176
     1
 42
40.0
176
     1
 92
       11
176
     1
 66
     7
176
     1
 43
1.0
176
     1
 76
     1
176
     1
 77
     6
176
     1
 78
     2
176
     1
 67
     7
176
     1
 79
     6
176
     1
170
     0
176
     1
171
     0
176
     1
290
     0
176
     1
 93
        1
176
     1
 44
0.0
176
     1
173
     0
176
     1
  0
VISUALSTYLE
  5
A36
102
{ACAD_REACTORS
330
A29
102
}
330
A29
100
AcDbVisualStyle
  2
Thicken
 70
    13
177
     2
291
     1
 71
     2
176
     1
 72
     2
176
     1
 73
     0
176
     1
 90
        0
176
     1
 40
0.6
176
     1
 41
30.0
176
     1
 62
     5
 63
     7
421
 16777215
176
     1
 74
     1
176
     1
 91
        4
176
     1
 64
     7
176
     1
 65
   257
176
     1
 75
     1
176
     1
175
     1
176
     1
 42
1.0
176
     1
 92
       12
176
     1
 66
     7
176
     1
 43
1.0
176
     1
 76
     1
176
     1
 77
     6
176
     1
 78
     2
176
     1
 67
     7
176
     1
 79
     5
176
     1
170
     0
176
     1
171
     0
176
     1
290
     0
176
     1
 93
        1
176
     1
 44
0.0
176
     1
173
     0
176
     1
  0
VISUALSTYLE
  5
A2F
102
{ACAD_REACTORS
330
A29
102
}
330
A29
100
AcDbVisualStyle
  2
Wireframe
 70
     5
177
     2
291
     0
 71
     0
176
     1
 72
     2
176
     1
 73
     0
176
     1
 90
        0
176
     1
 40
0.6
176
     1
 41
30.0
176
     1
 62
     5
 63
     7
421
 16777215
176
     1
 74
     1
176
     1
 91
        4
176
     1
 64
     7
176
     1
 65
   257
176
     1
 75
     1
176
     1
175
     1
176
     1
 42
1.0
176
     1
 92
        0
176
     1
 66
   257
176
     1
 43
1.0
176
     1
 76
     1
176
     1
 77
     6
176
     1
 78
     2
176
     1
 67
     7
176
     1
 79
     3
176
     1
170
     0
176
     1
171
     0
176
     1
290
     0
176
     1
 93
        1
176
     1
 44
0.0
176
     1
173
     0
176
     1
  0
VISUALSTYLE
  5
A3F
102
{ACAD_REACTORS
330
A29
102
}
330
A29
100
AcDbVisualStyle
  2
X-Ray
 70
    25
177
     2
291
     0
 71
     2
176
     1
 72
     2
176
     1
 73
     1
176
     1
 90
        1
176
     1
 40
0.5
176
     1
 41
30.0
176
     1
 62
     5
 63
     7
421
 16777215
176
     1
 74
     1
176
     1
 91
        0
176
     1
 64
     7
176
     1
 65
   257
176
     1
 75
     1
176
     1
175
     1
176
     1
 42
1.0
176
     1
 92
        8
176
     1
 66
     7
176
     1
 43
1.0
176
     1
 76
     1
176
     1
 77
     6
176
     1
 78
     2
176
     1
 67
     7
176
     1
 79
     3
176
     1
170
     0
176
     1
171
     0
176
     1
290
     0
176
     1
 93
       13
176
     1
 44
0.0
176
     1
173
     0
176
     1
  0
DICTIONARYVAR
  5
137E
102
{ACAD_REACTORS
330
3E1
102
}
330
3E1
100
DictionaryVariables
280
     0
  1
1:1
  0
DICTIONARYVAR
  5
A4C
102
{ACAD_REACTORS
330
3E1
102
}
330
3E1
100
DictionaryVariables
280
     0
  1
Standard
  0
DICTIONARYVAR
  5
A4B
102
{ACAD_REACTORS
330
3E1
102
}
330
3E1
100
DictionaryVariables
280
     0
  1
Standard
  0
DICTIONARYVAR
  5
14C8
102
{ACAD_REACTORS
330
3E1
102
}
330
3E1
100
DictionaryVariables
280
     0
  1
ByLayer
  0
DICTIONARYVAR
  5
A4D
102
{ACAD_REACTORS
330
3E1
102
}
330
3E1
100
DictionaryVariables
280
     0
  1
0
  0
DICTIONARYVAR
  5
3E2
102
{ACAD_REACTORS
330
3E1
102
}
330
3E1
100
DictionaryVariables
280
     0
  1
96
  0
DICTIONARYVAR
  5
2731
102
{ACAD_REACTORS
330
14C9
102
}
330
14C9
100
DictionaryVariables
280
     0
  1
0.261799
  0
DICTIONARYVAR
  5
272F
102
{ACAD_REACTORS
330
14C9
102
}
330
14C9
100
DictionaryVariables
280
     0
  1
10.000000
  0
DICTIONARYVAR
  5
2730
102
{ACAD_REACTORS
330
14C9
102
}
330
14C9
100
DictionaryVariables
280
     0
  1
6.000000
  0
DICTIONARYVAR
  5
2732
102
{ACAD_REACTORS
330
14C9
102
}
330
14C9
100
DictionaryVariables
280
     0
  1
0
  0
DICTIONARY
  5
2C67
330
A47
100
AcDbDictionary
280
     1
281
     1
  3
ACAD_ROUNDTRIP_2008_TABLESTYLE_CELLSTYLEMAP
360
2C68
  0
CELLSTYLEMAP
  5
2C68
102
{ACAD_REACTORS
330
2C67
102
}
330
2C67
100
AcDbCellStyleMap
 90
        3
300
CELLSTYLE
  1
TABLEFORMAT_BEGIN
 90
        5
170
     1
 91
        0
 92
    32768
 62
   257
 93
        1
300
CONTENTFORMAT
  1
CONTENTFORMAT_BEGIN
 90
        0
 91
        0
 92
        4
 93
        0
300

 40
0.0
140
1.0
 94
        5
 62
     0
340
11
144
6.0
309
CONTENTFORMAT_END
171
     1
301
MARGIN
  1
CELLMARGIN_BEGIN
 40
1.5
 40
1.5
 40
1.5
 40
1.5
 40
1.5
 40
1.5
309
CELLMARGIN_END
 94
        6
 95
        1
302
GRIDFORMAT
  1
GRIDFORMAT_BEGIN
 90
        0
 91
        1
 62
     0
 92
       -2
340
14
 93
        0
 40
0.045
309
GRIDFORMAT_END
 95
        2
302
GRIDFORMAT
  1
GRIDFORMAT_BEGIN
 90
        0
 91
        1
 62
     0
 92
       -2
340
14
 93
        0
 40
0.045
309
GRIDFORMAT_END
 95
        4
302
GRIDFORMAT
  1
GRIDFORMAT_BEGIN
 90
        0
 91
        1
 62
     0
 92
       -2
340
14
 93
        0
 40
0.045
309
GRIDFORMAT_END
 95
        8
302
GRIDFORMAT
  1
GRIDFORMAT_BEGIN
 90
        0
 91
        1
 62
     0
 92
       -2
340
14
 93
        0
 40
0.045
309
GRIDFORMAT_END
 95
       16
302
GRIDFORMAT
  1
GRIDFORMAT_BEGIN
 90
        0
 91
        1
 62
     0
 92
       -2
340
14
 93
        0
 40
0.045
309
GRIDFORMAT_END
 95
       32
302
GRIDFORMAT
  1
GRIDFORMAT_BEGIN
 90
        0
 91
        1
 62
     0
 92
       -2
340
14
 93
        0
 40
0.045
309
GRIDFORMAT_END
309
TABLEFORMAT_END
  1
CELLSTYLE_BEGIN
 90
        1
 91
        1
300
_TITLE
309
CELLSTYLE_END
300
CELLSTYLE
  1
TABLEFORMAT_BEGIN
 90
        5
170
     1
 91
        0
 92
        0
 62
   257
 93
        1
300
CONTENTFORMAT
  1
CONTENTFORMAT_BEGIN
 90
        0
 91
        0
 92
        4
 93
        0
300

 40
0.0
140
1.0
 94
        5
 62
     0
340
11
144
4.5
309
CONTENTFORMAT_END
171
     1
301
MARGIN
  1
CELLMARGIN_BEGIN
 40
1.5
 40
1.5
 40
1.5
 40
1.5
 40
1.5
 40
1.5
309
CELLMARGIN_END
 94
        6
 95
        1
302
GRIDFORMAT
  1
GRIDFORMAT_BEGIN
 90
        0
 91
        1
 62
     0
 92
       -2
340
14
 93
        0
 40
0.045
309
GRIDFORMAT_END
 95
        2
302
GRIDFORMAT
  1
GRIDFORMAT_BEGIN
 90
        0
 91
        1
 62
     0
 92
       -2
340
14
 93
        0
 40
0.045
309
GRIDFORMAT_END
 95
        4
302
GRIDFORMAT
  1
GRIDFORMAT_BEGIN
 90
        0
 91
        1
 62
     0
 92
       -2
340
14
 93
        0
 40
0.045
309
GRIDFORMAT_END
 95
        8
302
GRIDFORMAT
  1
GRIDFORMAT_BEGIN
 90
        0
 91
        1
 62
     0
 92
       -2
340
14
 93
        0
 40
0.045
309
GRIDFORMAT_END
 95
       16
302
GRIDFORMAT
  1
GRIDFORMAT_BEGIN
 90
        0
 91
        1
 62
     0
 92
       -2
340
14
 93
        0
 40
0.045
309
GRIDFORMAT_END
 95
       32
302
GRIDFORMAT
  1
GRIDFORMAT_BEGIN
 90
        0
 91
        1
 62
     0
 92
       -2
340
14
 93
        0
 40
0.045
309
GRIDFORMAT_END
309
TABLEFORMAT_END
  1
CELLSTYLE_BEGIN
 90
        2
 91
        1
300
_HEADER
309
CELLSTYLE_END
300
CELLSTYLE
  1
TABLEFORMAT_BEGIN
 90
        5
170
     1
 91
        0
 92
        0
 62
   257
 93
        1
300
CONTENTFORMAT
  1
CONTENTFORMAT_BEGIN
 90
        0
 91
        0
 92
        4
 93
        0
300

 40
0.0
140
1.0
 94
        2
 62
     0
340
11
144
4.5
309
CONTENTFORMAT_END
171
     1
301
MARGIN
  1
CELLMARGIN_BEGIN
 40
1.5
 40
1.5
 40
1.5
 40
1.5
 40
1.5
 40
1.5
309
CELLMARGIN_END
 94
        6
 95
        1
302
GRIDFORMAT
  1
GRIDFORMAT_BEGIN
 90
        0
 91
        1
 62
     0
 92
       -2
340
14
 93
        0
 40
0.045
309
GRIDFORMAT_END
 95
        2
302
GRIDFORMAT
  1
GRIDFORMAT_BEGIN
 90
        0
 91
        1
 62
     0
 92
       -2
340
14
 93
        0
 40
0.045
309
GRIDFORMAT_END
 95
        4
302
GRIDFORMAT
  1
GRIDFORMAT_BEGIN
 90
        0
 91
        1
 62
     0
 92
       -2
340
14
 93
        0
 40
0.045
309
GRIDFORMAT_END
 95
        8
302
GRIDFORMAT
  1
GRIDFORMAT_BEGIN
 90
        0
 91
        1
 62
     0
 92
       -2
340
14
 93
        0
 40
0.045
309
GRIDFORMAT_END
 95
       16
302
GRIDFORMAT
  1
GRIDFORMAT_BEGIN
 90
        0
 91
        1
 62
     0
 92
       -2
340
14
 93
        0
 40
0.045
309
GRIDFORMAT_END
 95
       32
302
GRIDFORMAT
  1
GRIDFORMAT_BEGIN
 90
        0
 91
        1
 62
     0
 92
       -2
340
14
 93
        0
 40
0.045
309
GRIDFORMAT_END
309
TABLEFORMAT_END
  1
CELLSTYLE_BEGIN
 90
        3
 91
        2
300
_DATA
309
CELLSTYLE_END
  0
ENDSEC
  0
EOF
