  0
SECTION
  2
HEADER
  9
$ACADVER
  1
AC1024
  9
$ACADMAINTVER
 70
     6
  9
$DWGCODEPAGE
  3
ANSI_932
  9
$LASTSAVEDBY
  1
営業企画A
  9
$INSBASE
 10
0.0
 20
0.0
 30
0.0
  9
$EXTMIN
 10
0.0
 20
0.0
 30
0.0
  9
$EXTMAX
 10
292.0
 20
205.0
 30
0.0
  9
$LIMMIN
 10
0.0
 20
0.0
  9
$LIMMAX
 10
297.0
 20
210.0
  9
$ORTHOMODE
 70
     1
  9
$REGENMODE
 70
     1
  9
$FILLMODE
 70
     1
  9
$QTEXTMODE
 70
     0
  9
$MIRRTEXT
 70
     1
  9
$LTSCALE
 40
1.0
  9
$ATTMODE
 70
     1
  9
$TEXTSIZE
 40
2.5
  9
$TRACEWID
 40
1.0
  9
$TEXTSTYLE
  7
Standard
  9
$CLAYER
  8
硬質樹脂部分
  9
$CELTYPE
  6
Continuous
  9
$CECOLOR
 62
   256
  9
$CELTSCALE
 40
1.0
  9
$DISPSILH
 70
     0
  9
$DIMSCALE
 40
1.0
  9
$DIMASZ
 40
1.5
  9
$DIMEXO
 40
0.625
  9
$DIMDLI
 40
3.75
  9
$DIMRND
 40
0.0
  9
$DIMDLE
 40
0.0
  9
$DIMEXE
 40
1.25
  9
$DIMTP
 40
0.0
  9
$DIMTM
 40
0.0
  9
$DIMTXT
 40
2.5
  9
$DIMCEN
 40
0.0
  9
$DIMTSZ
 40
0.0
  9
$DIMTOL
 70
     0
  9
$DIMLIM
 70
     0
  9
$DIMTIH
 70
     1
  9
$DIMTOH
 70
     1
  9
$DIMSE1
 70
     0
  9
$DIMSE2
 70
     0
  9
$DIMTAD
 70
     1
  9
$DIMZIN
 70
     8
  9
$DIMBLK
  1

  9
$DIMASO
 70
     1
  9
$DIMSHO
 70
     1
  9
$DIMPOST
  1

  9
$DIMAPOST
  1

  9
$DIMALT
 70
     0
  9
$DIMALTD
 70
     3
  9
$DIMALTF
 40
0.03937007874016
  9
$DIMLFAC
 40
1.0
  9
$DIMTOFL
 70
     0
  9
$DIMTVP
 40
0.0
  9
$DIMTIX
 70
     0
  9
$DIMSOXD
 70
     0
  9
$DIMSAH
 70
     0
  9
$DIMBLK1
  1

  9
$DIMBLK2
  1

  9
$DIMSTYLE
  2
ISO-1
  9
$DIMCLRD
 70
     0
  9
$DIMCLRE
 70
     0
  9
$DIMCLRT
 70
     0
  9
$DIMTFAC
 40
1.0
  9
$DIMGAP
 40
0.625
  9
$DIMJUST
 70
     0
  9
$DIMSD1
 70
     0
  9
$DIMSD2
 70
     0
  9
$DIMTOLJ
 70
     0
  9
$DIMTZIN
 70
     8
  9
$DIMALTZ
 70
     0
  9
$DIMALTTZ
 70
     0
  9
$DIMUPT
 70
     1
  9
$DIMDEC
 70
     2
  9
$DIMTDEC
 70
     2
  9
$DIMALTU
 70
     2
  9
$DIMALTTD
 70
     3
  9
$DIMTXSTY
  7
Standard
  9
$DIMAUNIT
 70
     0
  9
$DIMADEC
 70
     0
  9
$DIMALTRND
 40
0.0
  9
$DIMAZIN
 70
     0
  9
$DIMDSEP
 70
    46
  9
$DIMATFIT
 70
     3
  9
$DIMFRAC
 70
     0
  9
$DIMLDRBLK
  1

  9
$DIMLUNIT
 70
     2
  9
$DIMLWD
 70
    -2
  9
$DIMLWE
 70
    -2
  9
$DIMTMOVE
 70
     2
  9
$DIMFXL
 40
1.0
  9
$DIMFXLON
 70
     0
  9
$DIMJOGANG
 40
0.7853981633974483
  9
$DIMTFILL
 70
     0
  9
$DIMTFILLCLR
 70
     0
  9
$DIMARCSYM
 70
     0
  9
$DIMLTYPE
  6

  9
$DIMLTEX1
  6

  9
$DIMLTEX2
  6

  9
$DIMTXTDIRECTION
 70
     0
  9
$LUNITS
 70
     2
  9
$LUPREC
 70
     4
  9
$SKETCHINC
 40
1.0
  9
$FILLETRAD
 40
1.0
  9
$AUNITS
 70
     0
  9
$AUPREC
 70
     0
  9
$MENU
  1
.
  9
$ELEVATION
 40
0.0
  9
$PELEVATION
 40
0.0
  9
$THICKNESS
 40
0.0
  9
$LIMCHECK
 70
     0
  9
$CHAMFERA
 40
10.0
  9
$CHAMFERB
 40
10.0
  9
$CHAMFERC
 40
20.0
  9
$CHAMFERD
 40
0.0
  9
$SKPOLY
 70
     0
  9
$TDCREATE
 40
2453866.557479954
  9
$TDUCREATE
 40
2453866.182479954
  9
$TDUPDATE
 40
2459762.690185035
  9
$TDUUPDATE
 40
2459762.315185035
  9
$TDINDWG
 40
0.622824919
  9
$TDUSRTIMER
 40
0.0010435185
  9
$USRTIMER
 70
     1
  9
$ANGBASE
 50
0.0
  9
$ANGDIR
 70
     0
  9
$PDMODE
 70
     0
  9
$PDSIZE
 40
0.0
  9
$PLINEWID
 40
0.0
  9
$SPLFRAME
 70
     0
  9
$SPLINETYPE
 70
     6
  9
$SPLINESEGS
 70
     8
  9
$HANDSEED
  5
3E91
  9
$SURFTAB1
 70
     6
  9
$SURFTAB2
 70
     6
  9
$SURFTYPE
 70
     6
  9
$SURFU
 70
     6
  9
$SURFV
 70
     6
  9
$UCSBASE
  2

  9
$UCSNAME
  2

  9
$UCSORG
 10
0.0
 20
0.0
 30
0.0
  9
$UCSXDIR
 10
1.0
 20
0.0
 30
0.0
  9
$UCSYDIR
 10
0.0
 20
1.0
 30
0.0
  9
$UCSORTHOREF
  2

  9
$UCSORTHOVIEW
 70
     0
  9
$UCSORGTOP
 10
0.0
 20
0.0
 30
0.0
  9
$UCSORGBOTTOM
 10
0.0
 20
0.0
 30
0.0
  9
$UCSORGLEFT
 10
0.0
 20
0.0
 30
0.0
  9
$UCSORGRIGHT
 10
0.0
 20
0.0
 30
0.0
  9
$UCSORGFRONT
 10
0.0
 20
0.0
 30
0.0
  9
$UCSORGBACK
 10
0.0
 20
0.0
 30
0.0
  9
$PUCSBASE
  2

  9
$PUCSNAME
  2

  9
$PUCSORG
 10
0.0
 20
0.0
 30
0.0
  9
$PUCSXDIR
 10
1.0
 20
0.0
 30
0.0
  9
$PUCSYDIR
 10
0.0
 20
1.0
 30
0.0
  9
$PUCSORTHOREF
  2

  9
$PUCSORTHOVIEW
 70
     0
  9
$PUCSORGTOP
 10
0.0
 20
0.0
 30
0.0
  9
$PUCSORGBOTTOM
 10
0.0
 20
0.0
 30
0.0
  9
$PUCSORGLEFT
 10
0.0
 20
0.0
 30
0.0
  9
$PUCSORGRIGHT
 10
0.0
 20
0.0
 30
0.0
  9
$PUCSORGFRONT
 10
0.0
 20
0.0
 30
0.0
  9
$PUCSORGBACK
 10
0.0
 20
0.0
 30
0.0
  9
$USERI1
 70
     0
  9
$USERI2
 70
     0
  9
$USERI3
 70
     0
  9
$USERI4
 70
     0
  9
$USERI5
 70
     0
  9
$USERR1
 40
0.0
  9
$USERR2
 40
0.0
  9
$USERR3
 40
0.0
  9
$USERR4
 40
0.0
  9
$USERR5
 40
0.0
  9
$WORLDVIEW
 70
     1
  9
$SHADEDGE
 70
     3
  9
$SHADEDIF
 70
    70
  9
$TILEMODE
 70
     1
  9
$MAXACTVP
 70
    64
  9
$PINSBASE
 10
0.0
 20
0.0
 30
0.0
  9
$PLIMCHECK
 70
     0
  9
$PEXTMIN
 10
1.000000000000000E+20
 20
1.000000000000000E+20
 30
1.000000000000000E+20
  9
$PEXTMAX
 10
-1.000000000000000E+20
 20
-1.000000000000000E+20
 30
-1.000000000000000E+20
  9
$PLIMMIN
 10
0.0
 20
0.0
  9
$PLIMMAX
 10
0.0
 20
0.0
  9
$UNITMODE
 70
     0
  9
$VISRETAIN
 70
     1
  9
$PLINEGEN
 70
     0
  9
$PSLTSCALE
 70
     1
  9
$TREEDEPTH
 70
  3020
  9
$CMLSTYLE
  2
Standard
  9
$CMLJUST
 70
     0
  9
$CMLSCALE
 40
20.0
  9
$PROXYGRAPHICS
 70
     1
  9
$MEASUREMENT
 70
     1
  9
$CELWEIGHT
370
    -1
  9
$ENDCAPS
280
     0
  9
$JOINSTYLE
280
     0
  9
$LWDISPLAY
290
     0
  9
$INSUNITS
 70
     4
  9
$HYPERLINKBASE
  1

  9
$STYLESHEET
  1

  9
$XEDIT
290
     1
  9
$CEPSNTYPE
380
     0
  9
$PSTYLEMODE
290
     1
  9
$FINGERPRINTGUID
  2
{49B20B3B-064E-400B-9469-2837C497CFA5}
  9
$VERSIONGUID
  2
{CCDC3A7D-9D77-4BF9-B421-98E64B28052D}
  9
$EXTNAMES
290
     1
  9
$PSVPSCALE
 40
0.0
  9
$OLESTARTUP
290
     0
  9
$SORTENTS
280
    96
  9
$INDEXCTL
280
     0
  9
$HIDETEXT
280
     1
  9
$XCLIPFRAME
280
     2
  9
$HALOGAP
280
     0
  9
$OBSCOLOR
 70
   257
  9
$OBSLTYPE
280
     0
  9
$INTERSECTIONDISPLAY
280
     0
  9
$INTERSECTIONCOLOR
 70
   257
  9
$DIMASSOC
280
     2
  9
$PROJECTNAME
  1

  9
$CAMERADISPLAY
290
     0
  9
$LENSLENGTH
 40
50.0
  9
$CAMERAHEIGHT
 40
0.0
  9
$STEPSPERSEC
 40
2.0
  9
$STEPSIZE
 40
6.0
  9
$3DDWFPREC
 40
2.0
  9
$PSOLWIDTH
 40
0.25
  9
$PSOLHEIGHT
 40
4.0
  9
$LOFTANG1
 40
1.570796326794897
  9
$LOFTANG2
 40
1.570796326794897
  9
$LOFTMAG1
 40
0.0
  9
$LOFTMAG2
 40
0.0
  9
$LOFTPARAM
 70
     7
  9
$LOFTNORMALS
280
     1
  9
$LATITUDE
 40
37.795
  9
$LONGITUDE
 40
-122.394
  9
$NORTHDIRECTION
 40
0.0
  9
$TIMEZONE
 70
 -8000
  9
$LIGHTGLYPHDISPLAY
280
     1
  9
$TILEMODELIGHTSYNCH
280
     1
  9
$SOLIDHIST
280
     0
  9
$SHOWHIST
280
     1
  9
$DWFFRAME
280
     2
  9
$DGNFRAME
280
     2
  9
$REALWORLDSCALE
290
     1
  9
$INTERFERECOLOR
 62
   256
  9
$CSHADOW
280
     0
  9
$SHADOWPLANELOCATION
 40
0.0
  0
ENDSEC
  0
SECTION
  2
CLASSES
  0
CLASS
  1
ACDBDICTIONARYWDFLT
  2
AcDbDictionaryWithDefault
  3
ObjectDBX Classes
 90
        0
 91
        3
280
     0
281
     0
  0
CLASS
  1
ACDBPLACEHOLDER
  2
AcDbPlaceHolder
  3
ObjectDBX Classes
 90
        0
 91
        1
280
     0
281
     0
  0
CLASS
  1
LAYOUT
  2
AcDbLayout
  3
ObjectDBX Classes
 90
        0
 91
        1
280
     0
281
     0
  0
CLASS
  1
DICTIONARYVAR
  2
AcDbDictionaryVar
  3
ObjectDBX Classes
 90
        0
 91
        3
280
     0
281
     0
  0
CLASS
  1
SCALE
  2
AcDbScale
  3
ObjectDBX Classes
 90
     1153
 91
        3
280
     0
281
     0
  0
CLASS
  1
MATERIAL
  2
AcDbMaterial
  3
ObjectDBX Classes
 90
     1153
 91
        3
280
     0
281
     0
  0
CLASS
  1
VISUALSTYLE
  2
AcDbVisualStyle
  3
ObjectDBX Classes
 90
     4095
 91
        3
280
     0
281
     0
  0
CLASS
  1
TABLESTYLE
  2
AcDbTableStyle
  3
ObjectDBX Classes
 90
     4095
 91
        3
280
     0
281
     0
  0
CLASS
  1
RASTERVARIABLES
  2
AcDbRasterVariables
  3
ISM
 90
        0
 91
        3
280
     0
281
     0
  0
CLASS
  1
DIMASSOC
  2
AcDbDimAssoc
  3
"AcDbDimAssoc|Product Desc:     AcDim ARX App For Dimension|Company:          Autodesk, Inc.|WEB Address:      www.autodesk.com"
 90
        0
 91
        3
280
     0
281
     0
  0
CLASS
  1
MLEADERSTYLE
  2
AcDbMLeaderStyle
  3
ACDB_MLEADERSTYLE_CLASS
 90
     4095
 91
        3
280
     0
281
     0
  0
CLASS
  1
SUN
  2
AcDbSun
  3
SCENEOE
 90
     1153
 91
        3
280
     0
281
     0
  0
CLASS
  1
CELLSTYLEMAP
  2
AcDbCellStyleMap
  3
ObjectDBX Classes
 90
     1152
 91
        3
280
     0
281
     0
  0
ENDSEC
  0
SECTION
  2
TABLES
  0
TABLE
  2
VPORT
  5
8
330
0
100
AcDbSymbolTable
 70
     1
  0
VPORT
  5
934
330
8
100
AcDbSymbolTableRecord
100
AcDbViewportTableRecord
  2
*Active
 70
     0
 10
0.0
 20
0.0
 11
1.0
 21
1.0
 12
146.0
 22
102.5
 13
0.0
 23
0.0
 14
10.0
 24
10.0
 15
10.0
 25
10.0
 16
0.0
 26
0.0
 36
1.0
 17
0.0
 27
0.0
 37
0.0
 40
209.1
 41
1.737931034482759
 42
50.0
 43
0.0
 44
0.0
 50
0.0
 51
0.0
 71
    16
 72
   100
 73
     1
 74
     3
 75
     0
 76
     0
 77
     0
 78
     0
281
     0
 65
     1
110
0.0
120
0.0
130
0.0
111
1.0
121
0.0
131
0.0
112
0.0
122
1.0
132
0.0
 79
     0
146
0.0
348
A2E
 60
     3
 61
     5
292
     1
282
     1
141
0.0
142
0.0
 63
   256
361
A4A
  0
ENDTAB
  0
TABLE
  2
LTYPE
  5
5
330
0
100
AcDbSymbolTable
 70
     5
  0
LTYPE
  5
14
330
5
100
AcDbSymbolTableRecord
100
AcDbLinetypeTableRecord
  2
ByBlock
 70
     0
  3

 72
    65
 73
     0
 40
0.0
  0
LTYPE
  5
15
330
5
100
AcDbSymbolTableRecord
100
AcDbLinetypeTableRecord
  2
ByLayer
 70
     0
  3

 72
    65
 73
     0
 40
0.0
  0
LTYPE
  5
16
330
5
100
AcDbSymbolTableRecord
100
AcDbLinetypeTableRecord
  2
Continuous
 70
     0
  3
Solid line
 72
    65
 73
     0
 40
0.0
  0
LTYPE
  5
C6
330
5
100
AcDbSymbolTableRecord
100
AcDbLinetypeTableRecord
  2
ACAD_ISO02W100
 70
     0
  3
ISO dash __ __ __ __ __ __ __ __ __ __ __ __ __
 72
    65
 73
     2
 40
15.0
 49
12.0
 74
     0
 49
-3.0
 74
     0
  0
LTYPE
  5
63F
330
5
100
AcDbSymbolTableRecord
100
AcDbLinetypeTableRecord
  2
HIDDEN
 70
     0
  3
Hidden __ __ __ __ __ __ __ __ __ __ __ __ __ _
 72
    65
 73
     2
 40
4.5
 49
3.0
 74
     0
 49
-1.5
 74
     0
  0
LTYPE
  5
7A5
330
5
100
AcDbSymbolTableRecord
100
AcDbLinetypeTableRecord
  2
ACAD_ISO07W100
 70
     0
  3
ISO dot . . . . . . . . . . . . . . . . . . . .
 72
    65
 73
     2
 40
3.0
 49
0.0
 74
     0
 49
-3.0
 74
     0
  0
LTYPE
  5
A8D
330
5
100
AcDbSymbolTableRecord
100
AcDbLinetypeTableRecord
  2
CENTER2
 70
     0
  3
Center (.5x) ___ _ ___ _ ___ _ ___ _ ___ _ ___
 72
    65
 73
     4
 40
28.575
 49
19.05
 74
     0
 49
-3.175
 74
     0
 49
3.175
 74
     0
 49
-3.175
 74
     0
  0
ENDTAB
  0
TABLE
  2
LAYER
  5
2
102
{ACAD_XDICTIONARY
360
970
102
}
330
0
100
AcDbSymbolTable
 70
    18
  0
LAYER
  5
10
330
2
100
AcDbSymbolTableRecord
100
AcDbLayerTableRecord
  2
0
 70
     0
 62
     7
  6
Continuous
370
    -3
390
F
347
A45
  0
LAYER
  5
110
330
2
100
AcDbSymbolTableRecord
100
AcDbLayerTableRecord
  2
Defpoints
 70
     0
 62
     7
  6
Continuous
290
     0
370
    -3
390
F
347
A45
  0
LAYER
  5
4E7
330
2
100
AcDbSymbolTableRecord
100
AcDbLayerTableRecord
  2
100
 70
     0
 62
     7
  6
ACAD_ISO07W100
370
    -3
390
F
347
A45
  0
LAYER
  5
68D
330
2
100
AcDbSymbolTableRecord
100
AcDbLayerTableRecord
  2
用紙範囲
 70
     0
 62
    10
  6
Continuous
370
    -3
390
F
347
A45
  0
LAYER
  5
68E
330
2
100
AcDbSymbolTableRecord
100
AcDbLayerTableRecord
  2
枠
 70
     0
 62
   112
  6
Continuous
370
    -3
390
F
347
A45
  0
LAYER
  5
68F
330
2
100
AcDbSymbolTableRecord
100
AcDbLayerTableRecord
  2
寸法
 70
     0
 62
    90
  6
Continuous
370
    -3
390
F
347
A45
  0
LAYER
  5
690
330
2
100
AcDbSymbolTableRecord
100
AcDbLayerTableRecord
  2
金属部分
 70
     0
 62
   170
  6
Continuous
370
    -3
390
F
347
A45
  0
LAYER
  5
691
330
2
100
AcDbSymbolTableRecord
100
AcDbLayerTableRecord
  2
品番
 70
     0
 62
   244
  6
Continuous
370
    -3
390
F
347
A45
  0
LAYER
  5
786
330
2
100
AcDbSymbolTableRecord
100
AcDbLayerTableRecord
  2
文字
 70
     0
 62
    40
  6
Continuous
370
    -3
390
F
347
A45
  0
LAYER
  5
790
330
2
100
AcDbSymbolTableRecord
100
AcDbLayerTableRecord
  2
社名
 70
     0
 62
     1
  6
Continuous
370
    -3
390
F
347
A45
  0
LAYER
  5
880
330
2
100
AcDbSymbolTableRecord
100
AcDbLayerTableRecord
  2
軟質樹脂部分
 70
     0
 62
    30
  6
Continuous
370
    -3
390
F
347
A45
  0
LAYER
  5
896
330
2
100
AcDbSymbolTableRecord
100
AcDbLayerTableRecord
  2
TOS_M1
 70
     0
 62
     7
  6
Continuous
370
    -3
390
F
347
A45
  0
LAYER
  5
897
330
2
100
AcDbSymbolTableRecord
100
AcDbLayerTableRecord
  2
TOS_S1
 70
     0
 62
     4
  6
Continuous
370
    -3
390
F
347
A45
  0
LAYER
  5
A57
330
2
100
AcDbSymbolTableRecord
100
AcDbLayerTableRecord
  2
補助
 70
     0
 62
     7
  6
HIDDEN
370
    -3
390
F
347
A45
1001
AcAecLayerStandard
1000

1000

  0
LAYER
  5
A86
102
{ACAD_XDICTIONARY
360
A87
102
}
330
2
100
AcDbSymbolTableRecord
100
AcDbLayerTableRecord
  2
SCALE
 70
     0
 62
     3
  6
Continuous
370
    -3
390
F
347
A45
  0
LAYER
  5
A8A
102
{ACAD_XDICTIONARY
360
A8B
102
}
330
2
100
AcDbSymbolTableRecord
100
AcDbLayerTableRecord
  2
Hojo
 70
     0
 62
   111
  6
Continuous
370
    -3
390
F
347
A45
  0
LAYER
  5
2076
330
2
100
AcDbSymbolTableRecord
100
AcDbLayerTableRecord
  2
硬質樹脂部分
 70
     0
 62
   220
  6
Continuous
370
    -3
390
F
347
A45
1001
AcAecLayerStandard
1000

1000

  0
LAYER
  5
2F1A
102
{ACAD_XDICTIONARY
360
2F1B
102
}
330
2
100
AcDbSymbolTableRecord
100
AcDbLayerTableRecord
  2
硬質樹脂
 70
     0
 62
   220
  6
Continuous
370
    -3
390
F
347
A45
  0
ENDTAB
  0
TABLE
  2
STYLE
  5
3
330
0
100
AcDbSymbolTable
 70
     2
  0
STYLE
  5
11
330
3
100
AcDbSymbolTableRecord
100
AcDbTextStyleTableRecord
  2
Standard
 70
     0
 40
0.0
 41
1.0
 50
0.0
 71
     0
 42
2.5
  3
txt.shx
  4
bigfont.shx
  0
STYLE
  5
C5
330
3
100
AcDbSymbolTableRecord
100
AcDbTextStyleTableRecord
  2

 70
     1
 40
0.0
 41
1.0
 50
0.0
 71
     0
 42
2.5
  3
ltypeshp.shx
  4

  0
ENDTAB
  0
TABLE
  2
VIEW
  5
6
330
0
100
AcDbSymbolTable
 70
     0
  0
ENDTAB
  0
TABLE
  2
UCS
  5
7
330
0
100
AcDbSymbolTable
 70
     0
  0
ENDTAB
  0
TABLE
  2
APPID
  5
9
330
0
100
AcDbSymbolTable
 70
     6
  0
APPID
  5
12
330
9
100
AcDbSymbolTableRecord
100
AcDbRegAppTableRecord
  2
ACAD
 70
     0
  0
APPID
  5
A58
330
9
100
AcDbSymbolTableRecord
100
AcDbRegAppTableRecord
  2
AcAecLayerStandard
 70
     0
  0
APPID
  5
A97
330
9
100
AcDbSymbolTableRecord
100
AcDbRegAppTableRecord
  2
ACAD_NAV_VCDISPLAY
 70
     0
  0
APPID
  5
A98
330
9
100
AcDbSymbolTableRecord
100
AcDbRegAppTableRecord
  2
ACAD_PSEXT
 70
     0
  0
APPID
  5
B15
330
9
100
AcDbSymbolTableRecord
100
AcDbRegAppTableRecord
  2
ACAD_DSTYLE_DIMRADIAL_EXTENSION
 70
     0
  0
APPID
  5
3C85
330
9
100
AcDbSymbolTableRecord
100
AcDbRegAppTableRecord
  2
PLOTTRANSPARENCY
 70
     0
  0
ENDTAB
  0
TABLE
  2
DIMSTYLE
  5
A
330
0
100
AcDbSymbolTable
 70
     4
100
AcDbDimStyleTable
  0
DIMSTYLE
105
27
330
A
100
AcDbSymbolTableRecord
100
AcDbDimStyleTableRecord
  2
ISO-25
 70
     0
 41
2.5
 42
0.625
 43
3.75
 44
1.25
 77
     1
 78
     8
140
2.5
141
2.5
143
0.03937007874016
147
0.625
171
     3
178
     0
271
     2
272
     2
274
     3
279
     2
283
     0
284
     8
288
     1
340
11
  0
DIMSTYLE
105
4E8
330
A
100
AcDbSymbolTableRecord
100
AcDbDimStyleTableRecord
  2
Standard
 70
     0
178
     0
340
11
  0
DIMSTYLE
105
14C6
102
{ACAD_REACTORS
330
3DD1
330
3DD7
330
3DDA
330
3DDD
330
3DE0
330
3DE9
330
3DEC
330
3DEE
102
}
330
A
100
AcDbSymbolTableRecord
100
AcDbDimStyleTableRecord
  2
ISO-1
 70
     0
 41
1.5
 42
0.625
 43
3.75
 44
1.25
 77
     1
 78
     8
140
2.5
141
0.0
143
0.03937007874016
147
0.625
171
     3
178
     0
271
     2
272
     2
274
     3
279
     2
283
     0
284
     8
288
     1
340
11
  0
DIMSTYLE
105
2BCC
330
A
100
AcDbSymbolTableRecord
100
AcDbDimStyleTableRecord
  2
ISO-2
 70
     0
 41
2.5
 42
0.625
 43
3.75
 44
1.25
 77
     1
 78
     8
140
5.0
141
0.0
143
0.03937007874016
144
0.2
147
0.625
171
     3
178
     0
271
     2
272
     2
274
     3
279
     2
283
     0
284
     8
288
     1
340
11
  0
ENDTAB
  0
TABLE
  2
BLOCK_RECORD
  5
1
330
0
100
AcDbSymbolTable
 70
    98
  0
BLOCK_RECORD
  5
1F
330
1
100
AcDbSymbolTableRecord
100
AcDbBlockTableRecord
  2
*Model_Space
340
22
 70
     0
280
     1
281
     0
  0
BLOCK_RECORD
  5
1B
330
1
100
AcDbSymbolTableRecord
100
AcDbBlockTableRecord
  2
*Paper_Space
340
1E
 70
     0
280
     1
281
     0
  0
BLOCK_RECORD
  5
23
330
1
100
AcDbSymbolTableRecord
100
AcDbBlockTableRecord
  2
*Paper_Space0
340
26
 70
     0
280
     1
281
     0
  0
BLOCK_RECORD
  5
A91
330
1
100
AcDbSymbolTableRecord
100
AcDbBlockTableRecord
  2
_OPEN
340
0
 70
     0
280
     1
281
     0
  0
BLOCK_RECORD
  5
245E
330
1
100
AcDbSymbolTableRecord
100
AcDbBlockTableRecord
  2
*D2
340
0
 70
     0
280
     1
281
     0
  0
BLOCK_RECORD
  5
246E
330
1
100
AcDbSymbolTableRecord
100
AcDbBlockTableRecord
  2
*D3
340
0
 70
     0
280
     1
281
     0
  0
BLOCK_RECORD
  5
248E
330
1
100
AcDbSymbolTableRecord
100
AcDbBlockTableRecord
  2
*D4
340
0
 70
     0
280
     1
281
     0
  0
BLOCK_RECORD
  5
249E
330
1
100
AcDbSymbolTableRecord
100
AcDbBlockTableRecord
  2
*D5
340
0
 70
     0
280
     1
281
     0
  0
BLOCK_RECORD
  5
24AE
330
1
100
AcDbSymbolTableRecord
100
AcDbBlockTableRecord
  2
*D6
340
0
 70
     0
280
     1
281
     0
  0
BLOCK_RECORD
  5
24BE
330
1
100
AcDbSymbolTableRecord
100
AcDbBlockTableRecord
  2
*D7
340
0
 70
     0
280
     1
281
     0
  0
BLOCK_RECORD
  5
24DF
330
1
100
AcDbSymbolTableRecord
100
AcDbBlockTableRecord
  2
*D8
340
0
 70
     0
280
     1
281
     0
  0
BLOCK_RECORD
  5
24EF
330
1
100
AcDbSymbolTableRecord
100
AcDbBlockTableRecord
  2
*D9
340
0
 70
     0
280
     1
281
     0
  0
BLOCK_RECORD
  5
2551
330
1
100
AcDbSymbolTableRecord
100
AcDbBlockTableRecord
  2
*D10
340
0
 70
     0
280
     1
281
     0
  0
BLOCK_RECORD
  5
2561
330
1
100
AcDbSymbolTableRecord
100
AcDbBlockTableRecord
  2
*D11
340
0
 70
     0
280
     1
281
     0
  0
BLOCK_RECORD
  5
2571
330
1
100
AcDbSymbolTableRecord
100
AcDbBlockTableRecord
  2
*D12
340
0
 70
     0
280
     1
281
     0
  0
BLOCK_RECORD
  5
2581
330
1
100
AcDbSymbolTableRecord
100
AcDbBlockTableRecord
  2
*D13
340
0
 70
     0
280
     1
281
     0
  0
BLOCK_RECORD
  5
25A1
330
1
100
AcDbSymbolTableRecord
100
AcDbBlockTableRecord
  2
*D14
340
0
 70
     0
280
     1
281
     0
  0
BLOCK_RECORD
  5
25B1
330
1
100
AcDbSymbolTableRecord
100
AcDbBlockTableRecord
  2
*D15
340
0
 70
     0
280
     1
281
     0
  0
BLOCK_RECORD
  5
25C0
330
1
100
AcDbSymbolTableRecord
100
AcDbBlockTableRecord
  2
*D16
340
0
 70
     0
280
     1
281
     0
  0
BLOCK_RECORD
  5
25CF
330
1
100
AcDbSymbolTableRecord
100
AcDbBlockTableRecord
  2
*D17
340
0
 70
     0
280
     1
281
     0
  0
BLOCK_RECORD
  5
25DF
330
1
100
AcDbSymbolTableRecord
100
AcDbBlockTableRecord
  2
*D18
340
0
 70
     0
280
     1
281
     0
  0
BLOCK_RECORD
  5
25EF
330
1
100
AcDbSymbolTableRecord
100
AcDbBlockTableRecord
  2
*D19
340
0
 70
     0
280
     1
281
     0
  0
BLOCK_RECORD
  5
2600
330
1
100
AcDbSymbolTableRecord
100
AcDbBlockTableRecord
  2
*D20
340
0
 70
     0
280
     1
281
     0
  0
BLOCK_RECORD
  5
2610
330
1
100
AcDbSymbolTableRecord
100
AcDbBlockTableRecord
  2
*D21
340
0
 70
     0
280
     1
281
     0
  0
BLOCK_RECORD
  5
2630
330
1
100
AcDbSymbolTableRecord
100
AcDbBlockTableRecord
  2
*D22
340
0
 70
     0
280
     1
281
     0
  0
BLOCK_RECORD
  5
2640
330
1
100
AcDbSymbolTableRecord
100
AcDbBlockTableRecord
  2
*D23
340
0
 70
     0
280
     1
281
     0
  0
BLOCK_RECORD
  5
2671
330
1
100
AcDbSymbolTableRecord
100
AcDbBlockTableRecord
  2
*D24
340
0
 70
     0
280
     1
281
     0
  0
BLOCK_RECORD
  5
2682
330
1
100
AcDbSymbolTableRecord
100
AcDbBlockTableRecord
  2
*D25
340
0
 70
     0
280
     1
281
     0
  0
BLOCK_RECORD
  5
2692
330
1
100
AcDbSymbolTableRecord
100
AcDbBlockTableRecord
  2
*D26
340
0
 70
     0
280
     1
281
     0
  0
BLOCK_RECORD
  5
26A2
330
1
100
AcDbSymbolTableRecord
100
AcDbBlockTableRecord
  2
*D27
340
0
 70
     0
280
     1
281
     0
  0
BLOCK_RECORD
  5
26B2
330
1
100
AcDbSymbolTableRecord
100
AcDbBlockTableRecord
  2
*D28
340
0
 70
     0
280
     1
281
     0
  0
BLOCK_RECORD
  5
26C2
330
1
100
AcDbSymbolTableRecord
100
AcDbBlockTableRecord
  2
*D29
340
0
 70
     0
280
     1
281
     0
  0
BLOCK_RECORD
  5
26D1
330
1
100
AcDbSymbolTableRecord
100
AcDbBlockTableRecord
  2
*D30
340
0
 70
     0
280
     1
281
     0
  0
BLOCK_RECORD
  5
2738
330
1
100
AcDbSymbolTableRecord
100
AcDbBlockTableRecord
  2
*D31
340
0
 70
     0
280
     1
281
     0
  0
BLOCK_RECORD
  5
2748
330
1
100
AcDbSymbolTableRecord
100
AcDbBlockTableRecord
  2
*D32
340
0
 70
     0
280
     1
281
     0
  0
BLOCK_RECORD
  5
278D
330
1
100
AcDbSymbolTableRecord
100
AcDbBlockTableRecord
  2
*D33
340
0
 70
     0
280
     1
281
     0
  0
BLOCK_RECORD
  5
28D1
330
1
100
AcDbSymbolTableRecord
100
AcDbBlockTableRecord
  2
*D34
340
0
 70
     0
280
     1
281
     0
  0
BLOCK_RECORD
  5
2BE6
330
1
100
AcDbSymbolTableRecord
100
AcDbBlockTableRecord
  2
*D35
340
0
 70
     0
280
     1
281
     0
  0
BLOCK_RECORD
  5
2BF6
330
1
100
AcDbSymbolTableRecord
100
AcDbBlockTableRecord
  2
*D36
340
0
 70
     0
280
     1
281
     0
  0
BLOCK_RECORD
  5
2CFF
330
1
100
AcDbSymbolTableRecord
100
AcDbBlockTableRecord
  2
*D37
340
0
 70
     0
280
     1
281
     0
  0
BLOCK_RECORD
  5
2D5F
330
1
100
AcDbSymbolTableRecord
100
AcDbBlockTableRecord
  2
*D38
340
0
 70
     0
280
     1
281
     0
  0
BLOCK_RECORD
  5
2E6C
330
1
100
AcDbSymbolTableRecord
100
AcDbBlockTableRecord
  2
*D39
340
0
 70
     0
280
     1
281
     0
  0
BLOCK_RECORD
  5
2E7C
330
1
100
AcDbSymbolTableRecord
100
AcDbBlockTableRecord
  2
*D40
340
0
 70
     0
280
     1
281
     0
  0
BLOCK_RECORD
  5
2E92
330
1
100
AcDbSymbolTableRecord
100
AcDbBlockTableRecord
  2
*D41
340
0
 70
     0
280
     1
281
     0
  0
BLOCK_RECORD
  5
2EA2
330
1
100
AcDbSymbolTableRecord
100
AcDbBlockTableRecord
  2
*D42
340
0
 70
     0
280
     1
281
     0
  0
BLOCK_RECORD
  5
2EC0
330
1
100
AcDbSymbolTableRecord
100
AcDbBlockTableRecord
  2
*D43
340
0
 70
     0
280
     1
281
     0
  0
BLOCK_RECORD
  5
2ED0
330
1
100
AcDbSymbolTableRecord
100
AcDbBlockTableRecord
  2
*D44
340
0
 70
     0
280
     1
281
     0
  0
BLOCK_RECORD
  5
2EF1
330
1
100
AcDbSymbolTableRecord
100
AcDbBlockTableRecord
  2
*D45
340
0
 70
     0
280
     1
281
     0
  0
BLOCK_RECORD
  5
2EFC
330
1
100
AcDbSymbolTableRecord
100
AcDbBlockTableRecord
  2
*D46
340
0
 70
     0
280
     1
281
     0
  0
BLOCK_RECORD
  5
2F08
330
1
100
AcDbSymbolTableRecord
100
AcDbBlockTableRecord
  2
*D47
340
0
 70
     0
280
     1
281
     0
  0
BLOCK_RECORD
  5
36F7
330
1
100
AcDbSymbolTableRecord
100
AcDbBlockTableRecord
  2
*D48
340
0
 70
     0
280
     1
281
     0
  0
BLOCK_RECORD
  5
381E
330
1
100
AcDbSymbolTableRecord
100
AcDbBlockTableRecord
  2
*D49
340
0
 70
     0
280
     1
281
     0
  0
BLOCK_RECORD
  5
382E
330
1
100
AcDbSymbolTableRecord
100
AcDbBlockTableRecord
  2
*D50
340
0
 70
     0
280
     1
281
     0
  0
BLOCK_RECORD
  5
3841
330
1
100
AcDbSymbolTableRecord
100
AcDbBlockTableRecord
  2
*D51
340
0
 70
     0
280
     1
281
     0
  0
BLOCK_RECORD
  5
3851
330
1
100
AcDbSymbolTableRecord
100
AcDbBlockTableRecord
  2
*D52
340
0
 70
     0
280
     1
281
     0
  0
BLOCK_RECORD
  5
3861
330
1
100
AcDbSymbolTableRecord
100
AcDbBlockTableRecord
  2
*D53
340
0
 70
     0
280
     1
281
     0
  0
BLOCK_RECORD
  5
3871
330
1
100
AcDbSymbolTableRecord
100
AcDbBlockTableRecord
  2
*D54
340
0
 70
     0
280
     1
281
     0
  0
BLOCK_RECORD
  5
38A2
330
1
100
AcDbSymbolTableRecord
100
AcDbBlockTableRecord
  2
*D55
340
0
 70
     0
280
     1
281
     0
  0
BLOCK_RECORD
  5
3971
330
1
100
AcDbSymbolTableRecord
100
AcDbBlockTableRecord
  2
*D56
340
0
 70
     0
280
     1
281
     0
  0
BLOCK_RECORD
  5
3981
330
1
100
AcDbSymbolTableRecord
100
AcDbBlockTableRecord
  2
*D57
340
0
 70
     0
280
     1
281
     0
  0
BLOCK_RECORD
  5
3991
330
1
100
AcDbSymbolTableRecord
100
AcDbBlockTableRecord
  2
*D58
340
0
 70
     0
280
     1
281
     0
  0
BLOCK_RECORD
  5
39A1
330
1
100
AcDbSymbolTableRecord
100
AcDbBlockTableRecord
  2
*D59
340
0
 70
     0
280
     1
281
     0
  0
BLOCK_RECORD
  5
39B1
330
1
100
AcDbSymbolTableRecord
100
AcDbBlockTableRecord
  2
*D60
340
0
 70
     0
280
     1
281
     0
  0
BLOCK_RECORD
  5
39C1
330
1
100
AcDbSymbolTableRecord
100
AcDbBlockTableRecord
  2
*D61
340
0
 70
     0
280
     1
281
     0
  0
BLOCK_RECORD
  5
39D7
330
1
100
AcDbSymbolTableRecord
100
AcDbBlockTableRecord
  2
*D62
340
0
 70
     0
280
     1
281
     0
  0
BLOCK_RECORD
  5
3A67
330
1
100
AcDbSymbolTableRecord
100
AcDbBlockTableRecord
  2
*D63
340
0
 70
     0
280
     1
281
     0
  0
BLOCK_RECORD
  5
3A74
330
1
100
AcDbSymbolTableRecord
100
AcDbBlockTableRecord
  2
*D64
340
0
 70
     0
280
     1
281
     0
  0
BLOCK_RECORD
  5
3A81
330
1
100
AcDbSymbolTableRecord
100
AcDbBlockTableRecord
  2
*D65
340
0
 70
     0
280
     1
281
     0
  0
BLOCK_RECORD
  5
3A8E
330
1
100
AcDbSymbolTableRecord
100
AcDbBlockTableRecord
  2
*D66
340
0
 70
     0
280
     1
281
     0
  0
BLOCK_RECORD
  5
3A9B
330
1
100
AcDbSymbolTableRecord
100
AcDbBlockTableRecord
  2
*D67
340
0
 70
     0
280
     1
281
     0
  0
BLOCK_RECORD
  5
3AA8
330
1
100
AcDbSymbolTableRecord
100
AcDbBlockTableRecord
  2
*D68
340
0
 70
     0
280
     1
281
     0
  0
BLOCK_RECORD
  5
3AB5
330
1
100
AcDbSymbolTableRecord
100
AcDbBlockTableRecord
  2
*D69
340
0
 70
     0
280
     1
281
     0
  0
BLOCK_RECORD
  5
3B34
330
1
100
AcDbSymbolTableRecord
100
AcDbBlockTableRecord
  2
*D70
340
0
 70
     0
280
     1
281
     0
  0
BLOCK_RECORD
  5
3B44
330
1
100
AcDbSymbolTableRecord
100
AcDbBlockTableRecord
  2
*D71
340
0
 70
     0
280
     1
281
     0
  0
BLOCK_RECORD
  5
3B54
330
1
100
AcDbSymbolTableRecord
100
AcDbBlockTableRecord
  2
*D72
340
0
 70
     0
280
     1
281
     0
  0
BLOCK_RECORD
  5
3B64
330
1
100
AcDbSymbolTableRecord
100
AcDbBlockTableRecord
  2
*D73
340
0
 70
     0
280
     1
281
     0
  0
BLOCK_RECORD
  5
3B74
330
1
100
AcDbSymbolTableRecord
100
AcDbBlockTableRecord
  2
*D74
340
0
 70
     0
280
     1
281
     0
  0
BLOCK_RECORD
  5
3B84
330
1
100
AcDbSymbolTableRecord
100
AcDbBlockTableRecord
  2
*D75
340
0
 70
     0
280
     1
281
     0
  0
BLOCK_RECORD
  5
3B9A
330
1
100
AcDbSymbolTableRecord
100
AcDbBlockTableRecord
  2
*D76
340
0
 70
     0
280
     1
281
     0
  0
BLOCK_RECORD
  5
3C2A
330
1
100
AcDbSymbolTableRecord
100
AcDbBlockTableRecord
  2
*D77
340
0
 70
     0
280
     1
281
     0
  0
BLOCK_RECORD
  5
3C37
330
1
100
AcDbSymbolTableRecord
100
AcDbBlockTableRecord
  2
*D78
340
0
 70
     0
280
     1
281
     0
  0
BLOCK_RECORD
  5
3C44
330
1
100
AcDbSymbolTableRecord
100
AcDbBlockTableRecord
  2
*D79
340
0
 70
     0
280
     1
281
     0
  0
BLOCK_RECORD
  5
3C51
330
1
100
AcDbSymbolTableRecord
100
AcDbBlockTableRecord
  2
*D80
340
0
 70
     0
280
     1
281
     0
  0
BLOCK_RECORD
  5
3C5E
330
1
100
AcDbSymbolTableRecord
100
AcDbBlockTableRecord
  2
*D81
340
0
 70
     0
280
     1
281
     0
  0
BLOCK_RECORD
  5
3C6B
330
1
100
AcDbSymbolTableRecord
100
AcDbBlockTableRecord
  2
*D82
340
0
 70
     0
280
     1
281
     0
  0
BLOCK_RECORD
  5
3C78
330
1
100
AcDbSymbolTableRecord
100
AcDbBlockTableRecord
  2
*D83
340
0
 70
     0
280
     1
281
     0
  0
BLOCK_RECORD
  5
3CFB
330
1
100
AcDbSymbolTableRecord
100
AcDbBlockTableRecord
  2
*D84
340
0
 70
     0
280
     1
281
     0
  0
BLOCK_RECORD
  5
3D0B
330
1
100
AcDbSymbolTableRecord
100
AcDbBlockTableRecord
  2
*D85
340
0
 70
     0
280
     1
281
     0
  0
BLOCK_RECORD
  5
3D1B
330
1
100
AcDbSymbolTableRecord
100
AcDbBlockTableRecord
  2
*D86
340
0
 70
     0
280
     1
281
     0
  0
BLOCK_RECORD
  5
3D2B
330
1
100
AcDbSymbolTableRecord
100
AcDbBlockTableRecord
  2
*D87
340
0
 70
     0
280
     1
281
     0
  0
BLOCK_RECORD
  5
3D3B
330
1
100
AcDbSymbolTableRecord
100
AcDbBlockTableRecord
  2
*D88
340
0
 70
     0
280
     1
281
     0
  0
BLOCK_RECORD
  5
3D4B
330
1
100
AcDbSymbolTableRecord
100
AcDbBlockTableRecord
  2
*D89
340
0
 70
     0
280
     1
281
     0
  0
BLOCK_RECORD
  5
3D61
330
1
100
AcDbSymbolTableRecord
100
AcDbBlockTableRecord
  2
*D90
340
0
 70
     0
280
     1
281
     0
  0
BLOCK_RECORD
  5
3DF1
330
1
100
AcDbSymbolTableRecord
100
AcDbBlockTableRecord
  2
*D91
340
0
 70
     0
280
     1
281
     0
  0
BLOCK_RECORD
  5
3DFE
330
1
100
AcDbSymbolTableRecord
100
AcDbBlockTableRecord
  2
*D92
340
0
 70
     0
280
     1
281
     0
  0
BLOCK_RECORD
  5
3E0B
330
1
100
AcDbSymbolTableRecord
100
AcDbBlockTableRecord
  2
*D93
340
0
 70
     0
280
     1
281
     0
  0
BLOCK_RECORD
  5
3E18
330
1
100
AcDbSymbolTableRecord
100
AcDbBlockTableRecord
  2
*D94
340
0
 70
     0
280
     1
281
     0
  0
BLOCK_RECORD
  5
3E25
330
1
100
AcDbSymbolTableRecord
100
AcDbBlockTableRecord
  2
*D95
340
0
 70
     0
280
     1
281
     0
  0
BLOCK_RECORD
  5
3E32
330
1
100
AcDbSymbolTableRecord
100
AcDbBlockTableRecord
  2
*D96
340
0
 70
     0
280
     1
281
     0
  0
BLOCK_RECORD
  5
3E3F
330
1
100
AcDbSymbolTableRecord
100
AcDbBlockTableRecord
  2
*D97
340
0
 70
     0
280
     1
281
     0
  0
ENDTAB
  0
ENDSEC
  0
SECTION
  2
BLOCKS
  0
BLOCK
  5
20
330
1F
100
AcDbEntity
  8
0
100
AcDbBlockBegin
  2
*Model_Space
 70
     0
 10
0.0
 20
0.0
 30
0.0
  3
*Model_Space
  1
*Model_Space
  0
ENDBLK
  5
21
330
1F
100
AcDbEntity
  8
0
100
AcDbBlockEnd
  0
BLOCK
  5
1C
330
1B
100
AcDbEntity
 67
     1
  8
0
100
AcDbBlockBegin
  2
*Paper_Space
 70
     0
 10
0.0
 20
0.0
 30
0.0
  3
*Paper_Space
  1
*Paper_Space
  0
ENDBLK
  5
1D
330
1B
100
AcDbEntity
 67
     1
  8
0
100
AcDbBlockEnd
  0
BLOCK
  5
24
330
23
100
AcDbEntity
  8
0
100
AcDbBlockBegin
  2
*Paper_Space0
 70
     0
 10
0.0
 20
0.0
 30
0.0
  3
*Paper_Space0
  1
*Paper_Space0
  0
ENDBLK
  5
25
330
23
100
AcDbEntity
  8
0
100
AcDbBlockEnd
  0
BLOCK
  5
A92
330
A91
100
AcDbEntity
  8
0
100
AcDbBlockBegin
  2
_OPEN
 70
     0
 10
0.0
 20
0.0
 30
0.0
  3
_OPEN
  1
_OPEN
  0
LINE
  5
A93
330
A91
100
AcDbEntity
  8
0
  6
ByBlock
 62
     0
100
AcDbLine
 10
-1.0
 20
0.1666666666666667
 30
0.0
 11
0.0
 21
0.0
 31
0.0
  0
LINE
  5
A94
330
A91
100
AcDbEntity
  8
0
  6
ByBlock
 62
     0
100
AcDbLine
 10
0.0
 20
0.0
 30
0.0
 11
-1.0
 21
-0.1666666666666667
 31
0.0
  0
LINE
  5
A95
330
A91
100
AcDbEntity
  8
0
  6
ByBlock
 62
     0
100
AcDbLine
 10
0.0
 20
0.0
 30
0.0
 11
-1.0
 21
0.0
 31
0.0
  0
ENDBLK
  5
A96
330
A91
100
AcDbEntity
  8
0
100
AcDbBlockEnd
  0
BLOCK
  5
245F
330
245E
100
AcDbEntity
  8
0
100
AcDbBlockBegin
  2
*D2
 70
     1
 10
0.0
 20
0.0
 30
0.0
  3
*D2
  1
*D217
  0
LINE
  5
2461
330
245E
100
AcDbEntity
  8
寸法
  6
Continuous
 62
     0
370
    -2
100
AcDbLine
 10
219.8855435101199
 20
120.9796652516882
 30
0.0
 11
230.9113835101198
 21
120.9796652516882
 31
0.0
  0
LINE
  5
2462
330
245E
100
AcDbEntity
  8
寸法
  6
Continuous
 62
     0
370
    -2
100
AcDbLine
 10
220.4855435101199
 20
102.9796652516883
 30
0.0
 11
230.9113835101198
 21
102.9796652516883
 31
0.0
  0
LINE
  5
2463
330
245E
100
AcDbEntity
  8
寸法
  6
Continuous
 62
     0
370
    -2
100
AcDbLine
 10
229.6613835101198
 20
119.4796652516882
 30
0.0
 11
229.6613835101198
 21
113.8546652516882
 31
0.0
  0
LINE
  5
2464
330
245E
100
AcDbEntity
  8
寸法
  6
Continuous
 62
     0
370
    -2
100
AcDbLine
 10
229.6613835101198
 20
104.4796652516883
 30
0.0
 11
229.6613835101198
 21
110.1046652516882
 31
0.0
  0
SOLID
  5
2465
330
245E
100
AcDbEntity
  8
寸法
 62
     0
100
AcDbTrace
 10
229.9113835101198
 20
119.4796652516882
 30
0.0
 11
229.4113835101198
 21
119.4796652516882
 31
0.0
 12
229.6613835101198
 22
120.9796652516882
 32
0.0
 13
229.6613835101198
 23
120.9796652516882
 33
0.0
  0
SOLID
  5
2466
330
245E
100
AcDbEntity
  8
寸法
 62
     0
100
AcDbTrace
 10
229.4113835101198
 20
104.4796652516883
 30
0.0
 11
229.9113835101198
 21
104.4796652516883
 31
0.0
 12
229.6613835101198
 22
102.9796652516883
 32
0.0
 13
229.6613835101198
 23
102.9796652516883
 33
0.0
  0
MTEXT
  5
2467
330
245E
100
AcDbEntity
  8
寸法
  6
Continuous
 62
     0
100
AcDbMText
 10
229.6613835101198
 20
111.9796652516882
 30
0.0
 40
2.5
 41
0.0
 46
0.0
 71
     5
 72
     1
  1
18
 73
     1
 44
1.0
  0
POINT
  5
2468
330
245E
100
AcDbEntity
  8
Defpoints
 62
     0
100
AcDbPoint
 10
219.2605435101199
 20
120.9796652516882
 30
0.0
  0
POINT
  5
2469
330
245E
100
AcDbEntity
  8
Defpoints
 62
     0
100
AcDbPoint
 10
219.8605435101199
 20
102.9796652516883
 30
0.0
  0
POINT
  5
2E62
330
245E
100
AcDbEntity
  8
Defpoints
 62
     0
100
AcDbPoint
 10
229.6613835101198
 20
102.9796652516883
 30
0.0
  0
ENDBLK
  5
2460
330
245E
100
AcDbEntity
  8
0
100
AcDbBlockEnd
  0
BLOCK
  5
246F
330
246E
100
AcDbEntity
  8
0
100
AcDbBlockBegin
  2
*D3
 70
     1
 10
0.0
 20
0.0
 30
0.0
  3
*D3
  1
*D218
  0
LINE
  5
2471
330
246E
100
AcDbEntity
  8
寸法
  6
Continuous
 62
     0
370
    -2
100
AcDbLine
 10
177.8605435101199
 20
102.3546652516883
 30
0.0
 11
177.8605435101199
 21
86.78904000000006
 31
0.0
  0
LINE
  5
2472
330
246E
100
AcDbEntity
  8
寸法
  6
Continuous
 62
     0
370
    -2
100
AcDbLine
 10
219.8605435101199
 20
102.3546652516883
 30
0.0
 11
219.8605435101199
 21
86.78904000000006
 31
0.0
  0
LINE
  5
2473
330
246E
100
AcDbEntity
  8
寸法
  6
Continuous
 62
     0
370
    -2
100
AcDbLine
 10
179.3605435101199
 20
88.03904000000006
 30
0.0
 11
218.3605435101199
 21
88.03904000000006
 31
0.0
  0
LINE
  5
2474
330
246E
100
AcDbEntity
  8
寸法
  6
Continuous
 62
     0
370
    -2
100
AcDbLine
 10
218.3605435101199
 20
88.03904000000006
 30
0.0
 11
179.3605435101199
 21
88.03904000000006
 31
0.0
  0
SOLID
  5
2475
330
246E
100
AcDbEntity
  8
寸法
 62
     0
100
AcDbTrace
 10
179.3605435101199
 20
88.28904000000006
 30
0.0
 11
179.3605435101199
 21
87.78904000000006
 31
0.0
 12
177.8605435101199
 22
88.03904000000006
 32
0.0
 13
177.8605435101199
 23
88.03904000000006
 33
0.0
  0
SOLID
  5
2476
330
246E
100
AcDbEntity
  8
寸法
 62
     0
100
AcDbTrace
 10
218.3605435101199
 20
87.78904000000006
 30
0.0
 11
218.3605435101199
 21
88.28904000000006
 31
0.0
 12
219.8605435101199
 22
88.03904000000006
 32
0.0
 13
219.8605435101199
 23
88.03904000000006
 33
0.0
  0
MTEXT
  5
2477
330
246E
100
AcDbEntity
  8
寸法
  6
Continuous
 62
     0
100
AcDbMText
 10
199.1365323101199
 20
84.04544000000004
 30
0.0
 40
2.5
 41
0.0
 46
0.0
 71
     5
 72
     1
  1
42
 73
     1
 44
1.0
  0
POINT
  5
2478
330
246E
100
AcDbEntity
  8
Defpoints
 62
     0
100
AcDbPoint
 10
177.8605435101199
 20
102.9796652516883
 30
0.0
  0
POINT
  5
2479
330
246E
100
AcDbEntity
  8
Defpoints
 62
     0
100
AcDbPoint
 10
219.8605435101199
 20
102.9796652516883
 30
0.0
  0
POINT
  5
383B
330
246E
100
AcDbEntity
  8
Defpoints
 62
     0
100
AcDbPoint
 10
219.8605435101199
 20
88.03904000000006
 30
0.0
  0
ENDBLK
  5
2470
330
246E
100
AcDbEntity
  8
0
100
AcDbBlockEnd
  0
BLOCK
  5
248F
330
248E
100
AcDbEntity
  8
0
100
AcDbBlockBegin
  2
*D4
 70
     1
 10
0.0
 20
0.0
 30
0.0
  3
*D4
  1
*D220
  0
LINE
  5
2491
330
248E
100
AcDbEntity
  8
寸法
  6
Continuous
 62
     0
370
    -2
100
AcDbLine
 10
169.8605435101199
 20
119.6046652516883
 30
0.0
 11
169.8605435101199
 21
148.8421083960179
 31
0.0
  0
LINE
  5
2492
330
248E
100
AcDbEntity
  8
寸法
  6
Continuous
 62
     0
370
    -2
100
AcDbLine
 10
220.2605435101199
 20
119.2046652516883
 30
0.0
 11
220.2605435101199
 21
148.8421083960179
 31
0.0
  0
LINE
  5
2493
330
248E
100
AcDbEntity
  8
寸法
  6
Continuous
 62
     0
370
    -2
100
AcDbLine
 10
171.3605435101199
 20
147.5921083960179
 30
0.0
 11
193.6972739439972
 21
147.5921083960179
 31
0.0
  0
LINE
  5
2494
330
248E
100
AcDbEntity
  8
寸法
  6
Continuous
 62
     0
370
    -2
100
AcDbLine
 10
218.7605435101199
 20
147.5921083960179
 30
0.0
 11
202.0306072773305
 21
147.5921083960179
 31
0.0
  0
SOLID
  5
2495
330
248E
100
AcDbEntity
  8
寸法
 62
     0
100
AcDbTrace
 10
171.3605435101199
 20
147.8421083960179
 30
0.0
 11
171.3605435101199
 21
147.3421083960179
 31
0.0
 12
169.8605435101199
 22
147.5921083960179
 32
0.0
 13
169.8605435101199
 23
147.5921083960179
 33
0.0
  0
SOLID
  5
2496
330
248E
100
AcDbEntity
  8
寸法
 62
     0
100
AcDbTrace
 10
218.7605435101199
 20
147.3421083960179
 30
0.0
 11
218.7605435101199
 21
147.8421083960179
 31
0.0
 12
220.2605435101199
 22
147.5921083960179
 32
0.0
 13
220.2605435101199
 23
147.5921083960179
 33
0.0
  0
MTEXT
  5
2497
330
248E
100
AcDbEntity
  8
寸法
  6
Continuous
 62
     0
100
AcDbMText
 10
197.8639406106639
 20
147.5921083960179
 30
0.0
 40
2.5
 41
0.0
 46
0.0
 71
     5
 72
     1
  1
50.4
 73
     1
 44
1.0
  0
POINT
  5
2498
330
248E
100
AcDbEntity
  8
Defpoints
 62
     0
100
AcDbPoint
 10
169.8605435101199
 20
118.9796652516883
 30
0.0
  0
POINT
  5
2499
330
248E
100
AcDbEntity
  8
Defpoints
 62
     0
100
AcDbPoint
 10
220.2605435101199
 20
118.5796652516883
 30
0.0
  0
POINT
  5
2CF0
330
248E
100
AcDbEntity
  8
Defpoints
 62
     0
100
AcDbPoint
 10
220.2605435101199
 20
147.5921083960179
 30
0.0
  0
ENDBLK
  5
2490
330
248E
100
AcDbEntity
  8
0
100
AcDbBlockEnd
  0
BLOCK
  5
249F
330
249E
100
AcDbEntity
  8
0
100
AcDbBlockBegin
  2
*D5
 70
     1
 10
0.0
 20
0.0
 30
0.0
  3
*D5
  1
*D221
  0
LINE
  5
24A1
330
249E
100
AcDbEntity
  8
寸法
  6
Continuous
 62
     0
370
    -2
100
AcDbLine
 10
169.8605435101199
 20
119.6046652516883
 30
0.0
 11
169.8605435101199
 21
140.6507997040348
 31
0.0
  0
LINE
  5
24A2
330
249E
100
AcDbEntity
  8
寸法
  6
Continuous
 62
     0
370
    -2
100
AcDbLine
 10
219.8605435101199
 20
119.6046652516883
 30
0.0
 11
219.8605435101199
 21
140.6507997040348
 31
0.0
  0
LINE
  5
24A3
330
249E
100
AcDbEntity
  8
寸法
  6
Continuous
 62
     0
370
    -2
100
AcDbLine
 10
171.3605435101199
 20
139.4007997040348
 30
0.0
 11
195.0992263706638
 21
139.4007997040348
 31
0.0
  0
LINE
  5
24A4
330
249E
100
AcDbEntity
  8
寸法
  6
Continuous
 62
     0
370
    -2
100
AcDbLine
 10
218.3605435101199
 20
139.4007997040348
 30
0.0
 11
200.0992263706638
 21
139.4007997040348
 31
0.0
  0
SOLID
  5
24A5
330
249E
100
AcDbEntity
  8
寸法
 62
     0
100
AcDbTrace
 10
171.3605435101199
 20
139.6507997040348
 30
0.0
 11
171.3605435101199
 21
139.1507997040348
 31
0.0
 12
169.8605435101199
 22
139.4007997040348
 32
0.0
 13
169.8605435101199
 23
139.4007997040348
 33
0.0
  0
SOLID
  5
24A6
330
249E
100
AcDbEntity
  8
寸法
 62
     0
100
AcDbTrace
 10
218.3605435101199
 20
139.1507997040348
 30
0.0
 11
218.3605435101199
 21
139.6507997040348
 31
0.0
 12
219.8605435101199
 22
139.4007997040348
 32
0.0
 13
219.8605435101199
 23
139.4007997040348
 33
0.0
  0
MTEXT
  5
24A7
330
249E
100
AcDbEntity
  8
寸法
  6
Continuous
 62
     0
100
AcDbMText
 10
197.5992263706638
 20
139.4007997040348
 30
0.0
 40
2.5
 41
0.0
 46
0.0
 71
     5
 72
     1
  1
50
 73
     1
 44
1.0
  0
POINT
  5
24A8
330
249E
100
AcDbEntity
  8
Defpoints
 62
     0
100
AcDbPoint
 10
169.8605435101199
 20
118.9796652516883
 30
0.0
  0
POINT
  5
24A9
330
249E
100
AcDbEntity
  8
Defpoints
 62
     0
100
AcDbPoint
 10
219.8605435101199
 20
118.9796652516883
 30
0.0
  0
POINT
  5
2CF2
330
249E
100
AcDbEntity
  8
Defpoints
 62
     0
100
AcDbPoint
 10
219.8605435101199
 20
139.4007997040348
 30
0.0
  0
ENDBLK
  5
24A0
330
249E
100
AcDbEntity
  8
0
100
AcDbBlockEnd
  0
BLOCK
  5
24AF
330
24AE
100
AcDbEntity
  8
0
100
AcDbBlockBegin
  2
*D6
 70
     1
 10
0.0
 20
0.0
 30
0.0
  3
*D6
  1
*D222
  0
LINE
  5
24B1
330
24AE
100
AcDbEntity
  8
寸法
  6
Continuous
 62
     0
370
    -2
100
AcDbLine
 10
169.8605435101199
 20
102.4292023857682
 30
0.0
 11
169.8605435101199
 21
86.86357713408
 31
0.0
  0
LINE
  5
24B2
330
24AE
100
AcDbEntity
  8
寸法
  6
Continuous
 62
     0
370
    -2
100
AcDbLine
 10
173.8605435101199
 20
102.3546652516882
 30
0.0
 11
173.8605435101199
 21
86.86357713408
 31
0.0
  0
LINE
  5
24B3
330
24AE
100
AcDbEntity
  8
寸法
  6
Continuous
 62
     0
370
    -2
100
AcDbLine
 10
168.3605435101199
 20
88.11357713408
 30
0.0
 11
166.8605435101199
 21
88.11357713408
 31
0.0
  0
LINE
  5
24B4
330
24AE
100
AcDbEntity
  8
寸法
  6
Continuous
 62
     0
370
    -2
100
AcDbLine
 10
175.3605435101199
 20
88.11357713408
 30
0.0
 11
176.8605435101199
 21
88.11357713408
 31
0.0
  0
SOLID
  5
24B5
330
24AE
100
AcDbEntity
  8
寸法
 62
     0
100
AcDbTrace
 10
168.3605435101199
 20
87.86357713408
 30
0.0
 11
168.3605435101199
 21
88.36357713408
 31
0.0
 12
169.8605435101199
 22
88.11357713408
 32
0.0
 13
169.8605435101199
 23
88.11357713408
 33
0.0
  0
SOLID
  5
24B6
330
24AE
100
AcDbEntity
  8
寸法
 62
     0
100
AcDbTrace
 10
175.3605435101199
 20
88.36357713408
 30
0.0
 11
175.3605435101199
 21
87.86357713408
 31
0.0
 12
173.8605435101199
 22
88.11357713408
 32
0.0
 13
173.8605435101199
 23
88.11357713408
 33
0.0
  0
MTEXT
  5
24B7
330
24AE
100
AcDbEntity
  8
寸法
  6
Continuous
 62
     0
100
AcDbMText
 10
170.5373541402639
 20
83.65917713407998
 30
0.0
 40
2.5
 41
0.0
 46
0.0
 71
     5
 72
     1
  1
4
 73
     1
 44
1.0
  0
POINT
  5
24B8
330
24AE
100
AcDbEntity
  8
Defpoints
 62
     0
100
AcDbPoint
 10
169.8605435101199
 20
103.0542023857682
 30
0.0
  0
POINT
  5
24B9
330
24AE
100
AcDbEntity
  8
Defpoints
 62
     0
100
AcDbPoint
 10
173.8605435101199
 20
102.9796652516882
 30
0.0
  0
POINT
  5
24BA
330
24AE
100
AcDbEntity
  8
Defpoints
 62
     0
100
AcDbPoint
 10
173.8605435101199
 20
88.11357713408
 30
0.0
  0
ENDBLK
  5
24B0
330
24AE
100
AcDbEntity
  8
0
100
AcDbBlockEnd
  0
BLOCK
  5
24BF
330
24BE
100
AcDbEntity
  8
0
100
AcDbBlockBegin
  2
*D7
 70
     1
 10
0.0
 20
0.0
 30
0.0
  3
*D7
  1
*D223
  0
LINE
  5
24C1
330
24BE
100
AcDbEntity
  8
寸法
  6
Continuous
 62
     0
370
    -2
100
AcDbLine
 10
173.8605435101199
 20
102.3546652516882
 30
0.0
 11
173.8605435101199
 21
86.78904000000006
 31
0.0
  0
LINE
  5
24C2
330
24BE
100
AcDbEntity
  8
寸法
  6
Continuous
 62
     0
370
    -2
100
AcDbLine
 10
177.8605435101199
 20
102.3546652516883
 30
0.0
 11
177.8605435101199
 21
86.78904000000006
 31
0.0
  0
LINE
  5
24C3
330
24BE
100
AcDbEntity
  8
寸法
  6
Continuous
 62
     0
370
    -2
100
AcDbLine
 10
172.3605435101199
 20
88.03904000000006
 30
0.0
 11
170.8605435101199
 21
88.03904000000006
 31
0.0
  0
LINE
  5
24C4
330
24BE
100
AcDbEntity
  8
寸法
  6
Continuous
 62
     0
370
    -2
100
AcDbLine
 10
179.3605435101199
 20
88.03904000000006
 30
0.0
 11
180.8605435101199
 21
88.03904000000006
 31
0.0
  0
SOLID
  5
24C5
330
24BE
100
AcDbEntity
  8
寸法
 62
     0
100
AcDbTrace
 10
172.3605435101199
 20
87.78904000000006
 30
0.0
 11
172.3605435101199
 21
88.28904000000006
 31
0.0
 12
173.8605435101199
 22
88.03904000000006
 32
0.0
 13
173.8605435101199
 23
88.03904000000006
 33
0.0
  0
SOLID
  5
24C6
330
24BE
100
AcDbEntity
  8
寸法
 62
     0
100
AcDbTrace
 10
179.3605435101199
 20
88.28904000000006
 30
0.0
 11
179.3605435101199
 21
87.78904000000006
 31
0.0
 12
177.8605435101199
 22
88.03904000000006
 32
0.0
 13
177.8605435101199
 23
88.03904000000006
 33
0.0
  0
MTEXT
  5
24C7
330
24BE
100
AcDbEntity
  8
寸法
  6
Continuous
 62
     0
100
AcDbMText
 10
175.9718715224078
 20
83.43104
 30
0.0
 40
2.5
 41
0.0
 46
0.0
 71
     5
 72
     1
  1
4
 73
     1
 44
1.0
  0
POINT
  5
24C8
330
24BE
100
AcDbEntity
  8
Defpoints
 62
     0
100
AcDbPoint
 10
173.8605435101199
 20
102.9796652516882
 30
0.0
  0
POINT
  5
24C9
330
24BE
100
AcDbEntity
  8
Defpoints
 62
     0
100
AcDbPoint
 10
177.8605435101199
 20
102.9796652516883
 30
0.0
  0
POINT
  5
24CA
330
24BE
100
AcDbEntity
  8
Defpoints
 62
     0
100
AcDbPoint
 10
177.8605435101199
 20
88.03904000000006
 30
0.0
  0
ENDBLK
  5
24C0
330
24BE
100
AcDbEntity
  8
0
100
AcDbBlockEnd
  0
BLOCK
  5
24E0
330
24DF
100
AcDbEntity
  8
0
100
AcDbBlockBegin
  2
*D8
 70
     1
 10
0.0
 20
0.0
 30
0.0
  3
*D8
  1
*D225
  0
LINE
  5
24E2
330
24DF
100
AcDbEntity
  8
寸法
  6
Continuous
 62
     0
370
    -2
100
AcDbLine
 10
170.8125160511505
 20
120.9796652516882
 30
0.0
 11
160.6901494042638
 21
120.9796652516882
 31
0.0
  0
LINE
  5
24E3
330
24DF
100
AcDbEntity
  8
寸法
  6
Continuous
 62
     0
370
    -2
100
AcDbLine
 10
169.2355435101199
 20
106.9796652516883
 30
0.0
 11
160.6901494042638
 21
106.9796652516883
 31
0.0
  0
LINE
  5
24E4
330
24DF
100
AcDbEntity
  8
寸法
  6
Continuous
 62
     0
370
    -2
100
AcDbLine
 10
161.9401494042638
 20
119.4796652516882
 30
0.0
 11
161.9401494042638
 21
116.6328360884222
 31
0.0
  0
LINE
  5
24E5
330
24DF
100
AcDbEntity
  8
寸法
  6
Continuous
 62
     0
370
    -2
100
AcDbLine
 10
161.9401494042638
 20
108.4796652516883
 30
0.0
 11
161.9401494042638
 21
112.8828360884222
 31
0.0
  0
SOLID
  5
24E6
330
24DF
100
AcDbEntity
  8
寸法
 62
     0
100
AcDbTrace
 10
162.1901494042638
 20
119.4796652516882
 30
0.0
 11
161.6901494042638
 21
119.4796652516882
 31
0.0
 12
161.9401494042638
 22
120.9796652516882
 32
0.0
 13
161.9401494042638
 23
120.9796652516882
 33
0.0
  0
SOLID
  5
24E7
330
24DF
100
AcDbEntity
  8
寸法
 62
     0
100
AcDbTrace
 10
161.6901494042638
 20
108.4796652516883
 30
0.0
 11
162.1901494042638
 21
108.4796652516883
 31
0.0
 12
161.9401494042638
 22
106.9796652516883
 32
0.0
 13
161.9401494042638
 23
106.9796652516883
 33
0.0
  0
MTEXT
  5
24E8
330
24DF
100
AcDbEntity
  8
寸法
  6
Continuous
 62
     0
100
AcDbMText
 10
161.9401494042638
 20
114.7578360884222
 30
0.0
 40
2.5
 41
0.0
 46
0.0
 71
     5
 72
     1
  1
14
 73
     1
 44
1.0
  0
POINT
  5
24E9
330
24DF
100
AcDbEntity
  8
Defpoints
 62
     0
100
AcDbPoint
 10
171.4375160511505
 20
120.9796652516882
 30
0.0
  0
POINT
  5
24EA
330
24DF
100
AcDbEntity
  8
Defpoints
 62
     0
100
AcDbPoint
 10
169.8605435101199
 20
106.9796652516883
 30
0.0
  0
POINT
  5
2E5E
330
24DF
100
AcDbEntity
  8
Defpoints
 62
     0
100
AcDbPoint
 10
161.9401494042638
 20
106.9796652516883
 30
0.0
  0
ENDBLK
  5
24E1
330
24DF
100
AcDbEntity
  8
0
100
AcDbBlockEnd
  0
BLOCK
  5
24F0
330
24EF
100
AcDbEntity
  8
0
100
AcDbBlockBegin
  2
*D9
 70
     1
 10
0.0
 20
0.0
 30
0.0
  3
*D9
  1
*D226
  0
LINE
  5
24F2
330
24EF
100
AcDbEntity
  8
寸法
  6
Continuous
 62
     0
370
    -2
100
AcDbLine
 10
169.2355435101199
 20
106.9796652516883
 30
0.0
 11
160.6901494042638
 21
106.9796652516883
 31
0.0
  0
LINE
  5
24F3
330
24EF
100
AcDbEntity
  8
寸法
  6
Continuous
 62
     0
370
    -2
100
AcDbLine
 10
169.2355435101199
 20
102.9796652516883
 30
0.0
 11
160.6901494042638
 21
102.9796652516883
 31
0.0
  0
LINE
  5
24F4
330
24EF
100
AcDbEntity
  8
寸法
  6
Continuous
 62
     0
370
    -2
100
AcDbLine
 10
161.9401494042638
 20
108.4796652516883
 30
0.0
 11
161.9401494042638
 21
109.9796652516883
 31
0.0
  0
LINE
  5
24F5
330
24EF
100
AcDbEntity
  8
寸法
  6
Continuous
 62
     0
370
    -2
100
AcDbLine
 10
161.9401494042638
 20
101.4796652516883
 30
0.0
 11
161.9401494042638
 21
99.9796652516883
 31
0.0
  0
SOLID
  5
24F6
330
24EF
100
AcDbEntity
  8
寸法
 62
     0
100
AcDbTrace
 10
161.6901494042638
 20
108.4796652516883
 30
0.0
 11
162.1901494042638
 21
108.4796652516883
 31
0.0
 12
161.9401494042638
 22
106.9796652516883
 32
0.0
 13
161.9401494042638
 23
106.9796652516883
 33
0.0
  0
SOLID
  5
24F7
330
24EF
100
AcDbEntity
  8
寸法
 62
     0
100
AcDbTrace
 10
162.1901494042638
 20
101.4796652516883
 30
0.0
 11
161.6901494042638
 21
101.4796652516883
 31
0.0
 12
161.9401494042638
 22
102.9796652516883
 32
0.0
 13
161.9401494042638
 23
102.9796652516883
 33
0.0
  0
MTEXT
  5
24F8
330
24EF
100
AcDbEntity
  8
寸法
  6
Continuous
 62
     0
100
AcDbMText
 10
158.4316018133447
 20
105.0178207445136
 30
0.0
 40
2.5
 41
0.0
 46
0.0
 71
     5
 72
     1
  1
4
 73
     1
 44
1.0
  0
POINT
  5
24F9
330
24EF
100
AcDbEntity
  8
Defpoints
 62
     0
100
AcDbPoint
 10
169.8605435101199
 20
106.9796652516883
 30
0.0
  0
POINT
  5
24FA
330
24EF
100
AcDbEntity
  8
Defpoints
 62
     0
100
AcDbPoint
 10
169.8605435101199
 20
102.9796652516883
 30
0.0
  0
POINT
  5
24FB
330
24EF
100
AcDbEntity
  8
Defpoints
 62
     0
100
AcDbPoint
 10
161.9401494042638
 20
102.9796652516883
 30
0.0
  0
ENDBLK
  5
24F1
330
24EF
100
AcDbEntity
  8
0
100
AcDbBlockEnd
  0
BLOCK
  5
2552
330
2551
100
AcDbEntity
  8
0
100
AcDbBlockBegin
  2
*D10
 70
     1
 10
0.0
 20
0.0
 30
0.0
  3
*D10
  1
*D227
  0
LINE
  5
2554
330
2551
100
AcDbEntity
  8
寸法
  6
Continuous
 62
     0
370
    -2
100
AcDbLine
 10
70.37065742666397
 20
174.2518997745515
 30
0.0
 11
70.37065742666397
 21
185.7493729027747
 31
0.0
  0
LINE
  5
2555
330
2551
100
AcDbEntity
  8
寸法
  6
Continuous
 62
     0
370
    -2
100
AcDbLine
 10
120.770657426664
 20
174.3986594672401
 30
0.0
 11
120.770657426664
 21
185.7493729027747
 31
0.0
  0
LINE
  5
2556
330
2551
100
AcDbEntity
  8
寸法
  6
Continuous
 62
     0
370
    -2
100
AcDbLine
 10
71.87065742666397
 20
184.4993729027747
 30
0.0
 11
119.270657426664
 21
184.4993729027747
 31
0.0
  0
SOLID
  5
2557
330
2551
100
AcDbEntity
  8
寸法
 62
     0
100
AcDbTrace
 10
71.87065742666397
 20
184.7493729027747
 30
0.0
 11
71.87065742666397
 21
184.2493729027747
 31
0.0
 12
70.37065742666397
 22
184.4993729027747
 32
0.0
 13
70.37065742666397
 23
184.4993729027747
 33
0.0
  0
SOLID
  5
2558
330
2551
100
AcDbEntity
  8
寸法
 62
     0
100
AcDbTrace
 10
119.270657426664
 20
184.2493729027747
 30
0.0
 11
119.270657426664
 21
184.7493729027747
 31
0.0
 12
120.770657426664
 22
184.4993729027747
 32
0.0
 13
120.770657426664
 23
184.4993729027747
 33
0.0
  0
MTEXT
  5
2559
330
2551
100
AcDbEntity
  8
寸法
  6
Continuous
 62
     0
100
AcDbMText
 10
96.67664033322924
 20
188.3757309904323
 30
0.0
 40
4.0
 41
0.0
 46
0.0
 71
     5
 72
     1
  1
25.2
 73
     1
 44
1.0
  0
POINT
  5
255A
330
2551
100
AcDbEntity
  8
Defpoints
 62
     0
100
AcDbPoint
 10
70.37065742666397
 20
173.6268997745515
 30
0.0
  0
POINT
  5
255B
330
2551
100
AcDbEntity
  8
Defpoints
 62
     0
100
AcDbPoint
 10
120.770657426664
 20
173.7736594672401
 30
0.0
  0
POINT
  5
255C
330
2551
100
AcDbEntity
  8
Defpoints
 62
     0
100
AcDbPoint
 10
120.770657426664
 20
184.4993729027747
 30
0.0
  0
ENDBLK
  5
2553
330
2551
100
AcDbEntity
  8
0
100
AcDbBlockEnd
  0
BLOCK
  5
2562
330
2561
100
AcDbEntity
  8
0
100
AcDbBlockBegin
  2
*D11
 70
     1
 10
0.0
 20
0.0
 30
0.0
  3
*D11
  1
*D228
  0
LINE
  5
2564
330
2561
100
AcDbEntity
  8
寸法
  6
Continuous
 62
     0
370
    -2
100
AcDbLine
 10
71.27060662857144
 20
175.3236594672399
 30
0.0
 11
52.23408571428572
 21
175.3236594672399
 31
0.0
  0
LINE
  5
2565
330
2561
100
AcDbEntity
  8
寸法
  6
Continuous
 62
     0
370
    -2
100
AcDbLine
 10
69.745657426664
 20
170.9236594672399
 30
0.0
 11
52.23408571428572
 21
170.9236594672399
 31
0.0
  0
LINE
  5
2566
330
2561
100
AcDbEntity
  8
寸法
  6
Continuous
 62
     0
370
    -2
100
AcDbLine
 10
53.48408571428572
 20
173.8236594672399
 30
0.0
 11
53.48408571428572
 21
172.4236594672399
 31
0.0
  0
SOLID
  5
2567
330
2561
100
AcDbEntity
  8
寸法
 62
     0
100
AcDbTrace
 10
53.73408571428572
 20
173.8236594672399
 30
0.0
 11
53.23408571428572
 21
173.8236594672399
 31
0.0
 12
53.48408571428572
 22
175.3236594672399
 32
0.0
 13
53.48408571428572
 23
175.3236594672399
 33
0.0
  0
SOLID
  5
2568
330
2561
100
AcDbEntity
  8
寸法
 62
     0
100
AcDbTrace
 10
53.23408571428572
 20
172.4236594672399
 30
0.0
 11
53.73408571428572
 21
172.4236594672399
 31
0.0
 12
53.48408571428572
 22
170.9236594672399
 32
0.0
 13
53.48408571428572
 23
170.9236594672399
 33
0.0
  0
MTEXT
  5
2569
330
2561
100
AcDbEntity
  8
寸法
  6
Continuous
 62
     0
100
AcDbMText
 10
47.90021371428571
 20
172.4699893597673
 30
0.0
 40
4.0
 41
0.0
 46
0.0
 71
     5
 72
     1
  1
2.2
 73
     1
 44
1.0
  0
POINT
  5
256A
330
2561
100
AcDbEntity
  8
Defpoints
 62
     0
100
AcDbPoint
 10
71.89560662857144
 20
175.3236594672399
 30
0.0
  0
POINT
  5
256B
330
2561
100
AcDbEntity
  8
Defpoints
 62
     0
100
AcDbPoint
 10
70.370657426664
 20
170.9236594672399
 30
0.0
  0
POINT
  5
256C
330
2561
100
AcDbEntity
  8
Defpoints
 62
     0
100
AcDbPoint
 10
53.48408571428572
 20
170.9236594672399
 30
0.0
  0
ENDBLK
  5
2563
330
2561
100
AcDbEntity
  8
0
100
AcDbBlockEnd
  0
BLOCK
  5
2572
330
2571
100
AcDbEntity
  8
0
100
AcDbBlockBegin
  2
*D12
 70
     1
 10
0.0
 20
0.0
 30
0.0
  3
*D12
  1
*D229
  0
LINE
  5
2574
330
2571
100
AcDbEntity
  8
寸法
  6
Continuous
 62
     0
370
    -2
100
AcDbLine
 10
70.745657426664
 20
175.3236594672399
 30
0.0
 11
33.11520000000002
 21
175.3236594672399
 31
0.0
  0
LINE
  5
2575
330
2571
100
AcDbEntity
  8
寸法
  6
Continuous
 62
     0
370
    -2
100
AcDbLine
 10
70.97665549325711
 20
161.3236594672399
 30
0.0
 11
33.11520000000002
 21
161.3236594672399
 31
0.0
  0
LINE
  5
2576
330
2571
100
AcDbEntity
  8
寸法
  6
Continuous
 62
     0
370
    -2
100
AcDbLine
 10
34.36520000000002
 20
173.8236594672399
 30
0.0
 11
34.36520000000002
 21
170.9486594672399
 31
0.0
  0
LINE
  5
2577
330
2571
100
AcDbEntity
  8
寸法
  6
Continuous
 62
     0
370
    -2
100
AcDbLine
 10
34.36520000000002
 20
162.8236594672399
 30
0.0
 11
34.36520000000002
 21
165.6986594672399
 31
0.0
  0
SOLID
  5
2578
330
2571
100
AcDbEntity
  8
寸法
 62
     0
100
AcDbTrace
 10
34.61520000000002
 20
173.8236594672399
 30
0.0
 11
34.11520000000002
 21
173.8236594672399
 31
0.0
 12
34.36520000000002
 22
175.3236594672399
 32
0.0
 13
34.36520000000002
 23
175.3236594672399
 33
0.0
  0
SOLID
  5
2579
330
2571
100
AcDbEntity
  8
寸法
 62
     0
100
AcDbTrace
 10
34.11520000000002
 20
162.8236594672399
 30
0.0
 11
34.61520000000002
 21
162.8236594672399
 31
0.0
 12
34.36520000000002
 22
161.3236594672399
 32
0.0
 13
34.36520000000002
 23
161.3236594672399
 33
0.0
  0
MTEXT
  5
257A
330
2571
100
AcDbEntity
  8
寸法
  6
Continuous
 62
     0
100
AcDbMText
 10
34.36520000000002
 20
168.3236594672399
 30
0.0
 40
4.0
 41
0.0
 46
0.0
 71
     5
 72
     1
  1
7
 73
     1
 44
1.0
  0
POINT
  5
257B
330
2571
100
AcDbEntity
  8
Defpoints
 62
     0
100
AcDbPoint
 10
71.370657426664
 20
175.3236594672399
 30
0.0
  0
POINT
  5
257C
330
2571
100
AcDbEntity
  8
Defpoints
 62
     0
100
AcDbPoint
 10
71.60165549325711
 20
161.3236594672399
 30
0.0
  0
POINT
  5
2EED
330
2571
100
AcDbEntity
  8
Defpoints
 62
     0
100
AcDbPoint
 10
34.36520000000002
 20
161.3236594672399
 30
0.0
  0
ENDBLK
  5
2573
330
2571
100
AcDbEntity
  8
0
100
AcDbBlockEnd
  0
BLOCK
  5
2582
330
2581
100
AcDbEntity
  8
0
100
AcDbBlockBegin
  2
*D13
 70
     1
 10
0.0
 20
0.0
 30
0.0
  3
*D13
  1
*D230
  0
LINE
  5
2584
330
2581
100
AcDbEntity
  8
寸法
  6
Continuous
 62
     0
370
    -2
100
AcDbLine
 10
70.97381766274744
 20
161.3236594672399
 30
0.0
 11
33.11520000000002
 21
161.3236594672399
 31
0.0
  0
LINE
  5
2585
330
2581
100
AcDbEntity
  8
寸法
  6
Continuous
 62
     0
370
    -2
100
AcDbLine
 10
73.745657426664
 20
157.3236594672399
 30
0.0
 11
33.11520000000002
 21
157.3236594672399
 31
0.0
  0
LINE
  5
2586
330
2581
100
AcDbEntity
  8
寸法
  6
Continuous
 62
     0
370
    -2
100
AcDbLine
 10
34.36520000000002
 20
162.8236594672399
 30
0.0
 11
34.36520000000002
 21
164.3236594672399
 31
0.0
  0
LINE
  5
2587
330
2581
100
AcDbEntity
  8
寸法
  6
Continuous
 62
     0
370
    -2
100
AcDbLine
 10
34.36520000000002
 20
155.8236594672399
 30
0.0
 11
34.36520000000002
 21
154.3236594672399
 31
0.0
  0
SOLID
  5
2588
330
2581
100
AcDbEntity
  8
寸法
 62
     0
100
AcDbTrace
 10
34.11520000000002
 20
162.8236594672399
 30
0.0
 11
34.61520000000002
 21
162.8236594672399
 31
0.0
 12
34.36520000000002
 22
161.3236594672399
 32
0.0
 13
34.36520000000002
 23
161.3236594672399
 33
0.0
  0
SOLID
  5
2589
330
2581
100
AcDbEntity
  8
寸法
 62
     0
100
AcDbTrace
 10
34.61520000000002
 20
155.8236594672399
 30
0.0
 11
34.11520000000002
 21
155.8236594672399
 31
0.0
 12
34.36520000000002
 22
157.3236594672399
 32
0.0
 13
34.36520000000002
 23
157.3236594672399
 33
0.0
  0
MTEXT
  5
258A
330
2581
100
AcDbEntity
  8
寸法
  6
Continuous
 62
     0
100
AcDbMText
 10
29.75720000000001
 20
159.60708373731
 30
0.0
 40
4.0
 41
0.0
 46
0.0
 71
     5
 72
     1
  1
2
 73
     1
 44
1.0
  0
POINT
  5
258B
330
2581
100
AcDbEntity
  8
Defpoints
 62
     0
100
AcDbPoint
 10
71.59881766274744
 20
161.3236594672399
 30
0.0
  0
POINT
  5
258C
330
2581
100
AcDbEntity
  8
Defpoints
 62
     0
100
AcDbPoint
 10
74.370657426664
 20
157.3236594672399
 30
0.0
  0
POINT
  5
258D
330
2581
100
AcDbEntity
  8
Defpoints
 62
     0
100
AcDbPoint
 10
34.36520000000002
 20
157.3236594672399
 30
0.0
  0
ENDBLK
  5
2583
330
2581
100
AcDbEntity
  8
0
100
AcDbBlockEnd
  0
BLOCK
  5
25A2
330
25A1
100
AcDbEntity
  8
0
100
AcDbBlockBegin
  2
*D14
 70
     1
 10
0.0
 20
0.0
 30
0.0
  3
*D14
  1
*D232
  0
LINE
  5
25A4
330
25A1
100
AcDbEntity
  8
寸法
  6
Continuous
 62
     0
370
    -2
100
AcDbLine
 10
78.37065742666397
 20
102.3546652516883
 30
0.0
 11
78.37065742666397
 21
91.88525368714005
 31
0.0
  0
LINE
  5
25A5
330
25A1
100
AcDbEntity
  8
寸法
  6
Continuous
 62
     0
370
    -2
100
AcDbLine
 10
120.370657426664
 20
102.3546652516883
 30
0.0
 11
120.370657426664
 21
91.88525368714005
 31
0.0
  0
LINE
  5
25A6
330
25A1
100
AcDbEntity
  8
寸法
  6
Continuous
 62
     0
370
    -2
100
AcDbLine
 10
79.87065742666397
 20
93.13525368714005
 30
0.0
 11
97.17636780779848
 21
93.13525368714005
 31
0.0
  0
LINE
  5
25A7
330
25A1
100
AcDbEntity
  8
寸法
  6
Continuous
 62
     0
370
    -2
100
AcDbLine
 10
118.870657426664
 20
93.13525368714005
 30
0.0
 11
103.7597011411318
 21
93.13525368714005
 31
0.0
  0
SOLID
  5
25A8
330
25A1
100
AcDbEntity
  8
寸法
 62
     0
100
AcDbTrace
 10
79.87065742666397
 20
93.38525368714005
 30
0.0
 11
79.87065742666397
 21
92.88525368714005
 31
0.0
 12
78.37065742666397
 22
93.13525368714005
 32
0.0
 13
78.37065742666397
 23
93.13525368714005
 33
0.0
  0
SOLID
  5
25A9
330
25A1
100
AcDbEntity
  8
寸法
 62
     0
100
AcDbTrace
 10
118.870657426664
 20
92.88525368714005
 30
0.0
 11
118.870657426664
 21
93.38525368714005
 31
0.0
 12
120.370657426664
 22
93.13525368714005
 32
0.0
 13
120.370657426664
 23
93.13525368714005
 33
0.0
  0
MTEXT
  5
25AA
330
25A1
100
AcDbEntity
  8
寸法
  6
Continuous
 62
     0
100
AcDbMText
 10
100.4680344744652
 20
93.13525368714005
 30
0.0
 40
4.0
 41
0.0
 46
0.0
 71
     5
 72
     1
  1
21
 73
     1
 44
1.0
  0
POINT
  5
25AB
330
25A1
100
AcDbEntity
  8
Defpoints
 62
     0
100
AcDbPoint
 10
78.37065742666397
 20
102.9796652516883
 30
0.0
  0
POINT
  5
25AC
330
25A1
100
AcDbEntity
  8
Defpoints
 62
     0
100
AcDbPoint
 10
120.370657426664
 20
102.9796652516883
 30
0.0
  0
POINT
  5
25AD
330
25A1
100
AcDbEntity
  8
Defpoints
 62
     0
100
AcDbPoint
 10
120.370657426664
 20
93.13525368714005
 30
0.0
  0
ENDBLK
  5
25A3
330
25A1
100
AcDbEntity
  8
0
100
AcDbBlockEnd
  0
BLOCK
  5
25B2
330
25B1
100
AcDbEntity
  8
0
100
AcDbBlockBegin
  2
*D15
 70
     1
 10
0.0
 20
0.0
 30
0.0
  3
*D15
  1
*D233
  0
LINE
  5
25B4
330
25B1
100
AcDbEntity
  8
寸法
  6
Continuous
 62
     0
370
    -2
100
AcDbLine
 10
120.995657426664
 20
112.5796652516884
 30
0.0
 11
132.5549342787776
 21
112.5796652516884
 31
0.0
  0
LINE
  5
25B5
330
25B1
100
AcDbEntity
  8
寸法
  6
Continuous
 62
     0
370
    -2
100
AcDbLine
 10
120.995657426664
 20
102.9796652516883
 30
0.0
 11
132.5549342787776
 21
102.9796652516883
 31
0.0
  0
LINE
  5
25B6
330
25B1
100
AcDbEntity
  8
寸法
  6
Continuous
 62
     0
370
    -2
100
AcDbLine
 10
131.3049342787776
 20
111.0796652516884
 30
0.0
 11
131.3049342787776
 21
104.4796652516883
 31
0.0
  0
SOLID
  5
25B7
330
25B1
100
AcDbEntity
  8
寸法
 62
     0
100
AcDbTrace
 10
131.5549342787776
 20
111.0796652516884
 30
0.0
 11
131.0549342787776
 21
111.0796652516884
 31
0.0
 12
131.3049342787776
 22
112.5796652516884
 32
0.0
 13
131.3049342787776
 23
112.5796652516884
 33
0.0
  0
SOLID
  5
25B8
330
25B1
100
AcDbEntity
  8
寸法
 62
     0
100
AcDbTrace
 10
131.0549342787776
 20
104.4796652516883
 30
0.0
 11
131.5549342787776
 21
104.4796652516883
 31
0.0
 12
131.3049342787776
 22
102.9796652516883
 32
0.0
 13
131.3049342787776
 23
102.9796652516883
 33
0.0
  0
MTEXT
  5
25B9
330
25B1
100
AcDbEntity
  8
寸法
  6
Continuous
 62
     0
100
AcDbMText
 10
137.3783402201298
 20
107.2141759955676
 30
0.0
 40
4.0
 41
0.0
 46
0.0
 71
     5
 72
     1
  1
4.8
 73
     1
 44
1.0
  0
POINT
  5
25BA
330
25B1
100
AcDbEntity
  8
Defpoints
 62
     0
100
AcDbPoint
 10
120.370657426664
 20
112.5796652516884
 30
0.0
  0
POINT
  5
25BB
330
25B1
100
AcDbEntity
  8
Defpoints
 62
     0
100
AcDbPoint
 10
120.370657426664
 20
102.9796652516883
 30
0.0
  0
POINT
  5
25BC
330
25B1
100
AcDbEntity
  8
Defpoints
 62
     0
100
AcDbPoint
 10
131.3049342787776
 20
102.9796652516883
 30
0.0
  0
ENDBLK
  5
25B3
330
25B1
100
AcDbEntity
  8
0
100
AcDbBlockEnd
  0
BLOCK
  5
25C1
330
25C0
100
AcDbEntity
  8
0
100
AcDbBlockBegin
  2
*D16
 70
     1
 10
0.0
 20
0.0
 30
0.0
  3
*D16
  1
*D234
  0
LINE
  5
25C3
330
25C0
100
AcDbEntity
  8
寸法
  6
Continuous
 62
     0
370
    -2
100
AcDbLine
 10
77.67382174009546
 20
112.5796652516884
 30
0.0
 11
63.49750242810262
 21
112.5796652516884
 31
0.0
  0
LINE
  5
25C4
330
25C0
100
AcDbEntity
  8
寸法
  6
Continuous
 62
     0
370
    -2
100
AcDbLine
 10
77.74565742666397
 20
102.9796652516883
 30
0.0
 11
63.49750242810262
 21
102.9796652516883
 31
0.0
  0
LINE
  5
25C5
330
25C0
100
AcDbEntity
  8
寸法
  6
Continuous
 62
     0
370
    -2
100
AcDbLine
 10
64.74750242810262
 20
111.0796652516884
 30
0.0
 11
64.74750242810262
 21
104.4796652516883
 31
0.0
  0
SOLID
  5
25C6
330
25C0
100
AcDbEntity
  8
寸法
 62
     0
100
AcDbTrace
 10
64.99750242810262
 20
111.0796652516884
 30
0.0
 11
64.49750242810262
 21
111.0796652516884
 31
0.0
 12
64.74750242810262
 22
112.5796652516884
 32
0.0
 13
64.74750242810262
 23
112.5796652516884
 33
0.0
  0
SOLID
  5
25C7
330
25C0
100
AcDbEntity
  8
寸法
 62
     0
100
AcDbTrace
 10
64.49750242810262
 20
104.4796652516883
 30
0.0
 11
64.99750242810262
 21
104.4796652516883
 31
0.0
 12
64.74750242810262
 22
102.9796652516883
 32
0.0
 13
64.74750242810262
 23
102.9796652516883
 33
0.0
  0
MTEXT
  5
25C8
330
25C0
100
AcDbEntity
  8
寸法
  6
Continuous
 62
     0
100
AcDbMText
 10
56.36830207683545
 20
107.42963438713
 30
0.0
 40
4.0
 41
0.0
 46
0.0
 71
     5
 72
     1
  1
4.8
 73
     1
 44
1.0
  0
POINT
  5
25C9
330
25C0
100
AcDbEntity
  8
Defpoints
 62
     0
100
AcDbPoint
 10
78.29882174009546
 20
112.5796652516884
 30
0.0
  0
POINT
  5
25CA
330
25C0
100
AcDbEntity
  8
Defpoints
 62
     0
100
AcDbPoint
 10
78.37065742666397
 20
102.9796652516883
 30
0.0
  0
POINT
  5
25CB
330
25C0
100
AcDbEntity
  8
Defpoints
 62
     0
100
AcDbPoint
 10
64.74750242810262
 20
102.9796652516883
 30
0.0
  0
ENDBLK
  5
25C2
330
25C0
100
AcDbEntity
  8
0
100
AcDbBlockEnd
  0
BLOCK
  5
25D0
330
25CF
100
AcDbEntity
  8
0
100
AcDbBlockBegin
  2
*D17
 70
     1
 10
0.0
 20
0.0
 30
0.0
  3
*D17
  1
*D235
  0
LINE
  5
25D2
330
25CF
100
AcDbEntity
  8
寸法
  6
Continuous
 62
     0
370
    -2
100
AcDbLine
 10
78.37065742666397
 20
112.2046652516884
 30
0.0
 11
78.37065742666397
 21
125.6945902410338
 31
0.0
  0
LINE
  5
25D3
330
25CF
100
AcDbEntity
  8
寸法
  6
Continuous
 62
     0
370
    -2
100
AcDbLine
 10
83.77065742666397
 20
110.2594180183127
 30
0.0
 11
83.77065742666397
 21
125.6945902410338
 31
0.0
  0
LINE
  5
25D4
330
25CF
100
AcDbEntity
  8
寸法
  6
Continuous
 62
     0
370
    -2
100
AcDbLine
 10
79.87065742666397
 20
124.4445902410338
 30
0.0
 11
82.27065742666397
 21
124.4445902410338
 31
0.0
  0
SOLID
  5
25D5
330
25CF
100
AcDbEntity
  8
寸法
 62
     0
100
AcDbTrace
 10
79.87065742666397
 20
124.6945902410338
 30
0.0
 11
79.87065742666397
 21
124.1945902410338
 31
0.0
 12
78.37065742666397
 22
124.4445902410338
 32
0.0
 13
78.37065742666397
 23
124.4445902410338
 33
0.0
  0
SOLID
  5
25D6
330
25CF
100
AcDbEntity
  8
寸法
 62
     0
100
AcDbTrace
 10
82.27065742666397
 20
124.1945902410338
 30
0.0
 11
82.27065742666397
 21
124.6945902410338
 31
0.0
 12
83.77065742666397
 22
124.4445902410338
 32
0.0
 13
83.77065742666397
 23
124.4445902410338
 33
0.0
  0
MTEXT
  5
25D7
330
25CF
100
AcDbEntity
  8
寸法
  6
Continuous
 62
     0
100
AcDbMText
 10
81.29931041257873
 20
128.9875301905161
 30
0.0
 40
4.0
 41
0.0
 46
0.0
 71
     5
 72
     1
  1
2.7
 73
     1
 44
1.0
  0
POINT
  5
25D8
330
25CF
100
AcDbEntity
  8
Defpoints
 62
     0
100
AcDbPoint
 10
78.37065742666397
 20
111.5796652516884
 30
0.0
  0
POINT
  5
25D9
330
25CF
100
AcDbEntity
  8
Defpoints
 62
     0
100
AcDbPoint
 10
83.77065742666397
 20
109.6344180183127
 30
0.0
  0
POINT
  5
25DA
330
25CF
100
AcDbEntity
  8
Defpoints
 62
     0
100
AcDbPoint
 10
83.77065742666397
 20
124.4445902410338
 30
0.0
  0
ENDBLK
  5
25D1
330
25CF
100
AcDbEntity
  8
0
100
AcDbBlockEnd
  0
BLOCK
  5
25E0
330
25DF
100
AcDbEntity
  8
0
100
AcDbBlockBegin
  2
*D18
 70
     1
 10
0.0
 20
0.0
 30
0.0
  3
*D18
  1
*D236
  0
LINE
  5
25E2
330
25DF
100
AcDbEntity
  8
寸法
  6
Continuous
 62
     0
370
    -2
100
AcDbLine
 10
82.36377321097748
 20
112.5796652516884
 30
0.0
 11
88.10956200991279
 21
112.5796652516884
 31
0.0
  0
LINE
  5
25E3
330
25DF
100
AcDbEntity
  8
寸法
  6
Continuous
 62
     0
370
    -2
100
AcDbLine
 10
84.388065027995
 20
109.3796652516883
 30
0.0
 11
88.10956200991279
 21
109.3796652516883
 31
0.0
  0
LINE
  5
25E4
330
25DF
100
AcDbEntity
  8
寸法
  6
Continuous
 62
     0
370
    -2
100
AcDbLine
 10
86.85956200991279
 20
114.0796652516884
 30
0.0
 11
86.85956200991279
 21
115.5796652516884
 31
0.0
  0
LINE
  5
25E5
330
25DF
100
AcDbEntity
  8
寸法
  6
Continuous
 62
     0
370
    -2
100
AcDbLine
 10
86.85956200991279
 20
107.8796652516883
 30
0.0
 11
86.85956200991279
 21
106.3796652516883
 31
0.0
  0
SOLID
  5
25E6
330
25DF
100
AcDbEntity
  8
寸法
 62
     0
100
AcDbTrace
 10
86.60956200991279
 20
114.0796652516884
 30
0.0
 11
87.10956200991279
 21
114.0796652516884
 31
0.0
 12
86.85956200991279
 22
112.5796652516884
 32
0.0
 13
86.85956200991279
 23
112.5796652516884
 33
0.0
  0
SOLID
  5
25E7
330
25DF
100
AcDbEntity
  8
寸法
 62
     0
100
AcDbTrace
 10
87.10956200991279
 20
107.8796652516883
 30
0.0
 11
86.60956200991279
 21
107.8796652516883
 31
0.0
 12
86.85956200991279
 22
109.3796652516883
 32
0.0
 13
86.85956200991279
 23
109.3796652516883
 33
0.0
  0
MTEXT
  5
25E8
330
25DF
100
AcDbEntity
  8
寸法
  6
Continuous
 62
     0
100
AcDbMText
 10
90.38324694278697
 20
119.5987876282528
 30
0.0
 40
4.0
 41
0.0
 46
0.0
 71
     5
 72
     1
  1
1.6
 73
     1
 44
1.0
  0
POINT
  5
25E9
330
25DF
100
AcDbEntity
  8
Defpoints
 62
     0
100
AcDbPoint
 10
81.73877321097748
 20
112.5796652516884
 30
0.0
  0
POINT
  5
25EA
330
25DF
100
AcDbEntity
  8
Defpoints
 62
     0
100
AcDbPoint
 10
83.763065027995
 20
109.3796652516883
 30
0.0
  0
POINT
  5
25EB
330
25DF
100
AcDbEntity
  8
Defpoints
 62
     0
100
AcDbPoint
 10
86.85956200991279
 20
109.3796652516883
 30
0.0
  0
ENDBLK
  5
25E1
330
25DF
100
AcDbEntity
  8
0
100
AcDbBlockEnd
  0
BLOCK
  5
25F0
330
25EF
100
AcDbEntity
  8
0
100
AcDbBlockBegin
  2
*D19
 70
     1
 10
0.0
 20
0.0
 30
0.0
  3
*D19
  1
*D237
  0
LINE
  5
25F2
330
25EF
100
AcDbEntity
  8
寸法
  6
Continuous
 62
     0
370
    -2
100
AcDbLine
 10
83.77065742666397
 20
125.0695902410338
 30
0.0
 11
83.77065742666397
 21
125.6945902410338
 31
0.0
  0
LINE
  5
25F3
330
25EF
100
AcDbEntity
  8
寸法
  6
Continuous
 62
     0
370
    -2
100
AcDbLine
 10
114.970657426664
 20
110.2594180183127
 30
0.0
 11
114.970657426664
 21
125.6945902410338
 31
0.0
  0
LINE
  5
25F4
330
25EF
100
AcDbEntity
  8
寸法
  6
Continuous
 62
     0
370
    -2
100
AcDbLine
 10
85.27065742666397
 20
124.4445902410338
 30
0.0
 11
113.470657426664
 21
124.4445902410338
 31
0.0
  0
SOLID
  5
25F5
330
25EF
100
AcDbEntity
  8
寸法
 62
     0
100
AcDbTrace
 10
85.27065742666397
 20
124.6945902410338
 30
0.0
 11
85.27065742666397
 21
124.1945902410338
 31
0.0
 12
83.77065742666397
 22
124.4445902410338
 32
0.0
 13
83.77065742666397
 23
124.4445902410338
 33
0.0
  0
SOLID
  5
25F6
330
25EF
100
AcDbEntity
  8
寸法
 62
     0
100
AcDbTrace
 10
113.470657426664
 20
124.1945902410338
 30
0.0
 11
113.470657426664
 21
124.6945902410338
 31
0.0
 12
114.970657426664
 22
124.4445902410338
 32
0.0
 13
114.970657426664
 23
124.4445902410338
 33
0.0
  0
MTEXT
  5
25F7
330
25EF
100
AcDbEntity
  8
寸法
  6
Continuous
 62
     0
100
AcDbMText
 10
100.7049242660559
 20
128.1181673716741
 30
0.0
 40
4.0
 41
0.0
 46
0.0
 71
     5
 72
     1
  1
15.6
 73
     1
 44
1.0
  0
POINT
  5
25F8
330
25EF
100
AcDbEntity
  8
Defpoints
 62
     0
100
AcDbPoint
 10
83.77065742666397
 20
124.4445902410338
 30
0.0
  0
POINT
  5
25F9
330
25EF
100
AcDbEntity
  8
Defpoints
 62
     0
100
AcDbPoint
 10
114.970657426664
 20
109.6344180183127
 30
0.0
  0
POINT
  5
25FA
330
25EF
100
AcDbEntity
  8
Defpoints
 62
     0
100
AcDbPoint
 10
114.970657426664
 20
124.4445902410338
 30
0.0
  0
ENDBLK
  5
25F1
330
25EF
100
AcDbEntity
  8
0
100
AcDbBlockEnd
  0
BLOCK
  5
2601
330
2600
100
AcDbEntity
  8
0
100
AcDbBlockBegin
  2
*D20
 70
     1
 10
0.0
 20
0.0
 30
0.0
  3
*D20
  1
*D238
  0
LINE
  5
2603
330
2600
100
AcDbEntity
  8
寸法
  6
Continuous
 62
     0
370
    -2
100
AcDbLine
 10
114.970657426664
 20
110.2594180183127
 30
0.0
 11
114.970657426664
 21
125.6945902410338
 31
0.0
  0
LINE
  5
2604
330
2600
100
AcDbEntity
  8
寸法
  6
Continuous
 62
     0
370
    -2
100
AcDbLine
 10
120.370657426664
 20
113.2046652516884
 30
0.0
 11
120.370657426664
 21
125.6945902410338
 31
0.0
  0
LINE
  5
2605
330
2600
100
AcDbEntity
  8
寸法
  6
Continuous
 62
     0
370
    -2
100
AcDbLine
 10
116.470657426664
 20
124.4445902410338
 30
0.0
 11
118.870657426664
 21
124.4445902410338
 31
0.0
  0
SOLID
  5
2606
330
2600
100
AcDbEntity
  8
寸法
 62
     0
100
AcDbTrace
 10
116.470657426664
 20
124.6945902410338
 30
0.0
 11
116.470657426664
 21
124.1945902410338
 31
0.0
 12
114.970657426664
 22
124.4445902410338
 32
0.0
 13
114.970657426664
 23
124.4445902410338
 33
0.0
  0
SOLID
  5
2607
330
2600
100
AcDbEntity
  8
寸法
 62
     0
100
AcDbTrace
 10
118.870657426664
 20
124.1945902410338
 30
0.0
 11
118.870657426664
 21
124.6945902410338
 31
0.0
 12
120.370657426664
 22
124.4445902410338
 32
0.0
 13
120.370657426664
 23
124.4445902410338
 33
0.0
  0
MTEXT
  5
2608
330
2600
100
AcDbEntity
  8
寸法
  6
Continuous
 62
     0
100
AcDbMText
 10
118.8115407186223
 20
129.1757618596117
 30
0.0
 40
4.0
 41
0.0
 46
0.0
 71
     5
 72
     1
  1
2.7
 73
     1
 44
1.0
  0
POINT
  5
2609
330
2600
100
AcDbEntity
  8
Defpoints
 62
     0
100
AcDbPoint
 10
114.970657426664
 20
109.6344180183127
 30
0.0
  0
POINT
  5
260A
330
2600
100
AcDbEntity
  8
Defpoints
 62
     0
100
AcDbPoint
 10
120.370657426664
 20
112.5796652516884
 30
0.0
  0
POINT
  5
260B
330
2600
100
AcDbEntity
  8
Defpoints
 62
     0
100
AcDbPoint
 10
120.370657426664
 20
124.4445902410338
 30
0.0
  0
ENDBLK
  5
2602
330
2600
100
AcDbEntity
  8
0
100
AcDbBlockEnd
  0
BLOCK
  5
2611
330
2610
100
AcDbEntity
  8
0
100
AcDbBlockBegin
  2
*D21
 70
     1
 10
0.0
 20
0.0
 30
0.0
  3
*D21
  1
*D239
  0
LINE
  5
2613
330
2610
100
AcDbEntity
  8
寸法
  6
Continuous
 62
     0
370
    -2
100
AcDbLine
 10
82.37065742666397
 20
108.7546652516883
 30
0.0
 11
82.37065742666397
 21
106.6834531788409
 31
0.0
  0
LINE
  5
2614
330
2610
100
AcDbEntity
  8
寸法
  6
Continuous
 62
     0
370
    -2
100
AcDbLine
 10
83.770657426664
 20
109.1546652516883
 30
0.0
 11
83.770657426664
 21
106.6834531788409
 31
0.0
  0
LINE
  5
2615
330
2610
100
AcDbEntity
  8
寸法
  6
Continuous
 62
     0
370
    -2
100
AcDbLine
 10
80.87065742666397
 20
107.9334531788409
 30
0.0
 11
79.37065742666397
 21
107.9334531788409
 31
0.0
  0
LINE
  5
2616
330
2610
100
AcDbEntity
  8
寸法
  6
Continuous
 62
     0
370
    -2
100
AcDbLine
 10
85.270657426664
 20
107.9334531788409
 30
0.0
 11
86.770657426664
 21
107.9334531788409
 31
0.0
  0
SOLID
  5
2617
330
2610
100
AcDbEntity
  8
寸法
 62
     0
100
AcDbTrace
 10
80.87065742666397
 20
107.6834531788409
 30
0.0
 11
80.87065742666397
 21
108.1834531788409
 31
0.0
 12
82.37065742666397
 22
107.9334531788409
 32
0.0
 13
82.37065742666397
 23
107.9334531788409
 33
0.0
  0
SOLID
  5
2618
330
2610
100
AcDbEntity
  8
寸法
 62
     0
100
AcDbTrace
 10
85.270657426664
 20
108.1834531788409
 30
0.0
 11
85.270657426664
 21
107.6834531788409
 31
0.0
 12
83.770657426664
 22
107.9334531788409
 32
0.0
 13
83.770657426664
 23
107.9334531788409
 33
0.0
  0
MTEXT
  5
2619
330
2610
100
AcDbEntity
  8
寸法
  6
Continuous
 62
     0
100
AcDbMText
 10
87.72716667245598
 20
99.63104688527415
 30
0.0
 40
4.0
 41
0.0
 46
0.0
 71
     5
 72
     1
  1
0.7
 73
     1
 44
1.0
  0
POINT
  5
261A
330
2610
100
AcDbEntity
  8
Defpoints
 62
     0
100
AcDbPoint
 10
82.37065742666397
 20
109.3796652516883
 30
0.0
  0
POINT
  5
261B
330
2610
100
AcDbEntity
  8
Defpoints
 62
     0
100
AcDbPoint
 10
83.770657426664
 20
109.7796652516883
 30
0.0
  0
POINT
  5
261C
330
2610
100
AcDbEntity
  8
Defpoints
 62
     0
100
AcDbPoint
 10
83.770657426664
 20
107.9334531788409
 30
0.0
  0
ENDBLK
  5
2612
330
2610
100
AcDbEntity
  8
0
100
AcDbBlockEnd
  0
BLOCK
  5
2631
330
2630
100
AcDbEntity
  8
0
100
AcDbBlockBegin
  2
*D22
 70
     1
 10
0.0
 20
0.0
 30
0.0
  3
*D22
  1
*D241
  0
LINE
  5
2633
330
2630
100
AcDbEntity
  8
寸法
  6
Continuous
 62
     0
370
    -2
100
AcDbLine
 10
70.37065742666397
 20
156.92365946724
 30
0.0
 11
70.37065742666397
 21
145.9412177499177
 31
0.0
  0
LINE
  5
2634
330
2630
100
AcDbEntity
  8
寸法
  6
Continuous
 62
     0
370
    -2
100
AcDbLine
 10
74.37065742666397
 20
156.92365946724
 30
0.0
 11
74.37065742666397
 21
145.9412177499177
 31
0.0
  0
LINE
  5
2635
330
2630
100
AcDbEntity
  8
寸法
  6
Continuous
 62
     0
370
    -2
100
AcDbLine
 10
68.87065742666397
 20
147.1912177499177
 30
0.0
 11
67.37065742666397
 21
147.1912177499177
 31
0.0
  0
LINE
  5
2636
330
2630
100
AcDbEntity
  8
寸法
  6
Continuous
 62
     0
370
    -2
100
AcDbLine
 10
75.87065742666397
 20
147.1912177499177
 30
0.0
 11
77.37065742666397
 21
147.1912177499177
 31
0.0
  0
SOLID
  5
2637
330
2630
100
AcDbEntity
  8
寸法
 62
     0
100
AcDbTrace
 10
68.87065742666397
 20
146.9412177499177
 30
0.0
 11
68.87065742666397
 21
147.4412177499177
 31
0.0
 12
70.37065742666397
 22
147.1912177499177
 32
0.0
 13
70.37065742666397
 23
147.1912177499177
 33
0.0
  0
SOLID
  5
2638
330
2630
100
AcDbEntity
  8
寸法
 62
     0
100
AcDbTrace
 10
75.87065742666397
 20
147.4412177499177
 30
0.0
 11
75.87065742666397
 21
146.9412177499177
 31
0.0
 12
74.37065742666397
 22
147.1912177499177
 32
0.0
 13
74.37065742666397
 23
147.1912177499177
 33
0.0
  0
MTEXT
  5
2639
330
2630
100
AcDbEntity
  8
寸法
  6
Continuous
 62
     0
100
AcDbMText
 10
71.53843229787705
 20
143.5084077642042
 30
0.0
 40
4.0
 41
0.0
 46
0.0
 71
     5
 72
     1
  1
2
 73
     1
 44
1.0
  0
POINT
  5
263A
330
2630
100
AcDbEntity
  8
Defpoints
 62
     0
100
AcDbPoint
 10
70.37065742666397
 20
157.54865946724
 30
0.0
  0
POINT
  5
263B
330
2630
100
AcDbEntity
  8
Defpoints
 62
     0
100
AcDbPoint
 10
74.37065742666397
 20
157.54865946724
 30
0.0
  0
POINT
  5
263C
330
2630
100
AcDbEntity
  8
Defpoints
 62
     0
100
AcDbPoint
 10
74.37065742666397
 20
147.1912177499177
 30
0.0
  0
ENDBLK
  5
2632
330
2630
100
AcDbEntity
  8
0
100
AcDbBlockEnd
  0
BLOCK
  5
2641
330
2640
100
AcDbEntity
  8
0
100
AcDbBlockBegin
  2
*D23
 70
     1
 10
0.0
 20
0.0
 30
0.0
  3
*D23
  1
*D242
  0
LINE
  5
2643
330
2640
100
AcDbEntity
  8
寸法
  6
Continuous
 62
     0
370
    -2
100
AcDbLine
 10
74.37065742666397
 20
156.92365946724
 30
0.0
 11
74.37065742666397
 21
145.9412177499177
 31
0.0
  0
LINE
  5
2644
330
2640
100
AcDbEntity
  8
寸法
  6
Continuous
 62
     0
370
    -2
100
AcDbLine
 10
78.370657426664
 20
157.32365946724
 30
0.0
 11
78.370657426664
 21
145.9412177499177
 31
0.0
  0
LINE
  5
2645
330
2640
100
AcDbEntity
  8
寸法
  6
Continuous
 62
     0
370
    -2
100
AcDbLine
 10
72.87065742666397
 20
147.1912177499177
 30
0.0
 11
71.37065742666397
 21
147.1912177499177
 31
0.0
  0
LINE
  5
2646
330
2640
100
AcDbEntity
  8
寸法
  6
Continuous
 62
     0
370
    -2
100
AcDbLine
 10
79.870657426664
 20
147.1912177499177
 30
0.0
 11
81.370657426664
 21
147.1912177499177
 31
0.0
  0
SOLID
  5
2647
330
2640
100
AcDbEntity
  8
寸法
 62
     0
100
AcDbTrace
 10
72.87065742666397
 20
146.9412177499177
 30
0.0
 11
72.87065742666397
 21
147.4412177499177
 31
0.0
 12
74.37065742666397
 22
147.1912177499177
 32
0.0
 13
74.37065742666397
 23
147.1912177499177
 33
0.0
  0
SOLID
  5
2648
330
2640
100
AcDbEntity
  8
寸法
 62
     0
100
AcDbTrace
 10
79.870657426664
 20
147.4412177499177
 30
0.0
 11
79.870657426664
 21
146.9412177499177
 31
0.0
 12
78.370657426664
 22
147.1912177499177
 32
0.0
 13
78.370657426664
 23
147.1912177499177
 33
0.0
  0
MTEXT
  5
2649
330
2640
100
AcDbEntity
  8
寸法
  6
Continuous
 62
     0
100
AcDbMText
 10
77.28650832878768
 20
143.6319434254793
 30
0.0
 40
4.0
 41
0.0
 46
0.0
 71
     5
 72
     1
  1
2
 73
     1
 44
1.0
  0
POINT
  5
264A
330
2640
100
AcDbEntity
  8
Defpoints
 62
     0
100
AcDbPoint
 10
74.37065742666397
 20
157.54865946724
 30
0.0
  0
POINT
  5
264B
330
2640
100
AcDbEntity
  8
Defpoints
 62
     0
100
AcDbPoint
 10
78.370657426664
 20
157.94865946724
 30
0.0
  0
POINT
  5
264C
330
2640
100
AcDbEntity
  8
Defpoints
 62
     0
100
AcDbPoint
 10
78.370657426664
 20
147.1912177499177
 30
0.0
  0
ENDBLK
  5
2642
330
2640
100
AcDbEntity
  8
0
100
AcDbBlockEnd
  0
BLOCK
  5
2672
330
2671
100
AcDbEntity
  8
0
100
AcDbBlockBegin
  2
*D24
 70
     1
 10
0.0
 20
0.0
 30
0.0
  3
*D24
  1
*D245
  0
LINE
  5
2674
330
2671
100
AcDbEntity
  8
寸法
  6
Continuous
 62
     0
370
    -2
100
AcDbLine
 10
82.57065742666397
 20
156.4084680904751
 30
0.0
 11
82.57065742666397
 21
145.9412177499177
 31
0.0
  0
LINE
  5
2675
330
2671
100
AcDbEntity
  8
寸法
  6
Continuous
 62
     0
370
    -2
100
AcDbLine
 10
86.97065742666402
 20
156.4438855303536
 30
0.0
 11
86.97065742666402
 21
145.9412177499177
 31
0.0
  0
LINE
  5
2676
330
2671
100
AcDbEntity
  8
寸法
  6
Continuous
 62
     0
370
    -2
100
AcDbLine
 10
84.07065742666397
 20
147.1912177499177
 30
0.0
 11
85.47065742666402
 21
147.1912177499177
 31
0.0
  0
SOLID
  5
2677
330
2671
100
AcDbEntity
  8
寸法
 62
     0
100
AcDbTrace
 10
84.07065742666397
 20
147.4412177499177
 30
0.0
 11
84.07065742666397
 21
146.9412177499177
 31
0.0
 12
82.57065742666397
 22
147.1912177499177
 32
0.0
 13
82.57065742666397
 23
147.1912177499177
 33
0.0
  0
SOLID
  5
2678
330
2671
100
AcDbEntity
  8
寸法
 62
     0
100
AcDbTrace
 10
85.47065742666402
 20
146.9412177499177
 30
0.0
 11
85.47065742666402
 21
147.4412177499177
 31
0.0
 12
86.97065742666402
 22
147.1912177499177
 32
0.0
 13
86.97065742666402
 23
147.1912177499177
 33
0.0
  0
MTEXT
  5
2679
330
2671
100
AcDbEntity
  8
寸法
  6
Continuous
 62
     0
100
AcDbMText
 10
85.90314414317174
 20
142.7793880904751
 30
0.0
 40
4.0
 41
0.0
 46
0.0
 71
     5
 72
     1
  1
2.2
 73
     1
 44
1.0
  0
POINT
  5
267A
330
2671
100
AcDbEntity
  8
Defpoints
 62
     0
100
AcDbPoint
 10
82.57065742666397
 20
157.0334680904751
 30
0.0
  0
POINT
  5
267B
330
2671
100
AcDbEntity
  8
Defpoints
 62
     0
100
AcDbPoint
 10
86.97065742666402
 20
157.0688855303536
 30
0.0
  0
POINT
  5
267C
330
2671
100
AcDbEntity
  8
Defpoints
 62
     0
100
AcDbPoint
 10
86.97065742666402
 20
147.1912177499177
 30
0.0
  0
ENDBLK
  5
2673
330
2671
100
AcDbEntity
  8
0
100
AcDbBlockEnd
  0
BLOCK
  5
2683
330
2682
100
AcDbEntity
  8
0
100
AcDbBlockBegin
  2
*D25
 70
     1
 10
0.0
 20
0.0
 30
0.0
  3
*D25
  1
*D246
  0
LINE
  5
2685
330
2682
100
AcDbEntity
  8
寸法
  6
Continuous
 62
     0
370
    -2
100
AcDbLine
 10
111.770657426664
 20
157.9178837932106
 30
0.0
 11
111.770657426664
 21
145.9412177499177
 31
0.0
  0
LINE
  5
2686
330
2682
100
AcDbEntity
  8
寸法
  6
Continuous
 62
     0
370
    -2
100
AcDbLine
 10
116.170657426664
 20
158.1635501703535
 30
0.0
 11
116.170657426664
 21
145.9412177499177
 31
0.0
  0
LINE
  5
2687
330
2682
100
AcDbEntity
  8
寸法
  6
Continuous
 62
     0
370
    -2
100
AcDbLine
 10
113.270657426664
 20
147.1912177499177
 30
0.0
 11
114.670657426664
 21
147.1912177499177
 31
0.0
  0
SOLID
  5
2688
330
2682
100
AcDbEntity
  8
寸法
 62
     0
100
AcDbTrace
 10
113.270657426664
 20
147.4412177499177
 30
0.0
 11
113.270657426664
 21
146.9412177499177
 31
0.0
 12
111.770657426664
 22
147.1912177499177
 32
0.0
 13
111.770657426664
 23
147.1912177499177
 33
0.0
  0
SOLID
  5
2689
330
2682
100
AcDbEntity
  8
寸法
 62
     0
100
AcDbTrace
 10
114.670657426664
 20
146.9412177499177
 30
0.0
 11
114.670657426664
 21
147.4412177499177
 31
0.0
 12
116.170657426664
 22
147.1912177499177
 32
0.0
 13
116.170657426664
 23
147.1912177499177
 33
0.0
  0
MTEXT
  5
268A
330
2682
100
AcDbEntity
  8
寸法
  6
Continuous
 62
     0
100
AcDbMText
 10
111.0467691744593
 20
143.5434108340127
 30
0.0
 40
4.0
 41
0.0
 46
0.0
 71
     5
 72
     1
  1
2.2
 73
     1
 44
1.0
  0
POINT
  5
268B
330
2682
100
AcDbEntity
  8
Defpoints
 62
     0
100
AcDbPoint
 10
111.770657426664
 20
158.5428837932106
 30
0.0
  0
POINT
  5
268C
330
2682
100
AcDbEntity
  8
Defpoints
 62
     0
100
AcDbPoint
 10
116.170657426664
 20
158.7885501703535
 30
0.0
  0
POINT
  5
268D
330
2682
100
AcDbEntity
  8
Defpoints
 62
     0
100
AcDbPoint
 10
116.170657426664
 20
147.1912177499177
 30
0.0
  0
ENDBLK
  5
2684
330
2682
100
AcDbEntity
  8
0
100
AcDbBlockEnd
  0
BLOCK
  5
2693
330
2692
100
AcDbEntity
  8
0
100
AcDbBlockBegin
  2
*D26
 70
     1
 10
0.0
 20
0.0
 30
0.0
  3
*D26
  1
*D247
  0
LINE
  5
2695
330
2692
100
AcDbEntity
  8
寸法
  6
Continuous
 62
     0
370
    -2
100
AcDbLine
 10
116.170657426664
 20
162.8585877581668
 30
0.0
 11
116.170657426664
 21
145.9412177499177
 31
0.0
  0
LINE
  5
2696
330
2692
100
AcDbEntity
  8
寸法
  6
Continuous
 62
     0
370
    -2
100
AcDbLine
 10
120.370657426664
 20
158.7523765482984
 30
0.0
 11
120.370657426664
 21
145.9412177499177
 31
0.0
  0
LINE
  5
2697
330
2692
100
AcDbEntity
  8
寸法
  6
Continuous
 62
     0
370
    -2
100
AcDbLine
 10
114.670657426664
 20
147.1912177499177
 30
0.0
 11
113.170657426664
 21
147.1912177499177
 31
0.0
  0
LINE
  5
2698
330
2692
100
AcDbEntity
  8
寸法
  6
Continuous
 62
     0
370
    -2
100
AcDbLine
 10
121.870657426664
 20
147.1912177499177
 30
0.0
 11
123.370657426664
 21
147.1912177499177
 31
0.0
  0
SOLID
  5
2699
330
2692
100
AcDbEntity
  8
寸法
 62
     0
100
AcDbTrace
 10
114.670657426664
 20
146.9412177499177
 30
0.0
 11
114.670657426664
 21
147.4412177499177
 31
0.0
 12
116.170657426664
 22
147.1912177499177
 32
0.0
 13
116.170657426664
 23
147.1912177499177
 33
0.0
  0
SOLID
  5
269A
330
2692
100
AcDbEntity
  8
寸法
 62
     0
100
AcDbTrace
 10
121.870657426664
 20
147.4412177499177
 30
0.0
 11
121.870657426664
 21
146.9412177499177
 31
0.0
 12
120.370657426664
 22
147.1912177499177
 32
0.0
 13
120.370657426664
 23
147.1912177499177
 33
0.0
  0
MTEXT
  5
269B
330
2692
100
AcDbEntity
  8
寸法
  6
Continuous
 62
     0
100
AcDbMText
 10
121.2188926030308
 20
143.2555205482984
 30
0.0
 40
4.0
 41
0.0
 46
0.0
 71
     5
 72
     1
  1
2.1
 73
     1
 44
1.0
  0
POINT
  5
269C
330
2692
100
AcDbEntity
  8
Defpoints
 62
     0
100
AcDbPoint
 10
116.170657426664
 20
163.4835877581668
 30
0.0
  0
POINT
  5
269D
330
2692
100
AcDbEntity
  8
Defpoints
 62
     0
100
AcDbPoint
 10
120.370657426664
 20
159.3773765482984
 30
0.0
  0
POINT
  5
269E
330
2692
100
AcDbEntity
  8
Defpoints
 62
     0
100
AcDbPoint
 10
120.370657426664
 20
147.1912177499177
 30
0.0
  0
ENDBLK
  5
2694
330
2692
100
AcDbEntity
  8
0
100
AcDbBlockEnd
  0
BLOCK
  5
26A3
330
26A2
100
AcDbEntity
  8
0
100
AcDbBlockBegin
  2
*D27
 70
     1
 10
0.0
 20
0.0
 30
0.0
  3
*D27
  1
*D248
  0
LINE
  5
26A5
330
26A2
100
AcDbEntity
  8
寸法
  6
Continuous
 62
     0
370
    -2
100
AcDbLine
 10
120.9406142063692
 20
163.7236594672399
 30
0.0
 11
132.5495214232204
 21
163.7236594672399
 31
0.0
  0
LINE
  5
26A6
330
26A2
100
AcDbEntity
  8
寸法
  6
Continuous
 62
     0
370
    -2
100
AcDbLine
 10
119.995657426664
 20
166.9236594672399
 30
0.0
 11
132.5495214232204
 21
166.9236594672399
 31
0.0
  0
LINE
  5
26A7
330
26A2
100
AcDbEntity
  8
寸法
  6
Continuous
 62
     0
370
    -2
100
AcDbLine
 10
131.2995214232204
 20
162.2236594672399
 30
0.0
 11
131.2995214232204
 21
160.7236594672399
 31
0.0
  0
LINE
  5
26A8
330
26A2
100
AcDbEntity
  8
寸法
  6
Continuous
 62
     0
370
    -2
100
AcDbLine
 10
131.2995214232204
 20
168.4236594672399
 30
0.0
 11
131.2995214232204
 21
169.9236594672399
 31
0.0
  0
SOLID
  5
26A9
330
26A2
100
AcDbEntity
  8
寸法
 62
     0
100
AcDbTrace
 10
131.5495214232204
 20
162.2236594672399
 30
0.0
 11
131.0495214232204
 21
162.2236594672399
 31
0.0
 12
131.2995214232204
 22
163.7236594672399
 32
0.0
 13
131.2995214232204
 23
163.7236594672399
 33
0.0
  0
SOLID
  5
26AA
330
26A2
100
AcDbEntity
  8
寸法
 62
     0
100
AcDbTrace
 10
131.0495214232204
 20
168.4236594672399
 30
0.0
 11
131.5495214232204
 21
168.4236594672399
 31
0.0
 12
131.2995214232204
 22
166.9236594672399
 32
0.0
 13
131.2995214232204
 23
166.9236594672399
 33
0.0
  0
MTEXT
  5
26AB
330
26A2
100
AcDbEntity
  8
寸法
  6
Continuous
 62
     0
100
AcDbMText
 10
139.2220985912835
 20
165.9698131541258
 30
0.0
 40
4.0
 41
0.0
 46
0.0
 71
     5
 72
     1
  1
1.6
 73
     1
 44
1.0
  0
POINT
  5
26AC
330
26A2
100
AcDbEntity
  8
Defpoints
 62
     0
100
AcDbPoint
 10
120.3156142063692
 20
163.7236594672399
 30
0.0
  0
POINT
  5
26AD
330
26A2
100
AcDbEntity
  8
Defpoints
 62
     0
100
AcDbPoint
 10
119.370657426664
 20
166.9236594672399
 30
0.0
  0
POINT
  5
26AE
330
26A2
100
AcDbEntity
  8
Defpoints
 62
     0
100
AcDbPoint
 10
131.2995214232204
 20
166.9236594672399
 30
0.0
  0
ENDBLK
  5
26A4
330
26A2
100
AcDbEntity
  8
0
100
AcDbBlockEnd
  0
BLOCK
  5
26B3
330
26B2
100
AcDbEntity
  8
0
100
AcDbBlockBegin
  2
*D28
 70
     1
 10
0.0
 20
0.0
 30
0.0
  3
*D28
  1
*D249
  0
LINE
  5
26B5
330
26B2
100
AcDbEntity
  8
寸法
  6
Continuous
 62
     0
370
    -2
100
AcDbLine
 10
120.9799208267121
 20
159.9236594672399
 30
0.0
 11
132.5495214232204
 21
159.9236594672399
 31
0.0
  0
LINE
  5
26B6
330
26B2
100
AcDbEntity
  8
寸法
  6
Continuous
 62
     0
370
    -2
100
AcDbLine
 10
120.8226943453406
 20
163.7236594672399
 30
0.0
 11
132.5495214232204
 21
163.7236594672399
 31
0.0
  0
LINE
  5
26B7
330
26B2
100
AcDbEntity
  8
寸法
  6
Continuous
 62
     0
370
    -2
100
AcDbLine
 10
131.2995214232204
 20
158.4236594672399
 30
0.0
 11
131.2995214232204
 21
156.9236594672399
 31
0.0
  0
LINE
  5
26B8
330
26B2
100
AcDbEntity
  8
寸法
  6
Continuous
 62
     0
370
    -2
100
AcDbLine
 10
131.2995214232204
 20
165.2236594672399
 30
0.0
 11
131.2995214232204
 21
166.7236594672399
 31
0.0
  0
SOLID
  5
26B9
330
26B2
100
AcDbEntity
  8
寸法
 62
     0
100
AcDbTrace
 10
131.5495214232204
 20
158.4236594672399
 30
0.0
 11
131.0495214232204
 21
158.4236594672399
 31
0.0
 12
131.2995214232204
 22
159.9236594672399
 32
0.0
 13
131.2995214232204
 23
159.9236594672399
 33
0.0
  0
SOLID
  5
26BA
330
26B2
100
AcDbEntity
  8
寸法
 62
     0
100
AcDbTrace
 10
131.0495214232204
 20
165.2236594672399
 30
0.0
 11
131.5495214232204
 21
165.2236594672399
 31
0.0
 12
131.2995214232204
 22
163.7236594672399
 32
0.0
 13
131.2995214232204
 23
163.7236594672399
 33
0.0
  0
MTEXT
  5
26BB
330
26B2
100
AcDbEntity
  8
寸法
  6
Continuous
 62
     0
100
AcDbMText
 10
139.2420589844264
 20
161.2304655581487
 30
0.0
 40
4.0
 41
0.0
 46
0.0
 71
     5
 72
     1
  1
1.9
 73
     1
 44
1.0
  0
POINT
  5
26BC
330
26B2
100
AcDbEntity
  8
Defpoints
 62
     0
100
AcDbPoint
 10
120.3549208267121
 20
159.9236594672399
 30
0.0
  0
POINT
  5
26BD
330
26B2
100
AcDbEntity
  8
Defpoints
 62
     0
100
AcDbPoint
 10
120.1976943453406
 20
163.7236594672399
 30
0.0
  0
POINT
  5
26BE
330
26B2
100
AcDbEntity
  8
Defpoints
 62
     0
100
AcDbPoint
 10
131.2995214232204
 20
163.7236594672399
 30
0.0
  0
ENDBLK
  5
26B4
330
26B2
100
AcDbEntity
  8
0
100
AcDbBlockEnd
  0
BLOCK
  5
26C3
330
26C2
100
AcDbEntity
  8
0
100
AcDbBlockBegin
  2
*D29
 70
     1
 10
0.0
 20
0.0
 30
0.0
  3
*D29
  1
*D250
  0
LINE
  5
26C5
330
26C2
100
AcDbEntity
  8
寸法
  6
Continuous
 62
     0
370
    -2
100
AcDbLine
 10
120.0632664635778
 20
166.9259475758967
 30
0.0
 11
132.5495214232204
 21
166.9259475758967
 31
0.0
  0
LINE
  5
26C6
330
26C2
100
AcDbEntity
  8
寸法
  6
Continuous
 62
     0
370
    -2
100
AcDbLine
 10
120.395657426664
 20
175.3236594672399
 30
0.0
 11
132.5495214232204
 21
175.3236594672399
 31
0.0
  0
LINE
  5
26C7
330
26C2
100
AcDbEntity
  8
寸法
  6
Continuous
 62
     0
370
    -2
100
AcDbLine
 10
131.2995214232204
 20
168.4259475758967
 30
0.0
 11
131.2995214232204
 21
168.4998035215683
 31
0.0
  0
LINE
  5
26C8
330
26C2
100
AcDbEntity
  8
寸法
  6
Continuous
 62
     0
370
    -2
100
AcDbLine
 10
131.2995214232204
 20
173.8236594672399
 30
0.0
 11
131.2995214232204
 21
173.7498035215683
 31
0.0
  0
SOLID
  5
26C9
330
26C2
100
AcDbEntity
  8
寸法
 62
     0
100
AcDbTrace
 10
131.0495214232204
 20
168.4259475758967
 30
0.0
 11
131.5495214232204
 21
168.4259475758967
 31
0.0
 12
131.2995214232204
 22
166.9259475758967
 32
0.0
 13
131.2995214232204
 23
166.9259475758967
 33
0.0
  0
SOLID
  5
26CA
330
26C2
100
AcDbEntity
  8
寸法
 62
     0
100
AcDbTrace
 10
131.5495214232204
 20
173.8236594672399
 30
0.0
 11
131.0495214232204
 21
173.8236594672399
 31
0.0
 12
131.2995214232204
 22
175.3236594672399
 32
0.0
 13
131.2995214232204
 23
175.3236594672399
 33
0.0
  0
MTEXT
  5
26CB
330
26C2
100
AcDbEntity
  8
寸法
  6
Continuous
 62
     0
100
AcDbMText
 10
131.2995214232204
 20
171.1248035215683
 30
0.0
 40
4.0
 41
0.0
 46
0.0
 71
     5
 72
     1
  1
4.2
 73
     1
 44
1.0
  0
POINT
  5
26CC
330
26C2
100
AcDbEntity
  8
Defpoints
 62
     0
100
AcDbPoint
 10
119.4382664635778
 20
166.9259475758967
 30
0.0
  0
POINT
  5
26CD
330
26C2
100
AcDbEntity
  8
Defpoints
 62
     0
100
AcDbPoint
 10
119.770657426664
 20
175.3236594672399
 30
0.0
  0
POINT
  5
2F04
330
26C2
100
AcDbEntity
  8
Defpoints
 62
     0
100
AcDbPoint
 10
131.2995214232204
 20
175.3236594672399
 30
0.0
  0
ENDBLK
  5
26C4
330
26C2
100
AcDbEntity
  8
0
100
AcDbBlockEnd
  0
BLOCK
  5
26D2
330
26D1
100
AcDbEntity
  8
0
100
AcDbBlockBegin
  2
*D30
 70
     1
 10
0.0
 20
0.0
 30
0.0
  3
*D30
  1
*D251
  0
LINE
  5
26D4
330
26D1
100
AcDbEntity
  8
寸法
  6
Continuous
 62
     0
370
    -2
100
AcDbLine
 10
72.77065742666394
 20
174.17365946724
 30
0.0
 11
72.77065742666394
 21
181.4551374233195
 31
0.0
  0
LINE
  5
26D5
330
26D1
100
AcDbEntity
  8
寸法
  6
Continuous
 62
     0
370
    -2
100
AcDbLine
 10
70.37065742666397
 20
174.17365946724
 30
0.0
 11
70.37065742666397
 21
181.4551374233195
 31
0.0
  0
LINE
  5
26D6
330
26D1
100
AcDbEntity
  8
寸法
  6
Continuous
 62
     0
370
    -2
100
AcDbLine
 10
74.27065742666394
 20
180.2051374233195
 30
0.0
 11
75.77065742666394
 21
180.2051374233195
 31
0.0
  0
LINE
  5
26D7
330
26D1
100
AcDbEntity
  8
寸法
  6
Continuous
 62
     0
370
    -2
100
AcDbLine
 10
68.87065742666397
 20
180.2051374233195
 30
0.0
 11
67.37065742666397
 21
180.2051374233195
 31
0.0
  0
SOLID
  5
26D8
330
26D1
100
AcDbEntity
  8
寸法
 62
     0
100
AcDbTrace
 10
74.27065742666394
 20
180.4551374233195
 30
0.0
 11
74.27065742666394
 21
179.9551374233195
 31
0.0
 12
72.77065742666394
 22
180.2051374233195
 32
0.0
 13
72.77065742666394
 23
180.2051374233195
 33
0.0
  0
SOLID
  5
26D9
330
26D1
100
AcDbEntity
  8
寸法
 62
     0
100
AcDbTrace
 10
68.87065742666397
 20
179.9551374233195
 30
0.0
 11
68.87065742666397
 21
180.4551374233195
 31
0.0
 12
70.37065742666397
 22
180.2051374233195
 32
0.0
 13
70.37065742666397
 23
180.2051374233195
 33
0.0
  0
MTEXT
  5
26DA
330
26D1
100
AcDbEntity
  8
寸法
  6
Continuous
 62
     0
100
AcDbMText
 10
83.31859153634457
 20
180.2051374233195
 30
0.0
 40
4.0
 41
0.0
 46
0.0
 71
     5
 72
     1
  1
1.2
 73
     1
 44
1.0
  0
POINT
  5
26DB
330
26D1
100
AcDbEntity
  8
Defpoints
 62
     0
100
AcDbPoint
 10
72.77065742666394
 20
173.54865946724
 30
0.0
  0
POINT
  5
26DC
330
26D1
100
AcDbEntity
  8
Defpoints
 62
     0
100
AcDbPoint
 10
70.37065742666397
 20
173.54865946724
 30
0.0
  0
POINT
  5
26DD
330
26D1
100
AcDbEntity
  8
Defpoints
 62
     0
100
AcDbPoint
 10
70.37065742666397
 20
180.2051374233195
 30
0.0
  0
ENDBLK
  5
26D3
330
26D1
100
AcDbEntity
  8
0
100
AcDbBlockEnd
  0
BLOCK
  5
2739
330
2738
100
AcDbEntity
  8
0
100
AcDbBlockBegin
  2
*D31
 70
     1
 10
0.0
 20
0.0
 30
0.0
  3
*D31
  1
*D255
  0
LINE
  5
273B
330
2738
100
AcDbEntity
  8
寸法
  6
Continuous
 62
     0
370
    -2
100
AcDbLine
 10
120.995657426664
 20
105.3796652516883
 30
0.0
 11
129.5924992000002
 21
105.3796652516883
 31
0.0
  0
LINE
  5
273C
330
2738
100
AcDbEntity
  8
寸法
  6
Continuous
 62
     0
370
    -2
100
AcDbLine
 10
120.995657426664
 20
102.9796652516883
 30
0.0
 11
129.5924992000002
 21
102.9796652516883
 31
0.0
  0
LINE
  5
273D
330
2738
100
AcDbEntity
  8
寸法
  6
Continuous
 62
     0
370
    -2
100
AcDbLine
 10
128.3424992000002
 20
106.8796652516883
 30
0.0
 11
128.3424992000002
 21
108.3796652516883
 31
0.0
  0
LINE
  5
273E
330
2738
100
AcDbEntity
  8
寸法
  6
Continuous
 62
     0
370
    -2
100
AcDbLine
 10
128.3424992000002
 20
101.4796652516883
 30
0.0
 11
128.3424992000002
 21
99.97966525168835
 31
0.0
  0
SOLID
  5
273F
330
2738
100
AcDbEntity
  8
寸法
 62
     0
100
AcDbTrace
 10
128.0924992000002
 20
106.8796652516883
 30
0.0
 11
128.5924992000002
 21
106.8796652516883
 31
0.0
 12
128.3424992000002
 22
105.3796652516883
 32
0.0
 13
128.3424992000002
 23
105.3796652516883
 33
0.0
  0
SOLID
  5
2740
330
2738
100
AcDbEntity
  8
寸法
 62
     0
100
AcDbTrace
 10
128.5924992000002
 20
101.4796652516883
 30
0.0
 11
128.0924992000002
 21
101.4796652516883
 31
0.0
 12
128.3424992000002
 22
102.9796652516883
 32
0.0
 13
128.3424992000002
 23
102.9796652516883
 33
0.0
  0
MTEXT
  5
2741
330
2738
100
AcDbEntity
  8
寸法
  6
Continuous
 62
     0
100
AcDbMText
 10
128.3424992000002
 20
96.56199679999997
 30
0.0
 40
4.0
 41
0.0
 46
0.0
 71
     5
 72
     1
  1
1.2
 73
     1
 44
1.0
  0
POINT
  5
2742
330
2738
100
AcDbEntity
  8
Defpoints
 62
     0
100
AcDbPoint
 10
120.370657426664
 20
105.3796652516883
 30
0.0
  0
POINT
  5
2743
330
2738
100
AcDbEntity
  8
Defpoints
 62
     0
100
AcDbPoint
 10
120.370657426664
 20
102.9796652516883
 30
0.0
  0
POINT
  5
2744
330
2738
100
AcDbEntity
  8
Defpoints
 62
     0
100
AcDbPoint
 10
128.3424992000002
 20
102.9796652516883
 30
0.0
  0
ENDBLK
  5
273A
330
2738
100
AcDbEntity
  8
0
100
AcDbBlockEnd
  0
BLOCK
  5
2749
330
2748
100
AcDbEntity
  8
0
100
AcDbBlockBegin
  2
*D32
 70
     1
 10
0.0
 20
0.0
 30
0.0
  3
*D32
  1
*D256
  0
LINE
  5
274B
330
2748
100
AcDbEntity
  8
寸法
  6
Continuous
 62
     0
370
    -2
100
AcDbLine
 10
97.94565742666396
 20
106.9796652516883
 30
0.0
 11
97.26160000000013
 21
106.9796652516883
 31
0.0
  0
LINE
  5
274C
330
2748
100
AcDbEntity
  8
寸法
  6
Continuous
 62
     0
370
    -2
100
AcDbLine
 10
97.94565742666396
 20
102.9796652516883
 30
0.0
 11
97.26160000000013
 21
102.9796652516883
 31
0.0
  0
LINE
  5
274D
330
2748
100
AcDbEntity
  8
寸法
  6
Continuous
 62
     0
370
    -2
100
AcDbLine
 10
98.51160000000013
 20
108.4796652516883
 30
0.0
 11
98.51160000000013
 21
109.9796652516883
 31
0.0
  0
LINE
  5
274E
330
2748
100
AcDbEntity
  8
寸法
  6
Continuous
 62
     0
370
    -2
100
AcDbLine
 10
98.51160000000013
 20
101.4796652516883
 30
0.0
 11
98.51160000000013
 21
99.97966525168835
 31
0.0
  0
SOLID
  5
274F
330
2748
100
AcDbEntity
  8
寸法
 62
     0
100
AcDbTrace
 10
98.26160000000013
 20
108.4796652516883
 30
0.0
 11
98.76160000000013
 21
108.4796652516883
 31
0.0
 12
98.51160000000013
 22
106.9796652516883
 32
0.0
 13
98.51160000000013
 23
106.9796652516883
 33
0.0
  0
SOLID
  5
2750
330
2748
100
AcDbEntity
  8
寸法
 62
     0
100
AcDbTrace
 10
98.76160000000013
 20
101.4796652516883
 30
0.0
 11
98.26160000000013
 21
101.4796652516883
 31
0.0
 12
98.51160000000013
 22
102.9796652516883
 32
0.0
 13
98.51160000000013
 23
102.9796652516883
 33
0.0
  0
MTEXT
  5
2751
330
2748
100
AcDbEntity
  8
寸法
  6
Continuous
 62
     0
100
AcDbMText
 10
98.51160000000013
 20
116.0655104
 30
0.0
 40
4.0
 41
0.0
 46
0.0
 71
     5
 72
     1
  1
2
 73
     1
 44
1.0
  0
POINT
  5
2752
330
2748
100
AcDbEntity
  8
Defpoints
 62
     0
100
AcDbPoint
 10
98.57065742666396
 20
106.9796652516883
 30
0.0
  0
POINT
  5
2753
330
2748
100
AcDbEntity
  8
Defpoints
 62
     0
100
AcDbPoint
 10
98.57065742666396
 20
102.9796652516883
 30
0.0
  0
POINT
  5
2754
330
2748
100
AcDbEntity
  8
Defpoints
 62
     0
100
AcDbPoint
 10
98.51160000000013
 20
102.9796652516883
 30
0.0
  0
ENDBLK
  5
274A
330
2748
100
AcDbEntity
  8
0
100
AcDbBlockEnd
  0
BLOCK
  5
278E
330
278D
100
AcDbEntity
  8
0
100
AcDbBlockBegin
  2
*D33
 70
     1
 10
0.0
 20
0.0
 30
0.0
  3
*D33
  1
*D259
  0
LINE
  5
2790
330
278D
100
AcDbEntity
  8
寸法
  6
Continuous
 62
     0
370
    -2
100
AcDbLine
 10
69.5184460693218
 20
160.869578442473
 30
0.0
 11
68.4071192549165
 21
159.8621298276128
 31
0.0
  0
MTEXT
  5
2791
330
278D
100
AcDbEntity
  8
寸法
  6
Continuous
 62
     0
100
AcDbMText
 10
60.5200938695001
 20
153.4082052985622
 30
0.0
 40
4.0
 41
0.0
 46
0.0
 71
     5
 72
     1
  1
R0.5
 73
     1
 44
1.0
  0
SOLID
  5
2792
330
278D
100
AcDbEntity
  8
寸法
 62
     0
100
AcDbTrace
 10
69.6863541717985
 20
160.6843573067388
 30
0.0
 11
69.3505379668451
 21
161.0547995782073
 31
0.0
 12
70.6297728837271
 22
161.8770270573332
 32
0.0
 13
70.6297728837271
 23
161.8770270573332
 33
0.0
  0
POINT
  5
2793
330
278D
100
AcDbEntity
  8
Defpoints
 62
     0
100
AcDbPoint
 10
70.6297728837271
 20
161.8770270573332
 30
0.0
  0
POINT
  5
2794
330
278D
100
AcDbEntity
  8
Defpoints
 62
     0
100
AcDbPoint
 10
71.37065742666397
 20
162.54865946724
 30
0.0
  0
ENDBLK
  5
278F
330
278D
100
AcDbEntity
  8
0
100
AcDbBlockEnd
  0
BLOCK
  5
28D2
330
28D1
100
AcDbEntity
  8
0
100
AcDbBlockBegin
  2
*D34
 70
     1
 10
0.0
 20
0.0
 30
0.0
  3
*D34
  1
*D261
  0
LINE
  5
28D4
330
28D1
100
AcDbEntity
  8
寸法
  6
Continuous
 62
     0
370
    -2
100
AcDbLine
 10
73.745657426664
 20
159.3281935070343
 30
0.0
 11
44.35183872000002
 21
159.3281935070343
 31
0.0
  0
LINE
  5
28D5
330
28D1
100
AcDbEntity
  8
寸法
  6
Continuous
 62
     0
370
    -2
100
AcDbLine
 10
73.745657426664
 20
157.3236594672399
 30
0.0
 11
44.35183872000002
 21
157.3236594672399
 31
0.0
  0
LINE
  5
28D6
330
28D1
100
AcDbEntity
  8
寸法
  6
Continuous
 62
     0
370
    -2
100
AcDbLine
 10
45.60183872000002
 20
160.8281935070343
 30
0.0
 11
45.60183872000002
 21
162.3281935070343
 31
0.0
  0
LINE
  5
28D7
330
28D1
100
AcDbEntity
  8
寸法
  6
Continuous
 62
     0
370
    -2
100
AcDbLine
 10
45.60183872000002
 20
155.8236594672399
 30
0.0
 11
45.60183872000002
 21
154.3236594672399
 31
0.0
  0
SOLID
  5
28D8
330
28D1
100
AcDbEntity
  8
寸法
 62
     0
100
AcDbTrace
 10
45.35183872000002
 20
160.8281935070343
 30
0.0
 11
45.85183872000002
 21
160.8281935070343
 31
0.0
 12
45.60183872000002
 22
159.3281935070343
 32
0.0
 13
45.60183872000002
 23
159.3281935070343
 33
0.0
  0
SOLID
  5
28D9
330
28D1
100
AcDbEntity
  8
寸法
 62
     0
100
AcDbTrace
 10
45.85183872000002
 20
155.8236594672399
 30
0.0
 11
45.35183872000002
 21
155.8236594672399
 31
0.0
 12
45.60183872000002
 22
157.3236594672399
 32
0.0
 13
45.60183872000002
 23
157.3236594672399
 33
0.0
  0
MTEXT
  5
28DA
330
28D1
100
AcDbEntity
  8
寸法
  6
Continuous
 62
     0
100
AcDbMText
 10
45.60183872000002
 20
149.5714687999999
 30
0.0
 40
4.0
 41
0.0
 46
0.0
 71
     5
 72
     1
  1
1
 73
     1
 44
1.0
  0
POINT
  5
28DB
330
28D1
100
AcDbEntity
  8
Defpoints
 62
     0
100
AcDbPoint
 10
74.370657426664
 20
159.3281935070343
 30
0.0
  0
POINT
  5
28DC
330
28D1
100
AcDbEntity
  8
Defpoints
 62
     0
100
AcDbPoint
 10
74.370657426664
 20
157.3236594672399
 30
0.0
  0
POINT
  5
28DD
330
28D1
100
AcDbEntity
  8
Defpoints
 62
     0
100
AcDbPoint
 10
45.60183872000002
 20
157.3236594672399
 30
0.0
  0
ENDBLK
  5
28D3
330
28D1
100
AcDbEntity
  8
0
100
AcDbBlockEnd
  0
BLOCK
  5
2BE7
330
2BE6
100
AcDbEntity
  8
0
100
AcDbBlockBegin
  2
*D35
 70
     1
 10
0.0
 20
0.0
 30
0.0
  3
*D35
  1
*D263
  0
LINE
  5
2BE9
330
2BE6
100
AcDbEntity
  8
寸法
  6
Continuous
 62
     0
370
    -2
100
AcDbLine
 10
131.0173588546639
 20
46.09412081215515
 30
0.0
 11
131.0173588546639
 21
49.86232218415495
 31
0.0
  0
LINE
  5
2BEA
330
2BE6
100
AcDbEntity
  8
寸法
  6
Continuous
 62
     0
370
    -2
100
AcDbLine
 10
134.017358854664
 20
46.09412081215515
 30
0.0
 11
134.017358854664
 21
49.86232218415495
 31
0.0
  0
LINE
  5
2BEB
330
2BE6
100
AcDbEntity
  8
寸法
  6
Continuous
 62
     0
370
    -2
100
AcDbLine
 10
128.5173588546639
 20
48.61232218415495
 30
0.0
 11
126.0173588546639
 21
48.61232218415495
 31
0.0
  0
LINE
  5
2BEC
330
2BE6
100
AcDbEntity
  8
寸法
  6
Continuous
 62
     0
370
    -2
100
AcDbLine
 10
136.517358854664
 20
48.61232218415495
 30
0.0
 11
139.017358854664
 21
48.61232218415495
 31
0.0
  0
SOLID
  5
2BED
330
2BE6
100
AcDbEntity
  8
寸法
 62
     0
100
AcDbTrace
 10
128.5173588546639
 20
48.19565551748828
 30
0.0
 11
128.5173588546639
 21
49.02898885082161
 31
0.0
 12
131.0173588546639
 22
48.61232218415495
 32
0.0
 13
131.0173588546639
 23
48.61232218415495
 33
0.0
  0
SOLID
  5
2BEE
330
2BE6
100
AcDbEntity
  8
寸法
 62
     0
100
AcDbTrace
 10
136.517358854664
 20
49.02898885082161
 30
0.0
 11
136.517358854664
 21
48.19565551748828
 31
0.0
 12
134.017358854664
 22
48.61232218415495
 32
0.0
 13
134.017358854664
 23
48.61232218415495
 33
0.0
  0
MTEXT
  5
2BEF
330
2BE6
100
AcDbEntity
  8
寸法
  6
Continuous
 62
     0
100
AcDbMText
 10
135.0769806974426
 20
53.49449204015497
 30
0.0
 40
5.0
 41
0.0
 46
0.0
 71
     5
 72
     1
  1
0.6
 73
     1
 44
1.0
  0
POINT
  5
2BF0
330
2BE6
100
AcDbEntity
  8
Defpoints
 62
     0
100
AcDbPoint
 10
131.0173588546639
 20
45.46912081215515
 30
0.0
  0
POINT
  5
2BF1
330
2BE6
100
AcDbEntity
  8
Defpoints
 62
     0
100
AcDbPoint
 10
134.017358854664
 20
45.46912081215515
 30
0.0
  0
POINT
  5
2BF2
330
2BE6
100
AcDbEntity
  8
Defpoints
 62
     0
100
AcDbPoint
 10
134.017358854664
 20
48.61232218415495
 30
0.0
  0
ENDBLK
  5
2BE8
330
2BE6
100
AcDbEntity
  8
0
100
AcDbBlockEnd
  0
BLOCK
  5
2BF7
330
2BF6
100
AcDbEntity
  8
0
100
AcDbBlockBegin
  2
*D36
 70
     1
 10
0.0
 20
0.0
 30
0.0
  3
*D36
  1
*D264
  0
LINE
  5
2BF9
330
2BF6
100
AcDbEntity
  8
寸法
  6
Continuous
 62
     0
370
    -2
100
AcDbLine
 10
133.1423588546639
 20
43.96912081215504
 30
0.0
 11
140.8568290174426
 21
43.96912081215504
 31
0.0
  0
LINE
  5
2BFA
330
2BF6
100
AcDbEntity
  8
寸法
  6
Continuous
 62
     0
370
    -2
100
AcDbLine
 10
134.642358854664
 20
45.46912081215515
 30
0.0
 11
140.8568290174426
 21
45.46912081215515
 31
0.0
  0
LINE
  5
2BFB
330
2BF6
100
AcDbEntity
  8
寸法
  6
Continuous
 62
     0
370
    -2
100
AcDbLine
 10
139.6068290174426
 20
41.46912081215504
 30
0.0
 11
139.6068290174426
 21
38.96912081215504
 31
0.0
  0
LINE
  5
2BFC
330
2BF6
100
AcDbEntity
  8
寸法
  6
Continuous
 62
     0
370
    -2
100
AcDbLine
 10
139.6068290174426
 20
47.96912081215515
 30
0.0
 11
139.6068290174426
 21
50.46912081215515
 31
0.0
  0
SOLID
  5
2BFD
330
2BF6
100
AcDbEntity
  8
寸法
 62
     0
100
AcDbTrace
 10
140.0234956841092
 20
41.46912081215504
 30
0.0
 11
139.1901623507759
 21
41.46912081215504
 31
0.0
 12
139.6068290174426
 22
43.96912081215504
 32
0.0
 13
139.6068290174426
 23
43.96912081215504
 33
0.0
  0
SOLID
  5
2BFE
330
2BF6
100
AcDbEntity
  8
寸法
 62
     0
100
AcDbTrace
 10
139.1901623507759
 20
47.96912081215515
 30
0.0
 11
140.0234956841092
 21
47.96912081215515
 31
0.0
 12
139.6068290174426
 22
45.46912081215515
 32
0.0
 13
139.6068290174426
 23
45.46912081215515
 33
0.0
  0
MTEXT
  5
2BFF
330
2BF6
100
AcDbEntity
  8
寸法
  6
Continuous
 62
     0
100
AcDbMText
 10
139.6068290174426
 20
37.69035456815499
 30
0.0
 40
5.0
 41
0.0
 46
0.0
 71
     5
 72
     1
  1
0.3
 73
     1
 44
1.0
  0
POINT
  5
2C00
330
2BF6
100
AcDbEntity
  8
Defpoints
 62
     0
100
AcDbPoint
 10
132.5173588546639
 20
43.96912081215504
 30
0.0
  0
POINT
  5
2C01
330
2BF6
100
AcDbEntity
  8
Defpoints
 62
     0
100
AcDbPoint
 10
134.017358854664
 20
45.46912081215515
 30
0.0
  0
POINT
  5
2C02
330
2BF6
100
AcDbEntity
  8
Defpoints
 62
     0
100
AcDbPoint
 10
139.6068290174426
 20
45.46912081215515
 30
0.0
  0
ENDBLK
  5
2BF8
330
2BF6
100
AcDbEntity
  8
0
100
AcDbBlockEnd
  0
BLOCK
  5
2D00
330
2CFF
100
AcDbEntity
  8
0
100
AcDbBlockBegin
  2
*D37
 70
     1
 10
0.0
 20
0.0
 30
0.0
  3
*D37
  1
*D265
  0
LINE
  5
2D02
330
2CFF
100
AcDbEntity
  8
寸法
  6
Continuous
 62
     0
370
    -2
100
AcDbLine
 10
169.8605435101199
 20
118.6046652516882
 30
0.0
 11
169.8605435101199
 21
127.5172600943268
 31
0.0
  0
LINE
  5
2D03
330
2CFF
100
AcDbEntity
  8
寸法
  6
Continuous
 62
     0
370
    -2
100
AcDbLine
 10
183.8605435101199
 20
121.6046652516882
 30
0.0
 11
183.8605435101199
 21
127.5172600943268
 31
0.0
  0
LINE
  5
2D04
330
2CFF
100
AcDbEntity
  8
寸法
  6
Continuous
 62
     0
370
    -2
100
AcDbLine
 10
171.3605435101199
 20
126.2672600943268
 30
0.0
 11
174.5688768434532
 21
126.2672600943268
 31
0.0
  0
LINE
  5
2D05
330
2CFF
100
AcDbEntity
  8
寸法
  6
Continuous
 62
     0
370
    -2
100
AcDbLine
 10
182.3605435101199
 20
126.2672600943268
 30
0.0
 11
179.1522101767866
 21
126.2672600943268
 31
0.0
  0
SOLID
  5
2D06
330
2CFF
100
AcDbEntity
  8
寸法
 62
     0
100
AcDbTrace
 10
171.3605435101199
 20
126.5172600943268
 30
0.0
 11
171.3605435101199
 21
126.0172600943268
 31
0.0
 12
169.8605435101199
 22
126.2672600943268
 32
0.0
 13
169.8605435101199
 23
126.2672600943268
 33
0.0
  0
SOLID
  5
2D07
330
2CFF
100
AcDbEntity
  8
寸法
 62
     0
100
AcDbTrace
 10
182.3605435101199
 20
126.0172600943268
 30
0.0
 11
182.3605435101199
 21
126.5172600943268
 31
0.0
 12
183.8605435101199
 22
126.2672600943268
 32
0.0
 13
183.8605435101199
 23
126.2672600943268
 33
0.0
  0
MTEXT
  5
2D08
330
2CFF
100
AcDbEntity
  8
寸法
  6
Continuous
 62
     0
100
AcDbMText
 10
176.8605435101199
 20
126.2672600943268
 30
0.0
 40
2.5
 41
0.0
 46
0.0
 71
     5
 72
     1
  1
14
 73
     1
 44
1.0
  0
POINT
  5
2D09
330
2CFF
100
AcDbEntity
  8
Defpoints
 62
     0
100
AcDbPoint
 10
169.8605435101199
 20
117.9796652516882
 30
0.0
  0
POINT
  5
2D0A
330
2CFF
100
AcDbEntity
  8
Defpoints
 62
     0
100
AcDbPoint
 10
183.8605435101199
 20
120.9796652516882
 30
0.0
  0
POINT
  5
2E5F
330
2CFF
100
AcDbEntity
  8
Defpoints
 62
     0
100
AcDbPoint
 10
183.8605435101199
 20
126.2672600943268
 30
0.0
  0
ENDBLK
  5
2D01
330
2CFF
100
AcDbEntity
  8
0
100
AcDbBlockEnd
  0
BLOCK
  5
2D60
330
2D5F
100
AcDbEntity
  8
0
100
AcDbBlockBegin
  2
*D38
 70
     1
 10
0.0
 20
0.0
 30
0.0
  3
*D38
  1
*D271
  0
LINE
  5
2D62
330
2D5F
100
AcDbEntity
  8
寸法
  6
Continuous
 62
     0
370
    -2
100
AcDbLine
 10
205.8605435101199
 20
121.6046652516882
 30
0.0
 11
205.8605435101199
 21
127.5172600943268
 31
0.0
  0
LINE
  5
2D63
330
2D5F
100
AcDbEntity
  8
寸法
  6
Continuous
 62
     0
370
    -2
100
AcDbLine
 10
219.8605435101199
 20
120.9383682886507
 30
0.0
 11
219.8605435101199
 21
127.5172600943268
 31
0.0
  0
LINE
  5
2D64
330
2D5F
100
AcDbEntity
  8
寸法
  6
Continuous
 62
     0
370
    -2
100
AcDbLine
 10
207.3605435101199
 20
126.2672600943268
 30
0.0
 11
210.5688768434532
 21
126.2672600943268
 31
0.0
  0
LINE
  5
2D65
330
2D5F
100
AcDbEntity
  8
寸法
  6
Continuous
 62
     0
370
    -2
100
AcDbLine
 10
218.3605435101199
 20
126.2672600943268
 30
0.0
 11
215.1522101767866
 21
126.2672600943268
 31
0.0
  0
SOLID
  5
2D66
330
2D5F
100
AcDbEntity
  8
寸法
 62
     0
100
AcDbTrace
 10
207.3605435101199
 20
126.5172600943268
 30
0.0
 11
207.3605435101199
 21
126.0172600943268
 31
0.0
 12
205.8605435101199
 22
126.2672600943268
 32
0.0
 13
205.8605435101199
 23
126.2672600943268
 33
0.0
  0
SOLID
  5
2D67
330
2D5F
100
AcDbEntity
  8
寸法
 62
     0
100
AcDbTrace
 10
218.3605435101199
 20
126.0172600943268
 30
0.0
 11
218.3605435101199
 21
126.5172600943268
 31
0.0
 12
219.8605435101199
 22
126.2672600943268
 32
0.0
 13
219.8605435101199
 23
126.2672600943268
 33
0.0
  0
MTEXT
  5
2D68
330
2D5F
100
AcDbEntity
  8
寸法
  6
Continuous
 62
     0
100
AcDbMText
 10
212.8605435101199
 20
126.2672600943268
 30
0.0
 40
2.5
 41
0.0
 46
0.0
 71
     5
 72
     1
  1
14
 73
     1
 44
1.0
  0
POINT
  5
2D69
330
2D5F
100
AcDbEntity
  8
Defpoints
 62
     0
100
AcDbPoint
 10
205.8605435101199
 20
120.9796652516882
 30
0.0
  0
POINT
  5
2D6A
330
2D5F
100
AcDbEntity
  8
Defpoints
 62
     0
100
AcDbPoint
 10
219.8605435101199
 20
120.3133682886507
 30
0.0
  0
POINT
  5
2E61
330
2D5F
100
AcDbEntity
  8
Defpoints
 62
     0
100
AcDbPoint
 10
219.8605435101199
 20
126.2672600943268
 30
0.0
  0
ENDBLK
  5
2D61
330
2D5F
100
AcDbEntity
  8
0
100
AcDbBlockEnd
  0
BLOCK
  5
2E6D
330
2E6C
100
AcDbEntity
  8
0
100
AcDbBlockBegin
  2
*D39
 70
     1
 10
0.0
 20
0.0
 30
0.0
  3
*D39
  1
*D274
  0
LINE
  5
2E6F
330
2E6C
100
AcDbEntity
  8
寸法
  6
Continuous
 62
     0
370
    -2
100
AcDbLine
 10
183.8605435101199
 20
121.6046652516882
 30
0.0
 11
183.8605435101199
 21
127.5172600943268
 31
0.0
  0
LINE
  5
2E70
330
2E6C
100
AcDbEntity
  8
寸法
  6
Continuous
 62
     0
370
    -2
100
AcDbLine
 10
187.8605435101199
 20
121.6046652516882
 30
0.0
 11
187.8605435101199
 21
127.5172600943268
 31
0.0
  0
LINE
  5
2E71
330
2E6C
100
AcDbEntity
  8
寸法
  6
Continuous
 62
     0
370
    -2
100
AcDbLine
 10
182.3605435101199
 20
126.2672600943268
 30
0.0
 11
180.8605435101199
 21
126.2672600943268
 31
0.0
  0
LINE
  5
2E72
330
2E6C
100
AcDbEntity
  8
寸法
  6
Continuous
 62
     0
370
    -2
100
AcDbLine
 10
189.3605435101199
 20
126.2672600943268
 30
0.0
 11
190.8605435101199
 21
126.2672600943268
 31
0.0
  0
SOLID
  5
2E73
330
2E6C
100
AcDbEntity
  8
寸法
 62
     0
100
AcDbTrace
 10
182.3605435101199
 20
126.0172600943268
 30
0.0
 11
182.3605435101199
 21
126.5172600943268
 31
0.0
 12
183.8605435101199
 22
126.2672600943268
 32
0.0
 13
183.8605435101199
 23
126.2672600943268
 33
0.0
  0
SOLID
  5
2E74
330
2E6C
100
AcDbEntity
  8
寸法
 62
     0
100
AcDbTrace
 10
189.3605435101199
 20
126.5172600943268
 30
0.0
 11
189.3605435101199
 21
126.0172600943268
 31
0.0
 12
187.8605435101199
 22
126.2672600943268
 32
0.0
 13
187.8605435101199
 23
126.2672600943268
 33
0.0
  0
MTEXT
  5
2E75
330
2E6C
100
AcDbEntity
  8
寸法
  6
Continuous
 62
     0
100
AcDbMText
 10
185.9567104615733
 20
126.5227164811994
 30
0.0
 40
2.5
 41
0.0
 46
0.0
 71
     5
 72
     1
  1
4
 73
     1
 44
1.0
  0
POINT
  5
2E76
330
2E6C
100
AcDbEntity
  8
Defpoints
 62
     0
100
AcDbPoint
 10
183.8605435101199
 20
120.9796652516882
 30
0.0
  0
POINT
  5
2E77
330
2E6C
100
AcDbEntity
  8
Defpoints
 62
     0
100
AcDbPoint
 10
187.8605435101199
 20
120.9796652516882
 30
0.0
  0
POINT
  5
2E78
330
2E6C
100
AcDbEntity
  8
Defpoints
 62
     0
100
AcDbPoint
 10
187.8605435101199
 20
126.2672600943268
 30
0.0
  0
ENDBLK
  5
2E6E
330
2E6C
100
AcDbEntity
  8
0
100
AcDbBlockEnd
  0
BLOCK
  5
2E7D
330
2E7C
100
AcDbEntity
  8
0
100
AcDbBlockBegin
  2
*D40
 70
     1
 10
0.0
 20
0.0
 30
0.0
  3
*D40
  1
*D275
  0
LINE
  5
2E7F
330
2E7C
100
AcDbEntity
  8
寸法
  6
Continuous
 62
     0
370
    -2
100
AcDbLine
 10
187.8605435101199
 20
121.6046652516882
 30
0.0
 11
187.8605435101199
 21
127.5172600943268
 31
0.0
  0
LINE
  5
2E80
330
2E7C
100
AcDbEntity
  8
寸法
  6
Continuous
 62
     0
370
    -2
100
AcDbLine
 10
192.8605435101199
 20
121.6046652516882
 30
0.0
 11
192.8605435101199
 21
127.5172600943268
 31
0.0
  0
LINE
  5
2E81
330
2E7C
100
AcDbEntity
  8
寸法
  6
Continuous
 62
     0
370
    -2
100
AcDbLine
 10
189.3605435101199
 20
126.2672600943268
 30
0.0
 11
191.3605435101199
 21
126.2672600943268
 31
0.0
  0
LINE
  5
2E82
330
2E7C
100
AcDbEntity
  8
寸法
  6
Continuous
 62
     0
370
    -2
100
AcDbLine
 10
191.3605435101199
 20
126.2672600943268
 30
0.0
 11
189.3605435101199
 21
126.2672600943268
 31
0.0
  0
SOLID
  5
2E83
330
2E7C
100
AcDbEntity
  8
寸法
 62
     0
100
AcDbTrace
 10
189.3605435101199
 20
126.5172600943268
 30
0.0
 11
189.3605435101199
 21
126.0172600943268
 31
0.0
 12
187.8605435101199
 22
126.2672600943268
 32
0.0
 13
187.8605435101199
 23
126.2672600943268
 33
0.0
  0
SOLID
  5
2E84
330
2E7C
100
AcDbEntity
  8
寸法
 62
     0
100
AcDbTrace
 10
191.3605435101199
 20
126.0172600943268
 30
0.0
 11
191.3605435101199
 21
126.5172600943268
 31
0.0
 12
192.8605435101199
 22
126.2672600943268
 32
0.0
 13
192.8605435101199
 23
126.2672600943268
 33
0.0
  0
MTEXT
  5
2E85
330
2E7C
100
AcDbEntity
  8
寸法
  6
Continuous
 62
     0
100
AcDbMText
 10
190.6589184615733
 20
131.3967374037136
 30
0.0
 40
2.5
 41
0.0
 46
0.0
 71
     5
 72
     1
  1
5
 73
     1
 44
1.0
  0
POINT
  5
2E86
330
2E7C
100
AcDbEntity
  8
Defpoints
 62
     0
100
AcDbPoint
 10
187.8605435101199
 20
120.9796652516882
 30
0.0
  0
POINT
  5
2EB5
330
2E7C
100
AcDbEntity
  8
Defpoints
 62
     0
100
AcDbPoint
 10
192.8605435101199
 20
120.9796652516882
 30
0.0
  0
POINT
  5
383C
330
2E7C
100
AcDbEntity
  8
Defpoints
 62
     0
100
AcDbPoint
 10
192.8605435101199
 20
126.2672600943268
 30
0.0
  0
ENDBLK
  5
2E7E
330
2E7C
100
AcDbEntity
  8
0
100
AcDbBlockEnd
  0
BLOCK
  5
2E93
330
2E92
100
AcDbEntity
  8
0
100
AcDbBlockBegin
  2
*D41
 70
     1
 10
0.0
 20
0.0
 30
0.0
  3
*D41
  1
*D276
  0
LINE
  5
2E95
330
2E92
100
AcDbEntity
  8
寸法
  6
Continuous
 62
     0
370
    -2
100
AcDbLine
 10
192.8605435101199
 20
121.6046652516882
 30
0.0
 11
192.8605435101199
 21
127.5172600943268
 31
0.0
  0
LINE
  5
2E96
330
2E92
100
AcDbEntity
  8
寸法
  6
Continuous
 62
     0
370
    -2
100
AcDbLine
 10
196.8605435101199
 20
121.6046652516882
 30
0.0
 11
196.8605435101199
 21
127.5172600943268
 31
0.0
  0
LINE
  5
2E97
330
2E92
100
AcDbEntity
  8
寸法
  6
Continuous
 62
     0
370
    -2
100
AcDbLine
 10
191.3605435101199
 20
126.2672600943268
 30
0.0
 11
189.8605435101199
 21
126.2672600943268
 31
0.0
  0
LINE
  5
2E98
330
2E92
100
AcDbEntity
  8
寸法
  6
Continuous
 62
     0
370
    -2
100
AcDbLine
 10
198.3605435101199
 20
126.2672600943268
 30
0.0
 11
199.8605435101199
 21
126.2672600943268
 31
0.0
  0
SOLID
  5
2E99
330
2E92
100
AcDbEntity
  8
寸法
 62
     0
100
AcDbTrace
 10
191.3605435101199
 20
126.0172600943268
 30
0.0
 11
191.3605435101199
 21
126.5172600943268
 31
0.0
 12
192.8605435101199
 22
126.2672600943268
 32
0.0
 13
192.8605435101199
 23
126.2672600943268
 33
0.0
  0
SOLID
  5
2E9A
330
2E92
100
AcDbEntity
  8
寸法
 62
     0
100
AcDbTrace
 10
198.3605435101199
 20
126.5172600943268
 30
0.0
 11
198.3605435101199
 21
126.0172600943268
 31
0.0
 12
196.8605435101199
 22
126.2672600943268
 32
0.0
 13
196.8605435101199
 23
126.2672600943268
 33
0.0
  0
MTEXT
  5
2E9B
330
2E92
100
AcDbEntity
  8
寸法
  6
Continuous
 62
     0
100
AcDbMText
 10
194.7398976103733
 20
126.6406363422279
 30
0.0
 40
2.5
 41
0.0
 46
0.0
 71
     5
 72
     1
  1
4
 73
     1
 44
1.0
  0
POINT
  5
2E9C
330
2E92
100
AcDbEntity
  8
Defpoints
 62
     0
100
AcDbPoint
 10
192.8605435101199
 20
120.9796652516882
 30
0.0
  0
POINT
  5
2EBB
330
2E92
100
AcDbEntity
  8
Defpoints
 62
     0
100
AcDbPoint
 10
196.8605435101199
 20
120.9796652516882
 30
0.0
  0
POINT
  5
2EBC
330
2E92
100
AcDbEntity
  8
Defpoints
 62
     0
100
AcDbPoint
 10
196.8605435101199
 20
126.2672600943268
 30
0.0
  0
ENDBLK
  5
2E94
330
2E92
100
AcDbEntity
  8
0
100
AcDbBlockEnd
  0
BLOCK
  5
2EA3
330
2EA2
100
AcDbEntity
  8
0
100
AcDbBlockBegin
  2
*D42
 70
     1
 10
0.0
 20
0.0
 30
0.0
  3
*D42
  1
*D277
  0
LINE
  5
2EA5
330
2EA2
100
AcDbEntity
  8
寸法
  6
Continuous
 62
     0
370
    -2
100
AcDbLine
 10
196.8605435101199
 20
121.6046652516882
 30
0.0
 11
196.8605435101199
 21
127.5172600943268
 31
0.0
  0
LINE
  5
2EA6
330
2EA2
100
AcDbEntity
  8
寸法
  6
Continuous
 62
     0
370
    -2
100
AcDbLine
 10
201.8605435101199
 20
121.6046652516882
 30
0.0
 11
201.8605435101199
 21
127.5172600943268
 31
0.0
  0
LINE
  5
2EA7
330
2EA2
100
AcDbEntity
  8
寸法
  6
Continuous
 62
     0
370
    -2
100
AcDbLine
 10
198.3605435101199
 20
126.2672600943268
 30
0.0
 11
200.3605435101199
 21
126.2672600943268
 31
0.0
  0
LINE
  5
2EA8
330
2EA2
100
AcDbEntity
  8
寸法
  6
Continuous
 62
     0
370
    -2
100
AcDbLine
 10
200.3605435101199
 20
126.2672600943268
 30
0.0
 11
198.3605435101199
 21
126.2672600943268
 31
0.0
  0
SOLID
  5
2EA9
330
2EA2
100
AcDbEntity
  8
寸法
 62
     0
100
AcDbTrace
 10
198.3605435101199
 20
126.5172600943268
 30
0.0
 11
198.3605435101199
 21
126.0172600943268
 31
0.0
 12
196.8605435101199
 22
126.2672600943268
 32
0.0
 13
196.8605435101199
 23
126.2672600943268
 33
0.0
  0
SOLID
  5
2EAA
330
2EA2
100
AcDbEntity
  8
寸法
 62
     0
100
AcDbTrace
 10
200.3605435101199
 20
126.0172600943268
 30
0.0
 11
200.3605435101199
 21
126.5172600943268
 31
0.0
 12
201.8605435101199
 22
126.2672600943268
 32
0.0
 13
201.8605435101199
 23
126.2672600943268
 33
0.0
  0
MTEXT
  5
2EAB
330
2EA2
100
AcDbEntity
  8
寸法
  6
Continuous
 62
     0
100
AcDbMText
 10
199.5353052922019
 20
131.4753506443994
 30
0.0
 40
2.5
 41
0.0
 46
0.0
 71
     5
 72
     1
  1
5
 73
     1
 44
1.0
  0
POINT
  5
2EAC
330
2EA2
100
AcDbEntity
  8
Defpoints
 62
     0
100
AcDbPoint
 10
196.8605435101199
 20
120.9796652516882
 30
0.0
  0
POINT
  5
2EB8
330
2EA2
100
AcDbEntity
  8
Defpoints
 62
     0
100
AcDbPoint
 10
201.8605435101199
 20
120.9796652516882
 30
0.0
  0
POINT
  5
383D
330
2EA2
100
AcDbEntity
  8
Defpoints
 62
     0
100
AcDbPoint
 10
201.8605435101199
 20
126.2672600943268
 30
0.0
  0
ENDBLK
  5
2EA4
330
2EA2
100
AcDbEntity
  8
0
100
AcDbBlockEnd
  0
BLOCK
  5
2EC1
330
2EC0
100
AcDbEntity
  8
0
100
AcDbBlockBegin
  2
*D43
 70
     1
 10
0.0
 20
0.0
 30
0.0
  3
*D43
  1
*D278
  0
LINE
  5
2EC3
330
2EC0
100
AcDbEntity
  8
寸法
  6
Continuous
 62
     0
370
    -2
100
AcDbLine
 10
201.8605435101199
 20
121.6046652516882
 30
0.0
 11
201.8605435101199
 21
127.5172600943268
 31
0.0
  0
LINE
  5
2EC4
330
2EC0
100
AcDbEntity
  8
寸法
  6
Continuous
 62
     0
370
    -2
100
AcDbLine
 10
205.8605435101199
 20
121.6046652516882
 30
0.0
 11
205.8605435101199
 21
127.5172600943268
 31
0.0
  0
LINE
  5
2EC5
330
2EC0
100
AcDbEntity
  8
寸法
  6
Continuous
 62
     0
370
    -2
100
AcDbLine
 10
200.3605435101199
 20
126.2672600943268
 30
0.0
 11
198.8605435101199
 21
126.2672600943268
 31
0.0
  0
LINE
  5
2EC6
330
2EC0
100
AcDbEntity
  8
寸法
  6
Continuous
 62
     0
370
    -2
100
AcDbLine
 10
207.3605435101199
 20
126.2672600943268
 30
0.0
 11
208.8605435101199
 21
126.2672600943268
 31
0.0
  0
SOLID
  5
2EC7
330
2EC0
100
AcDbEntity
  8
寸法
 62
     0
100
AcDbTrace
 10
200.3605435101199
 20
126.0172600943268
 30
0.0
 11
200.3605435101199
 21
126.5172600943268
 31
0.0
 12
201.8605435101199
 22
126.2672600943268
 32
0.0
 13
201.8605435101199
 23
126.2672600943268
 33
0.0
  0
SOLID
  5
2EC8
330
2EC0
100
AcDbEntity
  8
寸法
 62
     0
100
AcDbTrace
 10
207.3605435101199
 20
126.5172600943268
 30
0.0
 11
207.3605435101199
 21
126.0172600943268
 31
0.0
 12
205.8605435101199
 22
126.2672600943268
 32
0.0
 13
205.8605435101199
 23
126.2672600943268
 33
0.0
  0
MTEXT
  5
2EC9
330
2EC0
100
AcDbEntity
  8
寸法
  6
Continuous
 62
     0
100
AcDbMText
 10
203.8590335299161
 20
126.7192495829136
 30
0.0
 40
2.5
 41
0.0
 46
0.0
 71
     5
 72
     1
  1
4
 73
     1
 44
1.0
  0
POINT
  5
2ECA
330
2EC0
100
AcDbEntity
  8
Defpoints
 62
     0
100
AcDbPoint
 10
201.8605435101199
 20
120.9796652516882
 30
0.0
  0
POINT
  5
2ECB
330
2EC0
100
AcDbEntity
  8
Defpoints
 62
     0
100
AcDbPoint
 10
205.8605435101199
 20
120.9796652516882
 30
0.0
  0
POINT
  5
2ECC
330
2EC0
100
AcDbEntity
  8
Defpoints
 62
     0
100
AcDbPoint
 10
205.8605435101199
 20
126.2672600943268
 30
0.0
  0
ENDBLK
  5
2EC2
330
2EC0
100
AcDbEntity
  8
0
100
AcDbBlockEnd
  0
BLOCK
  5
2ED1
330
2ED0
100
AcDbEntity
  8
0
100
AcDbBlockBegin
  2
*D44
 70
     1
 10
0.0
 20
0.0
 30
0.0
  3
*D44
  1
*D279
  0
LINE
  5
2ED3
330
2ED0
100
AcDbEntity
  8
寸法
  6
Continuous
 62
     0
370
    -2
100
AcDbLine
 10
220.8855435101199
 20
120.9796652516882
 30
0.0
 11
223.6381081447733
 21
120.9796652516882
 31
0.0
  0
LINE
  5
2ED4
330
2ED0
100
AcDbEntity
  8
寸法
  6
Continuous
 62
     0
370
    -2
100
AcDbLine
 10
206.4855435101199
 20
118.9796652516882
 30
0.0
 11
223.6381081447733
 21
118.9796652516882
 31
0.0
  0
LINE
  5
2ED5
330
2ED0
100
AcDbEntity
  8
寸法
  6
Continuous
 62
     0
370
    -2
100
AcDbLine
 10
222.3881081447733
 20
122.4796652516882
 30
0.0
 11
222.3881081447733
 21
123.9796652516882
 31
0.0
  0
LINE
  5
2ED6
330
2ED0
100
AcDbEntity
  8
寸法
  6
Continuous
 62
     0
370
    -2
100
AcDbLine
 10
222.3881081447733
 20
117.4796652516882
 30
0.0
 11
222.3881081447733
 21
115.9796652516882
 31
0.0
  0
SOLID
  5
2ED7
330
2ED0
100
AcDbEntity
  8
寸法
 62
     0
100
AcDbTrace
 10
222.1381081447733
 20
122.4796652516882
 30
0.0
 11
222.6381081447733
 21
122.4796652516882
 31
0.0
 12
222.3881081447733
 22
120.9796652516882
 32
0.0
 13
222.3881081447733
 23
120.9796652516882
 33
0.0
  0
SOLID
  5
2ED8
330
2ED0
100
AcDbEntity
  8
寸法
 62
     0
100
AcDbTrace
 10
222.6381081447733
 20
117.4796652516882
 30
0.0
 11
222.1381081447733
 21
117.4796652516882
 31
0.0
 12
222.3881081447733
 22
118.9796652516882
 32
0.0
 13
222.3881081447733
 23
118.9796652516882
 33
0.0
  0
MTEXT
  5
2ED9
330
2ED0
100
AcDbEntity
  8
寸法
  6
Continuous
 62
     0
100
AcDbMText
 10
225.5101103573447
 20
118.4650440405136
 30
0.0
 40
2.5
 41
0.0
 46
0.0
 71
     5
 72
     1
  1
2
 73
     1
 44
1.0
  0
POINT
  5
2EDA
330
2ED0
100
AcDbEntity
  8
Defpoints
 62
     0
100
AcDbPoint
 10
220.2605435101199
 20
120.9796652516882
 30
0.0
  0
POINT
  5
2EDB
330
2ED0
100
AcDbEntity
  8
Defpoints
 62
     0
100
AcDbPoint
 10
205.8605435101199
 20
118.9796652516882
 30
0.0
  0
POINT
  5
2EDC
330
2ED0
100
AcDbEntity
  8
Defpoints
 62
     0
100
AcDbPoint
 10
222.3881081447733
 20
118.9796652516882
 30
0.0
  0
ENDBLK
  5
2ED2
330
2ED0
100
AcDbEntity
  8
0
100
AcDbBlockEnd
  0
BLOCK
  5
2EF2
330
2EF1
100
AcDbEntity
  8
0
100
AcDbBlockBegin
  2
*D45
 70
     1
 10
0.0
 20
0.0
 30
0.0
  3
*D45
  1
*D280
  0
LINE
  5
2EF4
330
2EF1
100
AcDbEntity
  8
寸法
  6
Continuous
 62
     0
370
    -2
100
AcDbLine
 10
70.42927844762033
 20
176.6396485902314
 30
0.0
 11
69.86445106019414
 21
178.0292420640262
 31
0.0
  0
MTEXT
  5
2EF5
330
2EF1
100
AcDbEntity
  8
寸法
  6
Continuous
 62
     0
100
AcDbMText
 10
63.81731975098548
 20
183.8594981626159
 30
0.0
 40
4.0
 41
0.0
 46
0.0
 71
     5
 72
     1
  1
R0.5
 73
     1
 44
1.0
  0
SOLID
  5
2EF6
330
2EF1
100
AcDbEntity
  8
寸法
 62
     0
100
AcDbTrace
 10
70.19767953532119
 20
176.545510692327
 30
0.0
 11
70.66087735991948
 21
176.7337864881357
 31
0.0
 12
70.99410583504653
 22
175.2500551164365
 32
0.0
 13
70.99410583504653
 23
175.2500551164365
 33
0.0
  0
POINT
  5
2EF7
330
2EF1
100
AcDbEntity
  8
Defpoints
 62
     0
100
AcDbPoint
 10
70.99410583504653
 20
175.2500551164365
 30
0.0
  0
POINT
  5
2EF8
330
2EF1
100
AcDbEntity
  8
Defpoints
 62
     0
100
AcDbPoint
 10
71.370657426664
 20
174.3236594672399
 30
0.0
  0
ENDBLK
  5
2EF3
330
2EF1
100
AcDbEntity
  8
0
100
AcDbBlockEnd
  0
BLOCK
  5
2EFD
330
2EFC
100
AcDbEntity
  8
0
100
AcDbBlockBegin
  2
*D46
 70
     1
 10
0.0
 20
0.0
 30
0.0
  3
*D46
  1
*D281
  0
LINE
  5
2EFF
330
2EFC
100
AcDbEntity
  8
寸法
  6
Continuous
 62
     0
370
    -2
100
AcDbLine
 10
121.3430116310367
 20
176.2672906709386
 30
0.0
 11
122.2864241536604
 21
177.4334693931578
 31
0.0
  0
MTEXT
  5
2F00
330
2EFC
100
AcDbEntity
  8
寸法
  6
Continuous
 62
     0
100
AcDbMText
 10
130.1794852915569
 20
178.698815286273
 30
0.0
 40
4.0
 41
0.0
 46
0.0
 71
     5
 72
     1
  1
R0.5
 73
     1
 44
1.0
  0
SOLID
  5
2F01
330
2EFC
100
AcDbEntity
  8
寸法
 62
     0
100
AcDbTrace
 10
121.1486485106668
 20
176.4245260913759
 30
0.0
 11
121.5373747514066
 21
176.1100552505013
 31
0.0
 12
120.3995991084131
 22
175.1011119487194
 32
0.0
 13
120.3995991084131
 23
175.1011119487194
 33
0.0
  0
POINT
  5
2F02
330
2EFC
100
AcDbEntity
  8
Defpoints
 62
     0
100
AcDbPoint
 10
120.3995991084131
 20
175.1011119487194
 30
0.0
  0
POINT
  5
2F03
330
2EFC
100
AcDbEntity
  8
Defpoints
 62
     0
100
AcDbPoint
 10
119.770657426664
 20
174.3236594672399
 30
0.0
  0
ENDBLK
  5
2EFE
330
2EFC
100
AcDbEntity
  8
0
100
AcDbBlockEnd
  0
BLOCK
  5
2F09
330
2F08
100
AcDbEntity
  8
0
100
AcDbBlockBegin
  2
*D47
 70
     1
 10
0.0
 20
0.0
 30
0.0
  3
*D47
  1
*D282
  0
LINE
  5
2F0B
330
2F08
100
AcDbEntity
  8
寸法
  6
Continuous
 62
     0
370
    -2
100
AcDbLine
 10
69.745657426664
 20
173.3236594672399
 30
0.0
 11
61.14069142857143
 21
173.3236594672399
 31
0.0
  0
LINE
  5
2F0C
330
2F08
100
AcDbEntity
  8
寸法
  6
Continuous
 62
     0
370
    -2
100
AcDbLine
 10
69.74565742666397
 20
175.3236594672399
 30
0.0
 11
61.14069142857143
 21
175.3236594672399
 31
0.0
  0
LINE
  5
2F0D
330
2F08
100
AcDbEntity
  8
寸法
  6
Continuous
 62
     0
370
    -2
100
AcDbLine
 10
62.39069142857143
 20
171.8236594672399
 30
0.0
 11
62.39069142857143
 21
170.3236594672399
 31
0.0
  0
LINE
  5
2F0E
330
2F08
100
AcDbEntity
  8
寸法
  6
Continuous
 62
     0
370
    -2
100
AcDbLine
 10
62.39069142857143
 20
176.8236594672399
 30
0.0
 11
62.39069142857143
 21
178.3236594672399
 31
0.0
  0
SOLID
  5
2F0F
330
2F08
100
AcDbEntity
  8
寸法
 62
     0
100
AcDbTrace
 10
62.64069142857143
 20
171.8236594672399
 30
0.0
 11
62.14069142857143
 21
171.8236594672399
 31
0.0
 12
62.39069142857143
 22
173.3236594672399
 32
0.0
 13
62.39069142857143
 23
173.3236594672399
 33
0.0
  0
SOLID
  5
2F10
330
2F08
100
AcDbEntity
  8
寸法
 62
     0
100
AcDbTrace
 10
62.14069142857143
 20
176.8236594672399
 30
0.0
 11
62.64069142857143
 21
176.8236594672399
 31
0.0
 12
62.39069142857143
 22
175.3236594672399
 32
0.0
 13
62.39069142857143
 23
175.3236594672399
 33
0.0
  0
MTEXT
  5
2F11
330
2F08
100
AcDbEntity
  8
寸法
  6
Continuous
 62
     0
100
AcDbMText
 10
59.89564228571429
 20
173.466736
 30
0.0
 40
4.0
 41
0.0
 46
0.0
 71
     5
 72
     1
  1
1
 73
     1
 44
1.0
  0
POINT
  5
2F12
330
2F08
100
AcDbEntity
  8
Defpoints
 62
     0
100
AcDbPoint
 10
70.370657426664
 20
173.3236594672399
 30
0.0
  0
POINT
  5
2F13
330
2F08
100
AcDbEntity
  8
Defpoints
 62
     0
100
AcDbPoint
 10
70.37065742666397
 20
175.3236594672399
 30
0.0
  0
POINT
  5
2F14
330
2F08
100
AcDbEntity
  8
Defpoints
 62
     0
100
AcDbPoint
 10
62.39069142857143
 20
175.3236594672399
 30
0.0
  0
ENDBLK
  5
2F0A
330
2F08
100
AcDbEntity
  8
0
100
AcDbBlockEnd
  0
BLOCK
  5
36F8
330
36F7
100
AcDbEntity
  8
0
100
AcDbBlockBegin
  2
*D48
 70
     1
 10
0.0
 20
0.0
 30
0.0
  3
*D48
  1
*D362
  0
LINE
  5
36FA
330
36F7
100
AcDbEntity
  8
寸法
  6
Continuous
 62
     0
370
    -2
100
AcDbLine
 10
88.59565742666405
 20
166.9236594672399
 30
0.0
 11
94.82988437182212
 21
166.9236594672399
 31
0.0
  0
LINE
  5
36FB
330
36F7
100
AcDbEntity
  8
寸法
  6
Continuous
 62
     0
370
    -2
100
AcDbLine
 10
86.77347646325069
 20
159.9236594672399
 30
0.0
 11
94.82988437182212
 21
159.9236594672399
 31
0.0
  0
LINE
  5
36FC
330
36F7
100
AcDbEntity
  8
寸法
  6
Continuous
 62
     0
370
    -2
100
AcDbLine
 10
93.57988437182212
 20
165.4236594672399
 30
0.0
 11
93.57988437182212
 21
161.4236594672399
 31
0.0
  0
SOLID
  5
36FD
330
36F7
100
AcDbEntity
  8
寸法
 62
     0
100
AcDbTrace
 10
93.82988437182212
 20
165.4236594672399
 30
0.0
 11
93.32988437182212
 21
165.4236594672399
 31
0.0
 12
93.57988437182212
 22
166.9236594672399
 32
0.0
 13
93.57988437182212
 23
166.9236594672399
 33
0.0
  0
SOLID
  5
36FE
330
36F7
100
AcDbEntity
  8
寸法
 62
     0
100
AcDbTrace
 10
93.32988437182212
 20
161.4236594672399
 30
0.0
 11
93.82988437182212
 21
161.4236594672399
 31
0.0
 12
93.57988437182212
 22
159.9236594672399
 32
0.0
 13
93.57988437182212
 23
159.9236594672399
 33
0.0
  0
MTEXT
  5
36FF
330
36F7
100
AcDbEntity
  8
寸法
  6
Continuous
 62
     0
100
AcDbMText
 10
100.0286267718221
 20
162.8173886670307
 30
0.0
 40
4.0
 41
0.0
 46
0.0
 71
     5
 72
     1
  1
3.5
 73
     1
 44
1.0
  0
POINT
  5
3700
330
36F7
100
AcDbEntity
  8
Defpoints
 62
     0
100
AcDbPoint
 10
87.97065742666405
 20
166.9236594672399
 30
0.0
  0
POINT
  5
3701
330
36F7
100
AcDbEntity
  8
Defpoints
 62
     0
100
AcDbPoint
 10
86.14847646325069
 20
159.9236594672399
 30
0.0
  0
POINT
  5
3702
330
36F7
100
AcDbEntity
  8
Defpoints
 62
     0
100
AcDbPoint
 10
93.57988437182212
 20
159.9236594672399
 30
0.0
  0
ENDBLK
  5
36F9
330
36F7
100
AcDbEntity
  8
0
100
AcDbBlockEnd
  0
BLOCK
  5
381F
330
381E
100
AcDbEntity
  8
0
100
AcDbBlockBegin
  2
*D49
 70
     1
 10
0.0
 20
0.0
 30
0.0
  3
*D49
  1

  0
LINE
  5
3821
330
381E
100
AcDbEntity
  8
寸法
  6
Continuous
 62
     0
370
    -2
100
AcDbLine
 10
92.10712326530623
 20
104.0726465986394
 30
0.0
 11
92.10712326530623
 21
111.8504959293793
 31
0.0
  0
LINE
  5
3822
330
381E
100
AcDbEntity
  8
寸法
  6
Continuous
 62
     0
370
    -2
100
AcDbLine
 10
117.1071232653062
 20
100.3726465986394
 30
0.0
 11
117.1071232653062
 21
111.8504959293793
 31
0.0
  0
LINE
  5
3823
330
381E
100
AcDbEntity
  8
寸法
  6
Continuous
 62
     0
370
    -2
100
AcDbLine
 10
93.60712326530623
 20
110.6004959293793
 30
0.0
 11
102.7487899319729
 21
110.6004959293793
 31
0.0
  0
LINE
  5
3824
330
381E
100
AcDbEntity
  8
寸法
  6
Continuous
 62
     0
370
    -2
100
AcDbLine
 10
115.6071232653062
 20
110.6004959293793
 30
0.0
 11
108.1654565986396
 21
110.6004959293793
 31
0.0
  0
SOLID
  5
3825
330
381E
100
AcDbEntity
  8
寸法
 62
     0
100
AcDbTrace
 10
93.60712326530623
 20
110.8504959293793
 30
0.0
 11
93.60712326530623
 21
110.3504959293793
 31
0.0
 12
92.10712326530623
 22
110.6004959293793
 32
0.0
 13
92.10712326530623
 23
110.6004959293793
 33
0.0
  0
SOLID
  5
3826
330
381E
100
AcDbEntity
  8
寸法
 62
     0
100
AcDbTrace
 10
115.6071232653062
 20
110.3504959293793
 30
0.0
 11
115.6071232653062
 21
110.8504959293793
 31
0.0
 12
117.1071232653062
 22
110.6004959293793
 32
0.0
 13
117.1071232653062
 23
110.6004959293793
 33
0.0
  0
MTEXT
  5
3827
330
381E
100
AcDbEntity
  8
寸法
  6
Continuous
 62
     0
100
AcDbMText
 10
105.4571232653062
 20
110.6004959293793
 30
0.0
 40
2.5
 41
0.0
 46
0.0
 71
     5
 72
     1
  1
25
 73
     1
 44
1.0
  0
POINT
  5
3828
330
381E
100
AcDbEntity
  8
Defpoints
 62
     0
100
AcDbPoint
 10
92.10712326530623
 20
103.4476465986394
 30
0.0
  0
POINT
  5
3829
330
381E
100
AcDbEntity
  8
Defpoints
 62
     0
100
AcDbPoint
 10
117.1071232653062
 20
99.74764659863942
 30
0.0
  0
POINT
  5
382A
330
381E
100
AcDbEntity
  8
Defpoints
 62
     0
100
AcDbPoint
 10
117.1071232653062
 20
110.6004959293793
 30
0.0
  0
ENDBLK
  5
3820
330
381E
100
AcDbEntity
  8
0
100
AcDbBlockEnd
  0
BLOCK
  5
382F
330
382E
100
AcDbEntity
  8
0
100
AcDbBlockBegin
  2
*D50
 70
     1
 10
0.0
 20
0.0
 30
0.0
  3
*D50
  1

  0
LINE
  5
3831
330
382E
100
AcDbEntity
  8
寸法
  6
Continuous
 62
     0
370
    -2
100
AcDbLine
 10
92.10712326530623
 20
104.0726465986394
 30
0.0
 11
92.10712326530623
 21
119.455801933259
 31
0.0
  0
LINE
  5
3832
330
382E
100
AcDbEntity
  8
寸法
  6
Continuous
 62
     0
370
    -2
100
AcDbLine
 10
117.3071232653062
 20
104.0726465986394
 30
0.0
 11
117.3071232653062
 21
119.455801933259
 31
0.0
  0
LINE
  5
3833
330
382E
100
AcDbEntity
  8
寸法
  6
Continuous
 62
     0
370
    -2
100
AcDbLine
 10
93.60712326530623
 20
118.205801933259
 30
0.0
 11
101.0821232653062
 21
118.205801933259
 31
0.0
  0
LINE
  5
3834
330
382E
100
AcDbEntity
  8
寸法
  6
Continuous
 62
     0
370
    -2
100
AcDbLine
 10
115.8071232653062
 20
118.205801933259
 30
0.0
 11
109.8321232653062
 21
118.205801933259
 31
0.0
  0
SOLID
  5
3835
330
382E
100
AcDbEntity
  8
寸法
 62
     0
100
AcDbTrace
 10
93.60712326530623
 20
118.455801933259
 30
0.0
 11
93.60712326530623
 21
117.955801933259
 31
0.0
 12
92.10712326530623
 22
118.205801933259
 32
0.0
 13
92.10712326530623
 23
118.205801933259
 33
0.0
  0
SOLID
  5
3836
330
382E
100
AcDbEntity
  8
寸法
 62
     0
100
AcDbTrace
 10
115.8071232653062
 20
117.955801933259
 30
0.0
 11
115.8071232653062
 21
118.455801933259
 31
0.0
 12
117.3071232653062
 22
118.205801933259
 32
0.0
 13
117.3071232653062
 23
118.205801933259
 33
0.0
  0
MTEXT
  5
3837
330
382E
100
AcDbEntity
  8
寸法
  6
Continuous
 62
     0
100
AcDbMText
 10
105.4571232653062
 20
118.205801933259
 30
0.0
 40
2.5
 41
0.0
 46
0.0
 71
     5
 72
     1
  1
25.2
 73
     1
 44
1.0
  0
POINT
  5
3838
330
382E
100
AcDbEntity
  8
Defpoints
 62
     0
100
AcDbPoint
 10
92.10712326530623
 20
103.4476465986394
 30
0.0
  0
POINT
  5
3839
330
382E
100
AcDbEntity
  8
Defpoints
 62
     0
100
AcDbPoint
 10
117.3071232653062
 20
103.4476465986394
 30
0.0
  0
POINT
  5
383A
330
382E
100
AcDbEntity
  8
Defpoints
 62
     0
100
AcDbPoint
 10
117.3071232653062
 20
118.205801933259
 30
0.0
  0
ENDBLK
  5
3830
330
382E
100
AcDbEntity
  8
0
100
AcDbBlockEnd
  0
BLOCK
  5
3842
330
3841
100
AcDbEntity
  8
0
100
AcDbBlockBegin
  2
*D51
 70
     1
 10
0.0
 20
0.0
 30
0.0
  3
*D51
  1

  0
LINE
  5
3844
330
3841
100
AcDbEntity
  8
寸法
  6
Continuous
 62
     0
370
    -2
100
AcDbLine
 10
91.98212326530623
 20
103.9476465986394
 30
0.0
 11
81.24087827290857
 21
103.9476465986394
 31
0.0
  0
LINE
  5
3845
330
3841
100
AcDbEntity
  8
寸法
  6
Continuous
 62
     0
370
    -2
100
AcDbLine
 10
91.98212326530623
 20
96.94764659863935
 30
0.0
 11
81.24087827290857
 21
96.94764659863935
 31
0.0
  0
LINE
  5
3846
330
3841
100
AcDbEntity
  8
寸法
  6
Continuous
 62
     0
370
    -2
100
AcDbLine
 10
82.49087827290857
 20
102.4476465986394
 30
0.0
 11
82.49087827290857
 21
98.44764659863935
 31
0.0
  0
LINE
  5
3847
330
3841
100
AcDbEntity
  8
寸法
  6
Continuous
 62
     0
370
    -2
100
AcDbLine
 10
82.49087827290857
 20
98.44764659863935
 30
0.0
 11
82.49087827290857
 21
102.4476465986394
 31
0.0
  0
SOLID
  5
3848
330
3841
100
AcDbEntity
  8
寸法
 62
     0
100
AcDbTrace
 10
82.74087827290857
 20
102.4476465986394
 30
0.0
 11
82.24087827290857
 21
102.4476465986394
 31
0.0
 12
82.49087827290857
 22
103.9476465986394
 32
0.0
 13
82.49087827290857
 23
103.9476465986394
 33
0.0
  0
SOLID
  5
3849
330
3841
100
AcDbEntity
  8
寸法
 62
     0
100
AcDbTrace
 10
82.24087827290857
 20
98.44764659863935
 30
0.0
 11
82.74087827290857
 21
98.44764659863935
 31
0.0
 12
82.49087827290857
 22
96.94764659863935
 32
0.0
 13
82.49087827290857
 23
96.94764659863935
 33
0.0
  0
MTEXT
  5
384A
330
3841
100
AcDbEntity
  8
寸法
  6
Continuous
 62
     0
100
AcDbMText
 10
79.85858167858251
 20
100.673376177888
 30
0.0
 40
2.5
 41
0.0
 46
0.0
 71
     5
 72
     1
  1
7
 73
     1
 44
1.0
  0
POINT
  5
384B
330
3841
100
AcDbEntity
  8
Defpoints
 62
     0
100
AcDbPoint
 10
92.60712326530623
 20
103.9476465986394
 30
0.0
  0
POINT
  5
384C
330
3841
100
AcDbEntity
  8
Defpoints
 62
     0
100
AcDbPoint
 10
92.60712326530623
 20
96.94764659863935
 30
0.0
  0
POINT
  5
384D
330
3841
100
AcDbEntity
  8
Defpoints
 62
     0
100
AcDbPoint
 10
82.49087827290857
 20
96.94764659863935
 30
0.0
  0
ENDBLK
  5
3843
330
3841
100
AcDbEntity
  8
0
100
AcDbBlockEnd
  0
BLOCK
  5
3852
330
3851
100
AcDbEntity
  8
0
100
AcDbBlockBegin
  2
*D52
 70
     1
 10
0.0
 20
0.0
 30
0.0
  3
*D52
  1

  0
LINE
  5
3854
330
3851
100
AcDbEntity
  8
寸法
  6
Continuous
 62
     0
370
    -2
100
AcDbLine
 10
92.10712326530623
 20
96.82264659863935
 30
0.0
 11
92.10712326530623
 21
89.4825855099037
 31
0.0
  0
LINE
  5
3855
330
3851
100
AcDbEntity
  8
寸法
  6
Continuous
 62
     0
370
    -2
100
AcDbLine
 10
94.10712326530623
 20
94.32264659863935
 30
0.0
 11
94.10712326530623
 21
89.4825855099037
 31
0.0
  0
LINE
  5
3856
330
3851
100
AcDbEntity
  8
寸法
  6
Continuous
 62
     0
370
    -2
100
AcDbLine
 10
90.60712326530623
 20
90.7325855099037
 30
0.0
 11
89.10712326530623
 21
90.7325855099037
 31
0.0
  0
LINE
  5
3857
330
3851
100
AcDbEntity
  8
寸法
  6
Continuous
 62
     0
370
    -2
100
AcDbLine
 10
95.60712326530623
 20
90.7325855099037
 30
0.0
 11
97.10712326530623
 21
90.7325855099037
 31
0.0
  0
SOLID
  5
3858
330
3851
100
AcDbEntity
  8
寸法
 62
     0
100
AcDbTrace
 10
90.60712326530623
 20
90.4825855099037
 30
0.0
 11
90.60712326530623
 21
90.9825855099037
 31
0.0
 12
92.10712326530623
 22
90.7325855099037
 32
0.0
 13
92.10712326530623
 23
90.7325855099037
 33
0.0
  0
SOLID
  5
3859
330
3851
100
AcDbEntity
  8
寸法
 62
     0
100
AcDbTrace
 10
95.60712326530623
 20
90.9825855099037
 30
0.0
 11
95.60712326530623
 21
90.4825855099037
 31
0.0
 12
94.10712326530623
 22
90.7325855099037
 32
0.0
 13
94.10712326530623
 23
90.7325855099037
 33
0.0
  0
MTEXT
  5
385A
330
3851
100
AcDbEntity
  8
寸法
  6
Continuous
 62
     0
100
AcDbMText
 10
93.09071084557527
 20
86.92349749693776
 30
0.0
 40
2.5
 41
0.0
 46
0.0
 71
     5
 72
     1
  1
2
 73
     1
 44
1.0
  0
POINT
  5
385B
330
3851
100
AcDbEntity
  8
Defpoints
 62
     0
100
AcDbPoint
 10
92.10712326530623
 20
97.44764659863935
 30
0.0
  0
POINT
  5
385C
330
3851
100
AcDbEntity
  8
Defpoints
 62
     0
100
AcDbPoint
 10
94.10712326530623
 20
94.94764659863935
 30
0.0
  0
POINT
  5
385D
330
3851
100
AcDbEntity
  8
Defpoints
 62
     0
100
AcDbPoint
 10
94.10712326530623
 20
90.7325855099037
 30
0.0
  0
ENDBLK
  5
3853
330
3851
100
AcDbEntity
  8
0
100
AcDbBlockEnd
  0
BLOCK
  5
3862
330
3861
100
AcDbEntity
  8
0
100
AcDbBlockBegin
  2
*D53
 70
     1
 10
0.0
 20
0.0
 30
0.0
  3
*D53
  1

  0
LINE
  5
3864
330
3861
100
AcDbEntity
  8
寸法
  6
Continuous
 62
     0
370
    -2
100
AcDbLine
 10
93.48212326530623
 20
94.94764659863935
 30
0.0
 11
81.24087827290857
 21
94.94764659863935
 31
0.0
  0
LINE
  5
3865
330
3861
100
AcDbEntity
  8
寸法
  6
Continuous
 62
     0
370
    -2
100
AcDbLine
 10
91.98212326530623
 20
96.94764659863935
 30
0.0
 11
81.24087827290857
 21
96.94764659863935
 31
0.0
  0
LINE
  5
3866
330
3861
100
AcDbEntity
  8
寸法
  6
Continuous
 62
     0
370
    -2
100
AcDbLine
 10
82.49087827290857
 20
93.44764659863935
 30
0.0
 11
82.49087827290857
 21
91.94764659863935
 31
0.0
  0
LINE
  5
3867
330
3861
100
AcDbEntity
  8
寸法
  6
Continuous
 62
     0
370
    -2
100
AcDbLine
 10
82.49087827290857
 20
98.44764659863935
 30
0.0
 11
82.49087827290857
 21
99.94764659863935
 31
0.0
  0
SOLID
  5
3868
330
3861
100
AcDbEntity
  8
寸法
 62
     0
100
AcDbTrace
 10
82.74087827290857
 20
93.44764659863935
 30
0.0
 11
82.24087827290857
 21
93.44764659863935
 31
0.0
 12
82.49087827290857
 22
94.94764659863935
 32
0.0
 13
82.49087827290857
 23
94.94764659863935
 33
0.0
  0
SOLID
  5
3869
330
3861
100
AcDbEntity
  8
寸法
 62
     0
100
AcDbTrace
 10
82.24087827290857
 20
98.44764659863935
 30
0.0
 11
82.74087827290857
 21
98.44764659863935
 31
0.0
 12
82.49087827290857
 22
96.94764659863935
 32
0.0
 13
82.49087827290857
 23
96.94764659863935
 33
0.0
  0
MTEXT
  5
386A
330
3861
100
AcDbEntity
  8
寸法
  6
Continuous
 62
     0
100
AcDbMText
 10
79.39405875017202
 20
96.03685669869091
 30
0.0
 40
2.5
 41
0.0
 46
0.0
 71
     5
 72
     1
  1
2
 73
     1
 44
1.0
  0
POINT
  5
386B
330
3861
100
AcDbEntity
  8
Defpoints
 62
     0
100
AcDbPoint
 10
94.10712326530623
 20
94.94764659863935
 30
0.0
  0
POINT
  5
386C
330
3861
100
AcDbEntity
  8
Defpoints
 62
     0
100
AcDbPoint
 10
92.60712326530623
 20
96.94764659863935
 30
0.0
  0
POINT
  5
386D
330
3861
100
AcDbEntity
  8
Defpoints
 62
     0
100
AcDbPoint
 10
82.49087827290857
 20
96.94764659863935
 30
0.0
  0
ENDBLK
  5
3863
330
3861
100
AcDbEntity
  8
0
100
AcDbBlockEnd
  0
BLOCK
  5
3872
330
3871
100
AcDbEntity
  8
0
100
AcDbBlockBegin
  2
*D54
 70
     1
 10
0.0
 20
0.0
 30
0.0
  3
*D54
  1

  0
LINE
  5
3874
330
3871
100
AcDbEntity
  8
寸法
  6
Continuous
 62
     0
370
    -2
100
AcDbLine
 10
96.10712326530623
 20
94.32264659863941
 30
0.0
 11
96.10712326530623
 21
85.5752871724138
 31
0.0
  0
LINE
  5
3875
330
3871
100
AcDbEntity
  8
寸法
  6
Continuous
 62
     0
370
    -2
100
AcDbLine
 10
117.1071232653062
 20
94.32264659863941
 30
0.0
 11
117.1071232653062
 21
85.5752871724138
 31
0.0
  0
LINE
  5
3876
330
3871
100
AcDbEntity
  8
寸法
  6
Continuous
 62
     0
370
    -2
100
AcDbLine
 10
97.60712326530623
 20
86.8252871724138
 30
0.0
 11
104.3154565986396
 21
86.8252871724138
 31
0.0
  0
LINE
  5
3877
330
3871
100
AcDbEntity
  8
寸法
  6
Continuous
 62
     0
370
    -2
100
AcDbLine
 10
115.6071232653062
 20
86.8252871724138
 30
0.0
 11
108.8987899319729
 21
86.8252871724138
 31
0.0
  0
SOLID
  5
3878
330
3871
100
AcDbEntity
  8
寸法
 62
     0
100
AcDbTrace
 10
97.60712326530623
 20
87.0752871724138
 30
0.0
 11
97.60712326530623
 21
86.5752871724138
 31
0.0
 12
96.10712326530623
 22
86.8252871724138
 32
0.0
 13
96.10712326530623
 23
86.8252871724138
 33
0.0
  0
SOLID
  5
3879
330
3871
100
AcDbEntity
  8
寸法
 62
     0
100
AcDbTrace
 10
115.6071232653062
 20
86.5752871724138
 30
0.0
 11
115.6071232653062
 21
87.0752871724138
 31
0.0
 12
117.1071232653062
 22
86.8252871724138
 32
0.0
 13
117.1071232653062
 23
86.8252871724138
 33
0.0
  0
MTEXT
  5
387A
330
3871
100
AcDbEntity
  8
寸法
  6
Continuous
 62
     0
100
AcDbMText
 10
106.6071232653062
 20
86.8252871724138
 30
0.0
 40
2.5
 41
0.0
 46
0.0
 71
     5
 72
     1
  1
21
 73
     1
 44
1.0
  0
POINT
  5
387B
330
3871
100
AcDbEntity
  8
Defpoints
 62
     0
100
AcDbPoint
 10
96.10712326530623
 20
94.94764659863941
 30
0.0
  0
POINT
  5
387C
330
3871
100
AcDbEntity
  8
Defpoints
 62
     0
100
AcDbPoint
 10
117.1071232653062
 20
94.94764659863941
 30
0.0
  0
POINT
  5
387D
330
3871
100
AcDbEntity
  8
Defpoints
 62
     0
100
AcDbPoint
 10
117.1071232653062
 20
86.8252871724138
 30
0.0
  0
ENDBLK
  5
3873
330
3871
100
AcDbEntity
  8
0
100
AcDbBlockEnd
  0
BLOCK
  5
38A3
330
38A2
100
AcDbEntity
  8
0
100
AcDbBlockBegin
  2
*D55
 70
     1
 10
0.0
 20
0.0
 30
0.0
  3
*D55
  1

  0
LINE
  5
38A5
330
38A2
100
AcDbEntity
  8
硬質樹脂部分
  6
Continuous
 62
     0
370
    -2
100
AcDbLine
 10
117.7321232653062
 20
94.94764659863941
 30
0.0
 11
121.9039751460578
 21
94.94764659863941
 31
0.0
  0
LINE
  5
38A6
330
38A2
100
AcDbEntity
  8
硬質樹脂部分
  6
Continuous
 62
     0
370
    -2
100
AcDbLine
 10
117.4321232653062
 20
103.9476465986394
 30
0.0
 11
121.9039751460578
 21
103.9476465986394
 31
0.0
  0
LINE
  5
38A7
330
38A2
100
AcDbEntity
  8
硬質樹脂部分
  6
Continuous
 62
     0
370
    -2
100
AcDbLine
 10
120.6539751460578
 20
96.44764659863941
 30
0.0
 11
120.6539751460578
 21
97.72965130451217
 31
0.0
  0
LINE
  5
38A8
330
38A2
100
AcDbEntity
  8
硬質樹脂部分
  6
Continuous
 62
     0
370
    -2
100
AcDbLine
 10
120.6539751460578
 20
102.4476465986394
 30
0.0
 11
120.6539751460578
 21
101.4796513045122
 31
0.0
  0
SOLID
  5
38A9
330
38A2
100
AcDbEntity
  8
硬質樹脂部分
 62
     0
100
AcDbTrace
 10
120.4039751460578
 20
96.44764659863941
 30
0.0
 11
120.9039751460578
 21
96.44764659863941
 31
0.0
 12
120.6539751460578
 22
94.94764659863941
 32
0.0
 13
120.6539751460578
 23
94.94764659863941
 33
0.0
  0
SOLID
  5
38AA
330
38A2
100
AcDbEntity
  8
硬質樹脂部分
 62
     0
100
AcDbTrace
 10
120.9039751460578
 20
102.4476465986394
 30
0.0
 11
120.4039751460578
 21
102.4476465986394
 31
0.0
 12
120.6539751460578
 22
103.9476465986394
 32
0.0
 13
120.6539751460578
 23
103.9476465986394
 33
0.0
  0
MTEXT
  5
38AB
330
38A2
100
AcDbEntity
  8
硬質樹脂部分
  6
Continuous
 62
     0
100
AcDbMText
 10
120.6539751460578
 20
99.60465130451217
 30
0.0
 40
2.5
 41
0.0
 46
0.0
 71
     5
 72
     1
  1
9
 73
     1
 44
1.0
  0
POINT
  5
38AC
330
38A2
100
AcDbEntity
  8
Defpoints
 62
     0
100
AcDbPoint
 10
117.1071232653062
 20
94.94764659863941
 30
0.0
  0
POINT
  5
38AD
330
38A2
100
AcDbEntity
  8
Defpoints
 62
     0
100
AcDbPoint
 10
116.8071232653062
 20
103.9476465986394
 30
0.0
  0
POINT
  5
38AE
330
38A2
100
AcDbEntity
  8
Defpoints
 62
     0
100
AcDbPoint
 10
120.6539751460578
 20
103.9476465986394
 30
0.0
  0
ENDBLK
  5
38A4
330
38A2
100
AcDbEntity
  8
0
100
AcDbBlockEnd
  0
BLOCK
  5
3972
330
3971
100
AcDbEntity
  8
0
100
AcDbBlockBegin
  2
*D56
 70
     1
 10
0.0
 20
0.0
 30
0.0
  3
*D56
  1

  0
LINE
  5
3973
330
3971
100
AcDbEntity
  8
寸法
  6
Continuous
 62
     0
370
    -2
100
AcDbLine
 10
13.54639784846754
 20
18.49735942622556
 30
0.0
 11
13.54639784846754
 21
26.27520875696548
 31
0.0
  0
LINE
  5
3974
330
3971
100
AcDbEntity
  8
寸法
  6
Continuous
 62
     0
370
    -2
100
AcDbLine
 10
38.54639784846754
 20
14.79735942622563
 30
0.0
 11
38.54639784846754
 21
26.27520875696548
 31
0.0
  0
LINE
  5
3975
330
3971
100
AcDbEntity
  8
寸法
  6
Continuous
 62
     0
370
    -2
100
AcDbLine
 10
15.04639784846754
 20
25.02520875696548
 30
0.0
 11
24.1880645151342
 21
25.02520875696548
 31
0.0
  0
LINE
  5
3976
330
3971
100
AcDbEntity
  8
寸法
  6
Continuous
 62
     0
370
    -2
100
AcDbLine
 10
37.04639784846754
 20
25.02520875696548
 30
0.0
 11
29.60473118180086
 21
25.02520875696548
 31
0.0
  0
SOLID
  5
3977
330
3971
100
AcDbEntity
  8
寸法
 62
     0
100
AcDbTrace
 10
15.04639784846754
 20
25.27520875696548
 30
0.0
 11
15.04639784846754
 21
24.77520875696548
 31
0.0
 12
13.54639784846754
 22
25.02520875696548
 32
0.0
 13
13.54639784846754
 23
25.02520875696548
 33
0.0
  0
SOLID
  5
3978
330
3971
100
AcDbEntity
  8
寸法
 62
     0
100
AcDbTrace
 10
37.04639784846754
 20
24.77520875696548
 30
0.0
 11
37.04639784846754
 21
25.27520875696548
 31
0.0
 12
38.54639784846754
 22
25.02520875696548
 32
0.0
 13
38.54639784846754
 23
25.02520875696548
 33
0.0
  0
MTEXT
  5
3979
330
3971
100
AcDbEntity
  8
寸法
  6
Continuous
 62
     0
100
AcDbMText
 10
26.89639784846753
 20
25.02520875696548
 30
0.0
 40
2.5
 41
0.0
 46
0.0
 71
     5
 72
     1
  1
25
 73
     1
 44
1.0
  0
POINT
  5
397A
330
3971
100
AcDbEntity
  8
Defpoints
 62
     0
100
AcDbPoint
 10
13.54639784846754
 20
17.87235942622556
 30
0.0
  0
POINT
  5
397B
330
3971
100
AcDbEntity
  8
Defpoints
 62
     0
100
AcDbPoint
 10
38.54639784846754
 20
14.17235942622563
 30
0.0
  0
POINT
  5
397C
330
3971
100
AcDbEntity
  8
Defpoints
 62
     0
100
AcDbPoint
 10
38.54639784846754
 20
25.02520875696548
 30
0.0
  0
ENDBLK
  5
397D
330
3971
100
AcDbEntity
  8
0
100
AcDbBlockEnd
  0
BLOCK
  5
3982
330
3981
100
AcDbEntity
  8
0
100
AcDbBlockBegin
  2
*D57
 70
     1
 10
0.0
 20
0.0
 30
0.0
  3
*D57
  1

  0
LINE
  5
3983
330
3981
100
AcDbEntity
  8
寸法
  6
Continuous
 62
     0
370
    -2
100
AcDbLine
 10
13.54639784846754
 20
18.49735942622556
 30
0.0
 11
13.54639784846754
 21
33.88051476084517
 31
0.0
  0
LINE
  5
3984
330
3981
100
AcDbEntity
  8
寸法
  6
Continuous
 62
     0
370
    -2
100
AcDbLine
 10
38.74639784846752
 20
18.49735942622556
 30
0.0
 11
38.74639784846752
 21
33.88051476084517
 31
0.0
  0
LINE
  5
3985
330
3981
100
AcDbEntity
  8
寸法
  6
Continuous
 62
     0
370
    -2
100
AcDbLine
 10
15.04639784846754
 20
32.63051476084517
 30
0.0
 11
22.52139784846753
 21
32.63051476084517
 31
0.0
  0
LINE
  5
3986
330
3981
100
AcDbEntity
  8
寸法
  6
Continuous
 62
     0
370
    -2
100
AcDbLine
 10
37.24639784846752
 20
32.63051476084517
 30
0.0
 11
31.27139784846753
 21
32.63051476084517
 31
0.0
  0
SOLID
  5
3987
330
3981
100
AcDbEntity
  8
寸法
 62
     0
100
AcDbTrace
 10
15.04639784846754
 20
32.88051476084517
 30
0.0
 11
15.04639784846754
 21
32.38051476084517
 31
0.0
 12
13.54639784846754
 22
32.63051476084517
 32
0.0
 13
13.54639784846754
 23
32.63051476084517
 33
0.0
  0
SOLID
  5
3988
330
3981
100
AcDbEntity
  8
寸法
 62
     0
100
AcDbTrace
 10
37.24639784846752
 20
32.38051476084517
 30
0.0
 11
37.24639784846752
 21
32.88051476084517
 31
0.0
 12
38.74639784846752
 22
32.63051476084517
 32
0.0
 13
38.74639784846752
 23
32.63051476084517
 33
0.0
  0
MTEXT
  5
3989
330
3981
100
AcDbEntity
  8
寸法
  6
Continuous
 62
     0
100
AcDbMText
 10
26.89639784846753
 20
32.63051476084517
 30
0.0
 40
2.5
 41
0.0
 46
0.0
 71
     5
 72
     1
  1
25.2
 73
     1
 44
1.0
  0
POINT
  5
398A
330
3981
100
AcDbEntity
  8
Defpoints
 62
     0
100
AcDbPoint
 10
13.54639784846754
 20
17.87235942622556
 30
0.0
  0
POINT
  5
398B
330
3981
100
AcDbEntity
  8
Defpoints
 62
     0
100
AcDbPoint
 10
38.74639784846752
 20
17.87235942622556
 30
0.0
  0
POINT
  5
398C
330
3981
100
AcDbEntity
  8
Defpoints
 62
     0
100
AcDbPoint
 10
38.74639784846752
 20
32.63051476084517
 30
0.0
  0
ENDBLK
  5
398D
330
3981
100
AcDbEntity
  8
0
100
AcDbBlockEnd
  0
BLOCK
  5
3992
330
3991
100
AcDbEntity
  8
0
100
AcDbBlockBegin
  2
*D58
 70
     1
 10
0.0
 20
0.0
 30
0.0
  3
*D58
  1

  0
LINE
  5
3993
330
3991
100
AcDbEntity
  8
寸法
  6
Continuous
 62
     0
370
    -2
100
AcDbLine
 10
13.42139784846754
 20
18.37235942622556
 30
0.0
 11
2.680152856069882
 21
18.37235942622556
 31
0.0
  0
LINE
  5
3994
330
3991
100
AcDbEntity
  8
寸法
  6
Continuous
 62
     0
370
    -2
100
AcDbLine
 10
13.42139784846754
 20
11.37235942622556
 30
0.0
 11
2.680152856069881
 21
11.37235942622556
 31
0.0
  0
LINE
  5
3995
330
3991
100
AcDbEntity
  8
寸法
  6
Continuous
 62
     0
370
    -2
100
AcDbLine
 10
3.930152856069882
 20
16.87235942622556
 30
0.0
 11
3.930152856069881
 21
12.87235942622556
 31
0.0
  0
LINE
  5
3996
330
3991
100
AcDbEntity
  8
寸法
  6
Continuous
 62
     0
370
    -2
100
AcDbLine
 10
3.930152856069881
 20
12.87235942622556
 30
0.0
 11
3.930152856069882
 21
16.87235942622556
 31
0.0
  0
SOLID
  5
3997
330
3991
100
AcDbEntity
  8
寸法
 62
     0
100
AcDbTrace
 10
4.180152856069881
 20
16.87235942622556
 30
0.0
 11
3.680152856069882
 21
16.87235942622556
 31
0.0
 12
3.930152856069882
 22
18.37235942622556
 32
0.0
 13
3.930152856069882
 23
18.37235942622556
 33
0.0
  0
SOLID
  5
3998
330
3991
100
AcDbEntity
  8
寸法
 62
     0
100
AcDbTrace
 10
3.680152856069881
 20
12.87235942622556
 30
0.0
 11
4.180152856069881
 21
12.87235942622556
 31
0.0
 12
3.930152856069881
 22
11.37235942622556
 32
0.0
 13
3.930152856069881
 23
11.37235942622556
 33
0.0
  0
MTEXT
  5
3999
330
3991
100
AcDbEntity
  8
寸法
  6
Continuous
 62
     0
100
AcDbMText
 10
1.297856261743817
 20
15.09808900547424
 30
0.0
 40
2.5
 41
0.0
 46
0.0
 71
     5
 72
     1
  1
7
 73
     1
 44
1.0
  0
POINT
  5
399A
330
3991
100
AcDbEntity
  8
Defpoints
 62
     0
100
AcDbPoint
 10
14.04639784846754
 20
18.37235942622556
 30
0.0
  0
POINT
  5
399B
330
3991
100
AcDbEntity
  8
Defpoints
 62
     0
100
AcDbPoint
 10
14.04639784846754
 20
11.37235942622556
 30
0.0
  0
POINT
  5
399C
330
3991
100
AcDbEntity
  8
Defpoints
 62
     0
100
AcDbPoint
 10
3.930152856069881
 20
11.37235942622556
 30
0.0
  0
ENDBLK
  5
399D
330
3991
100
AcDbEntity
  8
0
100
AcDbBlockEnd
  0
BLOCK
  5
39A2
330
39A1
100
AcDbEntity
  8
0
100
AcDbBlockBegin
  2
*D59
 70
     1
 10
0.0
 20
0.0
 30
0.0
  3
*D59
  1

  0
LINE
  5
39A3
330
39A1
100
AcDbEntity
  8
寸法
  6
Continuous
 62
     0
370
    -2
100
AcDbLine
 10
13.54639784846754
 20
11.24735942622556
 30
0.0
 11
13.54639784846754
 21
3.907298337489905
 31
0.0
  0
LINE
  5
39A4
330
39A1
100
AcDbEntity
  8
寸法
  6
Continuous
 62
     0
370
    -2
100
AcDbLine
 10
15.54639784846754
 20
8.747359426225557
 30
0.0
 11
15.54639784846754
 21
3.907298337489905
 31
0.0
  0
LINE
  5
39A5
330
39A1
100
AcDbEntity
  8
寸法
  6
Continuous
 62
     0
370
    -2
100
AcDbLine
 10
12.04639784846754
 20
5.157298337489905
 30
0.0
 11
10.54639784846754
 21
5.157298337489905
 31
0.0
  0
LINE
  5
39A6
330
39A1
100
AcDbEntity
  8
寸法
  6
Continuous
 62
     0
370
    -2
100
AcDbLine
 10
17.04639784846754
 20
5.157298337489905
 30
0.0
 11
18.54639784846754
 21
5.157298337489905
 31
0.0
  0
SOLID
  5
39A7
330
39A1
100
AcDbEntity
  8
寸法
 62
     0
100
AcDbTrace
 10
12.04639784846754
 20
4.907298337489905
 30
0.0
 11
12.04639784846754
 21
5.407298337489905
 31
0.0
 12
13.54639784846754
 22
5.157298337489905
 32
0.0
 13
13.54639784846754
 23
5.157298337489905
 33
0.0
  0
SOLID
  5
39A8
330
39A1
100
AcDbEntity
  8
寸法
 62
     0
100
AcDbTrace
 10
17.04639784846754
 20
5.407298337489905
 30
0.0
 11
17.04639784846754
 21
4.907298337489905
 31
0.0
 12
15.54639784846754
 22
5.157298337489905
 32
0.0
 13
15.54639784846754
 23
5.157298337489905
 33
0.0
  0
MTEXT
  5
39A9
330
39A1
100
AcDbEntity
  8
寸法
  6
Continuous
 62
     0
100
AcDbMText
 10
14.52998542873658
 20
1.348210324523961
 30
0.0
 40
2.5
 41
0.0
 46
0.0
 71
     5
 72
     1
  1
2
 73
     1
 44
1.0
  0
POINT
  5
39AA
330
39A1
100
AcDbEntity
  8
Defpoints
 62
     0
100
AcDbPoint
 10
13.54639784846754
 20
11.87235942622556
 30
0.0
  0
POINT
  5
39AB
330
39A1
100
AcDbEntity
  8
Defpoints
 62
     0
100
AcDbPoint
 10
15.54639784846754
 20
9.372359426225557
 30
0.0
  0
POINT
  5
39AC
330
39A1
100
AcDbEntity
  8
Defpoints
 62
     0
100
AcDbPoint
 10
15.54639784846754
 20
5.157298337489905
 30
0.0
  0
ENDBLK
  5
39AD
330
39A1
100
AcDbEntity
  8
0
100
AcDbBlockEnd
  0
BLOCK
  5
39B2
330
39B1
100
AcDbEntity
  8
0
100
AcDbBlockBegin
  2
*D60
 70
     1
 10
0.0
 20
0.0
 30
0.0
  3
*D60
  1

  0
LINE
  5
39B3
330
39B1
100
AcDbEntity
  8
寸法
  6
Continuous
 62
     0
370
    -2
100
AcDbLine
 10
14.92139784846754
 20
9.372359426225557
 30
0.0
 11
2.680152856069881
 21
9.372359426225557
 31
0.0
  0
LINE
  5
39B4
330
39B1
100
AcDbEntity
  8
寸法
  6
Continuous
 62
     0
370
    -2
100
AcDbLine
 10
13.42139784846754
 20
11.37235942622556
 30
0.0
 11
2.680152856069881
 21
11.37235942622556
 31
0.0
  0
LINE
  5
39B5
330
39B1
100
AcDbEntity
  8
寸法
  6
Continuous
 62
     0
370
    -2
100
AcDbLine
 10
3.930152856069881
 20
7.872359426225557
 30
0.0
 11
3.930152856069881
 21
6.372359426225557
 31
0.0
  0
LINE
  5
39B6
330
39B1
100
AcDbEntity
  8
寸法
  6
Continuous
 62
     0
370
    -2
100
AcDbLine
 10
3.930152856069881
 20
12.87235942622556
 30
0.0
 11
3.930152856069881
 21
14.37235942622556
 31
0.0
  0
SOLID
  5
39B7
330
39B1
100
AcDbEntity
  8
寸法
 62
     0
100
AcDbTrace
 10
4.180152856069881
 20
7.872359426225557
 30
0.0
 11
3.680152856069881
 21
7.872359426225557
 31
0.0
 12
3.930152856069881
 22
9.372359426225557
 32
0.0
 13
3.930152856069881
 23
9.372359426225557
 33
0.0
  0
SOLID
  5
39B8
330
39B1
100
AcDbEntity
  8
寸法
 62
     0
100
AcDbTrace
 10
3.680152856069881
 20
12.87235942622556
 30
0.0
 11
4.180152856069881
 21
12.87235942622556
 31
0.0
 12
3.930152856069881
 22
11.37235942622556
 32
0.0
 13
3.930152856069881
 23
11.37235942622556
 33
0.0
  0
MTEXT
  5
39B9
330
39B1
100
AcDbEntity
  8
寸法
  6
Continuous
 62
     0
100
AcDbMText
 10
0.8333333333333286
 20
10.46156952627712
 30
0.0
 40
2.5
 41
0.0
 46
0.0
 71
     5
 72
     1
  1
2
 73
     1
 44
1.0
  0
POINT
  5
39BA
330
39B1
100
AcDbEntity
  8
Defpoints
 62
     0
100
AcDbPoint
 10
15.54639784846754
 20
9.372359426225557
 30
0.0
  0
POINT
  5
39BB
330
39B1
100
AcDbEntity
  8
Defpoints
 62
     0
100
AcDbPoint
 10
14.04639784846754
 20
11.37235942622556
 30
0.0
  0
POINT
  5
39BC
330
39B1
100
AcDbEntity
  8
Defpoints
 62
     0
100
AcDbPoint
 10
3.930152856069881
 20
11.37235942622556
 30
0.0
  0
ENDBLK
  5
39BD
330
39B1
100
AcDbEntity
  8
0
100
AcDbBlockEnd
  0
BLOCK
  5
39C2
330
39C1
100
AcDbEntity
  8
0
100
AcDbBlockBegin
  2
*D61
 70
     1
 10
0.0
 20
0.0
 30
0.0
  3
*D61
  1

  0
LINE
  5
39C3
330
39C1
100
AcDbEntity
  8
寸法
  6
Continuous
 62
     0
370
    -2
100
AcDbLine
 10
17.54639784846754
 20
8.747359426225614
 30
0.0
 11
17.54639784846754
 21
0.0
 31
0.0
  0
LINE
  5
39C4
330
39C1
100
AcDbEntity
  8
寸法
  6
Continuous
 62
     0
370
    -2
100
AcDbLine
 10
38.54639784846754
 20
8.747359426225614
 30
0.0
 11
38.54639784846754
 21
0.0
 31
0.0
  0
LINE
  5
39C5
330
39C1
100
AcDbEntity
  8
寸法
  6
Continuous
 62
     0
370
    -2
100
AcDbLine
 10
19.04639784846754
 20
1.25
 30
0.0
 11
25.75473118180086
 21
1.25
 31
0.0
  0
LINE
  5
39C6
330
39C1
100
AcDbEntity
  8
寸法
  6
Continuous
 62
     0
370
    -2
100
AcDbLine
 10
37.04639784846754
 20
1.25
 30
0.0
 11
30.3380645151342
 21
1.25
 31
0.0
  0
SOLID
  5
39C7
330
39C1
100
AcDbEntity
  8
寸法
 62
     0
100
AcDbTrace
 10
19.04639784846754
 20
1.5
 30
0.0
 11
19.04639784846754
 21
1.0
 31
0.0
 12
17.54639784846754
 22
1.25
 32
0.0
 13
17.54639784846754
 23
1.25
 33
0.0
  0
SOLID
  5
39C8
330
39C1
100
AcDbEntity
  8
寸法
 62
     0
100
AcDbTrace
 10
37.04639784846754
 20
1.0
 30
0.0
 11
37.04639784846754
 21
1.5
 31
0.0
 12
38.54639784846754
 22
1.25
 32
0.0
 13
38.54639784846754
 23
1.25
 33
0.0
  0
MTEXT
  5
39C9
330
39C1
100
AcDbEntity
  8
寸法
  6
Continuous
 62
     0
100
AcDbMText
 10
28.04639784846754
 20
1.25
 30
0.0
 40
2.5
 41
0.0
 46
0.0
 71
     5
 72
     1
  1
21
 73
     1
 44
1.0
  0
POINT
  5
39CA
330
39C1
100
AcDbEntity
  8
Defpoints
 62
     0
100
AcDbPoint
 10
17.54639784846754
 20
9.372359426225614
 30
0.0
  0
POINT
  5
39CB
330
39C1
100
AcDbEntity
  8
Defpoints
 62
     0
100
AcDbPoint
 10
38.54639784846754
 20
9.372359426225614
 30
0.0
  0
POINT
  5
39CC
330
39C1
100
AcDbEntity
  8
Defpoints
 62
     0
100
AcDbPoint
 10
38.54639784846754
 20
1.25
 30
0.0
  0
ENDBLK
  5
39CD
330
39C1
100
AcDbEntity
  8
0
100
AcDbBlockEnd
  0
BLOCK
  5
39D8
330
39D7
100
AcDbEntity
  8
0
100
AcDbBlockBegin
  2
*D62
 70
     1
 10
0.0
 20
0.0
 30
0.0
  3
*D62
  1

  0
LINE
  5
39D9
330
39D7
100
AcDbEntity
  8
硬質樹脂部分
  6
Continuous
 62
     0
370
    -2
100
AcDbLine
 10
39.17139784846754
 20
9.372359426225614
 30
0.0
 11
43.34324972921911
 21
9.372359426225614
 31
0.0
  0
LINE
  5
39DA
330
39D7
100
AcDbEntity
  8
硬質樹脂部分
  6
Continuous
 62
     0
370
    -2
100
AcDbLine
 10
38.87139784846752
 20
18.37235942622556
 30
0.0
 11
43.34324972921911
 21
18.37235942622556
 31
0.0
  0
LINE
  5
39DB
330
39D7
100
AcDbEntity
  8
硬質樹脂部分
  6
Continuous
 62
     0
370
    -2
100
AcDbLine
 10
42.09324972921911
 20
10.87235942622561
 30
0.0
 11
42.09324972921911
 21
12.15436413209838
 31
0.0
  0
LINE
  5
39DC
330
39D7
100
AcDbEntity
  8
硬質樹脂部分
  6
Continuous
 62
     0
370
    -2
100
AcDbLine
 10
42.09324972921911
 20
16.87235942622556
 30
0.0
 11
42.09324972921911
 21
15.90436413209838
 31
0.0
  0
SOLID
  5
39DD
330
39D7
100
AcDbEntity
  8
硬質樹脂部分
 62
     0
100
AcDbTrace
 10
41.84324972921911
 20
10.87235942622561
 30
0.0
 11
42.34324972921911
 21
10.87235942622561
 31
0.0
 12
42.09324972921911
 22
9.372359426225614
 32
0.0
 13
42.09324972921911
 23
9.372359426225614
 33
0.0
  0
SOLID
  5
39DE
330
39D7
100
AcDbEntity
  8
硬質樹脂部分
 62
     0
100
AcDbTrace
 10
42.34324972921911
 20
16.87235942622556
 30
0.0
 11
41.84324972921911
 21
16.87235942622556
 31
0.0
 12
42.09324972921911
 22
18.37235942622556
 32
0.0
 13
42.09324972921911
 23
18.37235942622556
 33
0.0
  0
MTEXT
  5
39DF
330
39D7
100
AcDbEntity
  8
硬質樹脂部分
  6
Continuous
 62
     0
100
AcDbMText
 10
42.09324972921911
 20
14.02936413209838
 30
0.0
 40
2.5
 41
0.0
 46
0.0
 71
     5
 72
     1
  1
9
 73
     1
 44
1.0
  0
POINT
  5
39E0
330
39D7
100
AcDbEntity
  8
Defpoints
 62
     0
100
AcDbPoint
 10
38.54639784846754
 20
9.372359426225614
 30
0.0
  0
POINT
  5
39E1
330
39D7
100
AcDbEntity
  8
Defpoints
 62
     0
100
AcDbPoint
 10
38.24639784846752
 20
18.37235942622556
 30
0.0
  0
POINT
  5
39E2
330
39D7
100
AcDbEntity
  8
Defpoints
 62
     0
100
AcDbPoint
 10
42.09324972921911
 20
18.37235942622556
 30
0.0
  0
ENDBLK
  5
39E3
330
39D7
100
AcDbEntity
  8
0
100
AcDbBlockEnd
  0
BLOCK
  5
3A68
330
3A67
100
AcDbEntity
  8
0
100
AcDbBlockBegin
  2
*D63
 70
     1
 10
0.0
 20
0.0
 30
0.0
  3
*D63
  1

  0
LINE
  5
3A6A
330
3A67
100
AcDbEntity
  8
寸法
  6
Continuous
 62
     0
370
    -2
100
AcDbLine
 10
90.33901872079859
 20
44.11540451422553
 30
0.0
 11
90.33901872079859
 21
51.89325384496546
 31
0.0
  0
LINE
  5
3A6B
330
3A67
100
AcDbEntity
  8
寸法
  6
Continuous
 62
     0
370
    -2
100
AcDbLine
 10
115.3390187207986
 20
40.4154045142256
 30
0.0
 11
115.3390187207986
 21
51.89325384496546
 31
0.0
  0
LINE
  5
3A6C
330
3A67
100
AcDbEntity
  8
寸法
  6
Continuous
 62
     0
370
    -2
100
AcDbLine
 10
91.83901872079859
 20
50.64325384496546
 30
0.0
 11
100.9806853874653
 21
50.64325384496546
 31
0.0
  0
LINE
  5
3A6D
330
3A67
100
AcDbEntity
  8
寸法
  6
Continuous
 62
     0
370
    -2
100
AcDbLine
 10
113.8390187207986
 20
50.64325384496546
 30
0.0
 11
106.3973520541319
 21
50.64325384496546
 31
0.0
  0
SOLID
  5
3A6E
330
3A67
100
AcDbEntity
  8
寸法
 62
     0
100
AcDbTrace
 10
91.83901872079859
 20
50.89325384496546
 30
0.0
 11
91.83901872079859
 21
50.39325384496546
 31
0.0
 12
90.33901872079859
 22
50.64325384496546
 32
0.0
 13
90.33901872079859
 23
50.64325384496546
 33
0.0
  0
SOLID
  5
3A6F
330
3A67
100
AcDbEntity
  8
寸法
 62
     0
100
AcDbTrace
 10
113.8390187207986
 20
50.39325384496546
 30
0.0
 11
113.8390187207986
 21
50.89325384496546
 31
0.0
 12
115.3390187207986
 22
50.64325384496546
 32
0.0
 13
115.3390187207986
 23
50.64325384496546
 33
0.0
  0
MTEXT
  5
3A70
330
3A67
100
AcDbEntity
  8
寸法
  6
Continuous
 62
     0
100
AcDbMText
 10
103.6890187207986
 20
50.64325384496546
 30
0.0
 40
2.5
 41
0.0
 46
0.0
 71
     5
 72
     1
  1
25
 73
     1
 44
1.0
  0
POINT
  5
3A71
330
3A67
100
AcDbEntity
  8
Defpoints
 62
     0
100
AcDbPoint
 10
90.33901872079859
 20
43.49040451422553
 30
0.0
  0
POINT
  5
3A72
330
3A67
100
AcDbEntity
  8
Defpoints
 62
     0
100
AcDbPoint
 10
115.3390187207986
 20
39.7904045142256
 30
0.0
  0
POINT
  5
3A73
330
3A67
100
AcDbEntity
  8
Defpoints
 62
     0
100
AcDbPoint
 10
115.3390187207986
 20
50.64325384496546
 30
0.0
  0
ENDBLK
  5
3A69
330
3A67
100
AcDbEntity
  8
0
100
AcDbBlockEnd
  0
BLOCK
  5
3A75
330
3A74
100
AcDbEntity
  8
0
100
AcDbBlockBegin
  2
*D64
 70
     1
 10
0.0
 20
0.0
 30
0.0
  3
*D64
  1

  0
LINE
  5
3A77
330
3A74
100
AcDbEntity
  8
寸法
  6
Continuous
 62
     0
370
    -2
100
AcDbLine
 10
90.33901872079859
 20
44.11540451422553
 30
0.0
 11
90.33901872079859
 21
59.49855984884515
 31
0.0
  0
LINE
  5
3A78
330
3A74
100
AcDbEntity
  8
寸法
  6
Continuous
 62
     0
370
    -2
100
AcDbLine
 10
115.5390187207986
 20
44.11540451422553
 30
0.0
 11
115.5390187207986
 21
59.49855984884515
 31
0.0
  0
LINE
  5
3A79
330
3A74
100
AcDbEntity
  8
寸法
  6
Continuous
 62
     0
370
    -2
100
AcDbLine
 10
91.83901872079859
 20
58.24855984884515
 30
0.0
 11
99.31401872079859
 21
58.24855984884515
 31
0.0
  0
LINE
  5
3A7A
330
3A74
100
AcDbEntity
  8
寸法
  6
Continuous
 62
     0
370
    -2
100
AcDbLine
 10
114.0390187207986
 20
58.24855984884515
 30
0.0
 11
108.0640187207986
 21
58.24855984884515
 31
0.0
  0
SOLID
  5
3A7B
330
3A74
100
AcDbEntity
  8
寸法
 62
     0
100
AcDbTrace
 10
91.83901872079859
 20
58.49855984884515
 30
0.0
 11
91.83901872079859
 21
57.99855984884515
 31
0.0
 12
90.33901872079859
 22
58.24855984884515
 32
0.0
 13
90.33901872079859
 23
58.24855984884515
 33
0.0
  0
SOLID
  5
3A7C
330
3A74
100
AcDbEntity
  8
寸法
 62
     0
100
AcDbTrace
 10
114.0390187207986
 20
57.99855984884515
 30
0.0
 11
114.0390187207986
 21
58.49855984884515
 31
0.0
 12
115.5390187207986
 22
58.24855984884515
 32
0.0
 13
115.5390187207986
 23
58.24855984884515
 33
0.0
  0
MTEXT
  5
3A7D
330
3A74
100
AcDbEntity
  8
寸法
  6
Continuous
 62
     0
100
AcDbMText
 10
103.6890187207986
 20
58.24855984884515
 30
0.0
 40
2.5
 41
0.0
 46
0.0
 71
     5
 72
     1
  1
25.2
 73
     1
 44
1.0
  0
POINT
  5
3A7E
330
3A74
100
AcDbEntity
  8
Defpoints
 62
     0
100
AcDbPoint
 10
90.33901872079859
 20
43.49040451422553
 30
0.0
  0
POINT
  5
3A7F
330
3A74
100
AcDbEntity
  8
Defpoints
 62
     0
100
AcDbPoint
 10
115.5390187207986
 20
43.49040451422553
 30
0.0
  0
POINT
  5
3A80
330
3A74
100
AcDbEntity
  8
Defpoints
 62
     0
100
AcDbPoint
 10
115.5390187207986
 20
58.24855984884515
 30
0.0
  0
ENDBLK
  5
3A76
330
3A74
100
AcDbEntity
  8
0
100
AcDbBlockEnd
  0
BLOCK
  5
3A82
330
3A81
100
AcDbEntity
  8
0
100
AcDbBlockBegin
  2
*D65
 70
     1
 10
0.0
 20
0.0
 30
0.0
  3
*D65
  1

  0
LINE
  5
3A84
330
3A81
100
AcDbEntity
  8
寸法
  6
Continuous
 62
     0
370
    -2
100
AcDbLine
 10
90.21401872079859
 20
43.99040451422553
 30
0.0
 11
79.47277372840094
 21
43.99040451422553
 31
0.0
  0
LINE
  5
3A85
330
3A81
100
AcDbEntity
  8
寸法
  6
Continuous
 62
     0
370
    -2
100
AcDbLine
 10
90.21401872079859
 20
36.99040451422553
 30
0.0
 11
79.47277372840094
 21
36.99040451422553
 31
0.0
  0
LINE
  5
3A86
330
3A81
100
AcDbEntity
  8
寸法
  6
Continuous
 62
     0
370
    -2
100
AcDbLine
 10
80.72277372840094
 20
42.49040451422553
 30
0.0
 11
80.72277372840094
 21
38.49040451422553
 31
0.0
  0
LINE
  5
3A87
330
3A81
100
AcDbEntity
  8
寸法
  6
Continuous
 62
     0
370
    -2
100
AcDbLine
 10
80.72277372840094
 20
38.49040451422553
 30
0.0
 11
80.72277372840094
 21
42.49040451422553
 31
0.0
  0
SOLID
  5
3A88
330
3A81
100
AcDbEntity
  8
寸法
 62
     0
100
AcDbTrace
 10
80.97277372840094
 20
42.49040451422553
 30
0.0
 11
80.47277372840094
 21
42.49040451422553
 31
0.0
 12
80.72277372840094
 22
43.99040451422553
 32
0.0
 13
80.72277372840094
 23
43.99040451422553
 33
0.0
  0
SOLID
  5
3A89
330
3A81
100
AcDbEntity
  8
寸法
 62
     0
100
AcDbTrace
 10
80.47277372840094
 20
38.49040451422553
 30
0.0
 11
80.97277372840094
 21
38.49040451422553
 31
0.0
 12
80.72277372840094
 22
36.99040451422553
 32
0.0
 13
80.72277372840094
 23
36.99040451422553
 33
0.0
  0
MTEXT
  5
3A8A
330
3A81
100
AcDbEntity
  8
寸法
  6
Continuous
 62
     0
100
AcDbMText
 10
78.09047713407487
 20
40.71613409347421
 30
0.0
 40
2.5
 41
0.0
 46
0.0
 71
     5
 72
     1
  1
7
 73
     1
 44
1.0
  0
POINT
  5
3A8B
330
3A81
100
AcDbEntity
  8
Defpoints
 62
     0
100
AcDbPoint
 10
90.83901872079859
 20
43.99040451422553
 30
0.0
  0
POINT
  5
3A8C
330
3A81
100
AcDbEntity
  8
Defpoints
 62
     0
100
AcDbPoint
 10
90.83901872079859
 20
36.99040451422553
 30
0.0
  0
POINT
  5
3A8D
330
3A81
100
AcDbEntity
  8
Defpoints
 62
     0
100
AcDbPoint
 10
80.72277372840094
 20
36.99040451422553
 30
0.0
  0
ENDBLK
  5
3A83
330
3A81
100
AcDbEntity
  8
0
100
AcDbBlockEnd
  0
BLOCK
  5
3A8F
330
3A8E
100
AcDbEntity
  8
0
100
AcDbBlockBegin
  2
*D66
 70
     1
 10
0.0
 20
0.0
 30
0.0
  3
*D66
  1

  0
LINE
  5
3A91
330
3A8E
100
AcDbEntity
  8
寸法
  6
Continuous
 62
     0
370
    -2
100
AcDbLine
 10
90.33901872079859
 20
36.86540451422553
 30
0.0
 11
90.33901872079859
 21
29.52534342548988
 31
0.0
  0
LINE
  5
3A92
330
3A8E
100
AcDbEntity
  8
寸法
  6
Continuous
 62
     0
370
    -2
100
AcDbLine
 10
92.33901872079859
 20
34.36540451422553
 30
0.0
 11
92.33901872079859
 21
29.52534342548988
 31
0.0
  0
LINE
  5
3A93
330
3A8E
100
AcDbEntity
  8
寸法
  6
Continuous
 62
     0
370
    -2
100
AcDbLine
 10
88.83901872079859
 20
30.77534342548988
 30
0.0
 11
87.33901872079859
 21
30.77534342548988
 31
0.0
  0
LINE
  5
3A94
330
3A8E
100
AcDbEntity
  8
寸法
  6
Continuous
 62
     0
370
    -2
100
AcDbLine
 10
93.83901872079859
 20
30.77534342548988
 30
0.0
 11
95.33901872079859
 21
30.77534342548988
 31
0.0
  0
SOLID
  5
3A95
330
3A8E
100
AcDbEntity
  8
寸法
 62
     0
100
AcDbTrace
 10
88.83901872079859
 20
30.52534342548988
 30
0.0
 11
88.83901872079859
 21
31.02534342548988
 31
0.0
 12
90.33901872079859
 22
30.77534342548988
 32
0.0
 13
90.33901872079859
 23
30.77534342548988
 33
0.0
  0
SOLID
  5
3A96
330
3A8E
100
AcDbEntity
  8
寸法
 62
     0
100
AcDbTrace
 10
93.83901872079859
 20
31.02534342548988
 30
0.0
 11
93.83901872079859
 21
30.52534342548988
 31
0.0
 12
92.33901872079859
 22
30.77534342548988
 32
0.0
 13
92.33901872079859
 23
30.77534342548988
 33
0.0
  0
MTEXT
  5
3A97
330
3A8E
100
AcDbEntity
  8
寸法
  6
Continuous
 62
     0
100
AcDbMText
 10
91.32260630106764
 20
26.96625541252394
 30
0.0
 40
2.5
 41
0.0
 46
0.0
 71
     5
 72
     1
  1
2
 73
     1
 44
1.0
  0
POINT
  5
3A98
330
3A8E
100
AcDbEntity
  8
Defpoints
 62
     0
100
AcDbPoint
 10
90.33901872079859
 20
37.49040451422553
 30
0.0
  0
POINT
  5
3A99
330
3A8E
100
AcDbEntity
  8
Defpoints
 62
     0
100
AcDbPoint
 10
92.33901872079859
 20
34.99040451422553
 30
0.0
  0
POINT
  5
3A9A
330
3A8E
100
AcDbEntity
  8
Defpoints
 62
     0
100
AcDbPoint
 10
92.33901872079859
 20
30.77534342548988
 30
0.0
  0
ENDBLK
  5
3A90
330
3A8E
100
AcDbEntity
  8
0
100
AcDbBlockEnd
  0
BLOCK
  5
3A9C
330
3A9B
100
AcDbEntity
  8
0
100
AcDbBlockBegin
  2
*D67
 70
     1
 10
0.0
 20
0.0
 30
0.0
  3
*D67
  1

  0
LINE
  5
3A9E
330
3A9B
100
AcDbEntity
  8
寸法
  6
Continuous
 62
     0
370
    -2
100
AcDbLine
 10
91.71401872079859
 20
34.99040451422553
 30
0.0
 11
79.47277372840094
 21
34.99040451422553
 31
0.0
  0
LINE
  5
3A9F
330
3A9B
100
AcDbEntity
  8
寸法
  6
Continuous
 62
     0
370
    -2
100
AcDbLine
 10
90.21401872079859
 20
36.99040451422553
 30
0.0
 11
79.47277372840094
 21
36.99040451422553
 31
0.0
  0
LINE
  5
3AA0
330
3A9B
100
AcDbEntity
  8
寸法
  6
Continuous
 62
     0
370
    -2
100
AcDbLine
 10
80.72277372840094
 20
33.49040451422553
 30
0.0
 11
80.72277372840094
 21
31.99040451422553
 31
0.0
  0
LINE
  5
3AA1
330
3A9B
100
AcDbEntity
  8
寸法
  6
Continuous
 62
     0
370
    -2
100
AcDbLine
 10
80.72277372840094
 20
38.49040451422553
 30
0.0
 11
80.72277372840094
 21
39.99040451422553
 31
0.0
  0
SOLID
  5
3AA2
330
3A9B
100
AcDbEntity
  8
寸法
 62
     0
100
AcDbTrace
 10
80.97277372840094
 20
33.49040451422553
 30
0.0
 11
80.47277372840094
 21
33.49040451422553
 31
0.0
 12
80.72277372840094
 22
34.99040451422553
 32
0.0
 13
80.72277372840094
 23
34.99040451422553
 33
0.0
  0
SOLID
  5
3AA3
330
3A9B
100
AcDbEntity
  8
寸法
 62
     0
100
AcDbTrace
 10
80.47277372840094
 20
38.49040451422553
 30
0.0
 11
80.97277372840094
 21
38.49040451422553
 31
0.0
 12
80.72277372840094
 22
36.99040451422553
 32
0.0
 13
80.72277372840094
 23
36.99040451422553
 33
0.0
  0
MTEXT
  5
3AA4
330
3A9B
100
AcDbEntity
  8
寸法
  6
Continuous
 62
     0
100
AcDbMText
 10
77.62595420566439
 20
36.07961461427709
 30
0.0
 40
2.5
 41
0.0
 46
0.0
 71
     5
 72
     1
  1
2
 73
     1
 44
1.0
  0
POINT
  5
3AA5
330
3A9B
100
AcDbEntity
  8
Defpoints
 62
     0
100
AcDbPoint
 10
92.33901872079859
 20
34.99040451422553
 30
0.0
  0
POINT
  5
3AA6
330
3A9B
100
AcDbEntity
  8
Defpoints
 62
     0
100
AcDbPoint
 10
90.83901872079859
 20
36.99040451422553
 30
0.0
  0
POINT
  5
3AA7
330
3A9B
100
AcDbEntity
  8
Defpoints
 62
     0
100
AcDbPoint
 10
80.72277372840094
 20
36.99040451422553
 30
0.0
  0
ENDBLK
  5
3A9D
330
3A9B
100
AcDbEntity
  8
0
100
AcDbBlockEnd
  0
BLOCK
  5
3AA9
330
3AA8
100
AcDbEntity
  8
0
100
AcDbBlockBegin
  2
*D68
 70
     1
 10
0.0
 20
0.0
 30
0.0
  3
*D68
  1

  0
LINE
  5
3AAB
330
3AA8
100
AcDbEntity
  8
寸法
  6
Continuous
 62
     0
370
    -2
100
AcDbLine
 10
94.33901872079859
 20
34.36540451422559
 30
0.0
 11
94.33901872079859
 21
25.61804508799997
 31
0.0
  0
LINE
  5
3AAC
330
3AA8
100
AcDbEntity
  8
寸法
  6
Continuous
 62
     0
370
    -2
100
AcDbLine
 10
115.3390187207986
 20
34.36540451422559
 30
0.0
 11
115.3390187207986
 21
25.61804508799997
 31
0.0
  0
LINE
  5
3AAD
330
3AA8
100
AcDbEntity
  8
寸法
  6
Continuous
 62
     0
370
    -2
100
AcDbLine
 10
95.83901872079859
 20
26.86804508799997
 30
0.0
 11
102.5473520541319
 21
26.86804508799997
 31
0.0
  0
LINE
  5
3AAE
330
3AA8
100
AcDbEntity
  8
寸法
  6
Continuous
 62
     0
370
    -2
100
AcDbLine
 10
113.8390187207986
 20
26.86804508799997
 30
0.0
 11
107.1306853874653
 21
26.86804508799997
 31
0.0
  0
SOLID
  5
3AAF
330
3AA8
100
AcDbEntity
  8
寸法
 62
     0
100
AcDbTrace
 10
95.83901872079859
 20
27.11804508799997
 30
0.0
 11
95.83901872079859
 21
26.61804508799997
 31
0.0
 12
94.33901872079859
 22
26.86804508799997
 32
0.0
 13
94.33901872079859
 23
26.86804508799997
 33
0.0
  0
SOLID
  5
3AB0
330
3AA8
100
AcDbEntity
  8
寸法
 62
     0
100
AcDbTrace
 10
113.8390187207986
 20
26.61804508799997
 30
0.0
 11
113.8390187207986
 21
27.11804508799997
 31
0.0
 12
115.3390187207986
 22
26.86804508799997
 32
0.0
 13
115.3390187207986
 23
26.86804508799997
 33
0.0
  0
MTEXT
  5
3AB1
330
3AA8
100
AcDbEntity
  8
寸法
  6
Continuous
 62
     0
100
AcDbMText
 10
104.8390187207986
 20
26.86804508799997
 30
0.0
 40
2.5
 41
0.0
 46
0.0
 71
     5
 72
     1
  1
21
 73
     1
 44
1.0
  0
POINT
  5
3AB2
330
3AA8
100
AcDbEntity
  8
Defpoints
 62
     0
100
AcDbPoint
 10
94.33901872079859
 20
34.99040451422559
 30
0.0
  0
POINT
  5
3AB3
330
3AA8
100
AcDbEntity
  8
Defpoints
 62
     0
100
AcDbPoint
 10
115.3390187207986
 20
34.99040451422559
 30
0.0
  0
POINT
  5
3AB4
330
3AA8
100
AcDbEntity
  8
Defpoints
 62
     0
100
AcDbPoint
 10
115.3390187207986
 20
26.86804508799997
 30
0.0
  0
ENDBLK
  5
3AAA
330
3AA8
100
AcDbEntity
  8
0
100
AcDbBlockEnd
  0
BLOCK
  5
3AB6
330
3AB5
100
AcDbEntity
  8
0
100
AcDbBlockBegin
  2
*D69
 70
     1
 10
0.0
 20
0.0
 30
0.0
  3
*D69
  1

  0
LINE
  5
3AB8
330
3AB5
100
AcDbEntity
  8
硬質樹脂部分
  6
Continuous
 62
     0
370
    -2
100
AcDbLine
 10
115.9640187207986
 20
34.99040451422559
 30
0.0
 11
120.1358706015502
 21
34.99040451422559
 31
0.0
  0
LINE
  5
3AB9
330
3AB5
100
AcDbEntity
  8
硬質樹脂部分
  6
Continuous
 62
     0
370
    -2
100
AcDbLine
 10
115.6640187207986
 20
43.99040451422553
 30
0.0
 11
120.1358706015502
 21
43.99040451422553
 31
0.0
  0
LINE
  5
3ABA
330
3AB5
100
AcDbEntity
  8
硬質樹脂部分
  6
Continuous
 62
     0
370
    -2
100
AcDbLine
 10
118.8858706015502
 20
36.49040451422559
 30
0.0
 11
118.8858706015502
 21
37.77240922009835
 31
0.0
  0
LINE
  5
3ABB
330
3AB5
100
AcDbEntity
  8
硬質樹脂部分
  6
Continuous
 62
     0
370
    -2
100
AcDbLine
 10
118.8858706015502
 20
42.49040451422553
 30
0.0
 11
118.8858706015502
 21
41.52240922009835
 31
0.0
  0
SOLID
  5
3ABC
330
3AB5
100
AcDbEntity
  8
硬質樹脂部分
 62
     0
100
AcDbTrace
 10
118.6358706015502
 20
36.49040451422559
 30
0.0
 11
119.1358706015502
 21
36.49040451422559
 31
0.0
 12
118.8858706015502
 22
34.99040451422559
 32
0.0
 13
118.8858706015502
 23
34.99040451422559
 33
0.0
  0
SOLID
  5
3ABD
330
3AB5
100
AcDbEntity
  8
硬質樹脂部分
 62
     0
100
AcDbTrace
 10
119.1358706015502
 20
42.49040451422553
 30
0.0
 11
118.6358706015502
 21
42.49040451422553
 31
0.0
 12
118.8858706015502
 22
43.99040451422553
 32
0.0
 13
118.8858706015502
 23
43.99040451422553
 33
0.0
  0
MTEXT
  5
3ABE
330
3AB5
100
AcDbEntity
  8
硬質樹脂部分
  6
Continuous
 62
     0
100
AcDbMText
 10
118.8858706015502
 20
39.64740922009835
 30
0.0
 40
2.5
 41
0.0
 46
0.0
 71
     5
 72
     1
  1
9
 73
     1
 44
1.0
  0
POINT
  5
3ABF
330
3AB5
100
AcDbEntity
  8
Defpoints
 62
     0
100
AcDbPoint
 10
115.3390187207986
 20
34.99040451422559
 30
0.0
  0
POINT
  5
3AC0
330
3AB5
100
AcDbEntity
  8
Defpoints
 62
     0
100
AcDbPoint
 10
115.0390187207986
 20
43.99040451422553
 30
0.0
  0
POINT
  5
3AC1
330
3AB5
100
AcDbEntity
  8
Defpoints
 62
     0
100
AcDbPoint
 10
118.8858706015502
 20
43.99040451422553
 30
0.0
  0
ENDBLK
  5
3AB7
330
3AB5
100
AcDbEntity
  8
0
100
AcDbBlockEnd
  0
BLOCK
  5
3B35
330
3B34
100
AcDbEntity
  8
0
100
AcDbBlockBegin
  2
*D70
 70
     1
 10
0.0
 20
0.0
 30
0.0
  3
*D70
  1

  0
LINE
  5
3B36
330
3B34
100
AcDbEntity
  8
寸法
  6
Continuous
 62
     0
370
    -2
100
AcDbLine
 10
13.54639784846754
 20
18.49735942622556
 30
0.0
 11
13.54639784846754
 21
26.27520875696548
 31
0.0
  0
LINE
  5
3B37
330
3B34
100
AcDbEntity
  8
寸法
  6
Continuous
 62
     0
370
    -2
100
AcDbLine
 10
38.54639784846754
 20
14.79735942622563
 30
0.0
 11
38.54639784846754
 21
26.27520875696548
 31
0.0
  0
LINE
  5
3B38
330
3B34
100
AcDbEntity
  8
寸法
  6
Continuous
 62
     0
370
    -2
100
AcDbLine
 10
15.04639784846754
 20
25.02520875696548
 30
0.0
 11
24.1880645151342
 21
25.02520875696548
 31
0.0
  0
LINE
  5
3B39
330
3B34
100
AcDbEntity
  8
寸法
  6
Continuous
 62
     0
370
    -2
100
AcDbLine
 10
37.04639784846754
 20
25.02520875696548
 30
0.0
 11
29.60473118180086
 21
25.02520875696548
 31
0.0
  0
SOLID
  5
3B3A
330
3B34
100
AcDbEntity
  8
寸法
 62
     0
100
AcDbTrace
 10
15.04639784846754
 20
25.27520875696548
 30
0.0
 11
15.04639784846754
 21
24.77520875696548
 31
0.0
 12
13.54639784846754
 22
25.02520875696548
 32
0.0
 13
13.54639784846754
 23
25.02520875696548
 33
0.0
  0
SOLID
  5
3B3B
330
3B34
100
AcDbEntity
  8
寸法
 62
     0
100
AcDbTrace
 10
37.04639784846754
 20
24.77520875696548
 30
0.0
 11
37.04639784846754
 21
25.27520875696548
 31
0.0
 12
38.54639784846754
 22
25.02520875696548
 32
0.0
 13
38.54639784846754
 23
25.02520875696548
 33
0.0
  0
MTEXT
  5
3B3C
330
3B34
100
AcDbEntity
  8
寸法
  6
Continuous
 62
     0
100
AcDbMText
 10
26.89639784846753
 20
25.02520875696548
 30
0.0
 40
2.5
 41
0.0
 46
0.0
 71
     5
 72
     1
  1
25
 73
     1
 44
1.0
  0
POINT
  5
3B3D
330
3B34
100
AcDbEntity
  8
Defpoints
 62
     0
100
AcDbPoint
 10
13.54639784846754
 20
17.87235942622556
 30
0.0
  0
POINT
  5
3B3E
330
3B34
100
AcDbEntity
  8
Defpoints
 62
     0
100
AcDbPoint
 10
38.54639784846754
 20
14.17235942622563
 30
0.0
  0
POINT
  5
3B3F
330
3B34
100
AcDbEntity
  8
Defpoints
 62
     0
100
AcDbPoint
 10
38.54639784846754
 20
25.02520875696548
 30
0.0
  0
ENDBLK
  5
3B40
330
3B34
100
AcDbEntity
  8
0
100
AcDbBlockEnd
  0
BLOCK
  5
3B45
330
3B44
100
AcDbEntity
  8
0
100
AcDbBlockBegin
  2
*D71
 70
     1
 10
0.0
 20
0.0
 30
0.0
  3
*D71
  1

  0
LINE
  5
3B46
330
3B44
100
AcDbEntity
  8
寸法
  6
Continuous
 62
     0
370
    -2
100
AcDbLine
 10
13.54639784846754
 20
18.49735942622556
 30
0.0
 11
13.54639784846754
 21
33.88051476084517
 31
0.0
  0
LINE
  5
3B47
330
3B44
100
AcDbEntity
  8
寸法
  6
Continuous
 62
     0
370
    -2
100
AcDbLine
 10
38.74639784846752
 20
18.49735942622556
 30
0.0
 11
38.74639784846752
 21
33.88051476084517
 31
0.0
  0
LINE
  5
3B48
330
3B44
100
AcDbEntity
  8
寸法
  6
Continuous
 62
     0
370
    -2
100
AcDbLine
 10
15.04639784846754
 20
32.63051476084517
 30
0.0
 11
22.52139784846753
 21
32.63051476084517
 31
0.0
  0
LINE
  5
3B49
330
3B44
100
AcDbEntity
  8
寸法
  6
Continuous
 62
     0
370
    -2
100
AcDbLine
 10
37.24639784846752
 20
32.63051476084517
 30
0.0
 11
31.27139784846753
 21
32.63051476084517
 31
0.0
  0
SOLID
  5
3B4A
330
3B44
100
AcDbEntity
  8
寸法
 62
     0
100
AcDbTrace
 10
15.04639784846754
 20
32.88051476084517
 30
0.0
 11
15.04639784846754
 21
32.38051476084517
 31
0.0
 12
13.54639784846754
 22
32.63051476084517
 32
0.0
 13
13.54639784846754
 23
32.63051476084517
 33
0.0
  0
SOLID
  5
3B4B
330
3B44
100
AcDbEntity
  8
寸法
 62
     0
100
AcDbTrace
 10
37.24639784846752
 20
32.38051476084517
 30
0.0
 11
37.24639784846752
 21
32.88051476084517
 31
0.0
 12
38.74639784846752
 22
32.63051476084517
 32
0.0
 13
38.74639784846752
 23
32.63051476084517
 33
0.0
  0
MTEXT
  5
3B4C
330
3B44
100
AcDbEntity
  8
寸法
  6
Continuous
 62
     0
100
AcDbMText
 10
26.89639784846753
 20
32.63051476084517
 30
0.0
 40
2.5
 41
0.0
 46
0.0
 71
     5
 72
     1
  1
25.2
 73
     1
 44
1.0
  0
POINT
  5
3B4D
330
3B44
100
AcDbEntity
  8
Defpoints
 62
     0
100
AcDbPoint
 10
13.54639784846754
 20
17.87235942622556
 30
0.0
  0
POINT
  5
3B4E
330
3B44
100
AcDbEntity
  8
Defpoints
 62
     0
100
AcDbPoint
 10
38.74639784846752
 20
17.87235942622556
 30
0.0
  0
POINT
  5
3B4F
330
3B44
100
AcDbEntity
  8
Defpoints
 62
     0
100
AcDbPoint
 10
38.74639784846752
 20
32.63051476084517
 30
0.0
  0
ENDBLK
  5
3B50
330
3B44
100
AcDbEntity
  8
0
100
AcDbBlockEnd
  0
BLOCK
  5
3B55
330
3B54
100
AcDbEntity
  8
0
100
AcDbBlockBegin
  2
*D72
 70
     1
 10
0.0
 20
0.0
 30
0.0
  3
*D72
  1

  0
LINE
  5
3B56
330
3B54
100
AcDbEntity
  8
寸法
  6
Continuous
 62
     0
370
    -2
100
AcDbLine
 10
13.42139784846754
 20
18.37235942622556
 30
0.0
 11
2.680152856069882
 21
18.37235942622556
 31
0.0
  0
LINE
  5
3B57
330
3B54
100
AcDbEntity
  8
寸法
  6
Continuous
 62
     0
370
    -2
100
AcDbLine
 10
13.42139784846754
 20
11.37235942622556
 30
0.0
 11
2.680152856069881
 21
11.37235942622556
 31
0.0
  0
LINE
  5
3B58
330
3B54
100
AcDbEntity
  8
寸法
  6
Continuous
 62
     0
370
    -2
100
AcDbLine
 10
3.930152856069882
 20
16.87235942622556
 30
0.0
 11
3.930152856069881
 21
12.87235942622556
 31
0.0
  0
LINE
  5
3B59
330
3B54
100
AcDbEntity
  8
寸法
  6
Continuous
 62
     0
370
    -2
100
AcDbLine
 10
3.930152856069881
 20
12.87235942622556
 30
0.0
 11
3.930152856069882
 21
16.87235942622556
 31
0.0
  0
SOLID
  5
3B5A
330
3B54
100
AcDbEntity
  8
寸法
 62
     0
100
AcDbTrace
 10
4.180152856069881
 20
16.87235942622556
 30
0.0
 11
3.680152856069882
 21
16.87235942622556
 31
0.0
 12
3.930152856069882
 22
18.37235942622556
 32
0.0
 13
3.930152856069882
 23
18.37235942622556
 33
0.0
  0
SOLID
  5
3B5B
330
3B54
100
AcDbEntity
  8
寸法
 62
     0
100
AcDbTrace
 10
3.680152856069881
 20
12.87235942622556
 30
0.0
 11
4.180152856069881
 21
12.87235942622556
 31
0.0
 12
3.930152856069881
 22
11.37235942622556
 32
0.0
 13
3.930152856069881
 23
11.37235942622556
 33
0.0
  0
MTEXT
  5
3B5C
330
3B54
100
AcDbEntity
  8
寸法
  6
Continuous
 62
     0
100
AcDbMText
 10
1.297856261743817
 20
15.09808900547424
 30
0.0
 40
2.5
 41
0.0
 46
0.0
 71
     5
 72
     1
  1
7
 73
     1
 44
1.0
  0
POINT
  5
3B5D
330
3B54
100
AcDbEntity
  8
Defpoints
 62
     0
100
AcDbPoint
 10
14.04639784846754
 20
18.37235942622556
 30
0.0
  0
POINT
  5
3B5E
330
3B54
100
AcDbEntity
  8
Defpoints
 62
     0
100
AcDbPoint
 10
14.04639784846754
 20
11.37235942622556
 30
0.0
  0
POINT
  5
3B5F
330
3B54
100
AcDbEntity
  8
Defpoints
 62
     0
100
AcDbPoint
 10
3.930152856069881
 20
11.37235942622556
 30
0.0
  0
ENDBLK
  5
3B60
330
3B54
100
AcDbEntity
  8
0
100
AcDbBlockEnd
  0
BLOCK
  5
3B65
330
3B64
100
AcDbEntity
  8
0
100
AcDbBlockBegin
  2
*D73
 70
     1
 10
0.0
 20
0.0
 30
0.0
  3
*D73
  1

  0
LINE
  5
3B66
330
3B64
100
AcDbEntity
  8
寸法
  6
Continuous
 62
     0
370
    -2
100
AcDbLine
 10
13.54639784846754
 20
11.24735942622556
 30
0.0
 11
13.54639784846754
 21
3.907298337489905
 31
0.0
  0
LINE
  5
3B67
330
3B64
100
AcDbEntity
  8
寸法
  6
Continuous
 62
     0
370
    -2
100
AcDbLine
 10
15.54639784846754
 20
8.747359426225557
 30
0.0
 11
15.54639784846754
 21
3.907298337489905
 31
0.0
  0
LINE
  5
3B68
330
3B64
100
AcDbEntity
  8
寸法
  6
Continuous
 62
     0
370
    -2
100
AcDbLine
 10
12.04639784846754
 20
5.157298337489905
 30
0.0
 11
10.54639784846754
 21
5.157298337489905
 31
0.0
  0
LINE
  5
3B69
330
3B64
100
AcDbEntity
  8
寸法
  6
Continuous
 62
     0
370
    -2
100
AcDbLine
 10
17.04639784846754
 20
5.157298337489905
 30
0.0
 11
18.54639784846754
 21
5.157298337489905
 31
0.0
  0
SOLID
  5
3B6A
330
3B64
100
AcDbEntity
  8
寸法
 62
     0
100
AcDbTrace
 10
12.04639784846754
 20
4.907298337489905
 30
0.0
 11
12.04639784846754
 21
5.407298337489905
 31
0.0
 12
13.54639784846754
 22
5.157298337489905
 32
0.0
 13
13.54639784846754
 23
5.157298337489905
 33
0.0
  0
SOLID
  5
3B6B
330
3B64
100
AcDbEntity
  8
寸法
 62
     0
100
AcDbTrace
 10
17.04639784846754
 20
5.407298337489905
 30
0.0
 11
17.04639784846754
 21
4.907298337489905
 31
0.0
 12
15.54639784846754
 22
5.157298337489905
 32
0.0
 13
15.54639784846754
 23
5.157298337489905
 33
0.0
  0
MTEXT
  5
3B6C
330
3B64
100
AcDbEntity
  8
寸法
  6
Continuous
 62
     0
100
AcDbMText
 10
14.52998542873658
 20
1.348210324523961
 30
0.0
 40
2.5
 41
0.0
 46
0.0
 71
     5
 72
     1
  1
2
 73
     1
 44
1.0
  0
POINT
  5
3B6D
330
3B64
100
AcDbEntity
  8
Defpoints
 62
     0
100
AcDbPoint
 10
13.54639784846754
 20
11.87235942622556
 30
0.0
  0
POINT
  5
3B6E
330
3B64
100
AcDbEntity
  8
Defpoints
 62
     0
100
AcDbPoint
 10
15.54639784846754
 20
9.372359426225557
 30
0.0
  0
POINT
  5
3B6F
330
3B64
100
AcDbEntity
  8
Defpoints
 62
     0
100
AcDbPoint
 10
15.54639784846754
 20
5.157298337489905
 30
0.0
  0
ENDBLK
  5
3B70
330
3B64
100
AcDbEntity
  8
0
100
AcDbBlockEnd
  0
BLOCK
  5
3B75
330
3B74
100
AcDbEntity
  8
0
100
AcDbBlockBegin
  2
*D74
 70
     1
 10
0.0
 20
0.0
 30
0.0
  3
*D74
  1

  0
LINE
  5
3B76
330
3B74
100
AcDbEntity
  8
寸法
  6
Continuous
 62
     0
370
    -2
100
AcDbLine
 10
14.92139784846754
 20
9.372359426225557
 30
0.0
 11
2.680152856069881
 21
9.372359426225557
 31
0.0
  0
LINE
  5
3B77
330
3B74
100
AcDbEntity
  8
寸法
  6
Continuous
 62
     0
370
    -2
100
AcDbLine
 10
13.42139784846754
 20
11.37235942622556
 30
0.0
 11
2.680152856069881
 21
11.37235942622556
 31
0.0
  0
LINE
  5
3B78
330
3B74
100
AcDbEntity
  8
寸法
  6
Continuous
 62
     0
370
    -2
100
AcDbLine
 10
3.930152856069881
 20
7.872359426225557
 30
0.0
 11
3.930152856069881
 21
6.372359426225557
 31
0.0
  0
LINE
  5
3B79
330
3B74
100
AcDbEntity
  8
寸法
  6
Continuous
 62
     0
370
    -2
100
AcDbLine
 10
3.930152856069881
 20
12.87235942622556
 30
0.0
 11
3.930152856069881
 21
14.37235942622556
 31
0.0
  0
SOLID
  5
3B7A
330
3B74
100
AcDbEntity
  8
寸法
 62
     0
100
AcDbTrace
 10
4.180152856069881
 20
7.872359426225557
 30
0.0
 11
3.680152856069881
 21
7.872359426225557
 31
0.0
 12
3.930152856069881
 22
9.372359426225557
 32
0.0
 13
3.930152856069881
 23
9.372359426225557
 33
0.0
  0
SOLID
  5
3B7B
330
3B74
100
AcDbEntity
  8
寸法
 62
     0
100
AcDbTrace
 10
3.680152856069881
 20
12.87235942622556
 30
0.0
 11
4.180152856069881
 21
12.87235942622556
 31
0.0
 12
3.930152856069881
 22
11.37235942622556
 32
0.0
 13
3.930152856069881
 23
11.37235942622556
 33
0.0
  0
MTEXT
  5
3B7C
330
3B74
100
AcDbEntity
  8
寸法
  6
Continuous
 62
     0
100
AcDbMText
 10
0.8333333333333286
 20
10.46156952627712
 30
0.0
 40
2.5
 41
0.0
 46
0.0
 71
     5
 72
     1
  1
2
 73
     1
 44
1.0
  0
POINT
  5
3B7D
330
3B74
100
AcDbEntity
  8
Defpoints
 62
     0
100
AcDbPoint
 10
15.54639784846754
 20
9.372359426225557
 30
0.0
  0
POINT
  5
3B7E
330
3B74
100
AcDbEntity
  8
Defpoints
 62
     0
100
AcDbPoint
 10
14.04639784846754
 20
11.37235942622556
 30
0.0
  0
POINT
  5
3B7F
330
3B74
100
AcDbEntity
  8
Defpoints
 62
     0
100
AcDbPoint
 10
3.930152856069881
 20
11.37235942622556
 30
0.0
  0
ENDBLK
  5
3B80
330
3B74
100
AcDbEntity
  8
0
100
AcDbBlockEnd
  0
BLOCK
  5
3B85
330
3B84
100
AcDbEntity
  8
0
100
AcDbBlockBegin
  2
*D75
 70
     1
 10
0.0
 20
0.0
 30
0.0
  3
*D75
  1

  0
LINE
  5
3B86
330
3B84
100
AcDbEntity
  8
寸法
  6
Continuous
 62
     0
370
    -2
100
AcDbLine
 10
17.54639784846754
 20
8.747359426225614
 30
0.0
 11
17.54639784846754
 21
0.0
 31
0.0
  0
LINE
  5
3B87
330
3B84
100
AcDbEntity
  8
寸法
  6
Continuous
 62
     0
370
    -2
100
AcDbLine
 10
38.54639784846754
 20
8.747359426225614
 30
0.0
 11
38.54639784846754
 21
0.0
 31
0.0
  0
LINE
  5
3B88
330
3B84
100
AcDbEntity
  8
寸法
  6
Continuous
 62
     0
370
    -2
100
AcDbLine
 10
19.04639784846754
 20
1.25
 30
0.0
 11
25.75473118180086
 21
1.25
 31
0.0
  0
LINE
  5
3B89
330
3B84
100
AcDbEntity
  8
寸法
  6
Continuous
 62
     0
370
    -2
100
AcDbLine
 10
37.04639784846754
 20
1.25
 30
0.0
 11
30.3380645151342
 21
1.25
 31
0.0
  0
SOLID
  5
3B8A
330
3B84
100
AcDbEntity
  8
寸法
 62
     0
100
AcDbTrace
 10
19.04639784846754
 20
1.5
 30
0.0
 11
19.04639784846754
 21
1.0
 31
0.0
 12
17.54639784846754
 22
1.25
 32
0.0
 13
17.54639784846754
 23
1.25
 33
0.0
  0
SOLID
  5
3B8B
330
3B84
100
AcDbEntity
  8
寸法
 62
     0
100
AcDbTrace
 10
37.04639784846754
 20
1.0
 30
0.0
 11
37.04639784846754
 21
1.5
 31
0.0
 12
38.54639784846754
 22
1.25
 32
0.0
 13
38.54639784846754
 23
1.25
 33
0.0
  0
MTEXT
  5
3B8C
330
3B84
100
AcDbEntity
  8
寸法
  6
Continuous
 62
     0
100
AcDbMText
 10
28.04639784846754
 20
1.25
 30
0.0
 40
2.5
 41
0.0
 46
0.0
 71
     5
 72
     1
  1
21
 73
     1
 44
1.0
  0
POINT
  5
3B8D
330
3B84
100
AcDbEntity
  8
Defpoints
 62
     0
100
AcDbPoint
 10
17.54639784846754
 20
9.372359426225614
 30
0.0
  0
POINT
  5
3B8E
330
3B84
100
AcDbEntity
  8
Defpoints
 62
     0
100
AcDbPoint
 10
38.54639784846754
 20
9.372359426225614
 30
0.0
  0
POINT
  5
3B8F
330
3B84
100
AcDbEntity
  8
Defpoints
 62
     0
100
AcDbPoint
 10
38.54639784846754
 20
1.25
 30
0.0
  0
ENDBLK
  5
3B90
330
3B84
100
AcDbEntity
  8
0
100
AcDbBlockEnd
  0
BLOCK
  5
3B9B
330
3B9A
100
AcDbEntity
  8
0
100
AcDbBlockBegin
  2
*D76
 70
     1
 10
0.0
 20
0.0
 30
0.0
  3
*D76
  1

  0
LINE
  5
3B9C
330
3B9A
100
AcDbEntity
  8
硬質樹脂部分
  6
Continuous
 62
     0
370
    -2
100
AcDbLine
 10
39.17139784846754
 20
9.372359426225614
 30
0.0
 11
43.34324972921911
 21
9.372359426225614
 31
0.0
  0
LINE
  5
3B9D
330
3B9A
100
AcDbEntity
  8
硬質樹脂部分
  6
Continuous
 62
     0
370
    -2
100
AcDbLine
 10
38.87139784846752
 20
18.37235942622556
 30
0.0
 11
43.34324972921911
 21
18.37235942622556
 31
0.0
  0
LINE
  5
3B9E
330
3B9A
100
AcDbEntity
  8
硬質樹脂部分
  6
Continuous
 62
     0
370
    -2
100
AcDbLine
 10
42.09324972921911
 20
10.87235942622561
 30
0.0
 11
42.09324972921911
 21
12.15436413209838
 31
0.0
  0
LINE
  5
3B9F
330
3B9A
100
AcDbEntity
  8
硬質樹脂部分
  6
Continuous
 62
     0
370
    -2
100
AcDbLine
 10
42.09324972921911
 20
16.87235942622556
 30
0.0
 11
42.09324972921911
 21
15.90436413209838
 31
0.0
  0
SOLID
  5
3BA0
330
3B9A
100
AcDbEntity
  8
硬質樹脂部分
 62
     0
100
AcDbTrace
 10
41.84324972921911
 20
10.87235942622561
 30
0.0
 11
42.34324972921911
 21
10.87235942622561
 31
0.0
 12
42.09324972921911
 22
9.372359426225614
 32
0.0
 13
42.09324972921911
 23
9.372359426225614
 33
0.0
  0
SOLID
  5
3BA1
330
3B9A
100
AcDbEntity
  8
硬質樹脂部分
 62
     0
100
AcDbTrace
 10
42.34324972921911
 20
16.87235942622556
 30
0.0
 11
41.84324972921911
 21
16.87235942622556
 31
0.0
 12
42.09324972921911
 22
18.37235942622556
 32
0.0
 13
42.09324972921911
 23
18.37235942622556
 33
0.0
  0
MTEXT
  5
3BA2
330
3B9A
100
AcDbEntity
  8
硬質樹脂部分
  6
Continuous
 62
     0
100
AcDbMText
 10
42.09324972921911
 20
14.02936413209838
 30
0.0
 40
2.5
 41
0.0
 46
0.0
 71
     5
 72
     1
  1
9
 73
     1
 44
1.0
  0
POINT
  5
3BA3
330
3B9A
100
AcDbEntity
  8
Defpoints
 62
     0
100
AcDbPoint
 10
38.54639784846754
 20
9.372359426225614
 30
0.0
  0
POINT
  5
3BA4
330
3B9A
100
AcDbEntity
  8
Defpoints
 62
     0
100
AcDbPoint
 10
38.24639784846752
 20
18.37235942622556
 30
0.0
  0
POINT
  5
3BA5
330
3B9A
100
AcDbEntity
  8
Defpoints
 62
     0
100
AcDbPoint
 10
42.09324972921911
 20
18.37235942622556
 30
0.0
  0
ENDBLK
  5
3BA6
330
3B9A
100
AcDbEntity
  8
0
100
AcDbBlockEnd
  0
BLOCK
  5
3C2B
330
3C2A
100
AcDbEntity
  8
0
100
AcDbBlockBegin
  2
*D77
 70
     1
 10
0.0
 20
0.0
 30
0.0
  3
*D77
  1

  0
LINE
  5
3C2D
330
3C2A
100
AcDbEntity
  8
寸法
  6
Continuous
 62
     0
370
    -2
100
AcDbLine
 10
124.7008182897641
 20
108.3325381349152
 30
0.0
 11
124.7008182897641
 21
116.1103874656551
 31
0.0
  0
LINE
  5
3C2E
330
3C2A
100
AcDbEntity
  8
寸法
  6
Continuous
 62
     0
370
    -2
100
AcDbLine
 10
149.7008182897641
 20
104.6325381349153
 30
0.0
 11
149.7008182897641
 21
116.1103874656551
 31
0.0
  0
LINE
  5
3C2F
330
3C2A
100
AcDbEntity
  8
寸法
  6
Continuous
 62
     0
370
    -2
100
AcDbLine
 10
126.2008182897641
 20
114.8603874656551
 30
0.0
 11
135.3424849564308
 21
114.8603874656551
 31
0.0
  0
LINE
  5
3C30
330
3C2A
100
AcDbEntity
  8
寸法
  6
Continuous
 62
     0
370
    -2
100
AcDbLine
 10
148.2008182897641
 20
114.8603874656551
 30
0.0
 11
140.7591516230974
 21
114.8603874656551
 31
0.0
  0
SOLID
  5
3C31
330
3C2A
100
AcDbEntity
  8
寸法
 62
     0
100
AcDbTrace
 10
126.2008182897641
 20
115.1103874656551
 30
0.0
 11
126.2008182897641
 21
114.6103874656551
 31
0.0
 12
124.7008182897641
 22
114.8603874656551
 32
0.0
 13
124.7008182897641
 23
114.8603874656551
 33
0.0
  0
SOLID
  5
3C32
330
3C2A
100
AcDbEntity
  8
寸法
 62
     0
100
AcDbTrace
 10
148.2008182897641
 20
114.6103874656551
 30
0.0
 11
148.2008182897641
 21
115.1103874656551
 31
0.0
 12
149.7008182897641
 22
114.8603874656551
 32
0.0
 13
149.7008182897641
 23
114.8603874656551
 33
0.0
  0
MTEXT
  5
3C33
330
3C2A
100
AcDbEntity
  8
寸法
  6
Continuous
 62
     0
100
AcDbMText
 10
138.0508182897641
 20
114.8603874656551
 30
0.0
 40
2.5
 41
0.0
 46
0.0
 71
     5
 72
     1
  1
25
 73
     1
 44
1.0
  0
POINT
  5
3C34
330
3C2A
100
AcDbEntity
  8
Defpoints
 62
     0
100
AcDbPoint
 10
124.7008182897641
 20
107.7075381349152
 30
0.0
  0
POINT
  5
3C35
330
3C2A
100
AcDbEntity
  8
Defpoints
 62
     0
100
AcDbPoint
 10
149.7008182897641
 20
104.0075381349153
 30
0.0
  0
POINT
  5
3C36
330
3C2A
100
AcDbEntity
  8
Defpoints
 62
     0
100
AcDbPoint
 10
149.7008182897641
 20
114.8603874656551
 30
0.0
  0
ENDBLK
  5
3C2C
330
3C2A
100
AcDbEntity
  8
0
100
AcDbBlockEnd
  0
BLOCK
  5
3C38
330
3C37
100
AcDbEntity
  8
0
100
AcDbBlockBegin
  2
*D78
 70
     1
 10
0.0
 20
0.0
 30
0.0
  3
*D78
  1

  0
LINE
  5
3C3A
330
3C37
100
AcDbEntity
  8
寸法
  6
Continuous
 62
     0
370
    -2
100
AcDbLine
 10
124.7008182897641
 20
108.3325381349152
 30
0.0
 11
124.7008182897641
 21
123.7156934695348
 31
0.0
  0
LINE
  5
3C3B
330
3C37
100
AcDbEntity
  8
寸法
  6
Continuous
 62
     0
370
    -2
100
AcDbLine
 10
149.9008182897641
 20
108.3325381349152
 30
0.0
 11
149.9008182897641
 21
123.7156934695348
 31
0.0
  0
LINE
  5
3C3C
330
3C37
100
AcDbEntity
  8
寸法
  6
Continuous
 62
     0
370
    -2
100
AcDbLine
 10
126.2008182897641
 20
122.4656934695348
 30
0.0
 11
133.6758182897641
 21
122.4656934695348
 31
0.0
  0
LINE
  5
3C3D
330
3C37
100
AcDbEntity
  8
寸法
  6
Continuous
 62
     0
370
    -2
100
AcDbLine
 10
148.4008182897641
 20
122.4656934695348
 30
0.0
 11
142.4258182897641
 21
122.4656934695348
 31
0.0
  0
SOLID
  5
3C3E
330
3C37
100
AcDbEntity
  8
寸法
 62
     0
100
AcDbTrace
 10
126.2008182897641
 20
122.7156934695348
 30
0.0
 11
126.2008182897641
 21
122.2156934695348
 31
0.0
 12
124.7008182897641
 22
122.4656934695348
 32
0.0
 13
124.7008182897641
 23
122.4656934695348
 33
0.0
  0
SOLID
  5
3C3F
330
3C37
100
AcDbEntity
  8
寸法
 62
     0
100
AcDbTrace
 10
148.4008182897641
 20
122.2156934695348
 30
0.0
 11
148.4008182897641
 21
122.7156934695348
 31
0.0
 12
149.9008182897641
 22
122.4656934695348
 32
0.0
 13
149.9008182897641
 23
122.4656934695348
 33
0.0
  0
MTEXT
  5
3C40
330
3C37
100
AcDbEntity
  8
寸法
  6
Continuous
 62
     0
100
AcDbMText
 10
138.0508182897641
 20
122.4656934695348
 30
0.0
 40
2.5
 41
0.0
 46
0.0
 71
     5
 72
     1
  1
25.2
 73
     1
 44
1.0
  0
POINT
  5
3C41
330
3C37
100
AcDbEntity
  8
Defpoints
 62
     0
100
AcDbPoint
 10
124.7008182897641
 20
107.7075381349152
 30
0.0
  0
POINT
  5
3C42
330
3C37
100
AcDbEntity
  8
Defpoints
 62
     0
100
AcDbPoint
 10
149.9008182897641
 20
107.7075381349152
 30
0.0
  0
POINT
  5
3C43
330
3C37
100
AcDbEntity
  8
Defpoints
 62
     0
100
AcDbPoint
 10
149.9008182897641
 20
122.4656934695348
 30
0.0
  0
ENDBLK
  5
3C39
330
3C37
100
AcDbEntity
  8
0
100
AcDbBlockEnd
  0
BLOCK
  5
3C45
330
3C44
100
AcDbEntity
  8
0
100
AcDbBlockBegin
  2
*D79
 70
     1
 10
0.0
 20
0.0
 30
0.0
  3
*D79
  1

  0
LINE
  5
3C47
330
3C44
100
AcDbEntity
  8
寸法
  6
Continuous
 62
     0
370
    -2
100
AcDbLine
 10
124.5758182897641
 20
108.2075381349152
 30
0.0
 11
113.8345732973665
 21
108.2075381349152
 31
0.0
  0
LINE
  5
3C48
330
3C44
100
AcDbEntity
  8
寸法
  6
Continuous
 62
     0
370
    -2
100
AcDbLine
 10
124.5758182897641
 20
101.2075381349152
 30
0.0
 11
113.8345732973665
 21
101.2075381349152
 31
0.0
  0
LINE
  5
3C49
330
3C44
100
AcDbEntity
  8
寸法
  6
Continuous
 62
     0
370
    -2
100
AcDbLine
 10
115.0845732973665
 20
106.7075381349152
 30
0.0
 11
115.0845732973665
 21
102.7075381349152
 31
0.0
  0
LINE
  5
3C4A
330
3C44
100
AcDbEntity
  8
寸法
  6
Continuous
 62
     0
370
    -2
100
AcDbLine
 10
115.0845732973665
 20
102.7075381349152
 30
0.0
 11
115.0845732973665
 21
106.7075381349152
 31
0.0
  0
SOLID
  5
3C4B
330
3C44
100
AcDbEntity
  8
寸法
 62
     0
100
AcDbTrace
 10
115.3345732973665
 20
106.7075381349152
 30
0.0
 11
114.8345732973665
 21
106.7075381349152
 31
0.0
 12
115.0845732973665
 22
108.2075381349152
 32
0.0
 13
115.0845732973665
 23
108.2075381349152
 33
0.0
  0
SOLID
  5
3C4C
330
3C44
100
AcDbEntity
  8
寸法
 62
     0
100
AcDbTrace
 10
114.8345732973665
 20
102.7075381349152
 30
0.0
 11
115.3345732973665
 21
102.7075381349152
 31
0.0
 12
115.0845732973665
 22
101.2075381349152
 32
0.0
 13
115.0845732973665
 23
101.2075381349152
 33
0.0
  0
MTEXT
  5
3C4D
330
3C44
100
AcDbEntity
  8
寸法
  6
Continuous
 62
     0
100
AcDbMText
 10
112.4522767030404
 20
104.9332677141639
 30
0.0
 40
2.5
 41
0.0
 46
0.0
 71
     5
 72
     1
  1
7
 73
     1
 44
1.0
  0
POINT
  5
3C4E
330
3C44
100
AcDbEntity
  8
Defpoints
 62
     0
100
AcDbPoint
 10
125.2008182897641
 20
108.2075381349152
 30
0.0
  0
POINT
  5
3C4F
330
3C44
100
AcDbEntity
  8
Defpoints
 62
     0
100
AcDbPoint
 10
125.2008182897641
 20
101.2075381349152
 30
0.0
  0
POINT
  5
3C50
330
3C44
100
AcDbEntity
  8
Defpoints
 62
     0
100
AcDbPoint
 10
115.0845732973665
 20
101.2075381349152
 30
0.0
  0
ENDBLK
  5
3C46
330
3C44
100
AcDbEntity
  8
0
100
AcDbBlockEnd
  0
BLOCK
  5
3C52
330
3C51
100
AcDbEntity
  8
0
100
AcDbBlockBegin
  2
*D80
 70
     1
 10
0.0
 20
0.0
 30
0.0
  3
*D80
  1

  0
LINE
  5
3C54
330
3C51
100
AcDbEntity
  8
寸法
  6
Continuous
 62
     0
370
    -2
100
AcDbLine
 10
124.7008182897641
 20
101.0825381349152
 30
0.0
 11
124.7008182897641
 21
93.74247704617953
 31
0.0
  0
LINE
  5
3C55
330
3C51
100
AcDbEntity
  8
寸法
  6
Continuous
 62
     0
370
    -2
100
AcDbLine
 10
126.7008182897641
 20
98.58253813491518
 30
0.0
 11
126.7008182897641
 21
93.74247704617953
 31
0.0
  0
LINE
  5
3C56
330
3C51
100
AcDbEntity
  8
寸法
  6
Continuous
 62
     0
370
    -2
100
AcDbLine
 10
123.2008182897641
 20
94.99247704617953
 30
0.0
 11
121.7008182897641
 21
94.99247704617953
 31
0.0
  0
LINE
  5
3C57
330
3C51
100
AcDbEntity
  8
寸法
  6
Continuous
 62
     0
370
    -2
100
AcDbLine
 10
128.2008182897641
 20
94.99247704617953
 30
0.0
 11
129.7008182897641
 21
94.99247704617953
 31
0.0
  0
SOLID
  5
3C58
330
3C51
100
AcDbEntity
  8
寸法
 62
     0
100
AcDbTrace
 10
123.2008182897641
 20
94.74247704617953
 30
0.0
 11
123.2008182897641
 21
95.24247704617953
 31
0.0
 12
124.7008182897641
 22
94.99247704617953
 32
0.0
 13
124.7008182897641
 23
94.99247704617953
 33
0.0
  0
SOLID
  5
3C59
330
3C51
100
AcDbEntity
  8
寸法
 62
     0
100
AcDbTrace
 10
128.2008182897641
 20
95.24247704617953
 30
0.0
 11
128.2008182897641
 21
94.74247704617953
 31
0.0
 12
126.7008182897641
 22
94.99247704617953
 32
0.0
 13
126.7008182897641
 23
94.99247704617953
 33
0.0
  0
MTEXT
  5
3C5A
330
3C51
100
AcDbEntity
  8
寸法
  6
Continuous
 62
     0
100
AcDbMText
 10
125.6844058700332
 20
91.18338903321359
 30
0.0
 40
2.5
 41
0.0
 46
0.0
 71
     5
 72
     1
  1
2
 73
     1
 44
1.0
  0
POINT
  5
3C5B
330
3C51
100
AcDbEntity
  8
Defpoints
 62
     0
100
AcDbPoint
 10
124.7008182897641
 20
101.7075381349152
 30
0.0
  0
POINT
  5
3C5C
330
3C51
100
AcDbEntity
  8
Defpoints
 62
     0
100
AcDbPoint
 10
126.7008182897641
 20
99.20753813491518
 30
0.0
  0
POINT
  5
3C5D
330
3C51
100
AcDbEntity
  8
Defpoints
 62
     0
100
AcDbPoint
 10
126.7008182897641
 20
94.99247704617953
 30
0.0
  0
ENDBLK
  5
3C53
330
3C51
100
AcDbEntity
  8
0
100
AcDbBlockEnd
  0
BLOCK
  5
3C5F
330
3C5E
100
AcDbEntity
  8
0
100
AcDbBlockBegin
  2
*D81
 70
     1
 10
0.0
 20
0.0
 30
0.0
  3
*D81
  1

  0
LINE
  5
3C61
330
3C5E
100
AcDbEntity
  8
寸法
  6
Continuous
 62
     0
370
    -2
100
AcDbLine
 10
126.0758182897641
 20
99.20753813491518
 30
0.0
 11
113.8345732973665
 21
99.20753813491518
 31
0.0
  0
LINE
  5
3C62
330
3C5E
100
AcDbEntity
  8
寸法
  6
Continuous
 62
     0
370
    -2
100
AcDbLine
 10
124.5758182897641
 20
101.2075381349152
 30
0.0
 11
113.8345732973665
 21
101.2075381349152
 31
0.0
  0
LINE
  5
3C63
330
3C5E
100
AcDbEntity
  8
寸法
  6
Continuous
 62
     0
370
    -2
100
AcDbLine
 10
115.0845732973665
 20
97.70753813491518
 30
0.0
 11
115.0845732973665
 21
96.20753813491518
 31
0.0
  0
LINE
  5
3C64
330
3C5E
100
AcDbEntity
  8
寸法
  6
Continuous
 62
     0
370
    -2
100
AcDbLine
 10
115.0845732973665
 20
102.7075381349152
 30
0.0
 11
115.0845732973665
 21
104.2075381349152
 31
0.0
  0
SOLID
  5
3C65
330
3C5E
100
AcDbEntity
  8
寸法
 62
     0
100
AcDbTrace
 10
115.3345732973665
 20
97.70753813491518
 30
0.0
 11
114.8345732973665
 21
97.70753813491518
 31
0.0
 12
115.0845732973665
 22
99.20753813491518
 32
0.0
 13
115.0845732973665
 23
99.20753813491518
 33
0.0
  0
SOLID
  5
3C66
330
3C5E
100
AcDbEntity
  8
寸法
 62
     0
100
AcDbTrace
 10
114.8345732973665
 20
102.7075381349152
 30
0.0
 11
115.3345732973665
 21
102.7075381349152
 31
0.0
 12
115.0845732973665
 22
101.2075381349152
 32
0.0
 13
115.0845732973665
 23
101.2075381349152
 33
0.0
  0
MTEXT
  5
3C67
330
3C5E
100
AcDbEntity
  8
寸法
  6
Continuous
 62
     0
100
AcDbMText
 10
111.9877537746299
 20
100.2967482349667
 30
0.0
 40
2.5
 41
0.0
 46
0.0
 71
     5
 72
     1
  1
2
 73
     1
 44
1.0
  0
POINT
  5
3C68
330
3C5E
100
AcDbEntity
  8
Defpoints
 62
     0
100
AcDbPoint
 10
126.7008182897641
 20
99.20753813491518
 30
0.0
  0
POINT
  5
3C69
330
3C5E
100
AcDbEntity
  8
Defpoints
 62
     0
100
AcDbPoint
 10
125.2008182897641
 20
101.2075381349152
 30
0.0
  0
POINT
  5
3C6A
330
3C5E
100
AcDbEntity
  8
Defpoints
 62
     0
100
AcDbPoint
 10
115.0845732973665
 20
101.2075381349152
 30
0.0
  0
ENDBLK
  5
3C60
330
3C5E
100
AcDbEntity
  8
0
100
AcDbBlockEnd
  0
BLOCK
  5
3C6C
330
3C6B
100
AcDbEntity
  8
0
100
AcDbBlockBegin
  2
*D82
 70
     1
 10
0.0
 20
0.0
 30
0.0
  3
*D82
  1

  0
LINE
  5
3C6E
330
3C6B
100
AcDbEntity
  8
寸法
  6
Continuous
 62
     0
370
    -2
100
AcDbLine
 10
128.7008182897641
 20
98.58253813491524
 30
0.0
 11
128.7008182897641
 21
89.83517870868963
 31
0.0
  0
LINE
  5
3C6F
330
3C6B
100
AcDbEntity
  8
寸法
  6
Continuous
 62
     0
370
    -2
100
AcDbLine
 10
149.7008182897641
 20
98.58253813491524
 30
0.0
 11
149.7008182897641
 21
89.83517870868963
 31
0.0
  0
LINE
  5
3C70
330
3C6B
100
AcDbEntity
  8
寸法
  6
Continuous
 62
     0
370
    -2
100
AcDbLine
 10
130.2008182897641
 20
91.08517870868963
 30
0.0
 11
136.9091516230975
 21
91.08517870868963
 31
0.0
  0
LINE
  5
3C71
330
3C6B
100
AcDbEntity
  8
寸法
  6
Continuous
 62
     0
370
    -2
100
AcDbLine
 10
148.2008182897641
 20
91.08517870868963
 30
0.0
 11
141.4924849564308
 21
91.08517870868963
 31
0.0
  0
SOLID
  5
3C72
330
3C6B
100
AcDbEntity
  8
寸法
 62
     0
100
AcDbTrace
 10
130.2008182897641
 20
91.33517870868963
 30
0.0
 11
130.2008182897641
 21
90.83517870868963
 31
0.0
 12
128.7008182897641
 22
91.08517870868963
 32
0.0
 13
128.7008182897641
 23
91.08517870868963
 33
0.0
  0
SOLID
  5
3C73
330
3C6B
100
AcDbEntity
  8
寸法
 62
     0
100
AcDbTrace
 10
148.2008182897641
 20
90.83517870868963
 30
0.0
 11
148.2008182897641
 21
91.33517870868963
 31
0.0
 12
149.7008182897641
 22
91.08517870868963
 32
0.0
 13
149.7008182897641
 23
91.08517870868963
 33
0.0
  0
MTEXT
  5
3C74
330
3C6B
100
AcDbEntity
  8
寸法
  6
Continuous
 62
     0
100
AcDbMText
 10
139.2008182897641
 20
91.08517870868963
 30
0.0
 40
2.5
 41
0.0
 46
0.0
 71
     5
 72
     1
  1
21
 73
     1
 44
1.0
  0
POINT
  5
3C75
330
3C6B
100
AcDbEntity
  8
Defpoints
 62
     0
100
AcDbPoint
 10
128.7008182897641
 20
99.20753813491524
 30
0.0
  0
POINT
  5
3C76
330
3C6B
100
AcDbEntity
  8
Defpoints
 62
     0
100
AcDbPoint
 10
149.7008182897641
 20
99.20753813491524
 30
0.0
  0
POINT
  5
3C77
330
3C6B
100
AcDbEntity
  8
Defpoints
 62
     0
100
AcDbPoint
 10
149.7008182897641
 20
91.08517870868963
 30
0.0
  0
ENDBLK
  5
3C6D
330
3C6B
100
AcDbEntity
  8
0
100
AcDbBlockEnd
  0
BLOCK
  5
3C79
330
3C78
100
AcDbEntity
  8
0
100
AcDbBlockBegin
  2
*D83
 70
     1
 10
0.0
 20
0.0
 30
0.0
  3
*D83
  1

  0
LINE
  5
3C7B
330
3C78
100
AcDbEntity
  8
硬質樹脂部分
  6
Continuous
 62
     0
370
    -2
100
AcDbLine
 10
150.3258182897641
 20
99.20753813491524
 30
0.0
 11
154.4976701705157
 21
99.20753813491524
 31
0.0
  0
LINE
  5
3C7C
330
3C78
100
AcDbEntity
  8
硬質樹脂部分
  6
Continuous
 62
     0
370
    -2
100
AcDbLine
 10
150.0258182897641
 20
108.2075381349152
 30
0.0
 11
154.4976701705157
 21
108.2075381349152
 31
0.0
  0
LINE
  5
3C7D
330
3C78
100
AcDbEntity
  8
硬質樹脂部分
  6
Continuous
 62
     0
370
    -2
100
AcDbLine
 10
153.2476701705157
 20
100.7075381349152
 30
0.0
 11
153.2476701705157
 21
101.989542840788
 31
0.0
  0
LINE
  5
3C7E
330
3C78
100
AcDbEntity
  8
硬質樹脂部分
  6
Continuous
 62
     0
370
    -2
100
AcDbLine
 10
153.2476701705157
 20
106.7075381349152
 30
0.0
 11
153.2476701705157
 21
105.739542840788
 31
0.0
  0
SOLID
  5
3C7F
330
3C78
100
AcDbEntity
  8
硬質樹脂部分
 62
     0
100
AcDbTrace
 10
152.9976701705157
 20
100.7075381349152
 30
0.0
 11
153.4976701705157
 21
100.7075381349152
 31
0.0
 12
153.2476701705157
 22
99.20753813491524
 32
0.0
 13
153.2476701705157
 23
99.20753813491524
 33
0.0
  0
SOLID
  5
3C80
330
3C78
100
AcDbEntity
  8
硬質樹脂部分
 62
     0
100
AcDbTrace
 10
153.4976701705157
 20
106.7075381349152
 30
0.0
 11
152.9976701705157
 21
106.7075381349152
 31
0.0
 12
153.2476701705157
 22
108.2075381349152
 32
0.0
 13
153.2476701705157
 23
108.2075381349152
 33
0.0
  0
MTEXT
  5
3C81
330
3C78
100
AcDbEntity
  8
硬質樹脂部分
  6
Continuous
 62
     0
100
AcDbMText
 10
153.2476701705157
 20
103.864542840788
 30
0.0
 40
2.5
 41
0.0
 46
0.0
 71
     5
 72
     1
  1
9
 73
     1
 44
1.0
  0
POINT
  5
3C82
330
3C78
100
AcDbEntity
  8
Defpoints
 62
     0
100
AcDbPoint
 10
149.7008182897641
 20
99.20753813491524
 30
0.0
  0
POINT
  5
3C83
330
3C78
100
AcDbEntity
  8
Defpoints
 62
     0
100
AcDbPoint
 10
149.4008182897641
 20
108.2075381349152
 30
0.0
  0
POINT
  5
3C84
330
3C78
100
AcDbEntity
  8
Defpoints
 62
     0
100
AcDbPoint
 10
153.2476701705157
 20
108.2075381349152
 30
0.0
  0
ENDBLK
  5
3C7A
330
3C78
100
AcDbEntity
  8
0
100
AcDbBlockEnd
  0
BLOCK
  5
3CFC
330
3CFB
100
AcDbEntity
  8
0
100
AcDbBlockBegin
  2
*D84
 70
     1
 10
0.0
 20
0.0
 30
0.0
  3
*D84
  1

  0
LINE
  5
3CFD
330
3CFB
100
AcDbEntity
  8
寸法
  6
Continuous
 62
     0
370
    -2
100
AcDbLine
 10
13.54639784846754
 20
18.49735942622557
 30
0.0
 11
13.54639784846754
 21
26.27520875696547
 31
0.0
  0
LINE
  5
3CFE
330
3CFB
100
AcDbEntity
  8
寸法
  6
Continuous
 62
     0
370
    -2
100
AcDbLine
 10
38.54639784846754
 20
14.79735942622567
 30
0.0
 11
38.54639784846754
 21
26.27520875696547
 31
0.0
  0
LINE
  5
3CFF
330
3CFB
100
AcDbEntity
  8
寸法
  6
Continuous
 62
     0
370
    -2
100
AcDbLine
 10
15.04639784846754
 20
25.02520875696547
 30
0.0
 11
24.1880645151342
 21
25.02520875696547
 31
0.0
  0
LINE
  5
3D00
330
3CFB
100
AcDbEntity
  8
寸法
  6
Continuous
 62
     0
370
    -2
100
AcDbLine
 10
37.04639784846754
 20
25.02520875696547
 30
0.0
 11
29.60473118180086
 21
25.02520875696547
 31
0.0
  0
SOLID
  5
3D01
330
3CFB
100
AcDbEntity
  8
寸法
 62
     0
100
AcDbTrace
 10
15.04639784846754
 20
25.27520875696547
 30
0.0
 11
15.04639784846754
 21
24.77520875696547
 31
0.0
 12
13.54639784846754
 22
25.02520875696547
 32
0.0
 13
13.54639784846754
 23
25.02520875696547
 33
0.0
  0
SOLID
  5
3D02
330
3CFB
100
AcDbEntity
  8
寸法
 62
     0
100
AcDbTrace
 10
37.04639784846754
 20
24.77520875696547
 30
0.0
 11
37.04639784846754
 21
25.27520875696547
 31
0.0
 12
38.54639784846754
 22
25.02520875696547
 32
0.0
 13
38.54639784846754
 23
25.02520875696547
 33
0.0
  0
MTEXT
  5
3D03
330
3CFB
100
AcDbEntity
  8
寸法
  6
Continuous
 62
     0
100
AcDbMText
 10
26.89639784846753
 20
25.02520875696547
 30
0.0
 40
2.5
 41
0.0
 46
0.0
 71
     5
 72
     1
  1
25
 73
     1
 44
1.0
  0
POINT
  5
3D04
330
3CFB
100
AcDbEntity
  8
Defpoints
 62
     0
100
AcDbPoint
 10
13.54639784846754
 20
17.87235942622557
 30
0.0
  0
POINT
  5
3D05
330
3CFB
100
AcDbEntity
  8
Defpoints
 62
     0
100
AcDbPoint
 10
38.54639784846754
 20
14.17235942622567
 30
0.0
  0
POINT
  5
3D06
330
3CFB
100
AcDbEntity
  8
Defpoints
 62
     0
100
AcDbPoint
 10
38.54639784846754
 20
25.02520875696547
 30
0.0
  0
ENDBLK
  5
3D07
330
3CFB
100
AcDbEntity
  8
0
100
AcDbBlockEnd
  0
BLOCK
  5
3D0C
330
3D0B
100
AcDbEntity
  8
0
100
AcDbBlockBegin
  2
*D85
 70
     1
 10
0.0
 20
0.0
 30
0.0
  3
*D85
  1

  0
LINE
  5
3D0D
330
3D0B
100
AcDbEntity
  8
寸法
  6
Continuous
 62
     0
370
    -2
100
AcDbLine
 10
13.54639784846754
 20
18.49735942622557
 30
0.0
 11
13.54639784846754
 21
33.88051476084517
 31
0.0
  0
LINE
  5
3D0E
330
3D0B
100
AcDbEntity
  8
寸法
  6
Continuous
 62
     0
370
    -2
100
AcDbLine
 10
38.74639784846752
 20
18.49735942622557
 30
0.0
 11
38.74639784846752
 21
33.88051476084517
 31
0.0
  0
LINE
  5
3D0F
330
3D0B
100
AcDbEntity
  8
寸法
  6
Continuous
 62
     0
370
    -2
100
AcDbLine
 10
15.04639784846754
 20
32.63051476084517
 30
0.0
 11
22.52139784846753
 21
32.63051476084517
 31
0.0
  0
LINE
  5
3D10
330
3D0B
100
AcDbEntity
  8
寸法
  6
Continuous
 62
     0
370
    -2
100
AcDbLine
 10
37.24639784846752
 20
32.63051476084517
 30
0.0
 11
31.27139784846753
 21
32.63051476084517
 31
0.0
  0
SOLID
  5
3D11
330
3D0B
100
AcDbEntity
  8
寸法
 62
     0
100
AcDbTrace
 10
15.04639784846754
 20
32.88051476084517
 30
0.0
 11
15.04639784846754
 21
32.38051476084517
 31
0.0
 12
13.54639784846754
 22
32.63051476084517
 32
0.0
 13
13.54639784846754
 23
32.63051476084517
 33
0.0
  0
SOLID
  5
3D12
330
3D0B
100
AcDbEntity
  8
寸法
 62
     0
100
AcDbTrace
 10
37.24639784846752
 20
32.38051476084517
 30
0.0
 11
37.24639784846752
 21
32.88051476084517
 31
0.0
 12
38.74639784846752
 22
32.63051476084517
 32
0.0
 13
38.74639784846752
 23
32.63051476084517
 33
0.0
  0
MTEXT
  5
3D13
330
3D0B
100
AcDbEntity
  8
寸法
  6
Continuous
 62
     0
100
AcDbMText
 10
26.89639784846753
 20
32.63051476084517
 30
0.0
 40
2.5
 41
0.0
 46
0.0
 71
     5
 72
     1
  1
25.2
 73
     1
 44
1.0
  0
POINT
  5
3D14
330
3D0B
100
AcDbEntity
  8
Defpoints
 62
     0
100
AcDbPoint
 10
13.54639784846754
 20
17.87235942622557
 30
0.0
  0
POINT
  5
3D15
330
3D0B
100
AcDbEntity
  8
Defpoints
 62
     0
100
AcDbPoint
 10
38.74639784846752
 20
17.87235942622557
 30
0.0
  0
POINT
  5
3D16
330
3D0B
100
AcDbEntity
  8
Defpoints
 62
     0
100
AcDbPoint
 10
38.74639784846752
 20
32.63051476084517
 30
0.0
  0
ENDBLK
  5
3D17
330
3D0B
100
AcDbEntity
  8
0
100
AcDbBlockEnd
  0
BLOCK
  5
3D1C
330
3D1B
100
AcDbEntity
  8
0
100
AcDbBlockBegin
  2
*D86
 70
     1
 10
0.0
 20
0.0
 30
0.0
  3
*D86
  1

  0
LINE
  5
3D1D
330
3D1B
100
AcDbEntity
  8
寸法
  6
Continuous
 62
     0
370
    -2
100
AcDbLine
 10
13.42139784846754
 20
18.37235942622557
 30
0.0
 11
2.680152856069939
 21
18.37235942622557
 31
0.0
  0
LINE
  5
3D1E
330
3D1B
100
AcDbEntity
  8
寸法
  6
Continuous
 62
     0
370
    -2
100
AcDbLine
 10
13.42139784846754
 20
11.37235942622557
 30
0.0
 11
2.680152856069938
 21
11.37235942622557
 31
0.0
  0
LINE
  5
3D1F
330
3D1B
100
AcDbEntity
  8
寸法
  6
Continuous
 62
     0
370
    -2
100
AcDbLine
 10
3.930152856069939
 20
16.87235942622557
 30
0.0
 11
3.930152856069938
 21
12.87235942622557
 31
0.0
  0
LINE
  5
3D20
330
3D1B
100
AcDbEntity
  8
寸法
  6
Continuous
 62
     0
370
    -2
100
AcDbLine
 10
3.930152856069938
 20
12.87235942622557
 30
0.0
 11
3.930152856069939
 21
16.87235942622557
 31
0.0
  0
SOLID
  5
3D21
330
3D1B
100
AcDbEntity
  8
寸法
 62
     0
100
AcDbTrace
 10
4.180152856069938
 20
16.87235942622557
 30
0.0
 11
3.680152856069939
 21
16.87235942622557
 31
0.0
 12
3.930152856069939
 22
18.37235942622557
 32
0.0
 13
3.930152856069939
 23
18.37235942622557
 33
0.0
  0
SOLID
  5
3D22
330
3D1B
100
AcDbEntity
  8
寸法
 62
     0
100
AcDbTrace
 10
3.680152856069938
 20
12.87235942622557
 30
0.0
 11
4.180152856069938
 21
12.87235942622557
 31
0.0
 12
3.930152856069938
 22
11.37235942622557
 32
0.0
 13
3.930152856069938
 23
11.37235942622557
 33
0.0
  0
MTEXT
  5
3D23
330
3D1B
100
AcDbEntity
  8
寸法
  6
Continuous
 62
     0
100
AcDbMText
 10
1.297856261743831
 20
15.09808900547428
 30
0.0
 40
2.5
 41
0.0
 46
0.0
 71
     5
 72
     1
  1
7
 73
     1
 44
1.0
  0
POINT
  5
3D24
330
3D1B
100
AcDbEntity
  8
Defpoints
 62
     0
100
AcDbPoint
 10
14.04639784846754
 20
18.37235942622557
 30
0.0
  0
POINT
  5
3D25
330
3D1B
100
AcDbEntity
  8
Defpoints
 62
     0
100
AcDbPoint
 10
14.04639784846754
 20
11.37235942622557
 30
0.0
  0
POINT
  5
3D26
330
3D1B
100
AcDbEntity
  8
Defpoints
 62
     0
100
AcDbPoint
 10
3.930152856069938
 20
11.37235942622557
 30
0.0
  0
ENDBLK
  5
3D27
330
3D1B
100
AcDbEntity
  8
0
100
AcDbBlockEnd
  0
BLOCK
  5
3D2C
330
3D2B
100
AcDbEntity
  8
0
100
AcDbBlockBegin
  2
*D87
 70
     1
 10
0.0
 20
0.0
 30
0.0
  3
*D87
  1

  0
LINE
  5
3D2D
330
3D2B
100
AcDbEntity
  8
寸法
  6
Continuous
 62
     0
370
    -2
100
AcDbLine
 10
13.54639784846754
 20
11.24735942622557
 30
0.0
 11
13.54639784846754
 21
3.907298337489905
 31
0.0
  0
LINE
  5
3D2E
330
3D2B
100
AcDbEntity
  8
寸法
  6
Continuous
 62
     0
370
    -2
100
AcDbLine
 10
15.54639784846754
 20
8.747359426225557
 30
0.0
 11
15.54639784846754
 21
3.907298337489905
 31
0.0
  0
LINE
  5
3D2F
330
3D2B
100
AcDbEntity
  8
寸法
  6
Continuous
 62
     0
370
    -2
100
AcDbLine
 10
12.04639784846754
 20
5.157298337489905
 30
0.0
 11
10.54639784846754
 21
5.157298337489905
 31
0.0
  0
LINE
  5
3D30
330
3D2B
100
AcDbEntity
  8
寸法
  6
Continuous
 62
     0
370
    -2
100
AcDbLine
 10
17.04639784846754
 20
5.157298337489905
 30
0.0
 11
18.54639784846754
 21
5.157298337489905
 31
0.0
  0
SOLID
  5
3D31
330
3D2B
100
AcDbEntity
  8
寸法
 62
     0
100
AcDbTrace
 10
12.04639784846754
 20
4.907298337489905
 30
0.0
 11
12.04639784846754
 21
5.407298337489905
 31
0.0
 12
13.54639784846754
 22
5.157298337489905
 32
0.0
 13
13.54639784846754
 23
5.157298337489905
 33
0.0
  0
SOLID
  5
3D32
330
3D2B
100
AcDbEntity
  8
寸法
 62
     0
100
AcDbTrace
 10
17.04639784846754
 20
5.407298337489905
 30
0.0
 11
17.04639784846754
 21
4.907298337489905
 31
0.0
 12
15.54639784846754
 22
5.157298337489905
 32
0.0
 13
15.54639784846754
 23
5.157298337489905
 33
0.0
  0
MTEXT
  5
3D33
330
3D2B
100
AcDbEntity
  8
寸法
  6
Continuous
 62
     0
100
AcDbMText
 10
14.52998542873664
 20
1.348210324523961
 30
0.0
 40
2.5
 41
0.0
 46
0.0
 71
     5
 72
     1
  1
2
 73
     1
 44
1.0
  0
POINT
  5
3D34
330
3D2B
100
AcDbEntity
  8
Defpoints
 62
     0
100
AcDbPoint
 10
13.54639784846754
 20
11.87235942622557
 30
0.0
  0
POINT
  5
3D35
330
3D2B
100
AcDbEntity
  8
Defpoints
 62
     0
100
AcDbPoint
 10
15.54639784846754
 20
9.372359426225557
 30
0.0
  0
POINT
  5
3D36
330
3D2B
100
AcDbEntity
  8
Defpoints
 62
     0
100
AcDbPoint
 10
15.54639784846754
 20
5.157298337489905
 30
0.0
  0
ENDBLK
  5
3D37
330
3D2B
100
AcDbEntity
  8
0
100
AcDbBlockEnd
  0
BLOCK
  5
3D3C
330
3D3B
100
AcDbEntity
  8
0
100
AcDbBlockBegin
  2
*D88
 70
     1
 10
0.0
 20
0.0
 30
0.0
  3
*D88
  1

  0
LINE
  5
3D3D
330
3D3B
100
AcDbEntity
  8
寸法
  6
Continuous
 62
     0
370
    -2
100
AcDbLine
 10
14.92139784846754
 20
9.372359426225557
 30
0.0
 11
2.680152856069938
 21
9.372359426225557
 31
0.0
  0
LINE
  5
3D3E
330
3D3B
100
AcDbEntity
  8
寸法
  6
Continuous
 62
     0
370
    -2
100
AcDbLine
 10
13.42139784846754
 20
11.37235942622557
 30
0.0
 11
2.680152856069938
 21
11.37235942622557
 31
0.0
  0
LINE
  5
3D3F
330
3D3B
100
AcDbEntity
  8
寸法
  6
Continuous
 62
     0
370
    -2
100
AcDbLine
 10
3.930152856069938
 20
7.872359426225557
 30
0.0
 11
3.930152856069938
 21
6.372359426225557
 31
0.0
  0
LINE
  5
3D40
330
3D3B
100
AcDbEntity
  8
寸法
  6
Continuous
 62
     0
370
    -2
100
AcDbLine
 10
3.930152856069938
 20
12.87235942622557
 30
0.0
 11
3.930152856069938
 21
14.37235942622557
 31
0.0
  0
SOLID
  5
3D41
330
3D3B
100
AcDbEntity
  8
寸法
 62
     0
100
AcDbTrace
 10
4.180152856069938
 20
7.872359426225557
 30
0.0
 11
3.680152856069938
 21
7.872359426225557
 31
0.0
 12
3.930152856069938
 22
9.372359426225557
 32
0.0
 13
3.930152856069938
 23
9.372359426225557
 33
0.0
  0
SOLID
  5
3D42
330
3D3B
100
AcDbEntity
  8
寸法
 62
     0
100
AcDbTrace
 10
3.680152856069938
 20
12.87235942622557
 30
0.0
 11
4.180152856069938
 21
12.87235942622557
 31
0.0
 12
3.930152856069938
 22
11.37235942622557
 32
0.0
 13
3.930152856069938
 23
11.37235942622557
 33
0.0
  0
MTEXT
  5
3D43
330
3D3B
100
AcDbEntity
  8
寸法
  6
Continuous
 62
     0
100
AcDbMText
 10
0.8333333333333286
 20
10.46156952627707
 30
0.0
 40
2.5
 41
0.0
 46
0.0
 71
     5
 72
     1
  1
2
 73
     1
 44
1.0
  0
POINT
  5
3D44
330
3D3B
100
AcDbEntity
  8
Defpoints
 62
     0
100
AcDbPoint
 10
15.54639784846754
 20
9.372359426225557
 30
0.0
  0
POINT
  5
3D45
330
3D3B
100
AcDbEntity
  8
Defpoints
 62
     0
100
AcDbPoint
 10
14.04639784846754
 20
11.37235942622557
 30
0.0
  0
POINT
  5
3D46
330
3D3B
100
AcDbEntity
  8
Defpoints
 62
     0
100
AcDbPoint
 10
3.930152856069938
 20
11.37235942622557
 30
0.0
  0
ENDBLK
  5
3D47
330
3D3B
100
AcDbEntity
  8
0
100
AcDbBlockEnd
  0
BLOCK
  5
3D4C
330
3D4B
100
AcDbEntity
  8
0
100
AcDbBlockBegin
  2
*D89
 70
     1
 10
0.0
 20
0.0
 30
0.0
  3
*D89
  1

  0
LINE
  5
3D4D
330
3D4B
100
AcDbEntity
  8
寸法
  6
Continuous
 62
     0
370
    -2
100
AcDbLine
 10
17.54639784846754
 20
8.747359426225614
 30
0.0
 11
17.54639784846754
 21
0.0
 31
0.0
  0
LINE
  5
3D4E
330
3D4B
100
AcDbEntity
  8
寸法
  6
Continuous
 62
     0
370
    -2
100
AcDbLine
 10
38.54639784846754
 20
8.747359426225614
 30
0.0
 11
38.54639784846754
 21
0.0
 31
0.0
  0
LINE
  5
3D4F
330
3D4B
100
AcDbEntity
  8
寸法
  6
Continuous
 62
     0
370
    -2
100
AcDbLine
 10
19.04639784846754
 20
1.25
 30
0.0
 11
25.75473118180086
 21
1.25
 31
0.0
  0
LINE
  5
3D50
330
3D4B
100
AcDbEntity
  8
寸法
  6
Continuous
 62
     0
370
    -2
100
AcDbLine
 10
37.04639784846754
 20
1.25
 30
0.0
 11
30.3380645151342
 21
1.25
 31
0.0
  0
SOLID
  5
3D51
330
3D4B
100
AcDbEntity
  8
寸法
 62
     0
100
AcDbTrace
 10
19.04639784846754
 20
1.5
 30
0.0
 11
19.04639784846754
 21
1.0
 31
0.0
 12
17.54639784846754
 22
1.25
 32
0.0
 13
17.54639784846754
 23
1.25
 33
0.0
  0
SOLID
  5
3D52
330
3D4B
100
AcDbEntity
  8
寸法
 62
     0
100
AcDbTrace
 10
37.04639784846754
 20
1.0
 30
0.0
 11
37.04639784846754
 21
1.5
 31
0.0
 12
38.54639784846754
 22
1.25
 32
0.0
 13
38.54639784846754
 23
1.25
 33
0.0
  0
MTEXT
  5
3D53
330
3D4B
100
AcDbEntity
  8
寸法
  6
Continuous
 62
     0
100
AcDbMText
 10
28.04639784846754
 20
1.25
 30
0.0
 40
2.5
 41
0.0
 46
0.0
 71
     5
 72
     1
  1
21
 73
     1
 44
1.0
  0
POINT
  5
3D54
330
3D4B
100
AcDbEntity
  8
Defpoints
 62
     0
100
AcDbPoint
 10
17.54639784846754
 20
9.372359426225614
 30
0.0
  0
POINT
  5
3D55
330
3D4B
100
AcDbEntity
  8
Defpoints
 62
     0
100
AcDbPoint
 10
38.54639784846754
 20
9.372359426225614
 30
0.0
  0
POINT
  5
3D56
330
3D4B
100
AcDbEntity
  8
Defpoints
 62
     0
100
AcDbPoint
 10
38.54639784846754
 20
1.25
 30
0.0
  0
ENDBLK
  5
3D57
330
3D4B
100
AcDbEntity
  8
0
100
AcDbBlockEnd
  0
BLOCK
  5
3D62
330
3D61
100
AcDbEntity
  8
0
100
AcDbBlockBegin
  2
*D90
 70
     1
 10
0.0
 20
0.0
 30
0.0
  3
*D90
  1

  0
LINE
  5
3D63
330
3D61
100
AcDbEntity
  8
硬質樹脂部分
  6
Continuous
 62
     0
370
    -2
100
AcDbLine
 10
39.17139784846754
 20
9.372359426225614
 30
0.0
 11
43.34324972921914
 21
9.372359426225614
 31
0.0
  0
LINE
  5
3D64
330
3D61
100
AcDbEntity
  8
硬質樹脂部分
  6
Continuous
 62
     0
370
    -2
100
AcDbLine
 10
38.87139784846752
 20
18.37235942622557
 30
0.0
 11
43.34324972921914
 21
18.37235942622557
 31
0.0
  0
LINE
  5
3D65
330
3D61
100
AcDbEntity
  8
硬質樹脂部分
  6
Continuous
 62
     0
370
    -2
100
AcDbLine
 10
42.09324972921914
 20
10.87235942622561
 30
0.0
 11
42.09324972921914
 21
12.15436413209838
 31
0.0
  0
LINE
  5
3D66
330
3D61
100
AcDbEntity
  8
硬質樹脂部分
  6
Continuous
 62
     0
370
    -2
100
AcDbLine
 10
42.09324972921914
 20
16.87235942622557
 30
0.0
 11
42.09324972921914
 21
15.90436413209838
 31
0.0
  0
SOLID
  5
3D67
330
3D61
100
AcDbEntity
  8
硬質樹脂部分
 62
     0
100
AcDbTrace
 10
41.84324972921914
 20
10.87235942622561
 30
0.0
 11
42.34324972921914
 21
10.87235942622561
 31
0.0
 12
42.09324972921914
 22
9.372359426225614
 32
0.0
 13
42.09324972921914
 23
9.372359426225614
 33
0.0
  0
SOLID
  5
3D68
330
3D61
100
AcDbEntity
  8
硬質樹脂部分
 62
     0
100
AcDbTrace
 10
42.34324972921914
 20
16.87235942622557
 30
0.0
 11
41.84324972921914
 21
16.87235942622557
 31
0.0
 12
42.09324972921914
 22
18.37235942622557
 32
0.0
 13
42.09324972921914
 23
18.37235942622557
 33
0.0
  0
MTEXT
  5
3D69
330
3D61
100
AcDbEntity
  8
硬質樹脂部分
  6
Continuous
 62
     0
100
AcDbMText
 10
42.09324972921914
 20
14.02936413209838
 30
0.0
 40
2.5
 41
0.0
 46
0.0
 71
     5
 72
     1
  1
9
 73
     1
 44
1.0
  0
POINT
  5
3D6A
330
3D61
100
AcDbEntity
  8
Defpoints
 62
     0
100
AcDbPoint
 10
38.54639784846754
 20
9.372359426225614
 30
0.0
  0
POINT
  5
3D6B
330
3D61
100
AcDbEntity
  8
Defpoints
 62
     0
100
AcDbPoint
 10
38.24639784846752
 20
18.37235942622557
 30
0.0
  0
POINT
  5
3D6C
330
3D61
100
AcDbEntity
  8
Defpoints
 62
     0
100
AcDbPoint
 10
42.09324972921914
 20
18.37235942622557
 30
0.0
  0
ENDBLK
  5
3D6D
330
3D61
100
AcDbEntity
  8
0
100
AcDbBlockEnd
  0
BLOCK
  5
3DF2
330
3DF1
100
AcDbEntity
  8
0
100
AcDbBlockBegin
  2
*D91
 70
     1
 10
0.0
 20
0.0
 30
0.0
  3
*D91
  1

  0
LINE
  5
3DF4
330
3DF1
100
AcDbEntity
  8
寸法
  6
Continuous
 62
     0
370
    -2
100
AcDbLine
 10
107.0000000000001
 20
109.9250000000001
 30
0.0
 11
107.0000000000001
 21
116.0500000000001
 31
0.0
  0
LINE
  5
3DF5
330
3DF1
100
AcDbEntity
  8
寸法
  6
Continuous
 62
     0
370
    -2
100
AcDbLine
 10
132.0000000000001
 20
106.2250000000001
 30
0.0
 11
132.0000000000001
 21
116.0500000000001
 31
0.0
  0
LINE
  5
3DF6
330
3DF1
100
AcDbEntity
  8
寸法
  6
Continuous
 62
     0
370
    -2
100
AcDbLine
 10
108.5000000000001
 20
114.8000000000001
 30
0.0
 11
117.6416666666668
 21
114.8000000000001
 31
0.0
  0
LINE
  5
3DF7
330
3DF1
100
AcDbEntity
  8
寸法
  6
Continuous
 62
     0
370
    -2
100
AcDbLine
 10
130.5000000000001
 20
114.8000000000001
 30
0.0
 11
123.0583333333334
 21
114.8000000000001
 31
0.0
  0
SOLID
  5
3DF8
330
3DF1
100
AcDbEntity
  8
寸法
 62
     0
100
AcDbTrace
 10
108.5000000000001
 20
115.0500000000001
 30
0.0
 11
108.5000000000001
 21
114.5500000000001
 31
0.0
 12
107.0000000000001
 22
114.8000000000001
 32
0.0
 13
107.0000000000001
 23
114.8000000000001
 33
0.0
  0
SOLID
  5
3DF9
330
3DF1
100
AcDbEntity
  8
寸法
 62
     0
100
AcDbTrace
 10
130.5000000000001
 20
114.5500000000001
 30
0.0
 11
130.5000000000001
 21
115.0500000000001
 31
0.0
 12
132.0000000000001
 22
114.8000000000001
 32
0.0
 13
132.0000000000001
 23
114.8000000000001
 33
0.0
  0
MTEXT
  5
3DFA
330
3DF1
100
AcDbEntity
  8
寸法
  6
Continuous
 62
     0
100
AcDbMText
 10
120.3500000000001
 20
114.8000000000001
 30
0.0
 40
2.5
 41
0.0
 46
0.0
 71
     5
 72
     1
  1
25
 73
     1
 44
1.0
  0
POINT
  5
3DFB
330
3DF1
100
AcDbEntity
  8
Defpoints
 62
     0
100
AcDbPoint
 10
107.0000000000001
 20
109.3000000000001
 30
0.0
  0
POINT
  5
3DFC
330
3DF1
100
AcDbEntity
  8
Defpoints
 62
     0
100
AcDbPoint
 10
132.0000000000001
 20
105.6000000000001
 30
0.0
  0
POINT
  5
3DFD
330
3DF1
100
AcDbEntity
  8
Defpoints
 62
     0
100
AcDbPoint
 10
132.0000000000001
 20
114.8000000000001
 30
0.0
  0
ENDBLK
  5
3DF3
330
3DF1
100
AcDbEntity
  8
0
100
AcDbBlockEnd
  0
BLOCK
  5
3DFF
330
3DFE
100
AcDbEntity
  8
0
100
AcDbBlockBegin
  2
*D92
 70
     1
 10
0.0
 20
0.0
 30
0.0
  3
*D92
  1

  0
LINE
  5
3E01
330
3DFE
100
AcDbEntity
  8
寸法
  6
Continuous
 62
     0
370
    -2
100
AcDbLine
 10
107.0000000000001
 20
109.9250000000001
 30
0.0
 11
107.0000000000001
 21
125.3081553346196
 31
0.0
  0
LINE
  5
3E02
330
3DFE
100
AcDbEntity
  8
寸法
  6
Continuous
 62
     0
370
    -2
100
AcDbLine
 10
132.2000000000001
 20
109.9250000000001
 30
0.0
 11
132.2000000000001
 21
125.3081553346196
 31
0.0
  0
LINE
  5
3E03
330
3DFE
100
AcDbEntity
  8
寸法
  6
Continuous
 62
     0
370
    -2
100
AcDbLine
 10
108.5000000000001
 20
124.0581553346196
 30
0.0
 11
115.9750000000001
 21
124.0581553346196
 31
0.0
  0
LINE
  5
3E04
330
3DFE
100
AcDbEntity
  8
寸法
  6
Continuous
 62
     0
370
    -2
100
AcDbLine
 10
130.7000000000001
 20
124.0581553346196
 30
0.0
 11
124.7250000000001
 21
124.0581553346196
 31
0.0
  0
SOLID
  5
3E05
330
3DFE
100
AcDbEntity
  8
寸法
 62
     0
100
AcDbTrace
 10
108.5000000000001
 20
124.3081553346196
 30
0.0
 11
108.5000000000001
 21
123.8081553346196
 31
0.0
 12
107.0000000000001
 22
124.0581553346196
 32
0.0
 13
107.0000000000001
 23
124.0581553346196
 33
0.0
  0
SOLID
  5
3E06
330
3DFE
100
AcDbEntity
  8
寸法
 62
     0
100
AcDbTrace
 10
130.7000000000001
 20
123.8081553346196
 30
0.0
 11
130.7000000000001
 21
124.3081553346196
 31
0.0
 12
132.2000000000001
 22
124.0581553346196
 32
0.0
 13
132.2000000000001
 23
124.0581553346196
 33
0.0
  0
MTEXT
  5
3E07
330
3DFE
100
AcDbEntity
  8
寸法
  6
Continuous
 62
     0
100
AcDbMText
 10
120.3500000000001
 20
124.0581553346196
 30
0.0
 40
2.5
 41
0.0
 46
0.0
 71
     5
 72
     1
  1
25.2
 73
     1
 44
1.0
  0
POINT
  5
3E08
330
3DFE
100
AcDbEntity
  8
Defpoints
 62
     0
100
AcDbPoint
 10
107.0000000000001
 20
109.3000000000001
 30
0.0
  0
POINT
  5
3E09
330
3DFE
100
AcDbEntity
  8
Defpoints
 62
     0
100
AcDbPoint
 10
132.2000000000001
 20
109.3000000000001
 30
0.0
  0
POINT
  5
3E0A
330
3DFE
100
AcDbEntity
  8
Defpoints
 62
     0
100
AcDbPoint
 10
132.2000000000001
 20
124.0581553346196
 30
0.0
  0
ENDBLK
  5
3E00
330
3DFE
100
AcDbEntity
  8
0
100
AcDbBlockEnd
  0
BLOCK
  5
3E0C
330
3E0B
100
AcDbEntity
  8
0
100
AcDbBlockBegin
  2
*D93
 70
     1
 10
0.0
 20
0.0
 30
0.0
  3
*D93
  1

  0
LINE
  5
3E0E
330
3E0B
100
AcDbEntity
  8
寸法
  6
Continuous
 62
     0
370
    -2
100
AcDbLine
 10
106.8750000000001
 20
109.8000000000001
 30
0.0
 11
100.7500000000001
 21
109.8000000000001
 31
0.0
  0
LINE
  5
3E0F
330
3E0B
100
AcDbEntity
  8
寸法
  6
Continuous
 62
     0
370
    -2
100
AcDbLine
 10
106.8750000000001
 20
102.8000000000001
 30
0.0
 11
100.7500000000001
 21
102.8000000000001
 31
0.0
  0
LINE
  5
3E10
330
3E0B
100
AcDbEntity
  8
寸法
  6
Continuous
 62
     0
370
    -2
100
AcDbLine
 10
102.0000000000001
 20
109.8000000000001
 30
0.0
 11
102.0000000000001
 21
102.8000000000001
 31
0.0
  0
LINE
  5
3E11
330
3E0B
100
AcDbEntity
  8
寸法
  6
Continuous
 62
     0
370
    -2
100
AcDbLine
 10
102.0000000000001
 20
102.8000000000001
 30
0.0
 11
102.0000000000001
 21
109.8000000000001
 31
0.0
  0
LINE
  5
3E12
330
3E0B
100
AcDbEntity
  8
寸法
  6
Continuous
 62
     0
370
    -2
100
AcDbLine
 10
102.0000000000001
 20
111.3000000000001
 30
0.0
 11
102.0000000000001
 21
112.8000000000001
 31
0.0
  0
LINE
  5
3E13
330
3E0B
100
AcDbEntity
  8
寸法
  6
Continuous
 62
     0
370
    -2
100
AcDbLine
 10
102.0000000000001
 20
101.3000000000001
 30
0.0
 11
102.0000000000001
 21
99.8000000000001
 31
0.0
  0
SOLID
  5
3E14
330
3E0B
100
AcDbEntity
  8
寸法
 62
     0
100
AcDbTrace
 10
101.7500000000001
 20
111.3000000000001
 30
0.0
 11
102.2500000000001
 21
111.3000000000001
 31
0.0
 12
102.0000000000001
 22
109.8000000000001
 32
0.0
 13
102.0000000000001
 23
109.8000000000001
 33
0.0
  0
SOLID
  5
3E15
330
3E0B
100
AcDbEntity
  8
寸法
 62
     0
100
AcDbTrace
 10
102.2500000000001
 20
101.3000000000001
 30
0.0
 11
101.7500000000001
 21
101.3000000000001
 31
0.0
 12
102.0000000000001
 22
102.8000000000001
 32
0.0
 13
102.0000000000001
 23
102.8000000000001
 33
0.0
  0
MTEXT
  5
3E16
330
3E0B
100
AcDbEntity
  8
寸法
  6
Continuous
 62
     0
100
AcDbMText
 10
99.20662746832171
 20
106.5257295792488
 30
0.0
 40
2.5
 41
0.0
 46
0.0
 71
     5
 72
     1
  1
7
 73
     1
 44
1.0
  0
POINT
  5
3E17
330
3E0B
100
AcDbEntity
  8
Defpoints
 62
     0
100
AcDbPoint
 10
107.5000000000001
 20
109.8000000000001
 30
0.0
  0
POINT
  5
3E61
330
3E0B
100
AcDbEntity
  8
Defpoints
 62
     0
100
AcDbPoint
 10
107.5000000000001
 20
102.8000000000001
 30
0.0
  0
POINT
  5
3E62
330
3E0B
100
AcDbEntity
  8
Defpoints
 62
     0
100
AcDbPoint
 10
102.0000000000001
 20
102.8000000000001
 30
0.0
  0
ENDBLK
  5
3E0D
330
3E0B
100
AcDbEntity
  8
0
100
AcDbBlockEnd
  0
BLOCK
  5
3E19
330
3E18
100
AcDbEntity
  8
0
100
AcDbBlockBegin
  2
*D94
 70
     1
 10
0.0
 20
0.0
 30
0.0
  3
*D94
  1

  0
LINE
  5
3E1B
330
3E18
100
AcDbEntity
  8
寸法
  6
Continuous
 62
     0
370
    -2
100
AcDbLine
 10
107.0000000000001
 20
102.6750000000001
 30
0.0
 11
107.0000000000001
 21
94.5500000000001
 31
0.0
  0
LINE
  5
3E1C
330
3E18
100
AcDbEntity
  8
寸法
  6
Continuous
 62
     0
370
    -2
100
AcDbLine
 10
109.0000000000001
 20
100.175
 30
0.0
 11
109.0000000000001
 21
94.5500000000001
 31
0.0
  0
LINE
  5
3E1D
330
3E18
100
AcDbEntity
  8
寸法
  6
Continuous
 62
     0
370
    -2
100
AcDbLine
 10
105.5000000000001
 20
95.8000000000001
 30
0.0
 11
104.0000000000001
 21
95.8000000000001
 31
0.0
  0
LINE
  5
3E1E
330
3E18
100
AcDbEntity
  8
寸法
  6
Continuous
 62
     0
370
    -2
100
AcDbLine
 10
110.5000000000001
 20
95.8000000000001
 30
0.0
 11
112.0000000000001
 21
95.8000000000001
 31
0.0
  0
SOLID
  5
3E1F
330
3E18
100
AcDbEntity
  8
寸法
 62
     0
100
AcDbTrace
 10
105.5000000000001
 20
95.5500000000001
 30
0.0
 11
105.5000000000001
 21
96.0500000000001
 31
0.0
 12
107.0000000000001
 22
95.8000000000001
 32
0.0
 13
107.0000000000001
 23
95.8000000000001
 33
0.0
  0
SOLID
  5
3E20
330
3E18
100
AcDbEntity
  8
寸法
 62
     0
100
AcDbTrace
 10
110.5000000000001
 20
96.0500000000001
 30
0.0
 11
110.5000000000001
 21
95.5500000000001
 31
0.0
 12
109.0000000000001
 22
95.8000000000001
 32
0.0
 13
109.0000000000001
 23
95.8000000000001
 33
0.0
  0
MTEXT
  5
3E21
330
3E18
100
AcDbEntity
  8
寸法
  6
Continuous
 62
     0
100
AcDbMText
 10
107.9835875802692
 20
92.77585089829844
 30
0.0
 40
2.5
 41
0.0
 46
0.0
 71
     5
 72
     1
  1
2
 73
     1
 44
1.0
  0
POINT
  5
3E22
330
3E18
100
AcDbEntity
  8
Defpoints
 62
     0
100
AcDbPoint
 10
107.0000000000001
 20
103.3000000000001
 30
0.0
  0
POINT
  5
3E23
330
3E18
100
AcDbEntity
  8
Defpoints
 62
     0
100
AcDbPoint
 10
109.0000000000001
 20
100.8
 30
0.0
  0
POINT
  5
3E24
330
3E18
100
AcDbEntity
  8
Defpoints
 62
     0
100
AcDbPoint
 10
109.0000000000001
 20
95.8000000000001
 30
0.0
  0
ENDBLK
  5
3E1A
330
3E18
100
AcDbEntity
  8
0
100
AcDbBlockEnd
  0
BLOCK
  5
3E26
330
3E25
100
AcDbEntity
  8
0
100
AcDbBlockBegin
  2
*D95
 70
     1
 10
0.0
 20
0.0
 30
0.0
  3
*D95
  1

  0
LINE
  5
3E28
330
3E25
100
AcDbEntity
  8
寸法
  6
Continuous
 62
     0
370
    -2
100
AcDbLine
 10
108.3750000000001
 20
100.8
 30
0.0
 11
100.7500000000001
 21
100.8
 31
0.0
  0
LINE
  5
3E29
330
3E25
100
AcDbEntity
  8
寸法
  6
Continuous
 62
     0
370
    -2
100
AcDbLine
 10
106.8750000000001
 20
102.8000000000001
 30
0.0
 11
100.7500000000001
 21
102.8000000000001
 31
0.0
  0
LINE
  5
3E2A
330
3E25
100
AcDbEntity
  8
寸法
  6
Continuous
 62
     0
370
    -2
100
AcDbLine
 10
102.0000000000001
 20
99.3
 30
0.0
 11
102.0000000000001
 21
97.8
 31
0.0
  0
LINE
  5
3E2B
330
3E25
100
AcDbEntity
  8
寸法
  6
Continuous
 62
     0
370
    -2
100
AcDbLine
 10
102.0000000000001
 20
104.3000000000001
 30
0.0
 11
102.0000000000001
 21
105.8000000000001
 31
0.0
  0
SOLID
  5
3E2C
330
3E25
100
AcDbEntity
  8
寸法
 62
     0
100
AcDbTrace
 10
102.2500000000001
 20
99.3
 30
0.0
 11
101.7500000000001
 21
99.3
 31
0.0
 12
102.0000000000001
 22
100.8
 32
0.0
 13
102.0000000000001
 23
100.8
 33
0.0
  0
SOLID
  5
3E2D
330
3E25
100
AcDbEntity
  8
寸法
 62
     0
100
AcDbTrace
 10
101.7500000000001
 20
104.3000000000001
 30
0.0
 11
102.2500000000001
 21
104.3000000000001
 31
0.0
 12
102.0000000000001
 22
102.8000000000001
 32
0.0
 13
102.0000000000001
 23
102.8000000000001
 33
0.0
  0
MTEXT
  5
3E2E
330
3E25
100
AcDbEntity
  8
寸法
  6
Continuous
 62
     0
100
AcDbMText
 10
99.20662746832171
 20
101.8892101000516
 30
0.0
 40
2.5
 41
0.0
 46
0.0
 71
     5
 72
     1
  1
2
 73
     1
 44
1.0
  0
POINT
  5
3E2F
330
3E25
100
AcDbEntity
  8
Defpoints
 62
     0
100
AcDbPoint
 10
109.0000000000001
 20
100.8
 30
0.0
  0
POINT
  5
3E30
330
3E25
100
AcDbEntity
  8
Defpoints
 62
     0
100
AcDbPoint
 10
107.5000000000001
 20
102.8000000000001
 30
0.0
  0
POINT
  5
3E31
330
3E25
100
AcDbEntity
  8
Defpoints
 62
     0
100
AcDbPoint
 10
102.0000000000001
 20
102.8000000000001
 30
0.0
  0
ENDBLK
  5
3E27
330
3E25
100
AcDbEntity
  8
0
100
AcDbBlockEnd
  0
BLOCK
  5
3E33
330
3E32
100
AcDbEntity
  8
0
100
AcDbBlockBegin
  2
*D96
 70
     1
 10
0.0
 20
0.0
 30
0.0
  3
*D96
  1

  0
LINE
  5
3E35
330
3E32
100
AcDbEntity
  8
寸法
  6
Continuous
 62
     0
370
    -2
100
AcDbLine
 10
111.0000000000001
 20
100.1750000000001
 30
0.0
 11
111.0000000000001
 21
94.5500000000001
 31
0.0
  0
LINE
  5
3E36
330
3E32
100
AcDbEntity
  8
寸法
  6
Continuous
 62
     0
370
    -2
100
AcDbLine
 10
132.0000000000001
 20
100.1750000000001
 30
0.0
 11
132.0000000000001
 21
94.5500000000001
 31
0.0
  0
LINE
  5
3E37
330
3E32
100
AcDbEntity
  8
寸法
  6
Continuous
 62
     0
370
    -2
100
AcDbLine
 10
112.5000000000001
 20
95.8000000000001
 30
0.0
 11
119.2083333333334
 21
95.8000000000001
 31
0.0
  0
LINE
  5
3E38
330
3E32
100
AcDbEntity
  8
寸法
  6
Continuous
 62
     0
370
    -2
100
AcDbLine
 10
130.5000000000001
 20
95.8000000000001
 30
0.0
 11
123.7916666666668
 21
95.8000000000001
 31
0.0
  0
SOLID
  5
3E39
330
3E32
100
AcDbEntity
  8
寸法
 62
     0
100
AcDbTrace
 10
112.5000000000001
 20
96.0500000000001
 30
0.0
 11
112.5000000000001
 21
95.5500000000001
 31
0.0
 12
111.0000000000001
 22
95.8000000000001
 32
0.0
 13
111.0000000000001
 23
95.8000000000001
 33
0.0
  0
SOLID
  5
3E3A
330
3E32
100
AcDbEntity
  8
寸法
 62
     0
100
AcDbTrace
 10
130.5000000000001
 20
95.5500000000001
 30
0.0
 11
130.5000000000001
 21
96.0500000000001
 31
0.0
 12
132.0000000000001
 22
95.8000000000001
 32
0.0
 13
132.0000000000001
 23
95.8000000000001
 33
0.0
  0
MTEXT
  5
3E3B
330
3E32
100
AcDbEntity
  8
寸法
  6
Continuous
 62
     0
100
AcDbMText
 10
121.5000000000001
 20
95.8000000000001
 30
0.0
 40
2.5
 41
0.0
 46
0.0
 71
     5
 72
     1
  1
21
 73
     1
 44
1.0
  0
POINT
  5
3E3C
330
3E32
100
AcDbEntity
  8
Defpoints
 62
     0
100
AcDbPoint
 10
111.0000000000001
 20
100.8000000000001
 30
0.0
  0
POINT
  5
3E3D
330
3E32
100
AcDbEntity
  8
Defpoints
 62
     0
100
AcDbPoint
 10
132.0000000000001
 20
100.8000000000001
 30
0.0
  0
POINT
  5
3E3E
330
3E32
100
AcDbEntity
  8
Defpoints
 62
     0
100
AcDbPoint
 10
132.0000000000001
 20
95.8000000000001
 30
0.0
  0
ENDBLK
  5
3E34
330
3E32
100
AcDbEntity
  8
0
100
AcDbBlockEnd
  0
BLOCK
  5
3E40
330
3E3F
100
AcDbEntity
  8
0
100
AcDbBlockBegin
  2
*D97
 70
     1
 10
0.0
 20
0.0
 30
0.0
  3
*D97
  1

  0
LINE
  5
3E42
330
3E3F
100
AcDbEntity
  8
寸法
  6
Continuous
 62
     0
370
    -2
100
AcDbLine
 10
132.6250000000001
 20
100.8000000000001
 30
0.0
 11
138.2500000000001
 21
100.8000000000001
 31
0.0
  0
LINE
  5
3E43
330
3E3F
100
AcDbEntity
  8
寸法
  6
Continuous
 62
     0
370
    -2
100
AcDbLine
 10
132.3250000000001
 20
109.8000000000001
 30
0.0
 11
138.2500000000001
 21
109.8000000000001
 31
0.0
  0
LINE
  5
3E44
330
3E3F
100
AcDbEntity
  8
寸法
  6
Continuous
 62
     0
370
    -2
100
AcDbLine
 10
137.0000000000001
 20
102.3000000000001
 30
0.0
 11
137.0000000000001
 21
103.4250000000001
 31
0.0
  0
LINE
  5
3E45
330
3E3F
100
AcDbEntity
  8
寸法
  6
Continuous
 62
     0
370
    -2
100
AcDbLine
 10
137.0000000000001
 20
108.3000000000001
 30
0.0
 11
137.0000000000001
 21
107.1750000000001
 31
0.0
  0
SOLID
  5
3E46
330
3E3F
100
AcDbEntity
  8
寸法
 62
     0
100
AcDbTrace
 10
136.7500000000001
 20
102.3000000000001
 30
0.0
 11
137.2500000000001
 21
102.3000000000001
 31
0.0
 12
137.0000000000001
 22
100.8000000000001
 32
0.0
 13
137.0000000000001
 23
100.8000000000001
 33
0.0
  0
SOLID
  5
3E47
330
3E3F
100
AcDbEntity
  8
寸法
 62
     0
100
AcDbTrace
 10
137.2500000000001
 20
108.3000000000001
 30
0.0
 11
136.7500000000001
 21
108.3000000000001
 31
0.0
 12
137.0000000000001
 22
109.8000000000001
 32
0.0
 13
137.0000000000001
 23
109.8000000000001
 33
0.0
  0
MTEXT
  5
3E48
330
3E3F
100
AcDbEntity
  8
寸法
  6
Continuous
 62
     0
100
AcDbMText
 10
137.0000000000001
 20
105.3000000000001
 30
0.0
 40
2.5
 41
0.0
 46
0.0
 71
     5
 72
     1
  1
9
 73
     1
 44
1.0
  0
POINT
  5
3E49
330
3E3F
100
AcDbEntity
  8
Defpoints
 62
     0
100
AcDbPoint
 10
132.0000000000001
 20
100.8000000000001
 30
0.0
  0
POINT
  5
3E4A
330
3E3F
100
AcDbEntity
  8
Defpoints
 62
     0
100
AcDbPoint
 10
131.7000000000001
 20
109.8000000000001
 30
0.0
  0
POINT
  5
3E4B
330
3E3F
100
AcDbEntity
  8
Defpoints
 62
     0
100
AcDbPoint
 10
137.0000000000001
 20
109.8000000000001
 30
0.0
  0
ENDBLK
  5
3E41
330
3E3F
100
AcDbEntity
  8
0
100
AcDbBlockEnd
  0
ENDSEC
  0
SECTION
  2
ENTITIES
  0
LINE
  5
664
330
1F
100
AcDbEntity
  8
用紙範囲
  6
HIDDEN
100
AcDbLine
 10
0.0
 20
205.0
 30
0.0
 11
0.0
 21
0.0
 31
0.0
  0
LINE
  5
665
330
1F
100
AcDbEntity
  8
用紙範囲
  6
HIDDEN
100
AcDbLine
 10
292.0
 20
205.0
 30
0.0
 11
292.0
 21
0.0
 31
0.0
  0
LINE
  5
666
330
1F
100
AcDbEntity
  8
用紙範囲
  6
HIDDEN
100
AcDbLine
 10
0.0
 20
205.0
 30
0.0
 11
292.0
 21
205.0
 31
0.0
  0
LINE
  5
667
330
1F
100
AcDbEntity
  8
用紙範囲
  6
HIDDEN
100
AcDbLine
 10
0.0
 20
0.0
 30
0.0
 11
292.0
 21
0.0
 31
0.0
  0
LINE
  5
668
330
1F
100
AcDbEntity
  8
枠
  6
Continuous
100
AcDbLine
 10
11.00000000000003
 20
193.5
 30
0.0
 11
281.0
 21
193.5
 31
0.0
  0
LINE
  5
669
330
1F
100
AcDbEntity
  8
枠
  6
Continuous
100
AcDbLine
 10
11.00000000000003
 20
11.5
 30
0.0
 11
281.0
 21
11.5
 31
0.0
  0
LINE
  5
66A
330
1F
100
AcDbEntity
  8
枠
  6
Continuous
100
AcDbLine
 10
11.00000000000003
 20
193.5
 30
0.0
 11
11.00000000000003
 21
11.5
 31
0.0
  0
LINE
  5
66B
330
1F
100
AcDbEntity
  8
枠
  6
Continuous
100
AcDbLine
 10
281.0
 20
193.5
 30
0.0
 11
281.0
 21
11.5
 31
0.0
  0
LINE
  5
673
330
1F
100
AcDbEntity
  8
枠
  6
Continuous
100
AcDbLine
 10
10.00000000000003
 20
194.5
 30
0.0
 11
282.0
 21
194.5
 31
0.0
  0
LINE
  5
674
330
1F
100
AcDbEntity
  8
枠
  6
Continuous
100
AcDbLine
 10
10.00000000000003
 20
194.5
 30
0.0
 11
10.00000000000003
 21
10.5
 31
0.0
  0
LINE
  5
675
330
1F
100
AcDbEntity
  8
枠
  6
Continuous
100
AcDbLine
 10
10.00000000000003
 20
10.5
 30
0.0
 11
282.0
 21
10.5
 31
0.0
  0
LINE
  5
676
330
1F
100
AcDbEntity
  8
枠
  6
Continuous
100
AcDbLine
 10
282.0
 20
194.5
 30
0.0
 11
282.0
 21
10.5
 31
0.0
  0
LINE
  5
677
330
1F
100
AcDbEntity
  8
枠
  6
Continuous
100
AcDbLine
 10
236.0
 20
193.5
 30
0.0
 11
236.0
 21
11.5
 31
0.0
  0
LINE
  5
678
330
1F
100
AcDbEntity
  8
枠
  6
Continuous
100
AcDbLine
 10
236.0
 20
171.3660465293556
 30
0.0
 11
281.0
 21
171.3660465293556
 31
0.0
  0
LINE
  5
679
330
1F
100
AcDbEntity
  8
枠
  6
Continuous
100
AcDbLine
 10
236.0
 20
149.2320930587111
 30
0.0
 11
281.0
 21
149.2320930587111
 31
0.0
  0
LINE
  5
67A
330
1F
100
AcDbEntity
  8
枠
  6
Continuous
100
AcDbLine
 10
236.0
 20
31.87291584484291
 30
0.0
 11
281.0
 21
31.87291584484291
 31
0.0
  0
LINE
  5
67B
330
1F
100
AcDbEntity
  8
枠
  6
Continuous
100
AcDbLine
 10
236.0
 20
41.88960476803794
 30
0.0
 11
281.0
 21
41.88960476803794
 31
0.0
  0
LINE
  5
67D
330
1F
100
AcDbEntity
  8
枠
  6
Continuous
100
AcDbLine
 10
235.0
 20
193.5
 30
0.0
 11
235.0
 21
11.5
 31
0.0
  0
MTEXT
  5
A15
330
1F
100
AcDbEntity
  8
文字
100
AcDbMText
 10
238.0774350305441
 20
192.0038694137743
 30
0.0
 40
2.5
 41
19.50744578598591
 46
2.8275
 71
     1
 72
     5
  1
{\fＭＳ Ｐゴシック|b0|i0|c0|p0;名称}
 73
     1
 44
1.0
1001
ACAD
1000
ACAD_MTEXT_DEFINED_HEIGHT_BEGIN
1070
    46
1040
2.8275
1000
ACAD_MTEXT_DEFINED_HEIGHT_END
  0
MTEXT
  5
A17
330
1F
100
AcDbEntity
  8
文字
100
AcDbMText
 10
238.8540415109518
 20
183.859332666015
 30
0.0
 40
2.5
 41
45.0
 46
7.509469696969697
 71
     1
 72
     5
  1
{\pxql;\fＭＳ Ｐゴシック|b0|i0|c0|p0;Ｐｒｅｖｉｏ Ｍ　室内木階段用\P土足用ノンスリップ}
 73
     1
 44
1.0
1001
ACAD
1000
ACAD_MTEXT_DEFINED_HEIGHT_BEGIN
1070
    46
1040
7.509469696969697
1000
ACAD_MTEXT_DEFINED_HEIGHT_END
  0
MTEXT
  5
A18
330
1F
100
AcDbEntity
  8
文字
100
AcDbMText
 10
238.0774350305441
 20
169.6766048811238
 30
0.0
 40
2.5
 41
12.9189203585147
 46
2.84
 71
     1
 72
     5
  1
{\fＭＳ Ｐゴシック|b0|i0|c0|p0;品番}
 73
     1
 44
1.0
1001
ACAD
1000
ACAD_MTEXT_DEFINED_HEIGHT_BEGIN
1070
    46
1040
2.84
1000
ACAD_MTEXT_DEFINED_HEIGHT_END
  0
MTEXT
  5
A1C
330
1F
100
AcDbEntity
  8
文字
100
AcDbMText
 10
238.0774350305441
 20
148.0690084662711
 30
0.0
 40
2.5
 41
9.970036363636382
 46
2.8125
 71
     1
 72
     5
  1
{\fＭＳ Ｐゴシック|b0|i0|c0|p0;仕様}
 73
     1
 44
1.0
1001
ACAD
1000
ACAD_MTEXT_DEFINED_HEIGHT_BEGIN
1070
    46
1040
2.8125
1000
ACAD_MTEXT_DEFINED_HEIGHT_END
  0
MTEXT
  5
A1D
330
1F
100
AcDbEntity
  8
文字
100
AcDbMText
 10
245.3794334940524
 20
138.8428917133901
 30
0.0
 40
2.0
 41
31.03349346991041
 46
2.33
 71
     1
 72
     5
  1
{\fＭＳ Ｐゴシック|b0|i0|c0|p0;材質：アルミ製}
 73
     1
 44
1.0
1001
ACAD
1000
ACAD_MTEXT_DEFINED_HEIGHT_BEGIN
1070
    46
1040
2.33
1000
ACAD_MTEXT_DEFINED_HEIGHT_END
  0
MTEXT
  5
A1E
330
1F
100
AcDbEntity
  8
文字
100
AcDbMText
 10
245.3794334940524
 20
130.5090576528301
 30
0.0
 40
2.0
 41
31.03349346991041
 46
2.124
 71
     1
 72
     5
  1
{\fＭＳ Ｐゴシック|b0|i0|c0|p0;仕上：シルバー}
 73
     1
 44
1.0
1001
ACAD
1000
ACAD_MTEXT_DEFINED_HEIGHT_BEGIN
1070
    46
1040
2.124
1000
ACAD_MTEXT_DEFINED_HEIGHT_END
  0
MTEXT
  5
A22
330
1F
100
AcDbEntity
  8
社名
100
AcDbMText
 10
236.0
 20
27.36191229983774
 30
0.0
 40
3.0
 41
46.0
 46
3.375
 71
     1
 72
     5
  1
{\pxqc;\fＭＳ Ｐゴシック|b0|i0|c0|p0;株式会社ＡＳＳＩＳＴ}
 73
     1
 44
1.0
1001
ACAD
1000
ACAD_MTEXT_DEFINED_HEIGHT_BEGIN
1070
    46
1040
3.375
1000
ACAD_MTEXT_DEFINED_HEIGHT_END
  0
MTEXT
  5
A24
330
1F
100
AcDbEntity
  8
文字
100
AcDbMText
 10
238.0774350305441
 20
40.58955921885172
 30
0.0
 40
2.5
 41
9.970036363636382
 46
2.8275
 71
     1
 72
     5
  1
{\fＭＳ Ｐゴシック|b0|i0|c0|p0;縮尺}
 73
     1
 44
1.0
1001
ACAD
1000
ACAD_MTEXT_DEFINED_HEIGHT_BEGIN
1070
    46
1040
2.8275
1000
ACAD_MTEXT_DEFINED_HEIGHT_END
  0
MTEXT
  5
A25
330
1F
100
AcDbEntity
  8
文字
100
AcDbMText
 10
251.2855836701089
 20
36.15844413562513
 30
0.0
 40
2.5
 41
28.36545556978234
 46
2.5
 71
     1
 72
     5
  1
{\fＭＳ Ｐゴシック|b0|i0|c0|p0;1：１ }
 73
     1
 44
1.0
1001
ACAD
1000
ACAD_MTEXT_DEFINED_HEIGHT_BEGIN
1070
    46
1040
2.5
1000
ACAD_MTEXT_DEFINED_HEIGHT_END
  0
MTEXT
  5
DF8
330
1F
100
AcDbEntity
  8
文字
100
AcDbMText
 10
253.810188672227
 20
134.80617212146
 30
0.0
 40
2.0
 41
31.03349346991041
 46
2.228
 71
     1
 72
     5
  1
{\fＭＳ Ｐゴシック|b0|i0|c0|p0;（A6063S-T5)}
 73
     1
 44
1.0
1001
ACAD
1000
ACAD_MTEXT_DEFINED_HEIGHT_BEGIN
1070
    46
1040
2.228
1000
ACAD_MTEXT_DEFINED_HEIGHT_END
  0
MTEXT
  5
13F5
330
1F
100
AcDbEntity
  8
文字
100
AcDbMText
 10
239.5379477351412
 20
143.0699637133901
 30
0.0
 40
2.0
 41
31.03349346991041
 46
2.25
 71
     1
 72
     5
  1
{\fＭＳ Ｐゴシック|b0|i0|c0|p0;ベース部分}
 73
     1
 44
1.0
1001
ACAD
1000
ACAD_MTEXT_DEFINED_HEIGHT_BEGIN
1070
    46
1040
2.25
1000
ACAD_MTEXT_DEFINED_HEIGHT_END
  0
MTEXT
  5
27D9
330
1F
100
AcDbEntity
  8
文字
100
AcDbMText
 10
245.3794334940524
 20
117.3880437133901
 30
0.0
 40
2.0
 41
31.03349346991041
 46
2.238
 71
     1
 72
     5
  1
{\fＭＳ Ｐゴシック|b0|i0|c0|p0;材質：軟硬同時成型品}
 73
     1
 44
1.0
1001
ACAD
1000
ACAD_MTEXT_DEFINED_HEIGHT_BEGIN
1070
    46
1040
2.238
1000
ACAD_MTEXT_DEFINED_HEIGHT_END
  0
MTEXT
  5
27DB
330
1F
100
AcDbEntity
  8
文字
100
AcDbMText
 10
239.5379477351412
 20
121.6151157133901
 30
0.0
 40
2.0
 41
31.03349346991041
 46
2.25
 71
     1
 72
     5
  1
{\fＭＳ Ｐゴシック|b0|i0|c0|p0;タイヤ部分}
 73
     1
 44
1.0
1001
ACAD
1000
ACAD_MTEXT_DEFINED_HEIGHT_BEGIN
1070
    46
1040
2.25
1000
ACAD_MTEXT_DEFINED_HEIGHT_END
  0
LINE
  5
27E4
330
1F
100
AcDbEntity
  8
枠
  6
Continuous
100
AcDbLine
 10
236.0
 20
51.88960476803794
 30
0.0
 11
281.0
 21
51.88960476803794
 31
0.0
  0
MTEXT
  5
27E5
330
1F
100
AcDbEntity
  8
文字
100
AcDbMText
 10
238.0774350305441
 20
50.58955921885172
 30
0.0
 40
2.5
 41
9.970036363636382
 46
2.5
 71
     1
 72
     5
  1
{\fＭＳ Ｐゴシック|b0|i0|c0|p0;Date}
 73
     1
 44
1.0
1001
ACAD
1000
ACAD_MTEXT_DEFINED_HEIGHT_BEGIN
1070
    46
1040
2.5
1000
ACAD_MTEXT_DEFINED_HEIGHT_END
  0
MTEXT
  5
27E6
330
1F
100
AcDbEntity
  8
文字
100
AcDbMText
 10
246.1251641599999
 20
46.15844413562513
 30
0.0
 40
2.5
 41
28.36545556978231
 46
2.627860447667875
 71
     1
 72
     5
  1
{\fＭＳ Ｐゴシック|b0|i0|c0|p0;2021年6月24日}
 73
     1
 44
1.0
1001
ACAD
1000
ACAD_MTEXT_DEFINED_HEIGHT_BEGIN
1070
    46
1040
2.627860447667875
1000
ACAD_MTEXT_DEFINED_HEIGHT_END
  0
MTEXT
  5
2C03
330
1F
100
AcDbEntity
  8
文字
100
AcDbMText
 10
236.0
 20
160.4307612374436
 30
0.0
 40
2.5
 41
45.0
 46
2.5
 71
     1
 72
     5
  1
{\pxqc;\fＭＳ Ｐゴシック|b0|i0|c0|p0;ＰVＭ3０１}
 73
     1
 44
1.0
1001
ACAD
1000
ACAD_MTEXT_DEFINED_HEIGHT_BEGIN
1070
    46
1040
2.5
1000
ACAD_MTEXT_DEFINED_HEIGHT_END
  0
MTEXT
  5
2C09
330
1F
100
AcDbEntity
  8
社名
100
AcDbMText
 10
236.0
 20
19.58027172995764
 30
0.0
 40
5.0
 41
45.0
 46
5.0
 71
     1
 72
     5
  1
{\pxqc;\fＭＳ Ｐゴシック|b0|i0|c0|p0;\T1.15;\W1.3;AFOLA}
 73
     1
 44
1.0
1001
ACAD
1000
ACAD_MTEXT_DEFINED_HEIGHT_BEGIN
1070
    46
1040
5.0
1000
ACAD_MTEXT_DEFINED_HEIGHT_END
  0
MTEXT
  5
2FA4
330
1F
100
AcDbEntity
  8
文字
100
AcDbMText
 10
243.2745256686894
 20
107.6336280485737
 30
0.0
 40
2.0
 41
31.03349346991041
 46
2.182
 71
     1
 72
     5
  1
{\fＭＳ Ｐゴシック|b0|i0|c0|p0;カラー：５色}
 73
     1
 44
1.0
1001
ACAD
1000
ACAD_MTEXT_DEFINED_HEIGHT_BEGIN
1070
    46
1040
2.182
1000
ACAD_MTEXT_DEFINED_HEIGHT_END
  0
MTEXT
  5
2FA5
330
1F
100
AcDbEntity
  8
文字
100
AcDbMText
 10
252.8551661585696
 20
103.4569560485737
 30
0.0
 40
2.0
 41
31.03349346991041
 46
2.124
 71
     1
 72
     5
  1
{\fＭＳ Ｐゴシック|b0|i0|c0|p0;ＮＲ：ノワール}
 73
     1
 44
1.0
1001
ACAD
1000
ACAD_MTEXT_DEFINED_HEIGHT_BEGIN
1070
    46
1040
2.124
1000
ACAD_MTEXT_DEFINED_HEIGHT_END
  0
MTEXT
  5
2FA6
330
1F
100
AcDbEntity
  8
文字
100
AcDbMText
 10
252.8551661585696
 20
99.83936884857367
 30
0.0
 40
2.0
 41
31.03349346991041
 46
2.182
 71
     1
 72
     5
  1
{\fＭＳ Ｐゴシック|b0|i0|c0|p0;ＥＢ：エボニー}
 73
     1
 44
1.0
1001
ACAD
1000
ACAD_MTEXT_DEFINED_HEIGHT_BEGIN
1070
    46
1040
2.182
1000
ACAD_MTEXT_DEFINED_HEIGHT_END
  0
MTEXT
  5
2FA7
330
1F
100
AcDbEntity
  8
文字
100
AcDbMText
 10
252.8551661585696
 20
96.14313844857362
 30
0.0
 40
2.0
 41
31.03349346991041
 46
2.194
 71
     1
 72
     5
  1
{\fＭＳ Ｐゴシック|b0|i0|c0|p0;ＣＡ：カカオ}
 73
     1
 44
1.0
1001
ACAD
1000
ACAD_MTEXT_DEFINED_HEIGHT_BEGIN
1070
    46
1040
2.194
1000
ACAD_MTEXT_DEFINED_HEIGHT_END
  0
MTEXT
  5
2FA8
330
1F
100
AcDbEntity
  8
文字
100
AcDbMText
 10
252.8551661585696
 20
92.52035518000231
 30
0.0
 40
2.0
 41
31.03349346991041
 46
2.102
 71
     1
 72
     5
  1
{\fＭＳ Ｐゴシック|b0|i0|c0|p0;ＳＤ：サンド}
 73
     1
 44
1.0
1001
ACAD
1000
ACAD_MTEXT_DEFINED_HEIGHT_BEGIN
1070
    46
1040
2.102
1000
ACAD_MTEXT_DEFINED_HEIGHT_END
  0
MTEXT
  5
2FA9
330
1F
100
AcDbEntity
  8
文字
100
AcDbMText
 10
252.8551661585696
 20
88.90276798000231
 30
0.0
 40
2.0
 41
31.03349346991041
 46
2.194
 71
     1
 72
     5
  1
{\fＭＳ Ｐゴシック|b0|i0|c0|p0;ＡＳ：アッシュ}
 73
     1
 44
1.0
1001
ACAD
1000
ACAD_MTEXT_DEFINED_HEIGHT_BEGIN
1070
    46
1040
2.194
1000
ACAD_MTEXT_DEFINED_HEIGHT_END
  0
LINE
  5
3D76
330
1F
100
AcDbEntity
  8
文字
  6
Continuous
100
AcDbLine
 10
111.0000000000001
 20
102.0000000000001
 30
0.0
 11
111.0000000000001
 21
104.6000000000001
 31
0.0
  0
LINE
  5
3D77
102
{ACAD_REACTORS
330
3DE2
102
}
330
1F
100
AcDbEntity
  8
金属部分
  6
Continuous
100
AcDbLine
 10
111.0000000000001
 20
100.8000000000001
 30
0.0
 11
111.0000000000001
 21
105.1000000000001
 31
0.0
  0
LINE
  5
3D78
102
{ACAD_REACTORS
330
3DD3
330
3DE2
330
3DEB
102
}
330
1F
100
AcDbEntity
  8
金属部分
  6
Continuous
100
AcDbLine
 10
132.0000000000001
 20
100.8000000000001
 30
0.0
 11
132.0000000000001
 21
105.6000000000001
 31
0.0
  0
LINE
  5
3D79
330
1F
100
AcDbEntity
  8
金属部分
  6
Continuous
100
AcDbLine
 10
113.5000000000001
 20
102.0000000000001
 30
0.0
 11
119.5000000000001
 21
102.0000000000001
 31
0.0
  0
ARC
  5
3D7A
330
1F
100
AcDbEntity
  8
金属部分
  6
Continuous
100
AcDbCircle
 10
111.5000000000001
 20
105.1000000000001
 30
0.0
 40
0.5000000000000002
100
AcDbArc
 50
90.0
 51
180.0
  0
LINE
  5
3D7B
330
1F
100
AcDbEntity
  8
金属部分
  6
Continuous
100
AcDbLine
 10
111.0000000000001
 20
100.8000000000001
 30
0.0
 11
132.0000000000001
 21
100.8000000000001
 31
0.0
  0
LINE
  5
3D7C
330
1F
100
AcDbEntity
  8
金属部分
  6
Continuous
100
AcDbLine
 10
119.5000000000001
 20
102.8000000000001
 30
0.0
 11
122.7000000000001
 21
102.8000000000001
 31
0.0
  0
LINE
  5
3D7D
330
1F
100
AcDbEntity
  8
金属部分
  6
Continuous
100
AcDbLine
 10
126.5000000000001
 20
102.8000000000001
 30
0.0
 11
126.5000000000001
 21
102.0000000000001
 31
0.0
  0
LINE
  5
3D7E
330
1F
100
AcDbEntity
  8
金属部分
  6
Continuous
100
AcDbLine
 10
119.5000000000001
 20
102.0000000000001
 30
0.0
 11
119.5000000000001
 21
102.8000000000001
 31
0.0
  0
LINE
  5
3D7F
330
1F
100
AcDbEntity
  8
金属部分
  6
Continuous
100
AcDbLine
 10
126.5000000000001
 20
102.0000000000001
 30
0.0
 11
129.5000000000001
 21
102.0000000000001
 31
0.0
  0
LINE
  5
3D80
330
1F
100
AcDbEntity
  8
金属部分
  6
Continuous
100
AcDbLine
 10
123.0000000000001
 20
102.5000000000002
 30
0.0
 11
122.7000000000001
 21
102.8000000000001
 31
0.0
  0
LINE
  5
3D81
330
1F
100
AcDbEntity
  8
金属部分
  6
Continuous
100
AcDbLine
 10
123.3000000000001
 20
102.8000000000001
 30
0.0
 11
123.0000000000001
 21
102.5000000000002
 31
0.0
  0
LINE
  5
3D82
330
1F
100
AcDbEntity
  8
金属部分
  6
Continuous
100
AcDbLine
 10
123.3000000000001
 20
102.8000000000001
 30
0.0
 11
126.5000000000001
 21
102.8000000000001
 31
0.0
  0
LINE
  5
3D83
330
1F
100
AcDbEntity
  8
金属部分
  6
Continuous
100
AcDbLine
 10
112.6840578921569
 20
105.6000000000001
 30
0.0
 11
111.5000000000001
 21
105.6000000000001
 31
0.0
  0
LINE
  5
3D84
330
1F
100
AcDbEntity
  8
金属部分
  6
Continuous
100
AcDbLine
 10
113.0000000000001
 20
102.5000000000001
 30
0.0
 11
113.0000000000001
 21
104.0000000000001
 31
0.0
  0
LINE
  5
3D85
330
1F
100
AcDbEntity
  8
金属部分
  6
Continuous
100
AcDbLine
 10
113.0000000000001
 20
104.0000000000001
 30
0.0
 11
113.7000000000001
 21
104.1273763833123
 31
0.0
  0
LINE
  5
3D86
330
1F
100
AcDbEntity
  8
金属部分
  6
Continuous
100
AcDbLine
 10
113.7000000000001
 20
104.1273763833123
 30
0.0
 11
113.1356367551883
 21
105.3146544443129
 31
0.0
  0
ARC
  5
3D87
330
1F
100
AcDbEntity
  8
金属部分
  6
Continuous
100
AcDbCircle
 10
111.5000000000001
 20
105.1000000000001
 30
0.0
 40
0.5000000000000002
100
AcDbArc
 50
90.0
 51
180.0
  0
ARC
  5
3D88
330
1F
100
AcDbEntity
  8
金属部分
  6
Continuous
100
AcDbCircle
 10
113.5000000000001
 20
102.5000000000001
 30
0.0
 40
0.5000000000000002
100
AcDbArc
 50
180.0
 51
270.0
  0
ARC
  5
3D89
330
1F
100
AcDbEntity
  8
金属部分
  6
Continuous
100
AcDbCircle
 10
112.6840578921569
 20
105.1000000000001
 30
0.0
 40
0.4999999999999996
100
AcDbArc
 50
25.42370847413993
 51
90.0
  0
LINE
  5
3D8A
330
1F
100
AcDbEntity
  8
金属部分
  6
Continuous
100
AcDbLine
 10
132.0000000000001
 20
105.6000000000001
 30
0.0
 11
130.3159421078435
 21
105.6000000000001
 31
0.0
  0
LINE
  5
3D8B
330
1F
100
AcDbEntity
  8
金属部分
  6
Continuous
100
AcDbLine
 10
130.0000000000001
 20
102.5000000000001
 30
0.0
 11
130.0000000000001
 21
104.0000000000001
 31
0.0
  0
ARC
  5
3D8C
330
1F
100
AcDbEntity
  8
金属部分
  6
Continuous
100
AcDbCircle
 10
129.5000000000001
 20
102.5000000000001
 30
0.0
 40
0.5000000000000002
100
AcDbArc
 50
270.0
 51
0.0
  0
LINE
  5
3D8D
330
1F
100
AcDbEntity
  8
金属部分
  6
Continuous
100
AcDbLine
 10
130.0000000000001
 20
104.0000000000001
 30
0.0
 11
129.3000000000001
 21
104.1273763833123
 31
0.0
  0
LINE
  5
3D8E
330
1F
100
AcDbEntity
  8
金属部分
  6
Continuous
100
AcDbLine
 10
129.3000000000001
 20
104.1273763833123
 30
0.0
 11
129.864363244812
 21
105.3146544443129
 31
0.0
  0
ARC
  5
3D8F
330
1F
100
AcDbEntity
  8
金属部分
  6
Continuous
100
AcDbCircle
 10
130.3159421078435
 20
105.1000000000001
 30
0.0
 40
0.4999999999999996
100
AcDbArc
 50
90.0
 51
154.576291525863
  0
LINE
  5
3D90
330
1F
100
AcDbEntity
  8
硬質樹脂部分
  6
Continuous
100
AcDbLine
 10
109.2000000000001
 20
107.6000000000001
 30
0.0
 11
131.5000000000001
 21
107.6000000000001
 31
0.0
  0
LINE
  5
3D91
330
1F
100
AcDbEntity
  8
硬質樹脂部分
  6
Continuous
100
AcDbLine
 10
132.0000000000001
 20
107.1000000000001
 30
0.0
 11
132.0000000000001
 21
106.1000000000001
 31
0.0
  0
LINE
  5
3D92
330
1F
100
AcDbEntity
  8
硬質樹脂部分
  6
Continuous
100
AcDbLine
 10
127.2000000000001
 20
105.6000000000001
 30
0.0
 11
115.8000000000001
 21
105.6000000000001
 31
0.0
  0
LINE
  5
3D93
330
1F
100
AcDbEntity
  8
硬質樹脂部分
  6
Continuous
100
AcDbLine
 10
131.5000000000001
 20
105.6000000000001
 30
0.0
 11
129.8000000000001
 21
105.6000000000001
 31
0.0
  0
LINE
  5
3D94
102
{ACAD_REACTORS
330
3DD6
102
}
330
1F
100
AcDbEntity
  8
軟質樹脂部分
  6
Continuous
100
AcDbLine
 10
132.2000000000001
 20
109.3000000000001
 30
0.0
 11
132.2000000000001
 21
107.6000000000001
 31
0.0
  0
LINE
  5
3D95
330
1F
100
AcDbEntity
  8
硬質樹脂部分
  6
Continuous
100
AcDbLine
 10
110.6049813070076
 20
105.0121046807582
 30
0.0
 11
111.0000000000001
 21
102.8000000000001
 31
0.0
  0
ARC
  5
3D96
330
1F
100
AcDbEntity
  8
硬質樹脂部分
  6
Continuous
100
AcDbCircle
 10
131.5000000000001
 20
106.1000000000001
 30
0.0
 40
0.5000000000000002
100
AcDbArc
 50
270.0
 51
0.0
  0
ARC
  5
3D97
330
1F
100
AcDbEntity
  8
軟質樹脂部分
  6
Continuous
100
AcDbCircle
 10
126.103166587803
 20
107.6000000000001
 30
0.0
 40
6.0968334121971
100
AcDbArc
 50
345.1290860465917
 51
0.0
  0
LINE
  5
3D98
330
1F
100
AcDbEntity
  8
硬質樹脂部分
  6
Continuous
100
AcDbLine
 10
113.2000000000001
 20
105.6000000000001
 30
0.0
 11
111.0971950947619
 21
105.6000000000001
 31
0.0
  0
ARC
  5
3D99
330
1F
100
AcDbEntity
  8
硬質樹脂部分
  6
Continuous
100
AcDbCircle
 10
111.0971950947619
 20
105.1000000000001
 30
0.0
 40
0.5000000000000001
100
AcDbArc
 50
90.0
 51
190.1246716554008
  0
LINE
  5
3D9A
330
1F
100
AcDbEntity
  8
硬質樹脂部分
  6
Continuous
100
AcDbLine
 10
111.0000000000001
 20
101.8022670198973
 30
0.0
 11
111.0000000000001
 21
102.8000000000001
 31
0.0
  0
LINE
  5
3D9B
330
1F
100
AcDbEntity
  8
硬質樹脂部分
  6
Continuous
100
AcDbLine
 10
111.0000000000001
 20
101.8022670198973
 30
0.0
 11
111.0000000000001
 21
102.8000000000001
 31
0.0
  0
LINE
  5
3D9C
330
1F
100
AcDbEntity
  8
軟質樹脂部分
  6
Continuous
100
AcDbLine
 10
108.5000000000001
 20
102.8000000000001
 30
0.0
 11
107.5000000000001
 21
102.8000000000001
 31
0.0
  0
LINE
  5
3D9D
102
{ACAD_REACTORS
330
3DD3
330
3DD6
330
3DDC
102
}
330
1F
100
AcDbEntity
  8
軟質樹脂部分
  6
Continuous
100
AcDbLine
 10
107.0000000000001
 20
103.3000000000001
 30
0.0
 11
107.0000000000001
 21
109.3000000000001
 31
0.0
  0
LINE
  5
3D9E
330
1F
100
AcDbEntity
  8
硬質樹脂部分
  6
Continuous
100
AcDbLine
 10
108.2000000000001
 20
104.5000000000001
 30
0.0
 11
108.2000000000001
 21
106.6000000000001
 31
0.0
  0
ARC
  5
3D9F
102
{ACAD_REACTORS
330
3DD9
330
3DDF
102
}
330
1F
100
AcDbEntity
  8
軟質樹脂部分
  6
Continuous
100
AcDbCircle
 10
107.5000000000001
 20
103.3000000000001
 30
0.0
 40
0.5000000000000002
100
AcDbArc
 50
180.0
 51
270.0
  0
LINE
  5
3DA0
102
{ACAD_REACTORS
330
3DDC
330
3DDF
102
}
330
1F
100
AcDbEntity
  8
軟質樹脂部分
  6
Continuous
100
AcDbLine
 10
109.0000000000001
 20
100.8
 30
0.0
 11
109.0000000000001
 21
102.3000000000001
 31
0.0
  0
LINE
  5
3DA1
330
1F
100
AcDbEntity
  8
軟質樹脂部分
  6
Continuous
100
AcDbLine
 10
109.0000000000001
 20
100.8
 30
0.0
 11
111.0000000000001
 21
100.8000000000001
 31
0.0
  0
ARC
  5
3DA2
330
1F
100
AcDbEntity
  8
軟質樹脂部分
  6
Continuous
100
AcDbCircle
 10
108.5000000000001
 20
102.3000000000001
 30
0.0
 40
0.5000000000000002
100
AcDbArc
 50
0.0
 51
90.0
  0
LINE
  5
3DA3
330
1F
100
AcDbEntity
  8
軟質樹脂部分
  6
Continuous
100
AcDbLine
 10
109.0000000000001
 20
100.8
 30
0.0
 11
109.0000000000001
 21
100.8
 31
0.0
  0
LINE
  5
3DA4
330
1F
100
AcDbEntity
  8
硬質樹脂部分
  6
Continuous
100
AcDbLine
 10
111.0000000000001
 20
101.8022670198973
 30
0.0
 11
110.0000000000001
 21
101.8022670198973
 31
0.0
  0
LINE
  5
3DA5
330
1F
100
AcDbEntity
  8
軟質樹脂部分
  6
Continuous
100
AcDbLine
 10
110.2000000000001
 20
100.8
 30
0.0
 11
110.2000000000001
 21
100.8013602119384
 31
0.0
  0
LINE
  5
3DA6
330
1F
100
AcDbEntity
  8
硬質樹脂部分
  6
Continuous
100
AcDbLine
 10
108.7000000000001
 20
104.0000000000001
 30
0.0
 11
109.7698955247624
 21
104.0000000000001
 31
0.0
  0
LINE
  5
3DA7
330
1F
100
AcDbEntity
  8
硬質樹脂部分
  6
Continuous
100
AcDbLine
 10
110.0000000000001
 20
101.8022670198973
 30
0.0
 11
110.0000000000001
 21
102.711414938669
 31
0.0
  0
LINE
  5
3DA8
330
1F
100
AcDbEntity
  8
硬質樹脂部分
  6
Continuous
100
AcDbLine
 10
109.7698955247624
 20
104.0000000000001
 30
0.0
 11
110.0000000000001
 21
102.711414938669
 31
0.0
  0
ARC
  5
3DA9
330
1F
100
AcDbEntity
  8
硬質樹脂部分
  6
Continuous
100
AcDbCircle
 10
108.7000000000001
 20
104.5000000000001
 30
0.0
 40
0.5000000000000002
100
AcDbArc
 50
180.0
 51
270.0
  0
LINE
  5
3DAA
330
1F
100
AcDbEntity
  8
軟質樹脂部分
  6
Continuous
100
AcDbLine
 10
111.0000000000001
 20
101.8022670198973
 30
0.0
 11
111.0000000000001
 21
100.8000000000001
 31
0.0
  0
ARC
  5
3DAB
330
1F
100
AcDbEntity
  8
硬質樹脂部分
  6
Continuous
100
AcDbCircle
 10
109.2000000000001
 20
106.6000000000001
 30
0.0
 40
1.0
100
AcDbArc
 50
90.0
 51
180.0
  0
ARC
  5
3DAC
330
1F
100
AcDbEntity
  8
硬質樹脂部分
  6
Continuous
100
AcDbCircle
 10
131.5000000000001
 20
107.1000000000001
 30
0.0
 40
0.5000000000000002
100
AcDbArc
 50
0.0
 51
90.0
  0
ARC
  5
3DAD
330
1F
100
AcDbEntity
  8
軟質樹脂部分
  6
Continuous
100
AcDbCircle
 10
107.5000000000001
 20
109.3000000000001
 30
0.0
 40
0.5000000000000002
100
AcDbArc
 50
90.0
 51
180.0
  0
ARC
  5
3DAE
330
1F
100
AcDbEntity
  8
軟質樹脂部分
  6
Continuous
100
AcDbCircle
 10
131.7000000000001
 20
109.3000000000001
 30
0.0
 40
0.5000000000000002
100
AcDbArc
 50
0.0
 51
90.0
  0
ARC
  5
3DAF
102
{ACAD_REACTORS
330
3DD9
102
}
330
1F
100
AcDbEntity
  8
軟質樹脂部分
  6
Continuous
100
AcDbCircle
 10
107.5000000000001
 20
109.3000000000001
 30
0.0
 40
0.5000000000000002
100
AcDbArc
 50
90.0
 51
180.0
  0
LINE
  5
3DB0
330
1F
100
AcDbEntity
  8
軟質樹脂部分
  6
Continuous
100
AcDbLine
 10
114.0000000000001
 20
109.8000000000001
 30
0.0
 11
114.0000000000001
 21
108.8000000000001
 31
0.0
  0
LINE
  5
3DB1
102
{ACAD_REACTORS
330
3DEB
102
}
330
1F
100
AcDbEntity
  8
軟質樹脂部分
  6
Continuous
100
AcDbLine
 10
125.0000000000001
 20
109.8000000000001
 30
0.0
 11
131.7000000000001
 21
109.8000000000001
 31
0.0
  0
LINE
  5
3DB2
330
1F
100
AcDbEntity
  8
軟質樹脂部分
  6
Continuous
100
AcDbLine
 10
114.0000000000001
 20
109.8000000000001
 30
0.0
 11
107.5000000000001
 21
109.8000000000001
 31
0.0
  0
LINE
  5
3DB3
330
1F
100
AcDbEntity
  8
軟質樹脂部分
  6
Continuous
100
AcDbLine
 10
114.0000000000001
 20
108.8000000000001
 30
0.0
 11
116.0000000000001
 21
108.8000000000001
 31
0.0
  0
LINE
  5
3DB4
330
1F
100
AcDbEntity
  8
軟質樹脂部分
  6
Continuous
100
AcDbLine
 10
116.0000000000001
 20
108.8000000000001
 30
0.0
 11
116.0000000000001
 21
109.8000000000001
 31
0.0
  0
LINE
  5
3DB5
330
1F
100
AcDbEntity
  8
軟質樹脂部分
  6
Continuous
100
AcDbLine
 10
116.0000000000001
 20
109.8000000000001
 30
0.0
 11
118.5000000000001
 21
109.8000000000001
 31
0.0
  0
LINE
  5
3DB6
330
1F
100
AcDbEntity
  8
軟質樹脂部分
  6
Continuous
100
AcDbLine
 10
118.5000000000001
 20
109.8000000000001
 30
0.0
 11
118.5000000000001
 21
108.8000000000001
 31
0.0
  0
LINE
  5
3DB7
330
1F
100
AcDbEntity
  8
軟質樹脂部分
  6
Continuous
100
AcDbLine
 10
118.5000000000001
 20
108.8000000000001
 30
0.0
 11
120.5000000000001
 21
108.8000000000001
 31
0.0
  0
LINE
  5
3DB8
330
1F
100
AcDbEntity
  8
軟質樹脂部分
  6
Continuous
100
AcDbLine
 10
120.5000000000001
 20
108.8000000000001
 30
0.0
 11
120.5000000000001
 21
109.8000000000001
 31
0.0
  0
LINE
  5
3DB9
330
1F
100
AcDbEntity
  8
軟質樹脂部分
  6
Continuous
100
AcDbLine
 10
120.5000000000001
 20
109.8000000000001
 30
0.0
 11
123.0000000000001
 21
109.8000000000001
 31
0.0
  0
LINE
  5
3DBA
330
1F
100
AcDbEntity
  8
軟質樹脂部分
  6
Continuous
100
AcDbLine
 10
123.0000000000001
 20
109.8000000000001
 30
0.0
 11
123.0000000000001
 21
108.8000000000001
 31
0.0
  0
LINE
  5
3DBB
330
1F
100
AcDbEntity
  8
軟質樹脂部分
  6
Continuous
100
AcDbLine
 10
123.0000000000001
 20
108.8000000000001
 30
0.0
 11
125.0000000000001
 21
108.8000000000001
 31
0.0
  0
LINE
  5
3DBC
330
1F
100
AcDbEntity
  8
軟質樹脂部分
  6
Continuous
100
AcDbLine
 10
125.0000000000001
 20
108.8000000000001
 30
0.0
 11
125.0000000000001
 21
109.8000000000001
 31
0.0
  0
LINE
  5
3DBD
330
1F
100
AcDbEntity
  8
硬質樹脂部分
  6
Continuous
100
AcDbLine
 10
115.1000000000001
 20
102.1000000000001
 30
0.0
 11
114.22074642688
 21
102.1000000000001
 31
0.0
  0
LINE
  5
3DBE
330
1F
100
AcDbEntity
  8
硬質樹脂部分
  6
Continuous
100
AcDbLine
 10
115.3000000000001
 20
105.1000000000001
 30
0.0
 11
115.3000000000001
 21
102.3000000000001
 31
0.0
  0
ARC
  5
3DBF
330
1F
100
AcDbEntity
  8
硬質樹脂部分
  6
Continuous
100
AcDbCircle
 10
115.1000000000001
 20
102.3000000000001
 30
0.0
 40
0.2000000000000001
100
AcDbArc
 50
270.0
 51
0.0
  0
LINE
  5
3DC0
330
1F
100
AcDbEntity
  8
硬質樹脂部分
  6
Continuous
100
AcDbLine
 10
113.7000000000001
 20
105.1000000000001
 30
0.0
 11
113.7000000000001
 21
104.0000000000001
 31
0.0
  0
LINE
  5
3DC1
330
1F
100
AcDbEntity
  8
硬質樹脂部分
  6
Continuous
100
AcDbLine
 10
113.7000000000001
 20
104.0000000000001
 30
0.0
 11
113.2656363713348
 21
104.0000000000001
 31
0.0
  0
LINE
  5
3DC2
330
1F
100
AcDbEntity
  8
硬質樹脂部分
  6
Continuous
100
AcDbLine
 10
113.1771445490966
 20
103.8534253567167
 30
0.0
 11
114.0437627824035
 21
102.2068507134335
 31
0.0
  0
ARC
  5
3DC3
330
1F
100
AcDbEntity
  8
硬質樹脂部分
  6
Continuous
100
AcDbCircle
 10
113.2656363713348
 20
103.9000000000001
 30
0.0
 40
0.1
100
AcDbArc
 50
90.0
 51
207.7585406010577
  0
ARC
  5
3DC4
330
1F
100
AcDbEntity
  8
硬質樹脂部分
  6
Continuous
100
AcDbCircle
 10
114.22074642688
 20
102.3000000000001
 30
0.0
 40
0.2
100
AcDbArc
 50
207.7585406010616
 51
270.0
  0
LINE
  5
3DC5
330
1F
100
AcDbEntity
  8
硬質樹脂部分
  6
Continuous
100
AcDbLine
 10
127.9000000000001
 20
102.1000000000001
 30
0.0
 11
128.7792535731203
 21
102.1000000000001
 31
0.0
  0
LINE
  5
3DC6
330
1F
100
AcDbEntity
  8
硬質樹脂部分
  6
Continuous
100
AcDbLine
 10
127.7000000000001
 20
105.1000000000001
 30
0.0
 11
127.7000000000001
 21
102.3000000000001
 31
0.0
  0
ARC
  5
3DC7
330
1F
100
AcDbEntity
  8
硬質樹脂部分
  6
Continuous
100
AcDbCircle
 10
127.9000000000001
 20
102.3000000000001
 30
0.0
 40
0.2000000000000001
100
AcDbArc
 50
180.0
 51
270.0
  0
LINE
  5
3DC8
330
1F
100
AcDbEntity
  8
硬質樹脂部分
  6
Continuous
100
AcDbLine
 10
129.8228554509036
 20
103.8534253567167
 30
0.0
 11
128.9562372175967
 21
102.2068507134335
 31
0.0
  0
ARC
  5
3DC9
330
1F
100
AcDbEntity
  8
硬質樹脂部分
  6
Continuous
100
AcDbCircle
 10
128.7792535731203
 20
102.3000000000001
 30
0.0
 40
0.2
100
AcDbArc
 50
270.0
 51
332.2414593989275
  0
LINE
  5
3DCA
330
1F
100
AcDbEntity
  8
硬質樹脂部分
  6
Continuous
100
AcDbLine
 10
129.3000000000001
 20
104.0000000000001
 30
0.0
 11
129.7343636286655
 21
104.0000000000001
 31
0.0
  0
ARC
  5
3DCB
330
1F
100
AcDbEntity
  8
硬質樹脂部分
  6
Continuous
100
AcDbCircle
 10
129.7343636286655
 20
103.9000000000001
 30
0.0
 40
0.1
100
AcDbArc
 50
332.2414593989423
 51
90.0
  0
LINE
  5
3DCC
330
1F
100
AcDbEntity
  8
硬質樹脂部分
  6
Continuous
100
AcDbLine
 10
129.3000000000001
 20
105.1000000000001
 30
0.0
 11
129.3000000000001
 21
104.0000000000001
 31
0.0
  0
ARC
  5
3DCD
330
1F
100
AcDbEntity
  8
硬質樹脂部分
  6
Continuous
100
AcDbCircle
 10
113.2000000000001
 20
105.1000000000001
 30
0.0
 40
0.5000000000000002
100
AcDbArc
 50
0.0
 51
90.0
  0
ARC
  5
3DCE
330
1F
100
AcDbEntity
  8
硬質樹脂部分
  6
Continuous
100
AcDbCircle
 10
115.8000000000001
 20
105.1000000000001
 30
0.0
 40
0.5000000000000002
100
AcDbArc
 50
90.0
 51
180.0
  0
ARC
  5
3DCF
330
1F
100
AcDbEntity
  8
硬質樹脂部分
  6
Continuous
100
AcDbCircle
 10
127.2000000000001
 20
105.1000000000001
 30
0.0
 40
0.5000000000000002
100
AcDbArc
 50
0.0
 51
90.0
  0
ARC
  5
3DD0
330
1F
100
AcDbEntity
  8
硬質樹脂部分
  6
Continuous
100
AcDbCircle
 10
129.8000000000001
 20
105.1000000000001
 30
0.0
 40
0.5000000000000002
100
AcDbArc
 50
90.0
 51
180.0
  0
DIMENSION
  5
3DD1
102
{ACAD_REACTORS
330
3DD3
102
}
102
{ACAD_XDICTIONARY
360
3DD2
102
}
330
1F
100
AcDbEntity
  8
寸法
  6
Continuous
100
AcDbDimension
280
     0
  2
*D91
 10
132.0000000000001
 20
114.8000000000001
 30
0.0
 11
120.3500000000001
 21
114.8000000000001
 31
0.0
 70
   160
 71
     5
 42
25.00000000000001
 73
     0
 74
     0
 75
     0
  3
ISO-1
100
AcDbAlignedDimension
 13
107.0000000000001
 23
109.3000000000001
 33
0.0
 14
132.0000000000001
 24
105.6000000000001
 34
0.0
100
AcDbRotatedDimension
  0
DIMENSION
  5
3DD7
102
{ACAD_REACTORS
330
3DD9
102
}
102
{ACAD_XDICTIONARY
360
3DD8
102
}
330
1F
100
AcDbEntity
  8
寸法
  6
Continuous
100
AcDbDimension
280
     0
  2
*D93
 10
102.0000000000001
 20
102.8000000000001
 30
0.0
 11
99.20662746832171
 21
106.5257295792488
 31
0.0
 70
   160
 71
     5
 42
7.0
 73
     0
 74
     1
 75
     1
  3
ISO-1
100
AcDbAlignedDimension
 13
107.5000000000001
 23
109.8000000000001
 33
0.0
 14
107.5000000000001
 24
102.8000000000001
 34
0.0
 50
90.0
100
AcDbRotatedDimension
  0
DIMENSION
  5
3DDA
102
{ACAD_REACTORS
330
3DDC
102
}
102
{ACAD_XDICTIONARY
360
3DDB
102
}
330
1F
100
AcDbEntity
  8
寸法
  6
Continuous
100
AcDbDimension
280
     0
  2
*D94
 10
109.0000000000001
 20
95.8000000000001
 30
0.0
 11
107.9835875802692
 21
92.77585089829844
 31
0.0
 70
   160
 71
     5
 42
2.0
 73
     0
 74
     0
 75
     0
  3
ISO-1
100
AcDbAlignedDimension
 13
107.0000000000001
 23
103.3000000000001
 33
0.0
 14
109.0000000000001
 24
100.8
 34
0.0
100
AcDbRotatedDimension
  0
DIMENSION
  5
3DDD
102
{ACAD_REACTORS
330
3DDF
102
}
102
{ACAD_XDICTIONARY
360
3DDE
102
}
330
1F
100
AcDbEntity
  8
寸法
  6
Continuous
100
AcDbDimension
280
     0
  2
*D95
 10
102.0000000000001
 20
102.8000000000001
 30
0.0
 11
99.20662746832171
 21
101.8892101000516
 31
0.0
 70
   160
 71
     5
 42
2.000000000000099
 73
     0
 74
     0
 75
     0
  3
ISO-1
100
AcDbAlignedDimension
 13
109.0000000000001
 23
100.8
 33
0.0
 14
107.5000000000001
 24
102.8000000000001
 34
0.0
 50
90.0
100
AcDbRotatedDimension
  0
DIMENSION
  5
3DE0
102
{ACAD_REACTORS
330
3DE2
102
}
102
{ACAD_XDICTIONARY
360
3DE1
102
}
330
1F
100
AcDbEntity
  8
寸法
  6
Continuous
100
AcDbDimension
280
     0
  2
*D96
 10
132.0000000000001
 20
95.8000000000001
 30
0.0
 11
121.5000000000001
 21
95.8000000000001
 31
0.0
 70
   160
 71
     5
 42
21.00000000000001
 73
     0
 74
     0
 75
     0
  3
ISO-1
100
AcDbAlignedDimension
 13
111.0000000000001
 23
100.8000000000001
 33
0.0
 14
132.0000000000001
 24
100.8000000000001
 34
0.0
100
AcDbRotatedDimension
  0
LINE
  5
3DE3
330
1F
100
AcDbEntity
  8
金属部分
  6
Continuous
100
AcDbLine
 10
123.5000000000001
 20
100.3000000000001
 30
0.0
 11
122.5000000000001
 21
100.3000000000001
 31
0.0
  0
LINE
  5
3DE4
330
1F
100
AcDbEntity
  8
TOS_M1
  6
Continuous
100
AcDbLine
 10
123.0000000000001
 20
99.3000000000001
 30
0.0
 11
122.5000000000001
 21
100.3000000000001
 31
0.0
  0
LINE
  5
3DE5
330
1F
100
AcDbEntity
  8
TOS_M1
  6
Continuous
100
AcDbLine
 10
123.0000000000001
 20
99.3000000000001
 30
0.0
 11
123.5000000000001
 21
100.3000000000001
 31
0.0
  0
HATCH
  5
3DE6
330
1F
100
AcDbEntity
  8
TOS_M1
  6
Continuous
100
AcDbHatch
 10
0.0
 20
0.0
 30
0.0
210
0.0
220
0.0
230
1.0
  2
SOLID
 70
     1
 71
     0
 91
        1
 92
        7
 72
     0
 73
     1
 93
        3
 10
123.0000000000001
 20
99.3000000000001
 10
123.5000000000001
 20
100.3000000000001
 10
122.5000000000001
 20
100.3000000000001
 97
        0
 75
     0
 76
     1
 47
0.0
 98
        1
 10
122.9396744030722
 20
100.0950794087065
1001
ACAD
1010
0.0
1020
0.0
1030
0.0
  0
LINE
  5
3DE7
330
1F
100
AcDbEntity
  8
TOS_M1
  6
ACAD_ISO07W100
 48
0.5
100
AcDbLine
 10
132.0000000000001
 20
98.0500000000001
 30
0.0
 11
123.0000000000001
 21
98.16462832250005
 31
0.0
  0
MTEXT
  5
3DE8
330
1F
100
AcDbEntity
  8
TOS_M1
  6
Continuous
100
AcDbMText
 10
126.4679008197842
 20
99.2081143128276
 30
0.0
 40
2.0
 41
5.011594093714308
 46
2.0
 71
     1
 72
     5
  1
{9}
 73
     1
 44
1.0
1001
ACAD
1000
ACAD_MTEXT_DEFINED_HEIGHT_BEGIN
1070
    46
1040
2.0
1000
ACAD_MTEXT_DEFINED_HEIGHT_END
  0
DIMENSION
  5
3DE9
102
{ACAD_REACTORS
330
3DEB
102
}
102
{ACAD_XDICTIONARY
360
3DEA
102
}
330
1F
100
AcDbEntity
  8
寸法
  6
Continuous
100
AcDbDimension
280
     0
  2
*D97
 10
137.0000000000001
 20
109.8000000000001
 30
0.0
 11
137.0000000000001
 21
105.3000000000001
 31
0.0
 70
   160
 71
     5
 42
9.0
 73
     0
 74
     0
 75
     0
  3
ISO-1
100
AcDbAlignedDimension
 13
132.0000000000001
 23
100.8000000000001
 33
0.0
 14
131.7000000000001
 24
109.8000000000001
 34
0.0
 50
90.0
100
AcDbRotatedDimension
  0
LEADER
  5
3DEC
330
1F
100
AcDbEntity
  8
TOS_M1
  6
Continuous
100
AcDbLeader
  3
ISO-1
 76
     2
 10
128.4705776110525
 20
106.3006468965331
 30
0.0
 10
136.5755349557146
 20
118.5890318629361
 30
0.0
  0
LEADER
  5
3DEE
102
{ACAD_XDICTIONARY
360
3DEF
102
}
330
1F
100
AcDbEntity
  8
TOS_M1
  6
Continuous
100
AcDbLeader
  3
ISO-1
 76
     2
 10
108.4743536276629
 20
108.632322438602
 30
0.0
 10
102.4661046660594
 20
118.8926010308755
 30
0.0
  0
MTEXT
  5
3E78
330
1F
100
AcDbEntity
  8
文字
  6
Continuous
100
AcDbMText
 10
96.92327930901043
 20
119.8659867400266
 30
0.0
 40
1.5
 41
4.998678400167449
 46
1.704545454545455
 71
     1
 72
     5
  1
{\fＭＳ Ｐゴシック|b0|i0|c0|p0;軟質}
 73
     1
 44
1.0
1001
ACAD
1000
ACAD_MTEXT_DEFINED_HEIGHT_BEGIN
1070
    46
1040
1.704545454545455
1000
ACAD_MTEXT_DEFINED_HEIGHT_END
  0
MTEXT
  5
3E8D
330
1F
100
AcDbEntity
  8
文字
  6
Continuous
100
AcDbMText
 10
137.750489813838
 20
119.9531108328166
 30
0.0
 40
1.5
 41
4.998678400167449
 46
1.704545454545455
 71
     1
 72
     5
  1
{\fＭＳ Ｐゴシック|b0|i0|c0|p0;硬質}
 73
     1
 44
1.0
1001
ACAD
1000
ACAD_MTEXT_DEFINED_HEIGHT_BEGIN
1070
    46
1040
1.704545454545455
1000
ACAD_MTEXT_DEFINED_HEIGHT_END
  0
ENDSEC
  0
SECTION
  2
OBJECTS
  0
DICTIONARY
  5
C
330
0
100
AcDbDictionary
281
     1
  3
ACAD_COLOR
350
A9A
  3
ACAD_DETAILVIEWSTYLE
350
A4E
  3
ACAD_GROUP
350
D
  3
ACAD_IMAGE_VARS
350
96F
  3
ACAD_LAYOUT
350
1A
  3
ACAD_MATERIAL
350
A42
  3
ACAD_MLEADERSTYLE
350
A48
  3
ACAD_MLINESTYLE
350
17
  3
ACAD_PLOTSETTINGS
350
19
  3
ACAD_PLOTSTYLENAME
350
E
  3
ACAD_SCALELIST
350
935
  3
ACAD_SECTIONVIEWSTYLE
350
A4F
  3
ACAD_TABLESTYLE
350
A46
  3
ACAD_VISUALSTYLE
350
A29
  3
ACDB_RECOMPOSE_DATA
350
3E90
  3
AcDbVariableDictionary
350
3E1
  3
APPDATA
350
96E
  3
DimOffsetDictionary
350
14C9
  0
SUN
  5
A4A
330
934
100
AcDbSun
 90
        1
290
     0
 63
     7
421
 16777215
 40
1.0
291
     1
 91
  2455826
 92
 54000000
292
     0
 70
     2
 71
   256
280
     1
  0
DICTIONARY
  5
970
330
2
100
AcDbDictionary
280
     1
281
     1
  3
ACAD_LAYERSTATES
360
971
  3
ACLYDICTIONARY
360
207B
  0
DICTIONARY
  5
A87
330
A86
100
AcDbDictionary
280
     1
281
     1
  3
ADSK_XREC_LAYER_RECONCILED
360
A88
  0
DICTIONARY
  5
A8B
330
A8A
100
AcDbDictionary
280
     1
281
     1
  3
ADSK_XREC_LAYER_RECONCILED
360
A8C
  0
DICTIONARY
  5
2F1B
330
2F1A
100
AcDbDictionary
280
     1
281
     1
  3
ADSK_XREC_LAYER_RECONCILED
360
2F1C
  0
DICTIONARY
  5
3DD2
330
3DD1
100
AcDbDictionary
280
     1
281
     1
  3
ACAD_DIMASSOC
360
3DD3
  0
DICTIONARY
  5
3DD8
330
3DD7
100
AcDbDictionary
280
     1
281
     1
  3
ACAD_DIMASSOC
360
3DD9
  0
DICTIONARY
  5
3DDB
330
3DDA
100
AcDbDictionary
280
     1
281
     1
  3
ACAD_DIMASSOC
360
3DDC
  0
DICTIONARY
  5
3DDE
330
3DDD
100
AcDbDictionary
280
     1
281
     1
  3
ACAD_DIMASSOC
360
3DDF
  0
DICTIONARY
  5
3DE1
330
3DE0
100
AcDbDictionary
280
     1
281
     1
  3
ACAD_DIMASSOC
360
3DE2
  0
DICTIONARY
  5
3DEA
330
3DE9
100
AcDbDictionary
280
     1
281
     1
  3
ACAD_DIMASSOC
360
3DEB
  0
DICTIONARY
  5
3DEF
330
3DEE
100
AcDbDictionary
280
     1
281
     1
  0
DICTIONARY
  5
A9A
102
{ACAD_REACTORS
330
C
102
}
330
C
100
AcDbDictionary
281
     1
  0
DICTIONARY
  5
A4E
102
{ACAD_REACTORS
330
C
102
}
330
C
100
AcDbDictionary
281
     1
  0
DICTIONARY
  5
D
102
{ACAD_REACTORS
330
C
102
}
330
C
100
AcDbDictionary
281
     1
  0
RASTERVARIABLES
  5
96F
102
{ACAD_REACTORS
330
C
102
}
330
C
100
AcDbRasterVariables
 90
        0
 70
     1
 71
     1
 72
     1
  0
DICTIONARY
  5
1A
102
{ACAD_REACTORS
330
C
102
}
330
C
100
AcDbDictionary
281
     1
  3
Model
350
22
  3
ﾚｲｱｳﾄ1
350
1E
  3
ﾚｲｱｳﾄ2
350
26
  0
DICTIONARY
  5
A42
102
{ACAD_REACTORS
330
C
102
}
330
C
100
AcDbDictionary
281
     1
  3
ByBlock
350
A44
  3
ByLayer
350
A43
  3
Global
350
A45
  0
DICTIONARY
  5
A48
102
{ACAD_REACTORS
330
C
102
}
330
C
100
AcDbDictionary
281
     1
  3
Standard
350
A49
  0
DICTIONARY
  5
17
102
{ACAD_REACTORS
330
C
102
}
330
C
100
AcDbDictionary
281
     1
  3
Standard
350
18
  0
DICTIONARY
  5
19
102
{ACAD_REACTORS
330
C
102
}
330
C
100
AcDbDictionary
281
     1
  0
ACDBDICTIONARYWDFLT
  5
E
102
{ACAD_REACTORS
330
C
102
}
330
C
100
AcDbDictionary
281
     1
  3
Normal
350
F
100
AcDbDictionaryWithDefault
340
F
  0
DICTIONARY
  5
935
102
{ACAD_REACTORS
330
C
102
}
330
C
100
AcDbDictionary
281
     1
  3
A0
350
936
  3
A1
350
937
  3
A2
350
938
  3
A3
350
939
  3
A4
350
93A
  3
A5
350
93B
  3
A6
350
93C
  3
A7
350
93D
  3
A8
350
93E
  3
A9
350
93F
  3
B0
350
940
  3
B1
350
941
  3
B2
350
942
  3
B3
350
943
  3
B4
350
944
  3
B5
350
945
  3
B6
350
946
  3
B7
350
947
  3
B8
350
948
  3
B9
350
949
  3
C0
350
94A
  3
C1
350
94B
  3
C2
350
94C
  3
C3
350
94D
  3
C4
350
94E
  3
C5
350
94F
  3
C6
350
950
  3
C7
350
951
  3
C8
350
952
  3
C9
350
953
  3
D0
350
954
  3
D1
350
955
  3
D2
350
956
  0
DICTIONARY
  5
A4F
102
{ACAD_REACTORS
330
C
102
}
330
C
100
AcDbDictionary
281
     1
  0
DICTIONARY
  5
A46
102
{ACAD_REACTORS
330
C
102
}
330
C
100
AcDbDictionary
281
     1
  3
Standard
350
A47
  0
DICTIONARY
  5
A29
102
{ACAD_REACTORS
330
C
102
}
330
C
100
AcDbDictionary
281
     1
  3
2dWireframe
350
A2E
  3
Basic
350
A31
  3
Brighten
350
A35
  3
ColorChange
350
A39
  3
Conceptual
350
A33
  3
Dim
350
A34
  3
EdgeColorOff
350
A3C
  3
Facepattern
350
A38
  3
Flat
350
A2A
  3
FlatWithEdges
350
A2B
  3
Gouraud
350
A2C
  3
GouraudWithEdges
350
A2D
  3
Hidden
350
A30
  3
JitterOff
350
A3A
  3
Linepattern
350
A37
  3
OverhangOff
350
A3B
  3
Realistic
350
A32
  3
Shaded
350
A41
  3
Shaded with edges
350
A40
  3
Shades of Gray
350
A3D
  3
Sketchy
350
A3E
  3
Thicken
350
A36
  3
Wireframe
350
A2F
  3
X-Ray
350
A3F
  0
XRECORD
  5
3E90
102
{ACAD_REACTORS
330
C
102
}
330
C
100
AcDbXrecord
280
     1
 90
        1
330
A47
  0
DICTIONARY
  5
3E1
102
{ACAD_REACTORS
330
C
102
}
330
C
100
AcDbDictionary
281
     1
  3
CANNOSCALE
350
137E
  3
CMLEADERSTYLE
350
A4C
  3
CTABLESTYLE
350
A4B
  3
HPTRANSPARENCY
350
14C8
  3
MSLTSCALE
350
A4D
  3
SORTENTS
350
3E2
  0
DICTIONARY
  5
96E
102
{ACAD_REACTORS
330
C
102
}
330
C
100
AcDbDictionary
281
     1
  0
DICTIONARY
  5
14C9
102
{ACAD_REACTORS
330
C
102
}
330
C
100
AcDbDictionary
281
     1
  3
DIMRAILANGLE
350
2EB3
  3
DIMRAILFIRSTOFFSET
350
2EB1
  3
DIMRAILOFFSET
350
2EB2
  3
DIMRAILSENABLED
350
2EB4
  0
DICTIONARY
  5
971
102
{ACAD_REACTORS
330
970
102
}
330
970
100
AcDbDictionary
281
     1
  0
DICTIONARY
  5
207B
102
{ACAD_REACTORS
330
970
102
}
330
970
100
AcDbDictionary
281
     1
1001
ACAD
1000
<All
  0
XRECORD
  5
A88
102
{ACAD_REACTORS
330
A87
102
}
330
A87
100
AcDbXrecord
280
     1
290
     1
  0
XRECORD
  5
A8C
102
{ACAD_REACTORS
330
A8B
102
}
330
A8B
100
AcDbXrecord
280
     1
290
     1
  0
XRECORD
  5
2F1C
102
{ACAD_REACTORS
330
2F1B
102
}
330
2F1B
100
AcDbXrecord
280
     1
290
     1
  0
DIMASSOC
  5
3DD3
102
{ACAD_REACTORS
330
3DD2
102
}
330
3DD2
100
AcDbDimAssoc
330
3DD1
 90
        3
 70
     0
 71
     1
  1
AcDbOsnapPointRef
 72
     1
331
3D9D
 73
     0
 91
        0
 40
0.0
 10
0.0
 20
0.0
 30
0.0
 75
     0
  1
AcDbOsnapPointRef
 72
     1
331
3D78
 73
     0
 91
        0
 40
0.0
 10
0.0
 20
0.0
 30
0.0
 75
     0
  0
DIMASSOC
  5
3DD9
102
{ACAD_REACTORS
330
3DD8
102
}
330
3DD8
100
AcDbDimAssoc
330
3DD7
 90
        3
 70
     0
 71
     1
  1
AcDbOsnapPointRef
 72
    13
331
3DAF
 73
     0
 91
        0
 40
0.0
 10
0.0
 20
0.0
 30
0.0
 75
     0
  1
AcDbOsnapPointRef
 72
     1
331
3D9F
 73
     0
 91
        0
 40
0.0
 10
0.0
 20
0.0
 30
0.0
 75
     0
  0
DIMASSOC
  5
3DDC
102
{ACAD_REACTORS
330
3DDB
102
}
330
3DDB
100
AcDbDimAssoc
330
3DDA
 90
        3
 70
     0
 71
     1
  1
AcDbOsnapPointRef
 72
    13
331
3D9D
 73
     0
 91
        0
 40
0.0
 10
0.0
 20
0.0
 30
0.0
 75
     0
  1
AcDbOsnapPointRef
 72
    13
331
3DA0
 73
     0
 91
        0
 40
0.0
 10
0.0
 20
0.0
 30
0.0
 75
     0
  0
DIMASSOC
  5
3DDF
102
{ACAD_REACTORS
330
3DDE
102
}
330
3DDE
100
AcDbDimAssoc
330
3DDD
 90
        3
 70
     0
 71
     1
  1
AcDbOsnapPointRef
 72
    13
331
3DA0
 73
     0
 91
        0
 40
0.0
 10
0.0
 20
0.0
 30
0.0
 75
     0
  1
AcDbOsnapPointRef
 72
     1
331
3D9F
 73
     0
 91
        0
 40
0.0
 10
0.0
 20
0.0
 30
0.0
 75
     0
  0
DIMASSOC
  5
3DE2
102
{ACAD_REACTORS
330
3DE1
102
}
330
3DE1
100
AcDbDimAssoc
330
3DE0
 90
        3
 70
     0
 71
     1
  1
AcDbOsnapPointRef
 72
    13
331
3D77
 73
     0
 91
        0
 40
0.0
 10
0.0
 20
0.0
 30
0.0
 75
     0
  1
AcDbOsnapPointRef
 72
    13
331
3D78
 73
     0
 91
        0
 40
0.0
 10
0.0
 20
0.0
 30
0.0
 75
     0
  0
DIMASSOC
  5
3DEB
102
{ACAD_REACTORS
330
3DEA
102
}
330
3DEA
100
AcDbDimAssoc
330
3DE9
 90
        3
 70
     0
 71
     1
  1
AcDbOsnapPointRef
 72
    13
331
3D78
 73
     0
 91
        0
 40
0.0
 10
0.0
 20
0.0
 30
0.0
 75
     0
  1
AcDbOsnapPointRef
 72
     1
331
3DB1
 73
     0
 91
        0
 40
0.0
 10
0.0
 20
0.0
 30
0.0
 75
     0
  0
LAYOUT
  5
22
102
{ACAD_REACTORS
330
1A
102
}
330
1A
100
AcDbPlotSettings
  1

  2
RICOH IPSiO NX850 RPCS
  4
A4
  6

 40
5.873749732971191
 41
5.873747825622559
 42
5.873748779296875
 43
5.873748779296875
 44
209.9733276367188
 45
296.9259948730469
 46
-5.437085437774627
 47
-39.11144052110868
 48
0.0
 49
0.0
140
0.0
141
0.0
142
1.0
143
1.0
 70
 11940
 72
     1
 73
     1
 74
     0
  7

 75
     0
 76
     0
 77
     2
 78
   300
147
1.0
148
35.7006896551724
149
2.049999999999997
100
AcDbLayout
  1
Model
 70
     1
 71
     0
 10
0.0
 20
0.0
 11
12.0
 21
9.0
 12
0.0
 22
0.0
 32
0.0
 14
0.0
 24
0.0
 34
0.0
 15
292.0
 25
205.0
 35
0.0
146
0.0
 13
0.0
 23
0.0
 33
0.0
 16
1.0
 26
0.0
 36
0.0
 17
0.0
 27
1.0
 37
0.0
 76
     0
330
1F
331
934
1001
PLOTTRANSPARENCY
1071
        0
  0
LAYOUT
  5
1E
102
{ACAD_REACTORS
330
1A
102
}
330
1A
100
AcDbPlotSettings
  1

  2
RICOH IPSiO NX850 RPCS
  4

  6

 40
0.0
 41
0.0
 42
0.0
 43
0.0
 44
0.0
 45
0.0
 46
0.0
 47
0.0
 48
0.0
 49
0.0
140
0.0
141
0.0
142
1.0
143
1.0
 70
   688
 72
     0
 73
     0
 74
     5
  7

 75
    16
 76
     0
 77
     2
 78
   300
147
1.0
148
0.0
149
0.0
100
AcDbLayout
  1
ﾚｲｱｳﾄ1
 70
     1
 71
     1
 10
0.0
 20
0.0
 11
420.0
 21
297.0
 12
0.0
 22
0.0
 32
0.0
 14
1.000000000000000E+20
 24
1.000000000000000E+20
 34
1.000000000000000E+20
 15
-1.000000000000000E+20
 25
-1.000000000000000E+20
 35
-1.000000000000000E+20
146
0.0
 13
0.0
 23
0.0
 33
0.0
 16
1.0
 26
0.0
 36
0.0
 17
0.0
 27
1.0
 37
0.0
 76
     0
330
1B
  0
LAYOUT
  5
26
102
{ACAD_REACTORS
330
1A
102
}
330
1A
100
AcDbPlotSettings
  1

  2
RICOH IPSiO NX850 RPCS
  4

  6

 40
0.0
 41
0.0
 42
0.0
 43
0.0
 44
0.0
 45
0.0
 46
0.0
 47
0.0
 48
0.0
 49
0.0
140
0.0
141
0.0
142
1.0
143
1.0
 70
   688
 72
     0
 73
     0
 74
     5
  7

 75
    16
 76
     0
 77
     2
 78
   300
147
1.0
148
0.0
149
0.0
100
AcDbLayout
  1
ﾚｲｱｳﾄ2
 70
     1
 71
     2
 10
0.0
 20
0.0
 11
12.0
 21
9.0
 12
0.0
 22
0.0
 32
0.0
 14
0.0
 24
0.0
 34
0.0
 15
0.0
 25
0.0
 35
0.0
146
0.0
 13
0.0
 23
0.0
 33
0.0
 16
1.0
 26
0.0
 36
0.0
 17
0.0
 27
1.0
 37
0.0
 76
     0
330
23
  0
MATERIAL
  5
A44
102
{ACAD_REACTORS
330
A42
102
}
330
A42
100
AcDbMaterial
  1
ByBlock
 72
     1
 94
      127
  0
MATERIAL
  5
A43
102
{ACAD_REACTORS
330
A42
102
}
330
A42
100
AcDbMaterial
  1
ByLayer
 72
     1
 94
      127
  0
MATERIAL
  5
A45
102
{ACAD_REACTORS
330
A42
102
}
330
A42
100
AcDbMaterial
  1
Global
 72
     1
 94
      127
  0
MLEADERSTYLE
  5
A49
102
{ACAD_REACTORS
330
A48
102
}
330
A48
100
AcDbMLeaderStyle
179
     2
170
     2
171
     1
172
     0
 90
        2
 40
0.0
 41
0.0
173
     1
 91
-1056964608
340
14
 92
       -2
290
     1
 42
2.0
291
     1
 43
8.0
  3
Standard
341
0
 44
4.0
300

342
11
174
     1
178
     6
175
     1
176
     0
 93
-1056964608
 45
4.0
292
     0
297
     0
 46
4.0
343
0
 94
-1056964608
 47
1.0
 49
1.0
140
1.0
293
     1
141
0.0
294
     1
177
     0
142
1.0
295
     0
296
     0
143
3.75
271
     0
272
     9
273
     9
  0
MLINESTYLE
  5
18
102
{ACAD_REACTORS
330
17
102
}
330
17
100
AcDbMlineStyle
  2
STANDARD
 70
     0
  3

 62
   256
 51
90.0
 52
90.0
 71
     2
 49
0.5
 62
   256
  6
BYLAYER
 49
-0.5
 62
   256
  6
BYLAYER
  0
ACDBPLACEHOLDER
  5
F
102
{ACAD_REACTORS
330
E
102
}
330
E
  0
SCALE
  5
936
102
{ACAD_REACTORS
330
935
102
}
330
935
100
AcDbScale
 70
     0
300
1:1
140
1.0
141
1.0
290
     1
  0
SCALE
  5
937
102
{ACAD_REACTORS
330
935
102
}
330
935
100
AcDbScale
 70
     0
300
1:2
140
1.0
141
2.0
290
     0
  0
SCALE
  5
938
102
{ACAD_REACTORS
330
935
102
}
330
935
100
AcDbScale
 70
     0
300
1:4
140
1.0
141
4.0
290
     0
  0
SCALE
  5
939
102
{ACAD_REACTORS
330
935
102
}
330
935
100
AcDbScale
 70
     0
300
1:5
140
1.0
141
5.0
290
     0
  0
SCALE
  5
93A
102
{ACAD_REACTORS
330
935
102
}
330
935
100
AcDbScale
 70
     0
300
1:8
140
1.0
141
8.0
290
     0
  0
SCALE
  5
93B
102
{ACAD_REACTORS
330
935
102
}
330
935
100
AcDbScale
 70
     0
300
1:10
140
1.0
141
10.0
290
     0
  0
SCALE
  5
93C
102
{ACAD_REACTORS
330
935
102
}
330
935
100
AcDbScale
 70
     0
300
1:16
140
1.0
141
16.0
290
     0
  0
SCALE
  5
93D
102
{ACAD_REACTORS
330
935
102
}
330
935
100
AcDbScale
 70
     0
300
1:20
140
1.0
141
20.0
290
     0
  0
SCALE
  5
93E
102
{ACAD_REACTORS
330
935
102
}
330
935
100
AcDbScale
 70
     0
300
1:30
140
1.0
141
30.0
290
     0
  0
SCALE
  5
93F
102
{ACAD_REACTORS
330
935
102
}
330
935
100
AcDbScale
 70
     0
300
1:40
140
1.0
141
40.0
290
     0
  0
SCALE
  5
940
102
{ACAD_REACTORS
330
935
102
}
330
935
100
AcDbScale
 70
     0
300
1:50
140
1.0
141
50.0
290
     0
  0
SCALE
  5
941
102
{ACAD_REACTORS
330
935
102
}
330
935
100
AcDbScale
 70
     0
300
1:100
140
1.0
141
100.0
290
     0
  0
SCALE
  5
942
102
{ACAD_REACTORS
330
935
102
}
330
935
100
AcDbScale
 70
     0
300
2:1
140
2.0
141
1.0
290
     0
  0
SCALE
  5
943
102
{ACAD_REACTORS
330
935
102
}
330
935
100
AcDbScale
 70
     0
300
4:1
140
4.0
141
1.0
290
     0
  0
SCALE
  5
944
102
{ACAD_REACTORS
330
935
102
}
330
935
100
AcDbScale
 70
     0
300
8:1
140
8.0
141
1.0
290
     0
  0
SCALE
  5
945
102
{ACAD_REACTORS
330
935
102
}
330
935
100
AcDbScale
 70
     0
300
10:1
140
10.0
141
1.0
290
     0
  0
SCALE
  5
946
102
{ACAD_REACTORS
330
935
102
}
330
935
100
AcDbScale
 70
     0
300
100:1
140
100.0
141
1.0
290
     0
  0
SCALE
  5
947
102
{ACAD_REACTORS
330
935
102
}
330
935
100
AcDbScale
 70
     0
300
1/128" = 1'-0"
140
0.0078125
141
12.0
290
     0
  0
SCALE
  5
948
102
{ACAD_REACTORS
330
935
102
}
330
935
100
AcDbScale
 70
     0
300
1/64" = 1'-0"
140
0.015625
141
12.0
290
     0
  0
SCALE
  5
949
102
{ACAD_REACTORS
330
935
102
}
330
935
100
AcDbScale
 70
     0
300
1/32" = 1'-0"
140
0.03125
141
12.0
290
     0
  0
SCALE
  5
94A
102
{ACAD_REACTORS
330
935
102
}
330
935
100
AcDbScale
 70
     0
300
1/16" = 1'-0"
140
0.0625
141
12.0
290
     0
  0
SCALE
  5
94B
102
{ACAD_REACTORS
330
935
102
}
330
935
100
AcDbScale
 70
     0
300
3/32" = 1'-0"
140
0.09375
141
12.0
290
     0
  0
SCALE
  5
94C
102
{ACAD_REACTORS
330
935
102
}
330
935
100
AcDbScale
 70
     0
300
1/8" = 1'-0"
140
0.125
141
12.0
290
     0
  0
SCALE
  5
94D
102
{ACAD_REACTORS
330
935
102
}
330
935
100
AcDbScale
 70
     0
300
3/16" = 1'-0"
140
0.1875
141
12.0
290
     0
  0
SCALE
  5
94E
102
{ACAD_REACTORS
330
935
102
}
330
935
100
AcDbScale
 70
     0
300
1/4" = 1'-0"
140
0.25
141
12.0
290
     0
  0
SCALE
  5
94F
102
{ACAD_REACTORS
330
935
102
}
330
935
100
AcDbScale
 70
     0
300
3/8" = 1'-0"
140
0.375
141
12.0
290
     0
  0
SCALE
  5
950
102
{ACAD_REACTORS
330
935
102
}
330
935
100
AcDbScale
 70
     0
300
1/2" = 1'-0"
140
0.5
141
12.0
290
     0
  0
SCALE
  5
951
102
{ACAD_REACTORS
330
935
102
}
330
935
100
AcDbScale
 70
     0
300
3/4" = 1'-0"
140
0.75
141
12.0
290
     0
  0
SCALE
  5
952
102
{ACAD_REACTORS
330
935
102
}
330
935
100
AcDbScale
 70
     0
300
1" = 1'-0"
140
1.0
141
12.0
290
     0
  0
SCALE
  5
953
102
{ACAD_REACTORS
330
935
102
}
330
935
100
AcDbScale
 70
     0
300
1-1/2" = 1'-0"
140
1.5
141
12.0
290
     0
  0
SCALE
  5
954
102
{ACAD_REACTORS
330
935
102
}
330
935
100
AcDbScale
 70
     0
300
3" = 1'-0"
140
3.0
141
12.0
290
     0
  0
SCALE
  5
955
102
{ACAD_REACTORS
330
935
102
}
330
935
100
AcDbScale
 70
     0
300
6" = 1'-0"
140
6.0
141
12.0
290
     0
  0
SCALE
  5
956
102
{ACAD_REACTORS
330
935
102
}
330
935
100
AcDbScale
 70
     0
300
1'-0" = 1'-0"
140
12.0
141
12.0
290
     0
  0
TABLESTYLE
  5
A47
102
{ACAD_REACTORS
330
A46
102
}
102
{ACAD_XDICTIONARY
360
3E8E
102
}
330
A46
100
AcDbTableStyle
  3
Standard
 70
     0
 71
     0
 40
1.5
 41
1.5
280
     0
281
     0
  7
Standard
140
4.5
170
     2
 62
     0
 63
   257
283
     0
 90
        4
 91
        0
  1

274
    -2
284
     1
 64
     0
275
    -2
285
     1
 65
     0
276
    -2
286
     1
 66
     0
277
    -2
287
     1
 67
     0
278
    -2
288
     1
 68
     0
279
    -2
289
     1
 69
     0
  7
Standard
140
6.0
170
     5
 62
     0
 63
   257
283
     0
 90
        4
 91
        0
  1

274
    -2
284
     1
 64
     0
275
    -2
285
     1
 65
     0
276
    -2
286
     1
 66
     0
277
    -2
287
     1
 67
     0
278
    -2
288
     1
 68
     0
279
    -2
289
     1
 69
     0
  7
Standard
140
4.5
170
     5
 62
     0
 63
   257
283
     0
 90
        4
 91
        0
  1

274
    -2
284
     1
 64
     0
275
    -2
285
     1
 65
     0
276
    -2
286
     1
 66
     0
277
    -2
287
     1
 67
     0
278
    -2
288
     1
 68
     0
279
    -2
289
     1
 69
     0
  0
VISUALSTYLE
  5
A2E
102
{ACAD_REACTORS
330
A29
102
}
330
A29
100
AcDbVisualStyle
  2
2dWireframe
 70
     4
177
     2
291
     0
 71
     0
176
     1
 72
     2
176
     1
 73
     0
176
     1
 90
        0
176
     1
 40
0.6
176
     1
 41
30.0
176
     1
 62
     5
 63
     7
421
 16777215
176
     1
 74
     1
176
     1
 91
        4
176
     1
 64
     7
176
     1
 65
   257
176
     1
 75
     1
176
     1
175
     1
176
     1
 42
1.0
176
     1
 92
        0
176
     1
 66
   257
176
     1
 43
1.0
176
     1
 76
     1
176
     1
 77
     6
176
     1
 78
     2
176
     1
 67
     7
176
     1
 79
     5
176
     1
170
     0
176
     1
171
     0
176
     1
290
     0
176
     1
 93
        1
176
     1
 44
0.0
176
     1
173
     0
176
     1
  0
VISUALSTYLE
  5
A31
102
{ACAD_REACTORS
330
A29
102
}
330
A29
100
AcDbVisualStyle
  2
Basic
 70
     7
177
     2
291
     1
 71
     1
176
     1
 72
     0
176
     1
 73
     1
176
     1
 90
        0
176
     1
 40
0.6
176
     1
 41
30.0
176
     1
 62
     5
 63
     7
421
 16777215
176
     1
 74
     0
176
     1
 91
        4
176
     1
 64
     7
176
     1
 65
   257
176
     1
 75
     1
176
     1
175
     1
176
     1
 42
1.0
176
     1
 92
        8
176
     1
 66
     7
176
     1
 43
1.0
176
     1
 76
     1
176
     1
 77
     6
176
     1
 78
     2
176
     1
 67
     7
176
     1
 79
     5
176
     1
170
     0
176
     1
171
     0
176
     1
290
     0
176
     1
 93
        1
176
     1
 44
0.0
176
     1
173
     0
176
     1
  0
VISUALSTYLE
  5
A35
102
{ACAD_REACTORS
330
A29
102
}
330
A29
100
AcDbVisualStyle
  2
Brighten
 70
    12
177
     2
291
     1
 71
     2
176
     1
 72
     2
176
     1
 73
     0
176
     1
 90
        0
176
     1
 40
0.6
176
     1
 41
30.0
176
     1
 62
     5
 63
     7
421
 16777215
176
     1
 74
     1
176
     1
 91
        4
176
     1
 64
     7
176
     1
 65
   257
176
     1
 75
     1
176
     1
175
     1
176
     1
 42
1.0
176
     1
 92
        8
176
     1
 66
     7
176
     1
 43
1.0
176
     1
 76
     1
176
     1
 77
     6
176
     1
 78
     2
176
     1
 67
     7
176
     1
 79
     5
176
     1
170
     0
176
     1
171
     0
176
     1
290
     0
176
     1
 93
        1
176
     1
 44
50.0
176
     1
173
     0
176
     1
  0
VISUALSTYLE
  5
A39
102
{ACAD_REACTORS
330
A29
102
}
330
A29
100
AcDbVisualStyle
  2
ColorChange
 70
    16
177
     2
291
     1
 71
     2
176
     1
 72
     2
176
     1
 73
     3
176
     1
 90
        0
176
     1
 40
0.6
176
     1
 41
30.0
176
     1
 62
     5
 63
     8
421
  8421504
176
     1
 74
     1
176
     1
 91
        4
176
     1
 64
     7
176
     1
 65
   257
176
     1
 75
     1
176
     1
175
     1
176
     1
 42
1.0
176
     1
 92
        8
176
     1
 66
     8
424
  8421504
176
     1
 43
1.0
176
     1
 76
     1
176
     1
 77
     6
176
     1
 78
     2
176
     1
 67
     7
176
     1
 79
     5
176
     1
170
     0
176
     1
171
     0
176
     1
290
     0
176
     1
 93
        1
176
     1
 44
0.0
176
     1
173
     0
176
     1
  0
VISUALSTYLE
  5
A33
102
{ACAD_REACTORS
330
A29
102
}
330
A29
100
AcDbVisualStyle
  2
Conceptual
 70
     9
177
     2
291
     0
 71
     3
176
     1
 72
     2
176
     1
 73
     0
176
     1
 90
        0
176
     1
 40
0.6
176
     1
 41
30.0
176
     1
 62
     5
 63
     7
421
 16777215
176
     1
 74
     2
176
     1
 91
        2
176
     1
 64
     7
176
     1
 65
   257
176
     1
 75
     1
176
     1
175
     1
176
     1
 42
179.0
176
     1
 92
        8
176
     1
 66
     7
176
     1
 43
1.0
176
     1
 76
     1
176
     1
 77
     6
176
     1
 78
     2
176
     1
 67
     7
176
     1
 79
     3
176
     1
170
     0
176
     1
171
     0
176
     1
290
     0
176
     1
 93
        1
176
     1
 44
0.0
176
     1
173
     0
176
     1
  0
VISUALSTYLE
  5
A34
102
{ACAD_REACTORS
330
A29
102
}
330
A29
100
AcDbVisualStyle
  2
Dim
 70
    11
177
     2
291
     1
 71
     2
176
     1
 72
     2
176
     1
 73
     0
176
     1
 90
        0
176
     1
 40
0.6
176
     1
 41
30.0
176
     1
 62
     5
 63
     7
421
 16777215
176
     1
 74
     1
176
     1
 91
        4
176
     1
 64
     7
176
     1
 65
   257
176
     1
 75
     1
176
     1
175
     1
176
     1
 42
1.0
176
     1
 92
        8
176
     1
 66
     7
176
     1
 43
1.0
176
     1
 76
     1
176
     1
 77
     6
176
     1
 78
     2
176
     1
 67
     7
176
     1
 79
     5
176
     1
170
     0
176
     1
171
     0
176
     1
290
     0
176
     1
 93
        1
176
     1
 44
-50.0
176
     1
173
     0
176
     1
  0
VISUALSTYLE
  5
A3C
102
{ACAD_REACTORS
330
A29
102
}
330
A29
100
AcDbVisualStyle
  2
EdgeColorOff
 70
    22
177
     2
291
     1
 71
     2
176
     0
 72
     2
176
     0
 73
     0
176
     0
 90
        0
176
     0
 40
0.6
176
     0
 41
30.0
176
     0
 62
     5
 63
     7
421
 16777215
176
     0
 74
     1
176
     0
 91
        4
176
     0
 64
     7
176
     0
 65
   257
176
     0
 75
     1
176
     0
175
     1
176
     0
 42
1.0
176
     0
 92
        8
176
     2
 66
     7
176
     0
 43
1.0
176
     0
 76
     1
176
     0
 77
     6
176
     0
 78
     2
176
     0
 67
     7
176
     0
 79
     5
176
     0
170
     0
176
     0
171
     0
176
     0
290
     0
176
     0
 93
        1
176
     0
 44
0.0
176
     0
173
     0
176
     0
  0
VISUALSTYLE
  5
A38
102
{ACAD_REACTORS
330
A29
102
}
330
A29
100
AcDbVisualStyle
  2
Facepattern
 70
    15
177
     2
291
     1
 71
     2
176
     1
 72
     2
176
     1
 73
     0
176
     1
 90
        0
176
     1
 40
0.6
176
     1
 41
30.0
176
     1
 62
     5
 63
     7
421
 16777215
176
     1
 74
     1
176
     1
 91
        4
176
     1
 64
     7
176
     1
 65
   257
176
     1
 75
     1
176
     1
175
     1
176
     1
 42
1.0
176
     1
 92
        8
176
     1
 66
     7
176
     1
 43
1.0
176
     1
 76
     1
176
     1
 77
     6
176
     1
 78
     2
176
     1
 67
     7
176
     1
 79
     5
176
     1
170
     0
176
     1
171
     0
176
     1
290
     0
176
     1
 93
        1
176
     1
 44
0.0
176
     1
173
     0
176
     1
  0
VISUALSTYLE
  5
A2A
102
{ACAD_REACTORS
330
A29
102
}
330
A29
100
AcDbVisualStyle
  2
Flat
 70
     0
177
     2
291
     1
 71
     2
176
     1
 72
     1
176
     1
 73
     1
176
     1
 90
        2
176
     1
 40
0.6
176
     1
 41
30.0
176
     1
 62
     5
 63
     7
421
 16777215
176
     1
 74
     0
176
     1
 91
        0
176
     1
 64
     7
176
     1
 65
   257
176
     1
 75
     1
176
     1
175
     1
176
     1
 42
1.0
176
     1
 92
        8
176
     1
 66
     7
176
     1
 43
1.0
176
     1
 76
     1
176
     1
 77
     6
176
     1
 78
     2
176
     1
 67
     7
176
     1
 79
     5
176
     1
170
     0
176
     1
171
     0
176
     1
290
     0
176
     1
 93
       13
176
     1
 44
0.0
176
     1
173
     0
176
     1
  0
VISUALSTYLE
  5
A2B
102
{ACAD_REACTORS
330
A29
102
}
330
A29
100
AcDbVisualStyle
  2
FlatWithEdges
 70
     1
177
     2
291
     1
 71
     2
176
     1
 72
     1
176
     1
 73
     1
176
     1
 90
        2
176
     1
 40
0.6
176
     1
 41
30.0
176
     1
 62
     5
 63
     7
421
 16777215
176
     1
 74
     1
176
     1
 91
        0
176
     1
 64
     7
176
     1
 65
   257
176
     1
 75
     1
176
     1
175
     1
176
     1
 42
1.0
176
     1
 92
        0
176
     1
 66
   257
176
     1
 43
1.0
176
     1
 76
     1
176
     1
 77
     6
176
     1
 78
     2
176
     1
 67
     7
176
     1
 79
     5
176
     1
170
     0
176
     1
171
     0
176
     1
290
     0
176
     1
 93
       13
176
     1
 44
0.0
176
     1
173
     0
176
     1
  0
VISUALSTYLE
  5
A2C
102
{ACAD_REACTORS
330
A29
102
}
330
A29
100
AcDbVisualStyle
  2
Gouraud
 70
     2
177
     2
291
     1
 71
     2
176
     1
 72
     2
176
     1
 73
     1
176
     1
 90
        2
176
     1
 40
0.6
176
     1
 41
30.0
176
     1
 62
     5
 63
     7
421
 16777215
176
     1
 74
     0
176
     1
 91
        0
176
     1
 64
     7
176
     1
 65
   257
176
     1
 75
     1
176
     1
175
     1
176
     1
 42
1.0
176
     1
 92
        0
176
     1
 66
     7
176
     1
 43
1.0
176
     1
 76
     1
176
     1
 77
     6
176
     1
 78
     2
176
     1
 67
     7
176
     1
 79
     5
176
     1
170
     0
176
     1
171
     0
176
     1
290
     0
176
     1
 93
       13
176
     1
 44
0.0
176
     1
173
     0
176
     1
  0
VISUALSTYLE
  5
A2D
102
{ACAD_REACTORS
330
A29
102
}
330
A29
100
AcDbVisualStyle
  2
GouraudWithEdges
 70
     3
177
     2
291
     1
 71
     2
176
     1
 72
     2
176
     1
 73
     1
176
     1
 90
        2
176
     1
 40
0.6
176
     1
 41
30.0
176
     1
 62
     5
 63
     7
421
 16777215
176
     1
 74
     1
176
     1
 91
        0
176
     1
 64
     7
176
     1
 65
   257
176
     1
 75
     1
176
     1
175
     1
176
     1
 42
1.0
176
     1
 92
        0
176
     1
 66
   257
176
     1
 43
1.0
176
     1
 76
     1
176
     1
 77
     6
176
     1
 78
     2
176
     1
 67
     7
176
     1
 79
     5
176
     1
170
     0
176
     1
171
     0
176
     1
290
     0
176
     1
 93
       13
176
     1
 44
0.0
176
     1
173
     0
176
     1
  0
VISUALSTYLE
  5
A30
102
{ACAD_REACTORS
330
A29
102
}
330
A29
100
AcDbVisualStyle
  2
Hidden
 70
     6
177
     2
291
     0
 71
     1
176
     1
 72
     2
176
     1
 73
     2
176
     1
 90
        0
176
     1
 40
0.6
176
     1
 41
30.0
176
     1
 62
     5
 63
     7
421
 16777215
176
     1
 74
     2
176
     1
 91
        2
176
     1
 64
     7
176
     1
 65
   257
176
     1
 75
     2
176
     1
175
     1
176
     1
 42
40.0
176
     1
 92
        0
176
     1
 66
   257
176
     1
 43
1.0
176
     1
 76
     1
176
     1
 77
     6
176
     1
 78
     2
176
     1
 67
     7
176
     1
 79
     3
176
     1
170
     0
176
     1
171
     0
176
     1
290
     0
176
     1
 93
        1
176
     1
 44
0.0
176
     1
173
     0
176
     1
  0
VISUALSTYLE
  5
A3A
102
{ACAD_REACTORS
330
A29
102
}
330
A29
100
AcDbVisualStyle
  2
JitterOff
 70
    20
177
     2
291
     1
 71
     2
176
     0
 72
     2
176
     0
 73
     0
176
     0
 90
        0
176
     0
 40
0.6
176
     0
 41
30.0
176
     0
 62
     5
 63
     7
421
 16777215
176
     0
 74
     1
176
     0
 91
        4
176
     0
 64
     7
176
     0
 65
   257
176
     0
 75
     1
176
     0
175
     1
176
     0
 42
1.0
176
     0
 92
       10
176
     2
 66
     7
176
     0
 43
1.0
176
     0
 76
     1
176
     0
 77
     6
176
     0
 78
     2
176
     0
 67
     7
176
     0
 79
     5
176
     0
170
     0
176
     0
171
     0
176
     0
290
     0
176
     0
 93
        1
176
     0
 44
0.0
176
     0
173
     0
176
     0
  0
VISUALSTYLE
  5
A37
102
{ACAD_REACTORS
330
A29
102
}
330
A29
100
AcDbVisualStyle
  2
Linepattern
 70
    14
177
     2
291
     1
 71
     2
176
     1
 72
     2
176
     1
 73
     0
176
     1
 90
        0
176
     1
 40
0.6
176
     1
 41
30.0
176
     1
 62
     5
 63
     7
421
 16777215
176
     1
 74
     1
176
     1
 91
        4
176
     1
 64
     7
176
     1
 65
   257
176
     1
 75
     7
176
     1
175
     7
176
     1
 42
1.0
176
     1
 92
        8
176
     1
 66
     7
176
     1
 43
1.0
176
     1
 76
     1
176
     1
 77
     6
176
     1
 78
     2
176
     1
 67
     7
176
     1
 79
     5
176
     1
170
     0
176
     1
171
     0
176
     1
290
     0
176
     1
 93
        1
176
     1
 44
0.0
176
     1
173
     0
176
     1
  0
VISUALSTYLE
  5
A3B
102
{ACAD_REACTORS
330
A29
102
}
330
A29
100
AcDbVisualStyle
  2
OverhangOff
 70
    21
177
     2
291
     1
 71
     2
176
     0
 72
     2
176
     0
 73
     0
176
     0
 90
        0
176
     0
 40
0.6
176
     0
 41
30.0
176
     0
 62
     5
 63
     7
421
 16777215
176
     0
 74
     1
176
     0
 91
        4
176
     0
 64
     7
176
     0
 65
   257
176
     0
 75
     1
176
     0
175
     1
176
     0
 42
1.0
176
     0
 92
        9
176
     2
 66
     7
176
     0
 43
1.0
176
     0
 76
     1
176
     0
 77
     6
176
     0
 78
     2
176
     0
 67
     7
176
     0
 79
     5
176
     0
170
     0
176
     0
171
     0
176
     0
290
     0
176
     0
 93
        1
176
     0
 44
0.0
176
     0
173
     0
176
     0
  0
VISUALSTYLE
  5
A32
102
{ACAD_REACTORS
330
A29
102
}
330
A29
100
AcDbVisualStyle
  2
Realistic
 70
     8
177
     2
291
     0
 71
     2
176
     1
 72
     3
176
     1
 73
     0
176
     1
 90
        2
176
     1
 40
0.6
176
     1
 41
30.0
176
     1
 62
     5
 63
     7
421
 16777215
176
     1
 74
     0
176
     1
 91
        0
176
     1
 64
     7
176
     1
 65
   257
176
     1
 75
     1
176
     1
175
     1
176
     1
 42
1.0
176
     1
 92
        8
176
     1
 66
   257
176
     1
 43
1.0
176
     1
 76
     1
176
     1
 77
     6
176
     1
 78
     2
176
     1
 67
     7
176
     1
 79
     3
176
     1
170
     0
176
     1
171
     0
176
     1
290
     0
176
     1
 93
       13
176
     1
 44
0.0
176
     1
173
     0
176
     1
  0
VISUALSTYLE
  5
A41
102
{ACAD_REACTORS
330
A29
102
}
330
A29
100
AcDbVisualStyle
  2
Shaded
 70
    27
177
     2
291
     0
 71
     2
176
     1
 72
     2
176
     1
 73
     1
176
     1
 90
        2
176
     1
 40
0.6
176
     1
 41
30.0
176
     1
 62
     5
 63
     7
421
 16777215
176
     1
 74
     0
176
     1
 91
        4
176
     1
 64
     7
176
     1
 65
   257
176
     1
 75
     1
176
     1
175
     1
176
     1
 42
1.0
176
     1
 92
        8
176
     1
 66
   257
176
     1
 43
1.0
176
     1
 76
     1
176
     1
 77
     6
176
     1
 78
     2
176
     1
 67
     8
425
  7895160
176
     1
 79
     3
176
     1
170
     0
176
     1
171
     0
176
     1
290
     0
176
     1
 93
        5
176
     1
 44
0.0
176
     1
173
     0
176
     1
  0
VISUALSTYLE
  5
A40
102
{ACAD_REACTORS
330
A29
102
}
330
A29
100
AcDbVisualStyle
  2
Shaded with edges
 70
    26
177
     2
291
     0
 71
     2
176
     1
 72
     2
176
     1
 73
     1
176
     1
 90
        2
176
     1
 40
0.6
176
     1
 41
30.0
176
     1
 62
     5
 63
     7
421
 16777215
176
     1
 74
     1
176
     1
 91
       10
176
     1
 64
     7
176
     1
 65
   257
176
     1
 75
     2
176
     1
175
     1
176
     1
 42
1.0
176
     1
 92
        8
176
     1
 66
   257
176
     1
 43
1.0
176
     1
 76
     1
176
     1
 77
     6
176
     1
 78
     2
176
     1
 67
     7
176
     1
 79
     3
176
     1
170
     0
176
     1
171
     0
176
     1
290
     0
176
     1
 93
        5
176
     1
 44
0.0
176
     1
173
     0
176
     1
  0
VISUALSTYLE
  5
A3D
102
{ACAD_REACTORS
330
A29
102
}
330
A29
100
AcDbVisualStyle
  2
Shades of Gray
 70
    23
177
     2
291
     0
 71
     2
176
     1
 72
     2
176
     1
 73
     3
176
     1
 90
        0
176
     1
 40
0.6
176
     1
 41
30.0
176
     1
 62
     5
 63
     7
421
 16777215
176
     1
 74
     2
176
     1
 91
        2
176
     1
 64
     7
176
     1
 65
     7
176
     1
 75
     1
176
     1
175
     1
176
     1
 42
40.0
176
     1
 92
        8
176
     1
 66
     7
176
     1
 43
1.0
176
     1
 76
     1
176
     1
 77
     6
176
     1
 78
     2
176
     1
 67
     7
176
     1
 79
     3
176
     1
170
     0
176
     1
171
     0
176
     1
290
     0
176
     1
 93
        1
176
     1
 44
0.0
176
     1
173
     0
176
     1
  0
VISUALSTYLE
  5
A3E
102
{ACAD_REACTORS
330
A29
102
}
330
A29
100
AcDbVisualStyle
  2
Sketchy
 70
    24
177
     2
291
     0
 71
     1
176
     1
 72
     2
176
     1
 73
     2
176
     1
 90
        0
176
     1
 40
0.6
176
     1
 41
30.0
176
     1
 62
     5
 63
     7
421
 16777215
176
     1
 74
     2
176
     1
 91
        2
176
     1
 64
     7
176
     1
 65
     7
176
     1
 75
     1
176
     1
175
     1
176
     1
 42
40.0
176
     1
 92
       11
176
     1
 66
     7
176
     1
 43
1.0
176
     1
 76
     1
176
     1
 77
     6
176
     1
 78
     2
176
     1
 67
     7
176
     1
 79
     6
176
     1
170
     0
176
     1
171
     0
176
     1
290
     0
176
     1
 93
        1
176
     1
 44
0.0
176
     1
173
     0
176
     1
  0
VISUALSTYLE
  5
A36
102
{ACAD_REACTORS
330
A29
102
}
330
A29
100
AcDbVisualStyle
  2
Thicken
 70
    13
177
     2
291
     1
 71
     2
176
     1
 72
     2
176
     1
 73
     0
176
     1
 90
        0
176
     1
 40
0.6
176
     1
 41
30.0
176
     1
 62
     5
 63
     7
421
 16777215
176
     1
 74
     1
176
     1
 91
        4
176
     1
 64
     7
176
     1
 65
   257
176
     1
 75
     1
176
     1
175
     1
176
     1
 42
1.0
176
     1
 92
       12
176
     1
 66
     7
176
     1
 43
1.0
176
     1
 76
     1
176
     1
 77
     6
176
     1
 78
     2
176
     1
 67
     7
176
     1
 79
     5
176
     1
170
     0
176
     1
171
     0
176
     1
290
     0
176
     1
 93
        1
176
     1
 44
0.0
176
     1
173
     0
176
     1
  0
VISUALSTYLE
  5
A2F
102
{ACAD_REACTORS
330
A29
102
}
330
A29
100
AcDbVisualStyle
  2
Wireframe
 70
     5
177
     2
291
     0
 71
     0
176
     1
 72
     2
176
     1
 73
     0
176
     1
 90
        0
176
     1
 40
0.6
176
     1
 41
30.0
176
     1
 62
     5
 63
     7
421
 16777215
176
     1
 74
     1
176
     1
 91
        4
176
     1
 64
     7
176
     1
 65
   257
176
     1
 75
     1
176
     1
175
     1
176
     1
 42
1.0
176
     1
 92
        0
176
     1
 66
   257
176
     1
 43
1.0
176
     1
 76
     1
176
     1
 77
     6
176
     1
 78
     2
176
     1
 67
     7
176
     1
 79
     3
176
     1
170
     0
176
     1
171
     0
176
     1
290
     0
176
     1
 93
        1
176
     1
 44
0.0
176
     1
173
     0
176
     1
  0
VISUALSTYLE
  5
A3F
102
{ACAD_REACTORS
330
A29
102
}
330
A29
100
AcDbVisualStyle
  2
X-Ray
 70
    25
177
     2
291
     0
 71
     2
176
     1
 72
     2
176
     1
 73
     1
176
     1
 90
        1
176
     1
 40
0.5
176
     1
 41
30.0
176
     1
 62
     5
 63
     7
421
 16777215
176
     1
 74
     1
176
     1
 91
        0
176
     1
 64
     7
176
     1
 65
   257
176
     1
 75
     1
176
     1
175
     1
176
     1
 42
1.0
176
     1
 92
        8
176
     1
 66
     7
176
     1
 43
1.0
176
     1
 76
     1
176
     1
 77
     6
176
     1
 78
     2
176
     1
 67
     7
176
     1
 79
     3
176
     1
170
     0
176
     1
171
     0
176
     1
290
     0
176
     1
 93
       13
176
     1
 44
0.0
176
     1
173
     0
176
     1
  0
DICTIONARYVAR
  5
137E
102
{ACAD_REACTORS
330
3E1
102
}
330
3E1
100
DictionaryVariables
280
     0
  1
1:1
  0
DICTIONARYVAR
  5
A4C
102
{ACAD_REACTORS
330
3E1
102
}
330
3E1
100
DictionaryVariables
280
     0
  1
Standard
  0
DICTIONARYVAR
  5
A4B
102
{ACAD_REACTORS
330
3E1
102
}
330
3E1
100
DictionaryVariables
280
     0
  1
Standard
  0
DICTIONARYVAR
  5
14C8
102
{ACAD_REACTORS
330
3E1
102
}
330
3E1
100
DictionaryVariables
280
     0
  1
ByLayer
  0
DICTIONARYVAR
  5
A4D
102
{ACAD_REACTORS
330
3E1
102
}
330
3E1
100
DictionaryVariables
280
     0
  1
0
  0
DICTIONARYVAR
  5
3E2
102
{ACAD_REACTORS
330
3E1
102
}
330
3E1
100
DictionaryVariables
280
     0
  1
96
  0
DICTIONARYVAR
  5
2EB3
102
{ACAD_REACTORS
330
14C9
102
}
330
14C9
100
DictionaryVariables
280
     0
  1
0.261799
  0
DICTIONARYVAR
  5
2EB1
102
{ACAD_REACTORS
330
14C9
102
}
330
14C9
100
DictionaryVariables
280
     0
  1
10.000000
  0
DICTIONARYVAR
  5
2EB2
102
{ACAD_REACTORS
330
14C9
102
}
330
14C9
100
DictionaryVariables
280
     0
  1
6.000000
  0
DICTIONARYVAR
  5
2EB4
102
{ACAD_REACTORS
330
14C9
102
}
330
14C9
100
DictionaryVariables
280
     0
  1
0
  0
DICTIONARY
  5
3E8E
330
A47
100
AcDbDictionary
280
     1
281
     1
  3
ACAD_ROUNDTRIP_2008_TABLESTYLE_CELLSTYLEMAP
360
3E8F
  0
CELLSTYLEMAP
  5
3E8F
102
{ACAD_REACTORS
330
3E8E
102
}
330
3E8E
100
AcDbCellStyleMap
 90
        3
300
CELLSTYLE
  1
TABLEFORMAT_BEGIN
 90
        5
170
     1
 91
        0
 92
    32768
 62
   257
 93
        1
300
CONTENTFORMAT
  1
CONTENTFORMAT_BEGIN
 90
        0
 91
        0
 92
        4
 93
        0
300

 40
0.0
140
1.0
 94
        5
 62
     0
340
11
144
6.0
309
CONTENTFORMAT_END
171
     1
301
MARGIN
  1
CELLMARGIN_BEGIN
 40
1.5
 40
1.5
 40
1.5
 40
1.5
 40
1.5
 40
1.5
309
CELLMARGIN_END
 94
        6
 95
        1
302
GRIDFORMAT
  1
GRIDFORMAT_BEGIN
 90
        0
 91
        1
 62
     0
 92
       -2
340
14
 93
        0
 40
0.045
309
GRIDFORMAT_END
 95
        2
302
GRIDFORMAT
  1
GRIDFORMAT_BEGIN
 90
        0
 91
        1
 62
     0
 92
       -2
340
14
 93
        0
 40
0.045
309
GRIDFORMAT_END
 95
        4
302
GRIDFORMAT
  1
GRIDFORMAT_BEGIN
 90
        0
 91
        1
 62
     0
 92
       -2
340
14
 93
        0
 40
0.045
309
GRIDFORMAT_END
 95
        8
302
GRIDFORMAT
  1
GRIDFORMAT_BEGIN
 90
        0
 91
        1
 62
     0
 92
       -2
340
14
 93
        0
 40
0.045
309
GRIDFORMAT_END
 95
       16
302
GRIDFORMAT
  1
GRIDFORMAT_BEGIN
 90
        0
 91
        1
 62
     0
 92
       -2
340
14
 93
        0
 40
0.045
309
GRIDFORMAT_END
 95
       32
302
GRIDFORMAT
  1
GRIDFORMAT_BEGIN
 90
        0
 91
        1
 62
     0
 92
       -2
340
14
 93
        0
 40
0.045
309
GRIDFORMAT_END
309
TABLEFORMAT_END
  1
CELLSTYLE_BEGIN
 90
        1
 91
        1
300
_TITLE
309
CELLSTYLE_END
300
CELLSTYLE
  1
TABLEFORMAT_BEGIN
 90
        5
170
     1
 91
        0
 92
        0
 62
   257
 93
        1
300
CONTENTFORMAT
  1
CONTENTFORMAT_BEGIN
 90
        0
 91
        0
 92
        4
 93
        0
300

 40
0.0
140
1.0
 94
        5
 62
     0
340
11
144
4.5
309
CONTENTFORMAT_END
171
     1
301
MARGIN
  1
CELLMARGIN_BEGIN
 40
1.5
 40
1.5
 40
1.5
 40
1.5
 40
1.5
 40
1.5
309
CELLMARGIN_END
 94
        6
 95
        1
302
GRIDFORMAT
  1
GRIDFORMAT_BEGIN
 90
        0
 91
        1
 62
     0
 92
       -2
340
14
 93
        0
 40
0.045
309
GRIDFORMAT_END
 95
        2
302
GRIDFORMAT
  1
GRIDFORMAT_BEGIN
 90
        0
 91
        1
 62
     0
 92
       -2
340
14
 93
        0
 40
0.045
309
GRIDFORMAT_END
 95
        4
302
GRIDFORMAT
  1
GRIDFORMAT_BEGIN
 90
        0
 91
        1
 62
     0
 92
       -2
340
14
 93
        0
 40
0.045
309
GRIDFORMAT_END
 95
        8
302
GRIDFORMAT
  1
GRIDFORMAT_BEGIN
 90
        0
 91
        1
 62
     0
 92
       -2
340
14
 93
        0
 40
0.045
309
GRIDFORMAT_END
 95
       16
302
GRIDFORMAT
  1
GRIDFORMAT_BEGIN
 90
        0
 91
        1
 62
     0
 92
       -2
340
14
 93
        0
 40
0.045
309
GRIDFORMAT_END
 95
       32
302
GRIDFORMAT
  1
GRIDFORMAT_BEGIN
 90
        0
 91
        1
 62
     0
 92
       -2
340
14
 93
        0
 40
0.045
309
GRIDFORMAT_END
309
TABLEFORMAT_END
  1
CELLSTYLE_BEGIN
 90
        2
 91
        1
300
_HEADER
309
CELLSTYLE_END
300
CELLSTYLE
  1
TABLEFORMAT_BEGIN
 90
        5
170
     1
 91
        0
 92
        0
 62
   257
 93
        1
300
CONTENTFORMAT
  1
CONTENTFORMAT_BEGIN
 90
        0
 91
        0
 92
        4
 93
        0
300

 40
0.0
140
1.0
 94
        2
 62
     0
340
11
144
4.5
309
CONTENTFORMAT_END
171
     1
301
MARGIN
  1
CELLMARGIN_BEGIN
 40
1.5
 40
1.5
 40
1.5
 40
1.5
 40
1.5
 40
1.5
309
CELLMARGIN_END
 94
        6
 95
        1
302
GRIDFORMAT
  1
GRIDFORMAT_BEGIN
 90
        0
 91
        1
 62
     0
 92
       -2
340
14
 93
        0
 40
0.045
309
GRIDFORMAT_END
 95
        2
302
GRIDFORMAT
  1
GRIDFORMAT_BEGIN
 90
        0
 91
        1
 62
     0
 92
       -2
340
14
 93
        0
 40
0.045
309
GRIDFORMAT_END
 95
        4
302
GRIDFORMAT
  1
GRIDFORMAT_BEGIN
 90
        0
 91
        1
 62
     0
 92
       -2
340
14
 93
        0
 40
0.045
309
GRIDFORMAT_END
 95
        8
302
GRIDFORMAT
  1
GRIDFORMAT_BEGIN
 90
        0
 91
        1
 62
     0
 92
       -2
340
14
 93
        0
 40
0.045
309
GRIDFORMAT_END
 95
       16
302
GRIDFORMAT
  1
GRIDFORMAT_BEGIN
 90
        0
 91
        1
 62
     0
 92
       -2
340
14
 93
        0
 40
0.045
309
GRIDFORMAT_END
 95
       32
302
GRIDFORMAT
  1
GRIDFORMAT_BEGIN
 90
        0
 91
        1
 62
     0
 92
       -2
340
14
 93
        0
 40
0.045
309
GRIDFORMAT_END
309
TABLEFORMAT_END
  1
CELLSTYLE_BEGIN
 90
        3
 91
        2
300
_DATA
309
CELLSTYLE_END
  0
ENDSEC
  0
EOF
