  0
SECTION
  2
HEADER
  9
$ACADVER
  1
AC1024
  9
$ACADMAINTVER
 70
     6
  9
$DWGCODEPAGE
  3
ANSI_932
  9
$LASTSAVEDBY
  1
営業企画A
  9
$INSBASE
 10
0.0
 20
0.0
 30
0.0
  9
$EXTMIN
 10
0.0
 20
0.0
 30
0.0
  9
$EXTMAX
 10
292.0
 20
205.0
 30
0.0
  9
$LIMMIN
 10
0.0
 20
0.0
  9
$LIMMAX
 10
297.0
 20
210.0
  9
$ORTHOMODE
 70
     1
  9
$REGENMODE
 70
     1
  9
$FILLMODE
 70
     1
  9
$QTEXTMODE
 70
     0
  9
$MIRRTEXT
 70
     1
  9
$LTSCALE
 40
1.0
  9
$ATTMODE
 70
     1
  9
$TEXTSIZE
 40
2.5
  9
$TRACEWID
 40
1.0
  9
$TEXTSTYLE
  7
Standard
  9
$CLAYER
  8
寸法
  9
$CELTYPE
  6
Continuous
  9
$CECOLOR
 62
   256
  9
$CELTSCALE
 40
1.0
  9
$DISPSILH
 70
     0
  9
$DIMSCALE
 40
1.0
  9
$DIMASZ
 40
2.5
  9
$DIMEXO
 40
0.625
  9
$DIMDLI
 40
3.75
  9
$DIMRND
 40
0.0
  9
$DIMDLE
 40
0.0
  9
$DIMEXE
 40
1.25
  9
$DIMTP
 40
0.0
  9
$DIMTM
 40
0.0
  9
$DIMTXT
 40
2.5
  9
$DIMCEN
 40
0.0
  9
$DIMTSZ
 40
0.0
  9
$DIMTOL
 70
     0
  9
$DIMLIM
 70
     0
  9
$DIMTIH
 70
     1
  9
$DIMTOH
 70
     1
  9
$DIMSE1
 70
     0
  9
$DIMSE2
 70
     0
  9
$DIMTAD
 70
     1
  9
$DIMZIN
 70
     8
  9
$DIMBLK
  1

  9
$DIMASO
 70
     1
  9
$DIMSHO
 70
     1
  9
$DIMPOST
  1

  9
$DIMAPOST
  1

  9
$DIMALT
 70
     0
  9
$DIMALTD
 70
     3
  9
$DIMALTF
 40
0.03937007874016
  9
$DIMLFAC
 40
1.0
  9
$DIMTOFL
 70
     0
  9
$DIMTVP
 40
0.0
  9
$DIMTIX
 70
     0
  9
$DIMSOXD
 70
     0
  9
$DIMSAH
 70
     0
  9
$DIMBLK1
  1

  9
$DIMBLK2
  1

  9
$DIMSTYLE
  2
ISO-1
  9
$DIMCLRD
 70
     0
  9
$DIMCLRE
 70
     0
  9
$DIMCLRT
 70
     0
  9
$DIMTFAC
 40
1.0
  9
$DIMGAP
 40
0.625
  9
$DIMJUST
 70
     0
  9
$DIMSD1
 70
     0
  9
$DIMSD2
 70
     0
  9
$DIMTOLJ
 70
     0
  9
$DIMTZIN
 70
     8
  9
$DIMALTZ
 70
     0
  9
$DIMALTTZ
 70
     0
  9
$DIMUPT
 70
     1
  9
$DIMDEC
 70
     2
  9
$DIMTDEC
 70
     2
  9
$DIMALTU
 70
     2
  9
$DIMALTTD
 70
     3
  9
$DIMTXSTY
  7
Standard
  9
$DIMAUNIT
 70
     0
  9
$DIMADEC
 70
     0
  9
$DIMALTRND
 40
0.0
  9
$DIMAZIN
 70
     0
  9
$DIMDSEP
 70
    46
  9
$DIMATFIT
 70
     3
  9
$DIMFRAC
 70
     0
  9
$DIMLDRBLK
  1

  9
$DIMLUNIT
 70
     2
  9
$DIMLWD
 70
    -2
  9
$DIMLWE
 70
    -2
  9
$DIMTMOVE
 70
     2
  9
$DIMFXL
 40
1.0
  9
$DIMFXLON
 70
     0
  9
$DIMJOGANG
 40
0.7853981633974483
  9
$DIMTFILL
 70
     0
  9
$DIMTFILLCLR
 70
     0
  9
$DIMARCSYM
 70
     0
  9
$DIMLTYPE
  6

  9
$DIMLTEX1
  6

  9
$DIMLTEX2
  6

  9
$DIMTXTDIRECTION
 70
     0
  9
$LUNITS
 70
     2
  9
$LUPREC
 70
     4
  9
$SKETCHINC
 40
1.0
  9
$FILLETRAD
 40
0.2
  9
$AUNITS
 70
     0
  9
$AUPREC
 70
     0
  9
$MENU
  1
.
  9
$ELEVATION
 40
0.0
  9
$PELEVATION
 40
0.0
  9
$THICKNESS
 40
0.0
  9
$LIMCHECK
 70
     0
  9
$CHAMFERA
 40
10.0
  9
$CHAMFERB
 40
10.0
  9
$CHAMFERC
 40
20.0
  9
$CHAMFERD
 40
0.0
  9
$SKPOLY
 70
     0
  9
$TDCREATE
 40
2453866.557479954
  9
$TDUCREATE
 40
2453866.182479954
  9
$TDUPDATE
 40
2459762.686505729
  9
$TDUUPDATE
 40
2459762.311505729
  9
$TDINDWG
 40
0.5810592593
  9
$TDUSRTIMER
 40
0.0003763542
  9
$USRTIMER
 70
     1
  9
$ANGBASE
 50
0.0
  9
$ANGDIR
 70
     0
  9
$PDMODE
 70
     0
  9
$PDSIZE
 40
0.0
  9
$PLINEWID
 40
0.0
  9
$SPLFRAME
 70
     0
  9
$SPLINETYPE
 70
     6
  9
$SPLINESEGS
 70
     8
  9
$HANDSEED
  5
3F61
  9
$SURFTAB1
 70
     6
  9
$SURFTAB2
 70
     6
  9
$SURFTYPE
 70
     6
  9
$SURFU
 70
     6
  9
$SURFV
 70
     6
  9
$UCSBASE
  2

  9
$UCSNAME
  2

  9
$UCSORG
 10
0.0
 20
0.0
 30
0.0
  9
$UCSXDIR
 10
1.0
 20
0.0
 30
0.0
  9
$UCSYDIR
 10
0.0
 20
1.0
 30
0.0
  9
$UCSORTHOREF
  2

  9
$UCSORTHOVIEW
 70
     0
  9
$UCSORGTOP
 10
0.0
 20
0.0
 30
0.0
  9
$UCSORGBOTTOM
 10
0.0
 20
0.0
 30
0.0
  9
$UCSORGLEFT
 10
0.0
 20
0.0
 30
0.0
  9
$UCSORGRIGHT
 10
0.0
 20
0.0
 30
0.0
  9
$UCSORGFRONT
 10
0.0
 20
0.0
 30
0.0
  9
$UCSORGBACK
 10
0.0
 20
0.0
 30
0.0
  9
$PUCSBASE
  2

  9
$PUCSNAME
  2

  9
$PUCSORG
 10
0.0
 20
0.0
 30
0.0
  9
$PUCSXDIR
 10
1.0
 20
0.0
 30
0.0
  9
$PUCSYDIR
 10
0.0
 20
1.0
 30
0.0
  9
$PUCSORTHOREF
  2

  9
$PUCSORTHOVIEW
 70
     0
  9
$PUCSORGTOP
 10
0.0
 20
0.0
 30
0.0
  9
$PUCSORGBOTTOM
 10
0.0
 20
0.0
 30
0.0
  9
$PUCSORGLEFT
 10
0.0
 20
0.0
 30
0.0
  9
$PUCSORGRIGHT
 10
0.0
 20
0.0
 30
0.0
  9
$PUCSORGFRONT
 10
0.0
 20
0.0
 30
0.0
  9
$PUCSORGBACK
 10
0.0
 20
0.0
 30
0.0
  9
$USERI1
 70
     0
  9
$USERI2
 70
     0
  9
$USERI3
 70
     0
  9
$USERI4
 70
     0
  9
$USERI5
 70
     0
  9
$USERR1
 40
0.0
  9
$USERR2
 40
0.0
  9
$USERR3
 40
0.0
  9
$USERR4
 40
0.0
  9
$USERR5
 40
0.0
  9
$WORLDVIEW
 70
     1
  9
$SHADEDGE
 70
     3
  9
$SHADEDIF
 70
    70
  9
$TILEMODE
 70
     1
  9
$MAXACTVP
 70
    64
  9
$PINSBASE
 10
0.0
 20
0.0
 30
0.0
  9
$PLIMCHECK
 70
     0
  9
$PEXTMIN
 10
1.000000000000000E+20
 20
1.000000000000000E+20
 30
1.000000000000000E+20
  9
$PEXTMAX
 10
-1.000000000000000E+20
 20
-1.000000000000000E+20
 30
-1.000000000000000E+20
  9
$PLIMMIN
 10
0.0
 20
0.0
  9
$PLIMMAX
 10
0.0
 20
0.0
  9
$UNITMODE
 70
     0
  9
$VISRETAIN
 70
     1
  9
$PLINEGEN
 70
     0
  9
$PSLTSCALE
 70
     1
  9
$TREEDEPTH
 70
  3020
  9
$CMLSTYLE
  2
Standard
  9
$CMLJUST
 70
     0
  9
$CMLSCALE
 40
20.0
  9
$PROXYGRAPHICS
 70
     1
  9
$MEASUREMENT
 70
     1
  9
$CELWEIGHT
370
    -1
  9
$ENDCAPS
280
     0
  9
$JOINSTYLE
280
     0
  9
$LWDISPLAY
290
     0
  9
$INSUNITS
 70
     4
  9
$HYPERLINKBASE
  1

  9
$STYLESHEET
  1

  9
$XEDIT
290
     1
  9
$CEPSNTYPE
380
     0
  9
$PSTYLEMODE
290
     1
  9
$FINGERPRINTGUID
  2
{49B20B3B-064E-400B-9469-2837C497CFA5}
  9
$VERSIONGUID
  2
{CCDC3A7D-9D77-4BF9-B421-98E64B28052D}
  9
$EXTNAMES
290
     1
  9
$PSVPSCALE
 40
0.0
  9
$OLESTARTUP
290
     0
  9
$SORTENTS
280
    96
  9
$INDEXCTL
280
     0
  9
$HIDETEXT
280
     1
  9
$XCLIPFRAME
280
     2
  9
$HALOGAP
280
     0
  9
$OBSCOLOR
 70
   257
  9
$OBSLTYPE
280
     0
  9
$INTERSECTIONDISPLAY
280
     0
  9
$INTERSECTIONCOLOR
 70
   257
  9
$DIMASSOC
280
     2
  9
$PROJECTNAME
  1

  9
$CAMERADISPLAY
290
     0
  9
$LENSLENGTH
 40
50.0
  9
$CAMERAHEIGHT
 40
0.0
  9
$STEPSPERSEC
 40
2.0
  9
$STEPSIZE
 40
6.0
  9
$3DDWFPREC
 40
2.0
  9
$PSOLWIDTH
 40
0.25
  9
$PSOLHEIGHT
 40
4.0
  9
$LOFTANG1
 40
1.570796326794897
  9
$LOFTANG2
 40
1.570796326794897
  9
$LOFTMAG1
 40
0.0
  9
$LOFTMAG2
 40
0.0
  9
$LOFTPARAM
 70
     7
  9
$LOFTNORMALS
280
     1
  9
$LATITUDE
 40
37.795
  9
$LONGITUDE
 40
-122.394
  9
$NORTHDIRECTION
 40
0.0
  9
$TIMEZONE
 70
 -8000
  9
$LIGHTGLYPHDISPLAY
280
     1
  9
$TILEMODELIGHTSYNCH
280
     1
  9
$SOLIDHIST
280
     0
  9
$SHOWHIST
280
     1
  9
$DWFFRAME
280
     2
  9
$DGNFRAME
280
     2
  9
$REALWORLDSCALE
290
     1
  9
$INTERFERECOLOR
 62
   256
  9
$CSHADOW
280
     0
  9
$SHADOWPLANELOCATION
 40
0.0
  0
ENDSEC
  0
SECTION
  2
CLASSES
  0
CLASS
  1
ACDBDICTIONARYWDFLT
  2
AcDbDictionaryWithDefault
  3
ObjectDBX Classes
 90
        0
 91
        3
280
     0
281
     0
  0
CLASS
  1
ACDBPLACEHOLDER
  2
AcDbPlaceHolder
  3
ObjectDBX Classes
 90
        0
 91
        1
280
     0
281
     0
  0
CLASS
  1
LAYOUT
  2
AcDbLayout
  3
ObjectDBX Classes
 90
        0
 91
        1
280
     0
281
     0
  0
CLASS
  1
DICTIONARYVAR
  2
AcDbDictionaryVar
  3
ObjectDBX Classes
 90
        0
 91
        3
280
     0
281
     0
  0
CLASS
  1
SCALE
  2
AcDbScale
  3
ObjectDBX Classes
 90
     1153
 91
        3
280
     0
281
     0
  0
CLASS
  1
MATERIAL
  2
AcDbMaterial
  3
ObjectDBX Classes
 90
     1153
 91
        3
280
     0
281
     0
  0
CLASS
  1
VISUALSTYLE
  2
AcDbVisualStyle
  3
ObjectDBX Classes
 90
     4095
 91
        3
280
     0
281
     0
  0
CLASS
  1
TABLESTYLE
  2
AcDbTableStyle
  3
ObjectDBX Classes
 90
     4095
 91
        3
280
     0
281
     0
  0
CLASS
  1
RASTERVARIABLES
  2
AcDbRasterVariables
  3
ISM
 90
        0
 91
        3
280
     0
281
     0
  0
CLASS
  1
DIMASSOC
  2
AcDbDimAssoc
  3
"AcDbDimAssoc|Product Desc:     AcDim ARX App For Dimension|Company:          Autodesk, Inc.|WEB Address:      www.autodesk.com"
 90
        0
 91
        3
280
     0
281
     0
  0
CLASS
  1
MLEADERSTYLE
  2
AcDbMLeaderStyle
  3
ACDB_MLEADERSTYLE_CLASS
 90
     4095
 91
        3
280
     0
281
     0
  0
CLASS
  1
SUN
  2
AcDbSun
  3
SCENEOE
 90
     1153
 91
        3
280
     0
281
     0
  0
CLASS
  1
CELLSTYLEMAP
  2
AcDbCellStyleMap
  3
ObjectDBX Classes
 90
     1152
 91
        3
280
     0
281
     0
  0
ENDSEC
  0
SECTION
  2
TABLES
  0
TABLE
  2
VPORT
  5
8
330
0
100
AcDbSymbolTable
 70
     1
  0
VPORT
  5
934
330
8
100
AcDbSymbolTableRecord
100
AcDbViewportTableRecord
  2
*Active
 70
     0
 10
0.0
 20
0.0
 11
1.0
 21
1.0
 12
146.0
 22
102.5
 13
0.0
 23
0.0
 14
10.0
 24
10.0
 15
10.0
 25
10.0
 16
0.0
 26
0.0
 36
1.0
 17
0.0
 27
0.0
 37
0.0
 40
209.1
 41
1.737931034482759
 42
50.0
 43
0.0
 44
0.0
 50
0.0
 51
0.0
 71
    16
 72
   100
 73
     1
 74
     3
 75
     0
 76
     0
 77
     0
 78
     0
281
     0
 65
     1
110
0.0
120
0.0
130
0.0
111
1.0
121
0.0
131
0.0
112
0.0
122
1.0
132
0.0
 79
     0
146
0.0
348
A2E
 60
     3
 61
     5
292
     1
282
     1
141
0.0
142
0.0
 63
   256
361
A4A
  0
ENDTAB
  0
TABLE
  2
LTYPE
  5
5
330
0
100
AcDbSymbolTable
 70
     5
  0
LTYPE
  5
14
330
5
100
AcDbSymbolTableRecord
100
AcDbLinetypeTableRecord
  2
ByBlock
 70
     0
  3

 72
    65
 73
     0
 40
0.0
  0
LTYPE
  5
15
330
5
100
AcDbSymbolTableRecord
100
AcDbLinetypeTableRecord
  2
ByLayer
 70
     0
  3

 72
    65
 73
     0
 40
0.0
  0
LTYPE
  5
16
330
5
100
AcDbSymbolTableRecord
100
AcDbLinetypeTableRecord
  2
Continuous
 70
     0
  3
Solid line
 72
    65
 73
     0
 40
0.0
  0
LTYPE
  5
C6
330
5
100
AcDbSymbolTableRecord
100
AcDbLinetypeTableRecord
  2
ACAD_ISO02W100
 70
     0
  3
ISO dash __ __ __ __ __ __ __ __ __ __ __ __ __
 72
    65
 73
     2
 40
15.0
 49
12.0
 74
     0
 49
-3.0
 74
     0
  0
LTYPE
  5
63F
330
5
100
AcDbSymbolTableRecord
100
AcDbLinetypeTableRecord
  2
HIDDEN
 70
     0
  3
Hidden __ __ __ __ __ __ __ __ __ __ __ __ __ _
 72
    65
 73
     2
 40
4.5
 49
3.0
 74
     0
 49
-1.5
 74
     0
  0
LTYPE
  5
7A5
330
5
100
AcDbSymbolTableRecord
100
AcDbLinetypeTableRecord
  2
ACAD_ISO07W100
 70
     0
  3
ISO dot . . . . . . . . . . . . . . . . . . . .
 72
    65
 73
     2
 40
3.0
 49
0.0
 74
     0
 49
-3.0
 74
     0
  0
LTYPE
  5
A8D
330
5
100
AcDbSymbolTableRecord
100
AcDbLinetypeTableRecord
  2
CENTER2
 70
     0
  3
Center (.5x) ___ _ ___ _ ___ _ ___ _ ___ _ ___
 72
    65
 73
     4
 40
28.575
 49
19.05
 74
     0
 49
-3.175
 74
     0
 49
3.175
 74
     0
 49
-3.175
 74
     0
  0
ENDTAB
  0
TABLE
  2
LAYER
  5
2
102
{ACAD_XDICTIONARY
360
970
102
}
330
0
100
AcDbSymbolTable
 70
    17
  0
LAYER
  5
10
330
2
100
AcDbSymbolTableRecord
100
AcDbLayerTableRecord
  2
0
 70
     0
 62
     7
  6
Continuous
370
    -3
390
F
347
A45
  0
LAYER
  5
110
330
2
100
AcDbSymbolTableRecord
100
AcDbLayerTableRecord
  2
Defpoints
 70
     0
 62
     7
  6
Continuous
290
     0
370
    -3
390
F
347
A45
  0
LAYER
  5
4E7
330
2
100
AcDbSymbolTableRecord
100
AcDbLayerTableRecord
  2
100
 70
     0
 62
     7
  6
ACAD_ISO07W100
370
    -3
390
F
347
A45
  0
LAYER
  5
68D
330
2
100
AcDbSymbolTableRecord
100
AcDbLayerTableRecord
  2
用紙範囲
 70
     0
 62
    10
  6
Continuous
370
    -3
390
F
347
A45
  0
LAYER
  5
68E
330
2
100
AcDbSymbolTableRecord
100
AcDbLayerTableRecord
  2
枠
 70
     0
 62
   112
  6
Continuous
370
    -3
390
F
347
A45
  0
LAYER
  5
68F
330
2
100
AcDbSymbolTableRecord
100
AcDbLayerTableRecord
  2
寸法
 70
     0
 62
    90
  6
Continuous
370
    -3
390
F
347
A45
  0
LAYER
  5
690
330
2
100
AcDbSymbolTableRecord
100
AcDbLayerTableRecord
  2
金属部分
 70
     0
 62
   170
  6
Continuous
370
    -3
390
F
347
A45
  0
LAYER
  5
691
330
2
100
AcDbSymbolTableRecord
100
AcDbLayerTableRecord
  2
品番
 70
     0
 62
   244
  6
Continuous
370
    -3
390
F
347
A45
  0
LAYER
  5
786
330
2
100
AcDbSymbolTableRecord
100
AcDbLayerTableRecord
  2
文字
 70
     0
 62
    40
  6
Continuous
370
    -3
390
F
347
A45
  0
LAYER
  5
790
330
2
100
AcDbSymbolTableRecord
100
AcDbLayerTableRecord
  2
社名
 70
     0
 62
     1
  6
Continuous
370
    -3
390
F
347
A45
  0
LAYER
  5
880
330
2
100
AcDbSymbolTableRecord
100
AcDbLayerTableRecord
  2
軟質樹脂部分
 70
     0
 62
    30
  6
Continuous
370
    -3
390
F
347
A45
  0
LAYER
  5
896
330
2
100
AcDbSymbolTableRecord
100
AcDbLayerTableRecord
  2
TOS_M1
 70
     0
 62
     7
  6
Continuous
370
    -3
390
F
347
A45
  0
LAYER
  5
897
330
2
100
AcDbSymbolTableRecord
100
AcDbLayerTableRecord
  2
TOS_S1
 70
     0
 62
     4
  6
Continuous
370
    -3
390
F
347
A45
  0
LAYER
  5
A57
330
2
100
AcDbSymbolTableRecord
100
AcDbLayerTableRecord
  2
補助
 70
     0
 62
     7
  6
HIDDEN
370
    -3
390
F
347
A45
1001
AcAecLayerStandard
1000

1000

  0
LAYER
  5
A86
102
{ACAD_XDICTIONARY
360
A87
102
}
330
2
100
AcDbSymbolTableRecord
100
AcDbLayerTableRecord
  2
SCALE
 70
     0
 62
     3
  6
Continuous
370
    -3
390
F
347
A45
  0
LAYER
  5
A8A
102
{ACAD_XDICTIONARY
360
A8B
102
}
330
2
100
AcDbSymbolTableRecord
100
AcDbLayerTableRecord
  2
Hojo
 70
     0
 62
   111
  6
Continuous
370
    -3
390
F
347
A45
  0
LAYER
  5
2076
330
2
100
AcDbSymbolTableRecord
100
AcDbLayerTableRecord
  2
硬質樹脂部分
 70
     0
 62
   220
  6
Continuous
370
    -3
390
F
347
A45
1001
AcAecLayerStandard
1000

1000

  0
ENDTAB
  0
TABLE
  2
STYLE
  5
3
330
0
100
AcDbSymbolTable
 70
     2
  0
STYLE
  5
11
330
3
100
AcDbSymbolTableRecord
100
AcDbTextStyleTableRecord
  2
Standard
 70
     0
 40
0.0
 41
1.0
 50
0.0
 71
     0
 42
2.5
  3
txt.shx
  4
bigfont.shx
  0
STYLE
  5
C5
330
3
100
AcDbSymbolTableRecord
100
AcDbTextStyleTableRecord
  2

 70
     1
 40
0.0
 41
1.0
 50
0.0
 71
     0
 42
2.5
  3
ltypeshp.shx
  4

  0
ENDTAB
  0
TABLE
  2
VIEW
  5
6
330
0
100
AcDbSymbolTable
 70
     0
  0
ENDTAB
  0
TABLE
  2
UCS
  5
7
330
0
100
AcDbSymbolTable
 70
     0
  0
ENDTAB
  0
TABLE
  2
APPID
  5
9
330
0
100
AcDbSymbolTable
 70
     6
  0
APPID
  5
12
330
9
100
AcDbSymbolTableRecord
100
AcDbRegAppTableRecord
  2
ACAD
 70
     0
  0
APPID
  5
A58
330
9
100
AcDbSymbolTableRecord
100
AcDbRegAppTableRecord
  2
AcAecLayerStandard
 70
     0
  0
APPID
  5
A97
330
9
100
AcDbSymbolTableRecord
100
AcDbRegAppTableRecord
  2
ACAD_NAV_VCDISPLAY
 70
     0
  0
APPID
  5
A98
330
9
100
AcDbSymbolTableRecord
100
AcDbRegAppTableRecord
  2
ACAD_PSEXT
 70
     0
  0
APPID
  5
B15
330
9
100
AcDbSymbolTableRecord
100
AcDbRegAppTableRecord
  2
ACAD_DSTYLE_DIMRADIAL_EXTENSION
 70
     0
  0
APPID
  5
39D7
330
9
100
AcDbSymbolTableRecord
100
AcDbRegAppTableRecord
  2
PLOTTRANSPARENCY
 70
     0
  0
ENDTAB
  0
TABLE
  2
DIMSTYLE
  5
A
330
0
100
AcDbSymbolTable
 70
     4
100
AcDbDimStyleTable
  0
DIMSTYLE
105
27
102
{ACAD_REACTORS
102
}
330
A
100
AcDbSymbolTableRecord
100
AcDbDimStyleTableRecord
  2
ISO-25
 70
     0
 41
2.5
 42
0.625
 43
3.75
 44
1.25
 77
     1
 78
     8
140
2.5
141
2.5
143
0.03937007874016
147
0.625
171
     3
178
     0
271
     2
272
     2
274
     3
279
     2
283
     0
284
     8
288
     1
340
11
  0
DIMSTYLE
105
4E8
330
A
100
AcDbSymbolTableRecord
100
AcDbDimStyleTableRecord
  2
Standard
 70
     0
178
     0
340
11
  0
DIMSTYLE
105
14C6
102
{ACAD_REACTORS
330
3E6B
330
3E70
330
3E79
330
3E7C
330
3E7F
330
3E82
330
3E86
330
3E88
102
}
330
A
100
AcDbSymbolTableRecord
100
AcDbDimStyleTableRecord
  2
ISO-1
 70
     0
 41
2.5
 42
0.625
 43
3.75
 44
1.25
 77
     1
 78
     8
140
2.5
141
0.0
143
0.03937007874016
147
0.625
171
     3
178
     0
271
     2
272
     2
274
     3
279
     2
283
     0
284
     8
288
     1
340
11
  0
DIMSTYLE
105
2BCC
330
A
100
AcDbSymbolTableRecord
100
AcDbDimStyleTableRecord
  2
ISO-2
 70
     0
 41
2.5
 42
0.625
 43
3.75
 44
1.25
 77
     1
 78
     8
140
5.0
141
0.0
143
0.03937007874016
147
0.625
171
     3
178
     0
271
     2
272
     2
274
     3
279
     2
283
     0
284
     8
288
     1
340
11
  0
ENDTAB
  0
TABLE
  2
BLOCK_RECORD
  5
1
330
0
100
AcDbSymbolTable
 70
    74
  0
BLOCK_RECORD
  5
1F
330
1
100
AcDbSymbolTableRecord
100
AcDbBlockTableRecord
  2
*Model_Space
340
22
 70
     0
280
     1
281
     0
  0
BLOCK_RECORD
  5
1B
330
1
100
AcDbSymbolTableRecord
100
AcDbBlockTableRecord
  2
*Paper_Space
340
1E
 70
     0
280
     1
281
     0
  0
BLOCK_RECORD
  5
23
330
1
100
AcDbSymbolTableRecord
100
AcDbBlockTableRecord
  2
*Paper_Space0
340
26
 70
     0
280
     1
281
     0
  0
BLOCK_RECORD
  5
A91
330
1
100
AcDbSymbolTableRecord
100
AcDbBlockTableRecord
  2
_OPEN
340
0
 70
     0
280
     1
281
     0
  0
BLOCK_RECORD
  5
245E
330
1
100
AcDbSymbolTableRecord
100
AcDbBlockTableRecord
  2
*D2
340
0
 70
     0
280
     1
281
     0
  0
BLOCK_RECORD
  5
246E
330
1
100
AcDbSymbolTableRecord
100
AcDbBlockTableRecord
  2
*D3
340
0
 70
     0
280
     1
281
     0
  0
BLOCK_RECORD
  5
248E
330
1
100
AcDbSymbolTableRecord
100
AcDbBlockTableRecord
  2
*D4
340
0
 70
     0
280
     1
281
     0
  0
BLOCK_RECORD
  5
249E
330
1
100
AcDbSymbolTableRecord
100
AcDbBlockTableRecord
  2
*D5
340
0
 70
     0
280
     1
281
     0
  0
BLOCK_RECORD
  5
24AE
330
1
100
AcDbSymbolTableRecord
100
AcDbBlockTableRecord
  2
*D6
340
0
 70
     0
280
     1
281
     0
  0
BLOCK_RECORD
  5
24BE
330
1
100
AcDbSymbolTableRecord
100
AcDbBlockTableRecord
  2
*D7
340
0
 70
     0
280
     1
281
     0
  0
BLOCK_RECORD
  5
24DF
330
1
100
AcDbSymbolTableRecord
100
AcDbBlockTableRecord
  2
*D8
340
0
 70
     0
280
     1
281
     0
  0
BLOCK_RECORD
  5
24EF
330
1
100
AcDbSymbolTableRecord
100
AcDbBlockTableRecord
  2
*D9
340
0
 70
     0
280
     1
281
     0
  0
BLOCK_RECORD
  5
2551
330
1
100
AcDbSymbolTableRecord
100
AcDbBlockTableRecord
  2
*D10
340
0
 70
     0
280
     1
281
     0
  0
BLOCK_RECORD
  5
2571
330
1
100
AcDbSymbolTableRecord
100
AcDbBlockTableRecord
  2
*D11
340
0
 70
     0
280
     1
281
     0
  0
BLOCK_RECORD
  5
2581
330
1
100
AcDbSymbolTableRecord
100
AcDbBlockTableRecord
  2
*D12
340
0
 70
     0
280
     1
281
     0
  0
BLOCK_RECORD
  5
25A1
330
1
100
AcDbSymbolTableRecord
100
AcDbBlockTableRecord
  2
*D13
340
0
 70
     0
280
     1
281
     0
  0
BLOCK_RECORD
  5
25B1
330
1
100
AcDbSymbolTableRecord
100
AcDbBlockTableRecord
  2
*D14
340
0
 70
     0
280
     1
281
     0
  0
BLOCK_RECORD
  5
25C0
330
1
100
AcDbSymbolTableRecord
100
AcDbBlockTableRecord
  2
*D15
340
0
 70
     0
280
     1
281
     0
  0
BLOCK_RECORD
  5
25CF
330
1
100
AcDbSymbolTableRecord
100
AcDbBlockTableRecord
  2
*D16
340
0
 70
     0
280
     1
281
     0
  0
BLOCK_RECORD
  5
25DF
330
1
100
AcDbSymbolTableRecord
100
AcDbBlockTableRecord
  2
*D17
340
0
 70
     0
280
     1
281
     0
  0
BLOCK_RECORD
  5
25EF
330
1
100
AcDbSymbolTableRecord
100
AcDbBlockTableRecord
  2
*D18
340
0
 70
     0
280
     1
281
     0
  0
BLOCK_RECORD
  5
2600
330
1
100
AcDbSymbolTableRecord
100
AcDbBlockTableRecord
  2
*D19
340
0
 70
     0
280
     1
281
     0
  0
BLOCK_RECORD
  5
2610
330
1
100
AcDbSymbolTableRecord
100
AcDbBlockTableRecord
  2
*D20
340
0
 70
     0
280
     1
281
     0
  0
BLOCK_RECORD
  5
2640
330
1
100
AcDbSymbolTableRecord
100
AcDbBlockTableRecord
  2
*D21
340
0
 70
     0
280
     1
281
     0
  0
BLOCK_RECORD
  5
2671
330
1
100
AcDbSymbolTableRecord
100
AcDbBlockTableRecord
  2
*D22
340
0
 70
     0
280
     1
281
     0
  0
BLOCK_RECORD
  5
2682
330
1
100
AcDbSymbolTableRecord
100
AcDbBlockTableRecord
  2
*D23
340
0
 70
     0
280
     1
281
     0
  0
BLOCK_RECORD
  5
2692
330
1
100
AcDbSymbolTableRecord
100
AcDbBlockTableRecord
  2
*D24
340
0
 70
     0
280
     1
281
     0
  0
BLOCK_RECORD
  5
26A2
330
1
100
AcDbSymbolTableRecord
100
AcDbBlockTableRecord
  2
*D25
340
0
 70
     0
280
     1
281
     0
  0
BLOCK_RECORD
  5
26B2
330
1
100
AcDbSymbolTableRecord
100
AcDbBlockTableRecord
  2
*D26
340
0
 70
     0
280
     1
281
     0
  0
BLOCK_RECORD
  5
26C2
330
1
100
AcDbSymbolTableRecord
100
AcDbBlockTableRecord
  2
*D27
340
0
 70
     0
280
     1
281
     0
  0
BLOCK_RECORD
  5
2738
330
1
100
AcDbSymbolTableRecord
100
AcDbBlockTableRecord
  2
*D28
340
0
 70
     0
280
     1
281
     0
  0
BLOCK_RECORD
  5
2748
330
1
100
AcDbSymbolTableRecord
100
AcDbBlockTableRecord
  2
*D29
340
0
 70
     0
280
     1
281
     0
  0
BLOCK_RECORD
  5
2780
330
1
100
AcDbSymbolTableRecord
100
AcDbBlockTableRecord
  2
*D30
340
0
 70
     0
280
     1
281
     0
  0
BLOCK_RECORD
  5
28D1
330
1
100
AcDbSymbolTableRecord
100
AcDbBlockTableRecord
  2
*D31
340
0
 70
     0
280
     1
281
     0
  0
BLOCK_RECORD
  5
2BE6
330
1
100
AcDbSymbolTableRecord
100
AcDbBlockTableRecord
  2
*D32
340
0
 70
     0
280
     1
281
     0
  0
BLOCK_RECORD
  5
2BF6
330
1
100
AcDbSymbolTableRecord
100
AcDbBlockTableRecord
  2
*D33
340
0
 70
     0
280
     1
281
     0
  0
BLOCK_RECORD
  5
2EA6
330
1
100
AcDbSymbolTableRecord
100
AcDbBlockTableRecord
  2
*D34
340
0
 70
     0
280
     1
281
     0
  0
BLOCK_RECORD
  5
2EB3
330
1
100
AcDbSymbolTableRecord
100
AcDbBlockTableRecord
  2
*D35
340
0
 70
     0
280
     1
281
     0
  0
BLOCK_RECORD
  5
2EC4
330
1
100
AcDbSymbolTableRecord
100
AcDbBlockTableRecord
  2
*D36
340
0
 70
     0
280
     1
281
     0
  0
BLOCK_RECORD
  5
399B
330
1
100
AcDbSymbolTableRecord
100
AcDbBlockTableRecord
  2
*D37
340
0
 70
     0
280
     1
281
     0
  0
BLOCK_RECORD
  5
3AC1
330
1
100
AcDbSymbolTableRecord
100
AcDbBlockTableRecord
  2
*D38
340
0
 70
     0
280
     1
281
     0
  0
BLOCK_RECORD
  5
3AD1
330
1
100
AcDbSymbolTableRecord
100
AcDbBlockTableRecord
  2
*D39
340
0
 70
     0
280
     1
281
     0
  0
BLOCK_RECORD
  5
3AE1
330
1
100
AcDbSymbolTableRecord
100
AcDbBlockTableRecord
  2
*D40
340
0
 70
     0
280
     1
281
     0
  0
BLOCK_RECORD
  5
3B12
330
1
100
AcDbSymbolTableRecord
100
AcDbBlockTableRecord
  2
*D41
340
0
 70
     0
280
     1
281
     0
  0
BLOCK_RECORD
  5
3B22
330
1
100
AcDbSymbolTableRecord
100
AcDbBlockTableRecord
  2
*D42
340
0
 70
     0
280
     1
281
     0
  0
BLOCK_RECORD
  5
3B32
330
1
100
AcDbSymbolTableRecord
100
AcDbBlockTableRecord
  2
*D43
340
0
 70
     0
280
     1
281
     0
  0
BLOCK_RECORD
  5
3B42
330
1
100
AcDbSymbolTableRecord
100
AcDbBlockTableRecord
  2
*D44
340
0
 70
     0
280
     1
281
     0
  0
BLOCK_RECORD
  5
3BE7
330
1
100
AcDbSymbolTableRecord
100
AcDbBlockTableRecord
  2
*D45
340
0
 70
     0
280
     1
281
     0
  0
BLOCK_RECORD
  5
3BF6
330
1
100
AcDbSymbolTableRecord
100
AcDbBlockTableRecord
  2
*D46
340
0
 70
     0
280
     1
281
     0
  0
BLOCK_RECORD
  5
3C06
330
1
100
AcDbSymbolTableRecord
100
AcDbBlockTableRecord
  2
*D47
340
0
 70
     0
280
     1
281
     0
  0
BLOCK_RECORD
  5
3C1C
330
1
100
AcDbSymbolTableRecord
100
AcDbBlockTableRecord
  2
*D48
340
0
 70
     0
280
     1
281
     0
  0
BLOCK_RECORD
  5
3C2C
330
1
100
AcDbSymbolTableRecord
100
AcDbBlockTableRecord
  2
*D49
340
0
 70
     0
280
     1
281
     0
  0
BLOCK_RECORD
  5
3C3C
330
1
100
AcDbSymbolTableRecord
100
AcDbBlockTableRecord
  2
*D50
340
0
 70
     0
280
     1
281
     0
  0
BLOCK_RECORD
  5
3C4C
330
1
100
AcDbSymbolTableRecord
100
AcDbBlockTableRecord
  2
*D51
340
0
 70
     0
280
     1
281
     0
  0
BLOCK_RECORD
  5
3CD4
330
1
100
AcDbSymbolTableRecord
100
AcDbBlockTableRecord
  2
*D52
340
0
 70
     0
280
     1
281
     0
  0
BLOCK_RECORD
  5
3CE1
330
1
100
AcDbSymbolTableRecord
100
AcDbBlockTableRecord
  2
*D53
340
0
 70
     0
280
     1
281
     0
  0
BLOCK_RECORD
  5
3CEE
330
1
100
AcDbSymbolTableRecord
100
AcDbBlockTableRecord
  2
*D54
340
0
 70
     0
280
     1
281
     0
  0
BLOCK_RECORD
  5
3CFB
330
1
100
AcDbSymbolTableRecord
100
AcDbBlockTableRecord
  2
*D55
340
0
 70
     0
280
     1
281
     0
  0
BLOCK_RECORD
  5
3D08
330
1
100
AcDbSymbolTableRecord
100
AcDbBlockTableRecord
  2
*D56
340
0
 70
     0
280
     1
281
     0
  0
BLOCK_RECORD
  5
3D15
330
1
100
AcDbSymbolTableRecord
100
AcDbBlockTableRecord
  2
*D57
340
0
 70
     0
280
     1
281
     0
  0
BLOCK_RECORD
  5
3D22
330
1
100
AcDbSymbolTableRecord
100
AcDbBlockTableRecord
  2
*D58
340
0
 70
     0
280
     1
281
     0
  0
BLOCK_RECORD
  5
3D9D
330
1
100
AcDbSymbolTableRecord
100
AcDbBlockTableRecord
  2
*D59
340
0
 70
     0
280
     1
281
     0
  0
BLOCK_RECORD
  5
3DAC
330
1
100
AcDbSymbolTableRecord
100
AcDbBlockTableRecord
  2
*D60
340
0
 70
     0
280
     1
281
     0
  0
BLOCK_RECORD
  5
3DBC
330
1
100
AcDbSymbolTableRecord
100
AcDbBlockTableRecord
  2
*D61
340
0
 70
     0
280
     1
281
     0
  0
BLOCK_RECORD
  5
3DD2
330
1
100
AcDbSymbolTableRecord
100
AcDbBlockTableRecord
  2
*D62
340
0
 70
     0
280
     1
281
     0
  0
BLOCK_RECORD
  5
3DE2
330
1
100
AcDbSymbolTableRecord
100
AcDbBlockTableRecord
  2
*D63
340
0
 70
     0
280
     1
281
     0
  0
BLOCK_RECORD
  5
3DF2
330
1
100
AcDbSymbolTableRecord
100
AcDbBlockTableRecord
  2
*D64
340
0
 70
     0
280
     1
281
     0
  0
BLOCK_RECORD
  5
3E02
330
1
100
AcDbSymbolTableRecord
100
AcDbBlockTableRecord
  2
*D65
340
0
 70
     0
280
     1
281
     0
  0
BLOCK_RECORD
  5
3E8A
330
1
100
AcDbSymbolTableRecord
100
AcDbBlockTableRecord
  2
*D66
340
0
 70
     0
280
     1
281
     0
  0
BLOCK_RECORD
  5
3E97
330
1
100
AcDbSymbolTableRecord
100
AcDbBlockTableRecord
  2
*D67
340
0
 70
     0
280
     1
281
     0
  0
BLOCK_RECORD
  5
3EA4
330
1
100
AcDbSymbolTableRecord
100
AcDbBlockTableRecord
  2
*D68
340
0
 70
     0
280
     1
281
     0
  0
BLOCK_RECORD
  5
3EB1
330
1
100
AcDbSymbolTableRecord
100
AcDbBlockTableRecord
  2
*D69
340
0
 70
     0
280
     1
281
     0
  0
BLOCK_RECORD
  5
3EBE
330
1
100
AcDbSymbolTableRecord
100
AcDbBlockTableRecord
  2
*D70
340
0
 70
     0
280
     1
281
     0
  0
BLOCK_RECORD
  5
3ECB
330
1
100
AcDbSymbolTableRecord
100
AcDbBlockTableRecord
  2
*D71
340
0
 70
     0
280
     1
281
     0
  0
BLOCK_RECORD
  5
3ED8
330
1
100
AcDbSymbolTableRecord
100
AcDbBlockTableRecord
  2
*D72
340
0
 70
     0
280
     1
281
     0
  0
BLOCK_RECORD
  5
3EFD
330
1
100
AcDbSymbolTableRecord
100
AcDbBlockTableRecord
  2
_None
340
0
 70
     0
280
     1
281
     0
  0
ENDTAB
  0
ENDSEC
  0
SECTION
  2
BLOCKS
  0
BLOCK
  5
20
330
1F
100
AcDbEntity
  8
0
100
AcDbBlockBegin
  2
*Model_Space
 70
     0
 10
0.0
 20
0.0
 30
0.0
  3
*Model_Space
  1
*Model_Space
  0
ENDBLK
  5
21
330
1F
100
AcDbEntity
  8
0
100
AcDbBlockEnd
  0
BLOCK
  5
1C
330
1B
100
AcDbEntity
 67
     1
  8
0
100
AcDbBlockBegin
  2
*Paper_Space
 70
     0
 10
0.0
 20
0.0
 30
0.0
  3
*Paper_Space
  1
*Paper_Space
  0
ENDBLK
  5
1D
330
1B
100
AcDbEntity
 67
     1
  8
0
100
AcDbBlockEnd
  0
BLOCK
  5
24
330
23
100
AcDbEntity
  8
0
100
AcDbBlockBegin
  2
*Paper_Space0
 70
     0
 10
0.0
 20
0.0
 30
0.0
  3
*Paper_Space0
  1
*Paper_Space0
  0
ENDBLK
  5
25
330
23
100
AcDbEntity
  8
0
100
AcDbBlockEnd
  0
BLOCK
  5
A92
330
A91
100
AcDbEntity
  8
0
100
AcDbBlockBegin
  2
_OPEN
 70
     0
 10
0.0
 20
0.0
 30
0.0
  3
_OPEN
  1
_OPEN
  0
LINE
  5
A93
330
A91
100
AcDbEntity
  8
0
  6
ByBlock
 62
     0
100
AcDbLine
 10
-1.0
 20
0.1666666666666667
 30
0.0
 11
0.0
 21
0.0
 31
0.0
  0
LINE
  5
A94
330
A91
100
AcDbEntity
  8
0
  6
ByBlock
 62
     0
100
AcDbLine
 10
0.0
 20
0.0
 30
0.0
 11
-1.0
 21
-0.1666666666666667
 31
0.0
  0
LINE
  5
A95
330
A91
100
AcDbEntity
  8
0
  6
ByBlock
 62
     0
100
AcDbLine
 10
0.0
 20
0.0
 30
0.0
 11
-1.0
 21
0.0
 31
0.0
  0
ENDBLK
  5
A96
330
A91
100
AcDbEntity
  8
0
100
AcDbBlockEnd
  0
BLOCK
  5
245F
330
245E
100
AcDbEntity
  8
0
100
AcDbBlockBegin
  2
*D2
 70
     1
 10
0.0
 20
0.0
 30
0.0
  3
*D2
  1
*D217
  0
LINE
  5
2461
330
245E
100
AcDbEntity
  8
寸法
  6
Continuous
 62
     0
370
    -2
100
AcDbLine
 10
220.4855435101199
 20
118.9796652516883
 30
0.0
 11
230.9113835101198
 21
118.9796652516883
 31
0.0
  0
LINE
  5
2462
330
245E
100
AcDbEntity
  8
寸法
  6
Continuous
 62
     0
370
    -2
100
AcDbLine
 10
220.4855435101199
 20
102.9796652516883
 30
0.0
 11
230.9113835101198
 21
102.9796652516883
 31
0.0
  0
LINE
  5
2463
330
245E
100
AcDbEntity
  8
寸法
  6
Continuous
 62
     0
370
    -2
100
AcDbLine
 10
229.6613835101198
 20
116.4796652516883
 30
0.0
 11
229.6613835101198
 21
112.0085611194407
 31
0.0
  0
LINE
  5
2464
330
245E
100
AcDbEntity
  8
寸法
  6
Continuous
 62
     0
370
    -2
100
AcDbLine
 10
229.6613835101198
 20
105.4796652516883
 30
0.0
 11
229.6613835101198
 21
108.2585611194407
 31
0.0
  0
SOLID
  5
2465
330
245E
100
AcDbEntity
  8
寸法
 62
     0
100
AcDbTrace
 10
230.0780501767865
 20
116.4796652516883
 30
0.0
 11
229.2447168434531
 21
116.4796652516883
 31
0.0
 12
229.6613835101198
 22
118.9796652516883
 32
0.0
 13
229.6613835101198
 23
118.9796652516883
 33
0.0
  0
SOLID
  5
2466
330
245E
100
AcDbEntity
  8
寸法
 62
     0
100
AcDbTrace
 10
229.2447168434531
 20
105.4796652516883
 30
0.0
 11
230.0780501767865
 21
105.4796652516883
 31
0.0
 12
229.6613835101198
 22
102.9796652516883
 32
0.0
 13
229.6613835101198
 23
102.9796652516883
 33
0.0
  0
MTEXT
  5
2467
330
245E
100
AcDbEntity
  8
寸法
  6
Continuous
 62
     0
100
AcDbMText
 10
229.6613835101198
 20
110.1335611194407
 30
0.0
 40
2.5
 41
0.0
 46
0.0
 71
     5
 72
     1
  1
16
 73
     1
 44
1.0
  0
POINT
  5
2468
330
245E
100
AcDbEntity
  8
Defpoints
 62
     0
100
AcDbPoint
 10
219.8605435101199
 20
118.9796652516883
 30
0.0
  0
POINT
  5
2469
330
245E
100
AcDbEntity
  8
Defpoints
 62
     0
100
AcDbPoint
 10
219.8605435101199
 20
102.9796652516883
 30
0.0
  0
POINT
  5
246A
330
245E
100
AcDbEntity
  8
Defpoints
 62
     0
100
AcDbPoint
 10
229.6613835101198
 20
102.9796652516883
 30
0.0
  0
ENDBLK
  5
2460
330
245E
100
AcDbEntity
  8
0
100
AcDbBlockEnd
  0
BLOCK
  5
246F
330
246E
100
AcDbEntity
  8
0
100
AcDbBlockBegin
  2
*D3
 70
     1
 10
0.0
 20
0.0
 30
0.0
  3
*D3
  1
*D218
  0
LINE
  5
2471
330
246E
100
AcDbEntity
  8
寸法
  6
Continuous
 62
     0
370
    -2
100
AcDbLine
 10
177.8605435101199
 20
102.3546652516883
 30
0.0
 11
177.8605435101199
 21
86.78904000000006
 31
0.0
  0
LINE
  5
2472
330
246E
100
AcDbEntity
  8
寸法
  6
Continuous
 62
     0
370
    -2
100
AcDbLine
 10
219.8605435101199
 20
102.3546652516883
 30
0.0
 11
219.8605435101199
 21
86.78904000000006
 31
0.0
  0
LINE
  5
2473
330
246E
100
AcDbEntity
  8
寸法
  6
Continuous
 62
     0
370
    -2
100
AcDbLine
 10
180.3605435101199
 20
88.03904000000006
 30
0.0
 11
217.3605435101199
 21
88.03904000000006
 31
0.0
  0
LINE
  5
2474
330
246E
100
AcDbEntity
  8
寸法
  6
Continuous
 62
     0
370
    -2
100
AcDbLine
 10
217.3605435101199
 20
88.03904000000006
 30
0.0
 11
180.3605435101199
 21
88.03904000000006
 31
0.0
  0
SOLID
  5
2475
330
246E
100
AcDbEntity
  8
寸法
 62
     0
100
AcDbTrace
 10
180.3605435101199
 20
88.45570666666673
 30
0.0
 11
180.3605435101199
 21
87.62237333333339
 31
0.0
 12
177.8605435101199
 22
88.03904000000006
 32
0.0
 13
177.8605435101199
 23
88.03904000000006
 33
0.0
  0
SOLID
  5
2476
330
246E
100
AcDbEntity
  8
寸法
 62
     0
100
AcDbTrace
 10
217.3605435101199
 20
87.62237333333339
 30
0.0
 11
217.3605435101199
 21
88.45570666666673
 31
0.0
 12
219.8605435101199
 22
88.03904000000006
 32
0.0
 13
219.8605435101199
 23
88.03904000000006
 33
0.0
  0
MTEXT
  5
2477
330
246E
100
AcDbEntity
  8
寸法
  6
Continuous
 62
     0
100
AcDbMText
 10
199.1365323101199
 20
84.04544000000004
 30
0.0
 40
2.5
 41
0.0
 46
0.0
 71
     5
 72
     1
  1
42
 73
     1
 44
1.0
  0
POINT
  5
2478
330
246E
100
AcDbEntity
  8
Defpoints
 62
     0
100
AcDbPoint
 10
177.8605435101199
 20
102.9796652516883
 30
0.0
  0
POINT
  5
2479
330
246E
100
AcDbEntity
  8
Defpoints
 62
     0
100
AcDbPoint
 10
219.8605435101199
 20
102.9796652516883
 30
0.0
  0
POINT
  5
39E1
330
246E
100
AcDbEntity
  8
Defpoints
 62
     0
100
AcDbPoint
 10
219.8605435101199
 20
88.03904000000006
 30
0.0
  0
ENDBLK
  5
2470
330
246E
100
AcDbEntity
  8
0
100
AcDbBlockEnd
  0
BLOCK
  5
248F
330
248E
100
AcDbEntity
  8
0
100
AcDbBlockBegin
  2
*D4
 70
     1
 10
0.0
 20
0.0
 30
0.0
  3
*D4
  1
*D220
  0
LINE
  5
2491
330
248E
100
AcDbEntity
  8
寸法
  6
Continuous
 62
     0
370
    -2
100
AcDbLine
 10
163.8605435101198
 20
119.6046652516883
 30
0.0
 11
163.8605435101198
 21
138.3947906249768
 31
0.0
  0
LINE
  5
2492
330
248E
100
AcDbEntity
  8
寸法
  6
Continuous
 62
     0
370
    -2
100
AcDbLine
 10
220.2605435101199
 20
119.2046652516883
 30
0.0
 11
220.2605435101199
 21
138.3947906249768
 31
0.0
  0
LINE
  5
2493
330
248E
100
AcDbEntity
  8
寸法
  6
Continuous
 62
     0
370
    -2
100
AcDbLine
 10
166.3605435101198
 20
137.1447906249768
 30
0.0
 11
193.4889406106639
 21
137.1447906249768
 31
0.0
  0
LINE
  5
2494
330
248E
100
AcDbEntity
  8
寸法
  6
Continuous
 62
     0
370
    -2
100
AcDbLine
 10
217.7605435101199
 20
137.1447906249768
 30
0.0
 11
202.2389406106639
 21
137.1447906249768
 31
0.0
  0
SOLID
  5
2495
330
248E
100
AcDbEntity
  8
寸法
 62
     0
100
AcDbTrace
 10
166.3605435101198
 20
137.5614572916434
 30
0.0
 11
166.3605435101198
 21
136.7281239583101
 31
0.0
 12
163.8605435101198
 22
137.1447906249768
 32
0.0
 13
163.8605435101198
 23
137.1447906249768
 33
0.0
  0
SOLID
  5
2496
330
248E
100
AcDbEntity
  8
寸法
 62
     0
100
AcDbTrace
 10
217.7605435101199
 20
136.7281239583101
 30
0.0
 11
217.7605435101199
 21
137.5614572916434
 31
0.0
 12
220.2605435101199
 22
137.1447906249768
 32
0.0
 13
220.2605435101199
 23
137.1447906249768
 33
0.0
  0
MTEXT
  5
2497
330
248E
100
AcDbEntity
  8
寸法
  6
Continuous
 62
     0
100
AcDbMText
 10
197.8639406106639
 20
137.1447906249768
 30
0.0
 40
2.5
 41
0.0
 46
0.0
 71
     5
 72
     1
  1
56.4
 73
     1
 44
1.0
  0
POINT
  5
2498
330
248E
100
AcDbEntity
  8
Defpoints
 62
     0
100
AcDbPoint
 10
163.8605435101198
 20
118.9796652516883
 30
0.0
  0
POINT
  5
2499
330
248E
100
AcDbEntity
  8
Defpoints
 62
     0
100
AcDbPoint
 10
220.2605435101199
 20
118.5796652516883
 30
0.0
  0
POINT
  5
249A
330
248E
100
AcDbEntity
  8
Defpoints
 62
     0
100
AcDbPoint
 10
220.2605435101199
 20
137.1447906249768
 30
0.0
  0
ENDBLK
  5
2490
330
248E
100
AcDbEntity
  8
0
100
AcDbBlockEnd
  0
BLOCK
  5
249F
330
249E
100
AcDbEntity
  8
0
100
AcDbBlockBegin
  2
*D5
 70
     1
 10
0.0
 20
0.0
 30
0.0
  3
*D5
  1
*D221
  0
LINE
  5
24A1
330
249E
100
AcDbEntity
  8
寸法
  6
Continuous
 62
     0
370
    -2
100
AcDbLine
 10
163.8605435101198
 20
119.6046652516883
 30
0.0
 11
163.8605435101198
 21
128.9266562249767
 31
0.0
  0
LINE
  5
24A2
330
249E
100
AcDbEntity
  8
寸法
  6
Continuous
 62
     0
370
    -2
100
AcDbLine
 10
219.8605435101199
 20
119.6046652516883
 30
0.0
 11
219.8605435101199
 21
128.9266562249767
 31
0.0
  0
LINE
  5
24A3
330
249E
100
AcDbEntity
  8
寸法
  6
Continuous
 62
     0
370
    -2
100
AcDbLine
 10
166.3605435101198
 20
127.6766562249767
 30
0.0
 11
194.8908930373305
 21
127.6766562249767
 31
0.0
  0
LINE
  5
24A4
330
249E
100
AcDbEntity
  8
寸法
  6
Continuous
 62
     0
370
    -2
100
AcDbLine
 10
217.3605435101199
 20
127.6766562249767
 30
0.0
 11
200.3075597039972
 21
127.6766562249767
 31
0.0
  0
SOLID
  5
24A5
330
249E
100
AcDbEntity
  8
寸法
 62
     0
100
AcDbTrace
 10
166.3605435101198
 20
128.0933228916434
 30
0.0
 11
166.3605435101198
 21
127.25998955831
 31
0.0
 12
163.8605435101198
 22
127.6766562249767
 32
0.0
 13
163.8605435101198
 23
127.6766562249767
 33
0.0
  0
SOLID
  5
24A6
330
249E
100
AcDbEntity
  8
寸法
 62
     0
100
AcDbTrace
 10
217.3605435101199
 20
127.25998955831
 30
0.0
 11
217.3605435101199
 21
128.0933228916434
 31
0.0
 12
219.8605435101199
 22
127.6766562249767
 32
0.0
 13
219.8605435101199
 23
127.6766562249767
 33
0.0
  0
MTEXT
  5
24A7
330
249E
100
AcDbEntity
  8
寸法
  6
Continuous
 62
     0
100
AcDbMText
 10
197.5992263706638
 20
127.6766562249767
 30
0.0
 40
2.5
 41
0.0
 46
0.0
 71
     5
 72
     1
  1
56
 73
     1
 44
1.0
  0
POINT
  5
24A8
330
249E
100
AcDbEntity
  8
Defpoints
 62
     0
100
AcDbPoint
 10
163.8605435101198
 20
118.9796652516883
 30
0.0
  0
POINT
  5
24A9
330
249E
100
AcDbEntity
  8
Defpoints
 62
     0
100
AcDbPoint
 10
219.8605435101199
 20
118.9796652516883
 30
0.0
  0
POINT
  5
24AA
330
249E
100
AcDbEntity
  8
Defpoints
 62
     0
100
AcDbPoint
 10
219.8605435101199
 20
127.6766562249767
 30
0.0
  0
ENDBLK
  5
24A0
330
249E
100
AcDbEntity
  8
0
100
AcDbBlockEnd
  0
BLOCK
  5
24AF
330
24AE
100
AcDbEntity
  8
0
100
AcDbBlockBegin
  2
*D6
 70
     1
 10
0.0
 20
0.0
 30
0.0
  3
*D6
  1
*D222
  0
LINE
  5
24B1
330
24AE
100
AcDbEntity
  8
寸法
  6
Continuous
 62
     0
370
    -2
100
AcDbLine
 10
163.8605435101198
 20
102.3546652516883
 30
0.0
 11
163.8605435101198
 21
86.86357713408
 31
0.0
  0
LINE
  5
24B2
330
24AE
100
AcDbEntity
  8
寸法
  6
Continuous
 62
     0
370
    -2
100
AcDbLine
 10
173.8605435101199
 20
103.107221927351
 30
0.0
 11
173.8605435101199
 21
86.86357713408
 31
0.0
  0
LINE
  5
24B3
330
24AE
100
AcDbEntity
  8
寸法
  6
Continuous
 62
     0
370
    -2
100
AcDbLine
 10
166.3605435101198
 20
88.11357713408
 30
0.0
 11
171.3605435101199
 21
88.11357713408
 31
0.0
  0
LINE
  5
24B4
330
24AE
100
AcDbEntity
  8
寸法
  6
Continuous
 62
     0
370
    -2
100
AcDbLine
 10
171.3605435101199
 20
88.11357713408
 30
0.0
 11
166.3605435101198
 21
88.11357713408
 31
0.0
  0
SOLID
  5
24B5
330
24AE
100
AcDbEntity
  8
寸法
 62
     0
100
AcDbTrace
 10
166.3605435101198
 20
88.53024380074667
 30
0.0
 11
166.3605435101198
 21
87.69691046741333
 31
0.0
 12
163.8605435101198
 22
88.11357713408
 32
0.0
 13
163.8605435101198
 23
88.11357713408
 33
0.0
  0
SOLID
  5
24B6
330
24AE
100
AcDbEntity
  8
寸法
 62
     0
100
AcDbTrace
 10
171.3605435101199
 20
87.69691046741333
 30
0.0
 11
171.3605435101199
 21
88.53024380074667
 31
0.0
 12
173.8605435101199
 22
88.11357713408
 32
0.0
 13
173.8605435101199
 23
88.11357713408
 33
0.0
  0
MTEXT
  5
24B7
330
24AE
100
AcDbEntity
  8
寸法
  6
Continuous
 62
     0
100
AcDbMText
 10
168.8515671136713
 20
83.65917713407998
 30
0.0
 40
2.5
 41
0.0
 46
0.0
 71
     5
 72
     1
  1
10
 73
     1
 44
1.0
  0
POINT
  5
24B8
330
24AE
100
AcDbEntity
  8
Defpoints
 62
     0
100
AcDbPoint
 10
163.8605435101198
 20
102.9796652516883
 30
0.0
  0
POINT
  5
24B9
330
24AE
100
AcDbEntity
  8
Defpoints
 62
     0
100
AcDbPoint
 10
173.8605435101199
 20
103.732221927351
 30
0.0
  0
POINT
  5
39E2
330
24AE
100
AcDbEntity
  8
Defpoints
 62
     0
100
AcDbPoint
 10
173.8605435101199
 20
88.11357713408
 30
0.0
  0
ENDBLK
  5
24B0
330
24AE
100
AcDbEntity
  8
0
100
AcDbBlockEnd
  0
BLOCK
  5
24BF
330
24BE
100
AcDbEntity
  8
0
100
AcDbBlockBegin
  2
*D7
 70
     1
 10
0.0
 20
0.0
 30
0.0
  3
*D7
  1
*D223
  0
LINE
  5
24C1
330
24BE
100
AcDbEntity
  8
寸法
  6
Continuous
 62
     0
370
    -2
100
AcDbLine
 10
173.8605435101199
 20
103.107221927351
 30
0.0
 11
173.8605435101199
 21
86.78904000000006
 31
0.0
  0
LINE
  5
24C2
330
24BE
100
AcDbEntity
  8
寸法
  6
Continuous
 62
     0
370
    -2
100
AcDbLine
 10
177.8605435101199
 20
102.3546652516883
 30
0.0
 11
177.8605435101199
 21
86.78904000000006
 31
0.0
  0
LINE
  5
24C3
330
24BE
100
AcDbEntity
  8
寸法
  6
Continuous
 62
     0
370
    -2
100
AcDbLine
 10
171.3605435101199
 20
88.03904000000006
 30
0.0
 11
168.8605435101199
 21
88.03904000000006
 31
0.0
  0
LINE
  5
24C4
330
24BE
100
AcDbEntity
  8
寸法
  6
Continuous
 62
     0
370
    -2
100
AcDbLine
 10
180.3605435101199
 20
88.03904000000006
 30
0.0
 11
182.8605435101199
 21
88.03904000000006
 31
0.0
  0
SOLID
  5
24C5
330
24BE
100
AcDbEntity
  8
寸法
 62
     0
100
AcDbTrace
 10
171.3605435101199
 20
87.62237333333339
 30
0.0
 11
171.3605435101199
 21
88.45570666666673
 31
0.0
 12
173.8605435101199
 22
88.03904000000006
 32
0.0
 13
173.8605435101199
 23
88.03904000000006
 33
0.0
  0
SOLID
  5
24C6
330
24BE
100
AcDbEntity
  8
寸法
 62
     0
100
AcDbTrace
 10
180.3605435101199
 20
88.45570666666673
 30
0.0
 11
180.3605435101199
 21
87.62237333333339
 31
0.0
 12
177.8605435101199
 22
88.03904000000006
 32
0.0
 13
177.8605435101199
 23
88.03904000000006
 33
0.0
  0
MTEXT
  5
24C7
330
24BE
100
AcDbEntity
  8
寸法
  6
Continuous
 62
     0
100
AcDbMText
 10
175.9718715224078
 20
83.43104
 30
0.0
 40
2.5
 41
0.0
 46
0.0
 71
     5
 72
     1
  1
4
 73
     1
 44
1.0
  0
POINT
  5
24C8
330
24BE
100
AcDbEntity
  8
Defpoints
 62
     0
100
AcDbPoint
 10
173.8605435101199
 20
103.732221927351
 30
0.0
  0
POINT
  5
24C9
330
24BE
100
AcDbEntity
  8
Defpoints
 62
     0
100
AcDbPoint
 10
177.8605435101199
 20
102.9796652516883
 30
0.0
  0
POINT
  5
24CA
330
24BE
100
AcDbEntity
  8
Defpoints
 62
     0
100
AcDbPoint
 10
177.8605435101199
 20
88.03904000000006
 30
0.0
  0
ENDBLK
  5
24C0
330
24BE
100
AcDbEntity
  8
0
100
AcDbBlockEnd
  0
BLOCK
  5
24E0
330
24DF
100
AcDbEntity
  8
0
100
AcDbBlockBegin
  2
*D8
 70
     1
 10
0.0
 20
0.0
 30
0.0
  3
*D8
  1
*D225
  0
LINE
  5
24E2
330
24DF
100
AcDbEntity
  8
寸法
  6
Continuous
 62
     0
370
    -2
100
AcDbLine
 10
164.9302233422428
 20
118.9796652516883
 30
0.0
 11
157.1655442565284
 21
118.9796652516883
 31
0.0
  0
LINE
  5
24E3
330
24DF
100
AcDbEntity
  8
寸法
  6
Continuous
 62
     0
370
    -2
100
AcDbLine
 10
165.3140770565284
 20
106.9796652516883
 30
0.0
 11
157.1655442565284
 21
106.9796652516883
 31
0.0
  0
LINE
  5
24E4
330
24DF
100
AcDbEntity
  8
寸法
  6
Continuous
 62
     0
370
    -2
100
AcDbLine
 10
158.4155442565284
 20
116.4796652516883
 30
0.0
 11
158.4155442565284
 21
109.4796652516883
 31
0.0
  0
LINE
  5
24E5
330
24DF
100
AcDbEntity
  8
寸法
  6
Continuous
 62
     0
370
    -2
100
AcDbLine
 10
158.4155442565284
 20
109.4796652516883
 30
0.0
 11
158.4155442565284
 21
116.4796652516883
 31
0.0
  0
SOLID
  5
24E6
330
24DF
100
AcDbEntity
  8
寸法
 62
     0
100
AcDbTrace
 10
158.832210923195
 20
116.4796652516883
 30
0.0
 11
157.9988775898617
 21
116.4796652516883
 31
0.0
 12
158.4155442565284
 22
118.9796652516883
 32
0.0
 13
158.4155442565284
 23
118.9796652516883
 33
0.0
  0
SOLID
  5
24E7
330
24DF
100
AcDbEntity
  8
寸法
 62
     0
100
AcDbTrace
 10
157.9988775898617
 20
109.4796652516883
 30
0.0
 11
158.832210923195
 21
109.4796652516883
 31
0.0
 12
158.4155442565284
 22
106.9796652516883
 32
0.0
 13
158.4155442565284
 23
106.9796652516883
 33
0.0
  0
MTEXT
  5
24E8
330
24DF
100
AcDbEntity
  8
寸法
  6
Continuous
 62
     0
100
AcDbMText
 10
153.8092996850999
 20
112.8560025033768
 30
0.0
 40
2.5
 41
0.0
 46
0.0
 71
     5
 72
     1
  1
12
 73
     1
 44
1.0
  0
POINT
  5
24E9
330
24DF
100
AcDbEntity
  8
Defpoints
 62
     0
100
AcDbPoint
 10
165.5552233422428
 20
118.9796652516883
 30
0.0
  0
POINT
  5
24EA
330
24DF
100
AcDbEntity
  8
Defpoints
 62
     0
100
AcDbPoint
 10
165.9390770565284
 20
106.9796652516883
 30
0.0
  0
POINT
  5
39E3
330
24DF
100
AcDbEntity
  8
Defpoints
 62
     0
100
AcDbPoint
 10
158.4155442565284
 20
106.9796652516883
 30
0.0
  0
ENDBLK
  5
24E1
330
24DF
100
AcDbEntity
  8
0
100
AcDbBlockEnd
  0
BLOCK
  5
24F0
330
24EF
100
AcDbEntity
  8
0
100
AcDbBlockBegin
  2
*D9
 70
     1
 10
0.0
 20
0.0
 30
0.0
  3
*D9
  1
*D226
  0
LINE
  5
24F2
330
24EF
100
AcDbEntity
  8
寸法
  6
Continuous
 62
     0
370
    -2
100
AcDbLine
 10
165.3140770565284
 20
106.9796652516883
 30
0.0
 11
157.1655442565284
 21
106.9796652516883
 31
0.0
  0
LINE
  5
24F3
330
24EF
100
AcDbEntity
  8
寸法
  6
Continuous
 62
     0
370
    -2
100
AcDbLine
 10
169.2355435101199
 20
102.9796652516883
 30
0.0
 11
157.1655442565284
 21
102.9796652516883
 31
0.0
  0
LINE
  5
24F4
330
24EF
100
AcDbEntity
  8
寸法
  6
Continuous
 62
     0
370
    -2
100
AcDbLine
 10
158.4155442565284
 20
109.4796652516883
 30
0.0
 11
158.4155442565284
 21
111.9796652516883
 31
0.0
  0
LINE
  5
24F5
330
24EF
100
AcDbEntity
  8
寸法
  6
Continuous
 62
     0
370
    -2
100
AcDbLine
 10
158.4155442565284
 20
100.4796652516883
 30
0.0
 11
158.4155442565284
 21
97.9796652516883
 31
0.0
  0
SOLID
  5
24F6
330
24EF
100
AcDbEntity
  8
寸法
 62
     0
100
AcDbTrace
 10
157.9988775898617
 20
109.4796652516883
 30
0.0
 11
158.832210923195
 21
109.4796652516883
 31
0.0
 12
158.4155442565284
 22
106.9796652516883
 32
0.0
 13
158.4155442565284
 23
106.9796652516883
 33
0.0
  0
SOLID
  5
24F7
330
24EF
100
AcDbEntity
  8
寸法
 62
     0
100
AcDbTrace
 10
158.832210923195
 20
100.4796652516883
 30
0.0
 11
157.9988775898617
 21
100.4796652516883
 31
0.0
 12
158.4155442565284
 22
102.9796652516883
 32
0.0
 13
158.4155442565284
 23
102.9796652516883
 33
0.0
  0
MTEXT
  5
24F8
330
24EF
100
AcDbEntity
  8
寸法
  6
Continuous
 62
     0
100
AcDbMText
 10
153.8092996850999
 20
104.5198233033768
 30
0.0
 40
2.5
 41
0.0
 46
0.0
 71
     5
 72
     1
  1
4
 73
     1
 44
1.0
  0
POINT
  5
24F9
330
24EF
100
AcDbEntity
  8
Defpoints
 62
     0
100
AcDbPoint
 10
165.9390770565284
 20
106.9796652516883
 30
0.0
  0
POINT
  5
24FA
330
24EF
100
AcDbEntity
  8
Defpoints
 62
     0
100
AcDbPoint
 10
169.8605435101199
 20
102.9796652516883
 30
0.0
  0
POINT
  5
24FB
330
24EF
100
AcDbEntity
  8
Defpoints
 62
     0
100
AcDbPoint
 10
158.4155442565284
 20
102.9796652516883
 30
0.0
  0
ENDBLK
  5
24F1
330
24EF
100
AcDbEntity
  8
0
100
AcDbBlockEnd
  0
BLOCK
  5
2552
330
2551
100
AcDbEntity
  8
0
100
AcDbBlockBegin
  2
*D10
 70
     1
 10
0.0
 20
0.0
 30
0.0
  3
*D10
  1
*D227
  0
LINE
  5
2554
330
2551
100
AcDbEntity
  8
寸法
  6
Continuous
 62
     0
370
    -2
100
AcDbLine
 10
64.37065742666393
 20
174.053610704933
 30
0.0
 11
64.37065742666393
 21
185.7493729027747
 31
0.0
  0
LINE
  5
2555
330
2551
100
AcDbEntity
  8
寸法
  6
Continuous
 62
     0
370
    -2
100
AcDbLine
 10
120.770657426664
 20
174.3986594672401
 30
0.0
 11
120.770657426664
 21
185.7493729027747
 31
0.0
  0
LINE
  5
2556
330
2551
100
AcDbEntity
  8
寸法
  6
Continuous
 62
     0
370
    -2
100
AcDbLine
 10
66.87065742666393
 20
184.4993729027747
 30
0.0
 11
118.270657426664
 21
184.4993729027747
 31
0.0
  0
SOLID
  5
2557
330
2551
100
AcDbEntity
  8
寸法
 62
     0
100
AcDbTrace
 10
66.87065742666393
 20
184.9160395694414
 30
0.0
 11
66.87065742666393
 21
184.0827062361081
 31
0.0
 12
64.37065742666393
 22
184.4993729027747
 32
0.0
 13
64.37065742666393
 23
184.4993729027747
 33
0.0
  0
SOLID
  5
2558
330
2551
100
AcDbEntity
  8
寸法
 62
     0
100
AcDbTrace
 10
118.270657426664
 20
184.0827062361081
 30
0.0
 11
118.270657426664
 21
184.9160395694414
 31
0.0
 12
120.770657426664
 22
184.4993729027747
 32
0.0
 13
120.770657426664
 23
184.4993729027747
 33
0.0
  0
MTEXT
  5
2559
330
2551
100
AcDbEntity
  8
寸法
  6
Continuous
 62
     0
100
AcDbMText
 10
96.67664033322924
 20
188.3757309904323
 30
0.0
 40
5.0
 41
0.0
 46
0.0
 71
     5
 72
     1
  1
28.2
 73
     1
 44
1.0
  0
POINT
  5
255A
330
2551
100
AcDbEntity
  8
Defpoints
 62
     0
100
AcDbPoint
 10
64.37065742666393
 20
173.428610704933
 30
0.0
  0
POINT
  5
255B
330
2551
100
AcDbEntity
  8
Defpoints
 62
     0
100
AcDbPoint
 10
120.770657426664
 20
173.7736594672401
 30
0.0
  0
POINT
  5
255C
330
2551
100
AcDbEntity
  8
Defpoints
 62
     0
100
AcDbPoint
 10
120.770657426664
 20
184.4993729027747
 30
0.0
  0
ENDBLK
  5
2553
330
2551
100
AcDbEntity
  8
0
100
AcDbBlockEnd
  0
BLOCK
  5
2572
330
2571
100
AcDbEntity
  8
0
100
AcDbBlockBegin
  2
*D11
 70
     1
 10
0.0
 20
0.0
 30
0.0
  3
*D11
  1
*D229
  0
LINE
  5
2574
330
2571
100
AcDbEntity
  8
寸法
  6
Continuous
 62
     0
370
    -2
100
AcDbLine
 10
64.00905271803882
 20
173.54865946724
 30
0.0
 11
33.11520000000002
 21
173.54865946724
 31
0.0
  0
LINE
  5
2575
330
2571
100
AcDbEntity
  8
寸法
  6
Continuous
 62
     0
370
    -2
100
AcDbLine
 10
70.74565742666397
 20
161.54865946724
 30
0.0
 11
33.11520000000002
 21
161.54865946724
 31
0.0
  0
LINE
  5
2576
330
2571
100
AcDbEntity
  8
寸法
  6
Continuous
 62
     0
370
    -2
100
AcDbLine
 10
34.36520000000002
 20
171.04865946724
 30
0.0
 11
34.36520000000002
 21
164.04865946724
 31
0.0
  0
SOLID
  5
2577
330
2571
100
AcDbEntity
  8
寸法
 62
     0
100
AcDbTrace
 10
34.78186666666668
 20
171.04865946724
 30
0.0
 11
33.94853333333335
 21
171.04865946724
 31
0.0
 12
34.36520000000002
 22
173.54865946724
 32
0.0
 13
34.36520000000002
 23
173.54865946724
 33
0.0
  0
SOLID
  5
2578
330
2571
100
AcDbEntity
  8
寸法
 62
     0
100
AcDbTrace
 10
33.94853333333335
 20
164.04865946724
 30
0.0
 11
34.78186666666668
 21
164.04865946724
 31
0.0
 12
34.36520000000002
 22
161.54865946724
 32
0.0
 13
34.36520000000002
 23
161.54865946724
 33
0.0
  0
MTEXT
  5
2579
330
2571
100
AcDbEntity
  8
寸法
  6
Continuous
 62
     0
100
AcDbMText
 10
29.45000000000002
 20
167.3971641539409
 30
0.0
 40
5.0
 41
0.0
 46
0.0
 71
     5
 72
     1
  1
6
 73
     1
 44
1.0
  0
POINT
  5
257A
330
2571
100
AcDbEntity
  8
Defpoints
 62
     0
100
AcDbPoint
 10
64.63405271803882
 20
173.54865946724
 30
0.0
  0
POINT
  5
257B
330
2571
100
AcDbEntity
  8
Defpoints
 62
     0
100
AcDbPoint
 10
71.37065742666397
 20
161.54865946724
 30
0.0
  0
POINT
  5
257C
330
2571
100
AcDbEntity
  8
Defpoints
 62
     0
100
AcDbPoint
 10
34.36520000000002
 20
161.54865946724
 30
0.0
  0
ENDBLK
  5
2573
330
2571
100
AcDbEntity
  8
0
100
AcDbBlockEnd
  0
BLOCK
  5
2582
330
2581
100
AcDbEntity
  8
0
100
AcDbBlockBegin
  2
*D12
 70
     1
 10
0.0
 20
0.0
 30
0.0
  3
*D12
  1
*D230
  0
LINE
  5
2584
330
2581
100
AcDbEntity
  8
寸法
  6
Continuous
 62
     0
370
    -2
100
AcDbLine
 10
70.74565742666397
 20
161.54865946724
 30
0.0
 11
33.11520000000002
 21
161.54865946724
 31
0.0
  0
LINE
  5
2585
330
2581
100
AcDbEntity
  8
寸法
  6
Continuous
 62
     0
370
    -2
100
AcDbLine
 10
73.74565742666397
 20
157.54865946724
 30
0.0
 11
33.11520000000002
 21
157.54865946724
 31
0.0
  0
LINE
  5
2586
330
2581
100
AcDbEntity
  8
寸法
  6
Continuous
 62
     0
370
    -2
100
AcDbLine
 10
34.36520000000002
 20
164.04865946724
 30
0.0
 11
34.36520000000002
 21
166.54865946724
 31
0.0
  0
LINE
  5
2587
330
2581
100
AcDbEntity
  8
寸法
  6
Continuous
 62
     0
370
    -2
100
AcDbLine
 10
34.36520000000002
 20
155.04865946724
 30
0.0
 11
34.36520000000002
 21
152.54865946724
 31
0.0
  0
SOLID
  5
2588
330
2581
100
AcDbEntity
  8
寸法
 62
     0
100
AcDbTrace
 10
33.94853333333335
 20
164.04865946724
 30
0.0
 11
34.78186666666668
 21
164.04865946724
 31
0.0
 12
34.36520000000002
 22
161.54865946724
 32
0.0
 13
34.36520000000002
 23
161.54865946724
 33
0.0
  0
SOLID
  5
2589
330
2581
100
AcDbEntity
  8
寸法
 62
     0
100
AcDbTrace
 10
34.78186666666668
 20
155.04865946724
 30
0.0
 11
33.94853333333335
 21
155.04865946724
 31
0.0
 12
34.36520000000002
 22
157.54865946724
 32
0.0
 13
34.36520000000002
 23
157.54865946724
 33
0.0
  0
MTEXT
  5
258A
330
2581
100
AcDbEntity
  8
寸法
  6
Continuous
 62
     0
100
AcDbMText
 10
29.75720000000001
 20
159.60708373731
 30
0.0
 40
5.0
 41
0.0
 46
0.0
 71
     5
 72
     1
  1
2
 73
     1
 44
1.0
  0
POINT
  5
258B
330
2581
100
AcDbEntity
  8
Defpoints
 62
     0
100
AcDbPoint
 10
71.37065742666397
 20
161.54865946724
 30
0.0
  0
POINT
  5
258C
330
2581
100
AcDbEntity
  8
Defpoints
 62
     0
100
AcDbPoint
 10
74.37065742666397
 20
157.54865946724
 30
0.0
  0
POINT
  5
258D
330
2581
100
AcDbEntity
  8
Defpoints
 62
     0
100
AcDbPoint
 10
34.36520000000002
 20
157.54865946724
 30
0.0
  0
ENDBLK
  5
2583
330
2581
100
AcDbEntity
  8
0
100
AcDbBlockEnd
  0
BLOCK
  5
25A2
330
25A1
100
AcDbEntity
  8
0
100
AcDbBlockBegin
  2
*D13
 70
     1
 10
0.0
 20
0.0
 30
0.0
  3
*D13
  1
*D232
  0
LINE
  5
25A4
330
25A1
100
AcDbEntity
  8
寸法
  6
Continuous
 62
     0
370
    -2
100
AcDbLine
 10
78.37065742666397
 20
102.3546652516883
 30
0.0
 11
78.37065742666397
 21
91.88525368714005
 31
0.0
  0
LINE
  5
25A5
330
25A1
100
AcDbEntity
  8
寸法
  6
Continuous
 62
     0
370
    -2
100
AcDbLine
 10
120.370657426664
 20
102.3546652516883
 30
0.0
 11
120.370657426664
 21
91.88525368714005
 31
0.0
  0
LINE
  5
25A6
330
25A1
100
AcDbEntity
  8
寸法
  6
Continuous
 62
     0
370
    -2
100
AcDbLine
 10
80.87065742666397
 20
93.13525368714005
 30
0.0
 11
96.50970114113183
 21
93.13525368714005
 31
0.0
  0
LINE
  5
25A7
330
25A1
100
AcDbEntity
  8
寸法
  6
Continuous
 62
     0
370
    -2
100
AcDbLine
 10
117.870657426664
 20
93.13525368714005
 30
0.0
 11
104.4263678077985
 21
93.13525368714005
 31
0.0
  0
SOLID
  5
25A8
330
25A1
100
AcDbEntity
  8
寸法
 62
     0
100
AcDbTrace
 10
80.87065742666397
 20
93.55192035380672
 30
0.0
 11
80.87065742666397
 21
92.71858702047338
 31
0.0
 12
78.37065742666397
 22
93.13525368714005
 32
0.0
 13
78.37065742666397
 23
93.13525368714005
 33
0.0
  0
SOLID
  5
25A9
330
25A1
100
AcDbEntity
  8
寸法
 62
     0
100
AcDbTrace
 10
117.870657426664
 20
92.71858702047338
 30
0.0
 11
117.870657426664
 21
93.55192035380672
 31
0.0
 12
120.370657426664
 22
93.13525368714005
 32
0.0
 13
120.370657426664
 23
93.13525368714005
 33
0.0
  0
MTEXT
  5
25AA
330
25A1
100
AcDbEntity
  8
寸法
  6
Continuous
 62
     0
100
AcDbMText
 10
100.4680344744652
 20
93.13525368714005
 30
0.0
 40
5.0
 41
0.0
 46
0.0
 71
     5
 72
     1
  1
21
 73
     1
 44
1.0
  0
POINT
  5
25AB
330
25A1
100
AcDbEntity
  8
Defpoints
 62
     0
100
AcDbPoint
 10
78.37065742666397
 20
102.9796652516883
 30
0.0
  0
POINT
  5
25AC
330
25A1
100
AcDbEntity
  8
Defpoints
 62
     0
100
AcDbPoint
 10
120.370657426664
 20
102.9796652516883
 30
0.0
  0
POINT
  5
25AD
330
25A1
100
AcDbEntity
  8
Defpoints
 62
     0
100
AcDbPoint
 10
120.370657426664
 20
93.13525368714005
 30
0.0
  0
ENDBLK
  5
25A3
330
25A1
100
AcDbEntity
  8
0
100
AcDbBlockEnd
  0
BLOCK
  5
25B2
330
25B1
100
AcDbEntity
  8
0
100
AcDbBlockBegin
  2
*D14
 70
     1
 10
0.0
 20
0.0
 30
0.0
  3
*D14
  1
*D233
  0
LINE
  5
25B4
330
25B1
100
AcDbEntity
  8
寸法
  6
Continuous
 62
     0
370
    -2
100
AcDbLine
 10
120.995657426664
 20
112.5796652516884
 30
0.0
 11
132.5549342787776
 21
112.5796652516884
 31
0.0
  0
LINE
  5
25B5
330
25B1
100
AcDbEntity
  8
寸法
  6
Continuous
 62
     0
370
    -2
100
AcDbLine
 10
120.995657426664
 20
102.9796652516883
 30
0.0
 11
132.5549342787776
 21
102.9796652516883
 31
0.0
  0
LINE
  5
25B6
330
25B1
100
AcDbEntity
  8
寸法
  6
Continuous
 62
     0
370
    -2
100
AcDbLine
 10
131.3049342787776
 20
110.0796652516884
 30
0.0
 11
131.3049342787776
 21
105.4796652516883
 31
0.0
  0
SOLID
  5
25B7
330
25B1
100
AcDbEntity
  8
寸法
 62
     0
100
AcDbTrace
 10
131.7216009454442
 20
110.0796652516884
 30
0.0
 11
130.8882676121109
 21
110.0796652516884
 31
0.0
 12
131.3049342787776
 22
112.5796652516884
 32
0.0
 13
131.3049342787776
 23
112.5796652516884
 33
0.0
  0
SOLID
  5
25B8
330
25B1
100
AcDbEntity
  8
寸法
 62
     0
100
AcDbTrace
 10
130.8882676121109
 20
105.4796652516883
 30
0.0
 11
131.7216009454442
 21
105.4796652516883
 31
0.0
 12
131.3049342787776
 22
102.9796652516883
 32
0.0
 13
131.3049342787776
 23
102.9796652516883
 33
0.0
  0
MTEXT
  5
25B9
330
25B1
100
AcDbEntity
  8
寸法
  6
Continuous
 62
     0
100
AcDbMText
 10
137.3783402201298
 20
107.2141759955676
 30
0.0
 40
5.0
 41
0.0
 46
0.0
 71
     5
 72
     1
  1
4.8
 73
     1
 44
1.0
  0
POINT
  5
25BA
330
25B1
100
AcDbEntity
  8
Defpoints
 62
     0
100
AcDbPoint
 10
120.370657426664
 20
112.5796652516884
 30
0.0
  0
POINT
  5
25BB
330
25B1
100
AcDbEntity
  8
Defpoints
 62
     0
100
AcDbPoint
 10
120.370657426664
 20
102.9796652516883
 30
0.0
  0
POINT
  5
25BC
330
25B1
100
AcDbEntity
  8
Defpoints
 62
     0
100
AcDbPoint
 10
131.3049342787776
 20
102.9796652516883
 30
0.0
  0
ENDBLK
  5
25B3
330
25B1
100
AcDbEntity
  8
0
100
AcDbBlockEnd
  0
BLOCK
  5
25C1
330
25C0
100
AcDbEntity
  8
0
100
AcDbBlockBegin
  2
*D15
 70
     1
 10
0.0
 20
0.0
 30
0.0
  3
*D15
  1
*D234
  0
LINE
  5
25C3
330
25C0
100
AcDbEntity
  8
寸法
  6
Continuous
 62
     0
370
    -2
100
AcDbLine
 10
77.67382174009546
 20
112.5796652516884
 30
0.0
 11
63.49750242810262
 21
112.5796652516884
 31
0.0
  0
LINE
  5
25C4
330
25C0
100
AcDbEntity
  8
寸法
  6
Continuous
 62
     0
370
    -2
100
AcDbLine
 10
77.74565742666397
 20
102.9796652516883
 30
0.0
 11
63.49750242810262
 21
102.9796652516883
 31
0.0
  0
LINE
  5
25C5
330
25C0
100
AcDbEntity
  8
寸法
  6
Continuous
 62
     0
370
    -2
100
AcDbLine
 10
64.74750242810262
 20
110.0796652516884
 30
0.0
 11
64.74750242810262
 21
105.4796652516883
 31
0.0
  0
SOLID
  5
25C6
330
25C0
100
AcDbEntity
  8
寸法
 62
     0
100
AcDbTrace
 10
65.16416909476929
 20
110.0796652516884
 30
0.0
 11
64.33083576143595
 21
110.0796652516884
 31
0.0
 12
64.74750242810262
 22
112.5796652516884
 32
0.0
 13
64.74750242810262
 23
112.5796652516884
 33
0.0
  0
SOLID
  5
25C7
330
25C0
100
AcDbEntity
  8
寸法
 62
     0
100
AcDbTrace
 10
64.33083576143595
 20
105.4796652516883
 30
0.0
 11
65.16416909476929
 21
105.4796652516883
 31
0.0
 12
64.74750242810262
 22
102.9796652516883
 32
0.0
 13
64.74750242810262
 23
102.9796652516883
 33
0.0
  0
MTEXT
  5
25C8
330
25C0
100
AcDbEntity
  8
寸法
  6
Continuous
 62
     0
100
AcDbMText
 10
56.36830207683545
 20
107.42963438713
 30
0.0
 40
5.0
 41
0.0
 46
0.0
 71
     5
 72
     1
  1
4.8
 73
     1
 44
1.0
  0
POINT
  5
25C9
330
25C0
100
AcDbEntity
  8
Defpoints
 62
     0
100
AcDbPoint
 10
78.29882174009546
 20
112.5796652516884
 30
0.0
  0
POINT
  5
25CA
330
25C0
100
AcDbEntity
  8
Defpoints
 62
     0
100
AcDbPoint
 10
78.37065742666397
 20
102.9796652516883
 30
0.0
  0
POINT
  5
25CB
330
25C0
100
AcDbEntity
  8
Defpoints
 62
     0
100
AcDbPoint
 10
64.74750242810262
 20
102.9796652516883
 30
0.0
  0
ENDBLK
  5
25C2
330
25C0
100
AcDbEntity
  8
0
100
AcDbBlockEnd
  0
BLOCK
  5
25D0
330
25CF
100
AcDbEntity
  8
0
100
AcDbBlockBegin
  2
*D16
 70
     1
 10
0.0
 20
0.0
 30
0.0
  3
*D16
  1
*D235
  0
LINE
  5
25D2
330
25CF
100
AcDbEntity
  8
寸法
  6
Continuous
 62
     0
370
    -2
100
AcDbLine
 10
78.37065742666397
 20
112.2046652516884
 30
0.0
 11
78.37065742666397
 21
125.6945902410338
 31
0.0
  0
LINE
  5
25D3
330
25CF
100
AcDbEntity
  8
寸法
  6
Continuous
 62
     0
370
    -2
100
AcDbLine
 10
83.77065742666397
 20
110.2594180183127
 30
0.0
 11
83.77065742666397
 21
125.6945902410338
 31
0.0
  0
LINE
  5
25D4
330
25CF
100
AcDbEntity
  8
寸法
  6
Continuous
 62
     0
370
    -2
100
AcDbLine
 10
75.87065742666397
 20
124.4445902410338
 30
0.0
 11
73.37065742666397
 21
124.4445902410338
 31
0.0
  0
LINE
  5
25D5
330
25CF
100
AcDbEntity
  8
寸法
  6
Continuous
 62
     0
370
    -2
100
AcDbLine
 10
86.27065742666397
 20
124.4445902410338
 30
0.0
 11
88.77065742666397
 21
124.4445902410338
 31
0.0
  0
SOLID
  5
25D6
330
25CF
100
AcDbEntity
  8
寸法
 62
     0
100
AcDbTrace
 10
75.87065742666397
 20
124.0279235743672
 30
0.0
 11
75.87065742666397
 21
124.8612569077005
 31
0.0
 12
78.37065742666397
 22
124.4445902410338
 32
0.0
 13
78.37065742666397
 23
124.4445902410338
 33
0.0
  0
SOLID
  5
25D7
330
25CF
100
AcDbEntity
  8
寸法
 62
     0
100
AcDbTrace
 10
86.27065742666397
 20
124.8612569077005
 30
0.0
 11
86.27065742666397
 21
124.0279235743672
 31
0.0
 12
83.77065742666397
 22
124.4445902410338
 32
0.0
 13
83.77065742666397
 23
124.4445902410338
 33
0.0
  0
MTEXT
  5
25D8
330
25CF
100
AcDbEntity
  8
寸法
  6
Continuous
 62
     0
100
AcDbMText
 10
81.29931041257873
 20
128.9875301905161
 30
0.0
 40
5.0
 41
0.0
 46
0.0
 71
     5
 72
     1
  1
2.7
 73
     1
 44
1.0
  0
POINT
  5
25D9
330
25CF
100
AcDbEntity
  8
Defpoints
 62
     0
100
AcDbPoint
 10
78.37065742666397
 20
111.5796652516884
 30
0.0
  0
POINT
  5
25DA
330
25CF
100
AcDbEntity
  8
Defpoints
 62
     0
100
AcDbPoint
 10
83.77065742666397
 20
109.6344180183127
 30
0.0
  0
POINT
  5
25DB
330
25CF
100
AcDbEntity
  8
Defpoints
 62
     0
100
AcDbPoint
 10
83.77065742666397
 20
124.4445902410338
 30
0.0
  0
ENDBLK
  5
25D1
330
25CF
100
AcDbEntity
  8
0
100
AcDbBlockEnd
  0
BLOCK
  5
25E0
330
25DF
100
AcDbEntity
  8
0
100
AcDbBlockBegin
  2
*D17
 70
     1
 10
0.0
 20
0.0
 30
0.0
  3
*D17
  1
*D236
  0
LINE
  5
25E2
330
25DF
100
AcDbEntity
  8
寸法
  6
Continuous
 62
     0
370
    -2
100
AcDbLine
 10
82.36377321097748
 20
112.5796652516884
 30
0.0
 11
88.10956200991279
 21
112.5796652516884
 31
0.0
  0
LINE
  5
25E3
330
25DF
100
AcDbEntity
  8
寸法
  6
Continuous
 62
     0
370
    -2
100
AcDbLine
 10
84.388065027995
 20
109.3796652516883
 30
0.0
 11
88.10956200991279
 21
109.3796652516883
 31
0.0
  0
LINE
  5
25E4
330
25DF
100
AcDbEntity
  8
寸法
  6
Continuous
 62
     0
370
    -2
100
AcDbLine
 10
86.85956200991279
 20
115.0796652516884
 30
0.0
 11
86.85956200991279
 21
117.5796652516884
 31
0.0
  0
LINE
  5
25E5
330
25DF
100
AcDbEntity
  8
寸法
  6
Continuous
 62
     0
370
    -2
100
AcDbLine
 10
86.85956200991279
 20
106.8796652516883
 30
0.0
 11
86.85956200991279
 21
104.3796652516883
 31
0.0
  0
SOLID
  5
25E6
330
25DF
100
AcDbEntity
  8
寸法
 62
     0
100
AcDbTrace
 10
86.44289534324612
 20
115.0796652516884
 30
0.0
 11
87.27622867657946
 21
115.0796652516884
 31
0.0
 12
86.85956200991279
 22
112.5796652516884
 32
0.0
 13
86.85956200991279
 23
112.5796652516884
 33
0.0
  0
SOLID
  5
25E7
330
25DF
100
AcDbEntity
  8
寸法
 62
     0
100
AcDbTrace
 10
87.27622867657946
 20
106.8796652516883
 30
0.0
 11
86.44289534324612
 21
106.8796652516883
 31
0.0
 12
86.85956200991279
 22
109.3796652516883
 32
0.0
 13
86.85956200991279
 23
109.3796652516883
 33
0.0
  0
MTEXT
  5
25E8
330
25DF
100
AcDbEntity
  8
寸法
  6
Continuous
 62
     0
100
AcDbMText
 10
90.38324694278697
 20
119.5987876282528
 30
0.0
 40
5.0
 41
0.0
 46
0.0
 71
     5
 72
     1
  1
1.6
 73
     1
 44
1.0
  0
POINT
  5
25E9
330
25DF
100
AcDbEntity
  8
Defpoints
 62
     0
100
AcDbPoint
 10
81.73877321097748
 20
112.5796652516884
 30
0.0
  0
POINT
  5
25EA
330
25DF
100
AcDbEntity
  8
Defpoints
 62
     0
100
AcDbPoint
 10
83.763065027995
 20
109.3796652516883
 30
0.0
  0
POINT
  5
25EB
330
25DF
100
AcDbEntity
  8
Defpoints
 62
     0
100
AcDbPoint
 10
86.85956200991279
 20
109.3796652516883
 30
0.0
  0
ENDBLK
  5
25E1
330
25DF
100
AcDbEntity
  8
0
100
AcDbBlockEnd
  0
BLOCK
  5
25F0
330
25EF
100
AcDbEntity
  8
0
100
AcDbBlockBegin
  2
*D18
 70
     1
 10
0.0
 20
0.0
 30
0.0
  3
*D18
  1
*D237
  0
LINE
  5
25F2
330
25EF
100
AcDbEntity
  8
寸法
  6
Continuous
 62
     0
370
    -2
100
AcDbLine
 10
83.77065742666397
 20
125.0695902410338
 30
0.0
 11
83.77065742666397
 21
125.6945902410338
 31
0.0
  0
LINE
  5
25F3
330
25EF
100
AcDbEntity
  8
寸法
  6
Continuous
 62
     0
370
    -2
100
AcDbLine
 10
114.970657426664
 20
110.2594180183127
 30
0.0
 11
114.970657426664
 21
125.6945902410338
 31
0.0
  0
LINE
  5
25F4
330
25EF
100
AcDbEntity
  8
寸法
  6
Continuous
 62
     0
370
    -2
100
AcDbLine
 10
86.27065742666397
 20
124.4445902410338
 30
0.0
 11
112.470657426664
 21
124.4445902410338
 31
0.0
  0
SOLID
  5
25F5
330
25EF
100
AcDbEntity
  8
寸法
 62
     0
100
AcDbTrace
 10
86.27065742666397
 20
124.8612569077005
 30
0.0
 11
86.27065742666397
 21
124.0279235743672
 31
0.0
 12
83.77065742666397
 22
124.4445902410338
 32
0.0
 13
83.77065742666397
 23
124.4445902410338
 33
0.0
  0
SOLID
  5
25F6
330
25EF
100
AcDbEntity
  8
寸法
 62
     0
100
AcDbTrace
 10
112.470657426664
 20
124.0279235743672
 30
0.0
 11
112.470657426664
 21
124.8612569077005
 31
0.0
 12
114.970657426664
 22
124.4445902410338
 32
0.0
 13
114.970657426664
 23
124.4445902410338
 33
0.0
  0
MTEXT
  5
25F7
330
25EF
100
AcDbEntity
  8
寸法
  6
Continuous
 62
     0
100
AcDbMText
 10
100.7049242660559
 20
128.1181673716741
 30
0.0
 40
5.0
 41
0.0
 46
0.0
 71
     5
 72
     1
  1
15.6
 73
     1
 44
1.0
  0
POINT
  5
25F8
330
25EF
100
AcDbEntity
  8
Defpoints
 62
     0
100
AcDbPoint
 10
83.77065742666397
 20
124.4445902410338
 30
0.0
  0
POINT
  5
25F9
330
25EF
100
AcDbEntity
  8
Defpoints
 62
     0
100
AcDbPoint
 10
114.970657426664
 20
109.6344180183127
 30
0.0
  0
POINT
  5
25FA
330
25EF
100
AcDbEntity
  8
Defpoints
 62
     0
100
AcDbPoint
 10
114.970657426664
 20
124.4445902410338
 30
0.0
  0
ENDBLK
  5
25F1
330
25EF
100
AcDbEntity
  8
0
100
AcDbBlockEnd
  0
BLOCK
  5
2601
330
2600
100
AcDbEntity
  8
0
100
AcDbBlockBegin
  2
*D19
 70
     1
 10
0.0
 20
0.0
 30
0.0
  3
*D19
  1
*D238
  0
LINE
  5
2603
330
2600
100
AcDbEntity
  8
寸法
  6
Continuous
 62
     0
370
    -2
100
AcDbLine
 10
114.970657426664
 20
110.2594180183127
 30
0.0
 11
114.970657426664
 21
125.6945902410338
 31
0.0
  0
LINE
  5
2604
330
2600
100
AcDbEntity
  8
寸法
  6
Continuous
 62
     0
370
    -2
100
AcDbLine
 10
120.370657426664
 20
113.2046652516884
 30
0.0
 11
120.370657426664
 21
125.6945902410338
 31
0.0
  0
LINE
  5
2605
330
2600
100
AcDbEntity
  8
寸法
  6
Continuous
 62
     0
370
    -2
100
AcDbLine
 10
112.470657426664
 20
124.4445902410338
 30
0.0
 11
109.970657426664
 21
124.4445902410338
 31
0.0
  0
LINE
  5
2606
330
2600
100
AcDbEntity
  8
寸法
  6
Continuous
 62
     0
370
    -2
100
AcDbLine
 10
122.870657426664
 20
124.4445902410338
 30
0.0
 11
125.370657426664
 21
124.4445902410338
 31
0.0
  0
SOLID
  5
2607
330
2600
100
AcDbEntity
  8
寸法
 62
     0
100
AcDbTrace
 10
112.470657426664
 20
124.0279235743672
 30
0.0
 11
112.470657426664
 21
124.8612569077005
 31
0.0
 12
114.970657426664
 22
124.4445902410338
 32
0.0
 13
114.970657426664
 23
124.4445902410338
 33
0.0
  0
SOLID
  5
2608
330
2600
100
AcDbEntity
  8
寸法
 62
     0
100
AcDbTrace
 10
122.870657426664
 20
124.8612569077005
 30
0.0
 11
122.870657426664
 21
124.0279235743672
 31
0.0
 12
120.370657426664
 22
124.4445902410338
 32
0.0
 13
120.370657426664
 23
124.4445902410338
 33
0.0
  0
MTEXT
  5
2609
330
2600
100
AcDbEntity
  8
寸法
  6
Continuous
 62
     0
100
AcDbMText
 10
118.8115407186223
 20
129.1757618596117
 30
0.0
 40
5.0
 41
0.0
 46
0.0
 71
     5
 72
     1
  1
2.7
 73
     1
 44
1.0
  0
POINT
  5
260A
330
2600
100
AcDbEntity
  8
Defpoints
 62
     0
100
AcDbPoint
 10
114.970657426664
 20
109.6344180183127
 30
0.0
  0
POINT
  5
260B
330
2600
100
AcDbEntity
  8
Defpoints
 62
     0
100
AcDbPoint
 10
120.370657426664
 20
112.5796652516884
 30
0.0
  0
POINT
  5
260C
330
2600
100
AcDbEntity
  8
Defpoints
 62
     0
100
AcDbPoint
 10
120.370657426664
 20
124.4445902410338
 30
0.0
  0
ENDBLK
  5
2602
330
2600
100
AcDbEntity
  8
0
100
AcDbBlockEnd
  0
BLOCK
  5
2611
330
2610
100
AcDbEntity
  8
0
100
AcDbBlockBegin
  2
*D20
 70
     1
 10
0.0
 20
0.0
 30
0.0
  3
*D20
  1
*D239
  0
LINE
  5
2613
330
2610
100
AcDbEntity
  8
寸法
  6
Continuous
 62
     0
370
    -2
100
AcDbLine
 10
82.37065742666397
 20
108.7546652516883
 30
0.0
 11
82.37065742666397
 21
106.6834531788409
 31
0.0
  0
LINE
  5
2614
330
2610
100
AcDbEntity
  8
寸法
  6
Continuous
 62
     0
370
    -2
100
AcDbLine
 10
83.770657426664
 20
109.1546652516883
 30
0.0
 11
83.770657426664
 21
106.6834531788409
 31
0.0
  0
LINE
  5
2615
330
2610
100
AcDbEntity
  8
寸法
  6
Continuous
 62
     0
370
    -2
100
AcDbLine
 10
79.87065742666397
 20
107.9334531788409
 30
0.0
 11
77.37065742666397
 21
107.9334531788409
 31
0.0
  0
LINE
  5
2616
330
2610
100
AcDbEntity
  8
寸法
  6
Continuous
 62
     0
370
    -2
100
AcDbLine
 10
86.270657426664
 20
107.9334531788409
 30
0.0
 11
88.770657426664
 21
107.9334531788409
 31
0.0
  0
SOLID
  5
2617
330
2610
100
AcDbEntity
  8
寸法
 62
     0
100
AcDbTrace
 10
79.87065742666397
 20
107.5167865121742
 30
0.0
 11
79.87065742666397
 21
108.3501198455075
 31
0.0
 12
82.37065742666397
 22
107.9334531788409
 32
0.0
 13
82.37065742666397
 23
107.9334531788409
 33
0.0
  0
SOLID
  5
2618
330
2610
100
AcDbEntity
  8
寸法
 62
     0
100
AcDbTrace
 10
86.270657426664
 20
108.3501198455075
 30
0.0
 11
86.270657426664
 21
107.5167865121742
 31
0.0
 12
83.770657426664
 22
107.9334531788409
 32
0.0
 13
83.770657426664
 23
107.9334531788409
 33
0.0
  0
MTEXT
  5
2619
330
2610
100
AcDbEntity
  8
寸法
  6
Continuous
 62
     0
100
AcDbMText
 10
87.72716667245598
 20
99.63104688527415
 30
0.0
 40
5.0
 41
0.0
 46
0.0
 71
     5
 72
     1
  1
0.7
 73
     1
 44
1.0
  0
POINT
  5
261A
330
2610
100
AcDbEntity
  8
Defpoints
 62
     0
100
AcDbPoint
 10
82.37065742666397
 20
109.3796652516883
 30
0.0
  0
POINT
  5
261B
330
2610
100
AcDbEntity
  8
Defpoints
 62
     0
100
AcDbPoint
 10
83.770657426664
 20
109.7796652516883
 30
0.0
  0
POINT
  5
261C
330
2610
100
AcDbEntity
  8
Defpoints
 62
     0
100
AcDbPoint
 10
83.770657426664
 20
107.9334531788409
 30
0.0
  0
ENDBLK
  5
2612
330
2610
100
AcDbEntity
  8
0
100
AcDbBlockEnd
  0
BLOCK
  5
2641
330
2640
100
AcDbEntity
  8
0
100
AcDbBlockBegin
  2
*D21
 70
     1
 10
0.0
 20
0.0
 30
0.0
  3
*D21
  1
*D242
  0
LINE
  5
2643
330
2640
100
AcDbEntity
  8
寸法
  6
Continuous
 62
     0
370
    -2
100
AcDbLine
 10
74.37065742666397
 20
156.92365946724
 30
0.0
 11
74.37065742666397
 21
145.9412177499177
 31
0.0
  0
LINE
  5
2644
330
2640
100
AcDbEntity
  8
寸法
  6
Continuous
 62
     0
370
    -2
100
AcDbLine
 10
78.370657426664
 20
157.32365946724
 30
0.0
 11
78.370657426664
 21
145.9412177499177
 31
0.0
  0
LINE
  5
2645
330
2640
100
AcDbEntity
  8
寸法
  6
Continuous
 62
     0
370
    -2
100
AcDbLine
 10
71.87065742666397
 20
147.1912177499177
 30
0.0
 11
69.37065742666397
 21
147.1912177499177
 31
0.0
  0
LINE
  5
2646
330
2640
100
AcDbEntity
  8
寸法
  6
Continuous
 62
     0
370
    -2
100
AcDbLine
 10
80.870657426664
 20
147.1912177499177
 30
0.0
 11
83.370657426664
 21
147.1912177499177
 31
0.0
  0
SOLID
  5
2647
330
2640
100
AcDbEntity
  8
寸法
 62
     0
100
AcDbTrace
 10
71.87065742666397
 20
146.7745510832511
 30
0.0
 11
71.87065742666397
 21
147.6078844165844
 31
0.0
 12
74.37065742666397
 22
147.1912177499177
 32
0.0
 13
74.37065742666397
 23
147.1912177499177
 33
0.0
  0
SOLID
  5
2648
330
2640
100
AcDbEntity
  8
寸法
 62
     0
100
AcDbTrace
 10
80.870657426664
 20
147.6078844165844
 30
0.0
 11
80.870657426664
 21
146.7745510832511
 31
0.0
 12
78.370657426664
 22
147.1912177499177
 32
0.0
 13
78.370657426664
 23
147.1912177499177
 33
0.0
  0
MTEXT
  5
2649
330
2640
100
AcDbEntity
  8
寸法
  6
Continuous
 62
     0
100
AcDbMText
 10
76.41864388803158
 20
142.733222978094
 30
0.0
 40
5.0
 41
0.0
 46
0.0
 71
     5
 72
     1
  1
2
 73
     1
 44
1.0
  0
POINT
  5
264A
330
2640
100
AcDbEntity
  8
Defpoints
 62
     0
100
AcDbPoint
 10
74.37065742666397
 20
157.54865946724
 30
0.0
  0
POINT
  5
264B
330
2640
100
AcDbEntity
  8
Defpoints
 62
     0
100
AcDbPoint
 10
78.370657426664
 20
157.94865946724
 30
0.0
  0
POINT
  5
264C
330
2640
100
AcDbEntity
  8
Defpoints
 62
     0
100
AcDbPoint
 10
78.370657426664
 20
147.1912177499177
 30
0.0
  0
ENDBLK
  5
2642
330
2640
100
AcDbEntity
  8
0
100
AcDbBlockEnd
  0
BLOCK
  5
2672
330
2671
100
AcDbEntity
  8
0
100
AcDbBlockBegin
  2
*D22
 70
     1
 10
0.0
 20
0.0
 30
0.0
  3
*D22
  1
*D245
  0
LINE
  5
2674
330
2671
100
AcDbEntity
  8
寸法
  6
Continuous
 62
     0
370
    -2
100
AcDbLine
 10
82.57065742666397
 20
156.4084680904751
 30
0.0
 11
82.57065742666397
 21
145.9412177499177
 31
0.0
  0
LINE
  5
2675
330
2671
100
AcDbEntity
  8
寸法
  6
Continuous
 62
     0
370
    -2
100
AcDbLine
 10
86.97065742666399
 20
156.3470951443404
 30
0.0
 11
86.97065742666399
 21
145.9412177499177
 31
0.0
  0
LINE
  5
2676
330
2671
100
AcDbEntity
  8
寸法
  6
Continuous
 62
     0
370
    -2
100
AcDbLine
 10
80.07065742666397
 20
147.1912177499177
 30
0.0
 11
77.57065742666397
 21
147.1912177499177
 31
0.0
  0
LINE
  5
2677
330
2671
100
AcDbEntity
  8
寸法
  6
Continuous
 62
     0
370
    -2
100
AcDbLine
 10
89.47065742666399
 20
147.1912177499177
 30
0.0
 11
91.97065742666399
 21
147.1912177499177
 31
0.0
  0
SOLID
  5
2678
330
2671
100
AcDbEntity
  8
寸法
 62
     0
100
AcDbTrace
 10
80.07065742666397
 20
146.7745510832511
 30
0.0
 11
80.07065742666397
 21
147.6078844165844
 31
0.0
 12
82.57065742666397
 22
147.1912177499177
 32
0.0
 13
82.57065742666397
 23
147.1912177499177
 33
0.0
  0
SOLID
  5
2679
330
2671
100
AcDbEntity
  8
寸法
 62
     0
100
AcDbTrace
 10
89.47065742666399
 20
147.6078844165844
 30
0.0
 11
89.47065742666399
 21
146.7745510832511
 31
0.0
 12
86.97065742666399
 22
147.1912177499177
 32
0.0
 13
86.97065742666399
 23
147.1912177499177
 33
0.0
  0
MTEXT
  5
267A
330
2671
100
AcDbEntity
  8
寸法
  6
Continuous
 62
     0
100
AcDbMText
 10
85.90314414317174
 20
142.7793880904751
 30
0.0
 40
5.0
 41
0.0
 46
0.0
 71
     5
 72
     1
  1
2.2
 73
     1
 44
1.0
  0
POINT
  5
267B
330
2671
100
AcDbEntity
  8
Defpoints
 62
     0
100
AcDbPoint
 10
82.57065742666397
 20
157.0334680904751
 30
0.0
  0
POINT
  5
267C
330
2671
100
AcDbEntity
  8
Defpoints
 62
     0
100
AcDbPoint
 10
86.97065742666399
 20
156.9720951443404
 30
0.0
  0
POINT
  5
271E
330
2671
100
AcDbEntity
  8
Defpoints
 62
     0
100
AcDbPoint
 10
86.97065742666399
 20
147.1912177499177
 30
0.0
  0
ENDBLK
  5
2673
330
2671
100
AcDbEntity
  8
0
100
AcDbBlockEnd
  0
BLOCK
  5
2683
330
2682
100
AcDbEntity
  8
0
100
AcDbBlockBegin
  2
*D23
 70
     1
 10
0.0
 20
0.0
 30
0.0
  3
*D23
  1
*D246
  0
LINE
  5
2685
330
2682
100
AcDbEntity
  8
寸法
  6
Continuous
 62
     0
370
    -2
100
AcDbLine
 10
111.770657426664
 20
158.6964103860318
 30
0.0
 11
111.770657426664
 21
145.9412177499177
 31
0.0
  0
LINE
  5
2686
330
2682
100
AcDbEntity
  8
寸法
  6
Continuous
 62
     0
370
    -2
100
AcDbLine
 10
116.170657426664
 20
159.2364729358646
 30
0.0
 11
116.170657426664
 21
145.9412177499177
 31
0.0
  0
LINE
  5
2687
330
2682
100
AcDbEntity
  8
寸法
  6
Continuous
 62
     0
370
    -2
100
AcDbLine
 10
109.270657426664
 20
147.1912177499177
 30
0.0
 11
106.770657426664
 21
147.1912177499177
 31
0.0
  0
LINE
  5
2688
330
2682
100
AcDbEntity
  8
寸法
  6
Continuous
 62
     0
370
    -2
100
AcDbLine
 10
118.670657426664
 20
147.1912177499177
 30
0.0
 11
121.170657426664
 21
147.1912177499177
 31
0.0
  0
SOLID
  5
2689
330
2682
100
AcDbEntity
  8
寸法
 62
     0
100
AcDbTrace
 10
109.270657426664
 20
146.7745510832511
 30
0.0
 11
109.270657426664
 21
147.6078844165844
 31
0.0
 12
111.770657426664
 22
147.1912177499177
 32
0.0
 13
111.770657426664
 23
147.1912177499177
 33
0.0
  0
SOLID
  5
268A
330
2682
100
AcDbEntity
  8
寸法
 62
     0
100
AcDbTrace
 10
118.670657426664
 20
147.6078844165844
 30
0.0
 11
118.670657426664
 21
146.7745510832511
 31
0.0
 12
116.170657426664
 22
147.1912177499177
 32
0.0
 13
116.170657426664
 23
147.1912177499177
 33
0.0
  0
MTEXT
  5
268B
330
2682
100
AcDbEntity
  8
寸法
  6
Continuous
 62
     0
100
AcDbMText
 10
110.5922793969724
 20
142.7303623139861
 30
0.0
 40
5.0
 41
0.0
 46
0.0
 71
     5
 72
     1
  1
2.2
 73
     1
 44
1.0
  0
POINT
  5
268C
330
2682
100
AcDbEntity
  8
Defpoints
 62
     0
100
AcDbPoint
 10
111.770657426664
 20
159.3214103860318
 30
0.0
  0
POINT
  5
268D
330
2682
100
AcDbEntity
  8
Defpoints
 62
     0
100
AcDbPoint
 10
116.170657426664
 20
159.8614729358646
 30
0.0
  0
POINT
  5
268E
330
2682
100
AcDbEntity
  8
Defpoints
 62
     0
100
AcDbPoint
 10
116.170657426664
 20
147.1912177499177
 30
0.0
  0
ENDBLK
  5
2684
330
2682
100
AcDbEntity
  8
0
100
AcDbBlockEnd
  0
BLOCK
  5
2693
330
2692
100
AcDbEntity
  8
0
100
AcDbBlockBegin
  2
*D24
 70
     1
 10
0.0
 20
0.0
 30
0.0
  3
*D24
  1
*D247
  0
LINE
  5
2695
330
2692
100
AcDbEntity
  8
寸法
  6
Continuous
 62
     0
370
    -2
100
AcDbLine
 10
116.170657426664
 20
158.6114729358646
 30
0.0
 11
116.170657426664
 21
145.9412177499177
 31
0.0
  0
LINE
  5
2696
330
2692
100
AcDbEntity
  8
寸法
  6
Continuous
 62
     0
370
    -2
100
AcDbLine
 10
120.370657426664
 20
159.3191746337895
 30
0.0
 11
120.370657426664
 21
145.9412177499177
 31
0.0
  0
LINE
  5
2697
330
2692
100
AcDbEntity
  8
寸法
  6
Continuous
 62
     0
370
    -2
100
AcDbLine
 10
113.670657426664
 20
147.1912177499177
 30
0.0
 11
111.170657426664
 21
147.1912177499177
 31
0.0
  0
LINE
  5
2698
330
2692
100
AcDbEntity
  8
寸法
  6
Continuous
 62
     0
370
    -2
100
AcDbLine
 10
122.870657426664
 20
147.1912177499177
 30
0.0
 11
125.370657426664
 21
147.1912177499177
 31
0.0
  0
SOLID
  5
2699
330
2692
100
AcDbEntity
  8
寸法
 62
     0
100
AcDbTrace
 10
113.670657426664
 20
146.7745510832511
 30
0.0
 11
113.670657426664
 21
147.6078844165844
 31
0.0
 12
116.170657426664
 22
147.1912177499177
 32
0.0
 13
116.170657426664
 23
147.1912177499177
 33
0.0
  0
SOLID
  5
269A
330
2692
100
AcDbEntity
  8
寸法
 62
     0
100
AcDbTrace
 10
122.870657426664
 20
147.6078844165844
 30
0.0
 11
122.870657426664
 21
146.7745510832511
 31
0.0
 12
120.370657426664
 22
147.1912177499177
 32
0.0
 13
120.370657426664
 23
147.1912177499177
 33
0.0
  0
MTEXT
  5
269B
330
2692
100
AcDbEntity
  8
寸法
  6
Continuous
 62
     0
100
AcDbMText
 10
120.8603662541152
 20
142.8263257425575
 30
0.0
 40
5.0
 41
0.0
 46
0.0
 71
     5
 72
     1
  1
2.1
 73
     1
 44
1.0
  0
POINT
  5
269C
330
2692
100
AcDbEntity
  8
Defpoints
 62
     0
100
AcDbPoint
 10
116.170657426664
 20
159.2364729358646
 30
0.0
  0
POINT
  5
269D
330
2692
100
AcDbEntity
  8
Defpoints
 62
     0
100
AcDbPoint
 10
120.370657426664
 20
159.9441746337895
 30
0.0
  0
POINT
  5
269E
330
2692
100
AcDbEntity
  8
Defpoints
 62
     0
100
AcDbPoint
 10
120.370657426664
 20
147.1912177499177
 30
0.0
  0
ENDBLK
  5
2694
330
2692
100
AcDbEntity
  8
0
100
AcDbBlockEnd
  0
BLOCK
  5
26A3
330
26A2
100
AcDbEntity
  8
0
100
AcDbBlockBegin
  2
*D25
 70
     1
 10
0.0
 20
0.0
 30
0.0
  3
*D25
  1
*D248
  0
LINE
  5
26A5
330
26A2
100
AcDbEntity
  8
寸法
  6
Continuous
 62
     0
370
    -2
100
AcDbLine
 10
123.4339743092099
 20
163.9486594672401
 30
0.0
 11
132.5495214232204
 21
163.9486594672401
 31
0.0
  0
LINE
  5
26A6
330
26A2
100
AcDbEntity
  8
寸法
  6
Continuous
 62
     0
370
    -2
100
AcDbLine
 10
123.3498434136381
 20
167.1486594672401
 30
0.0
 11
132.5495214232204
 21
167.1486594672401
 31
0.0
  0
LINE
  5
26A7
330
26A2
100
AcDbEntity
  8
寸法
  6
Continuous
 62
     0
370
    -2
100
AcDbLine
 10
131.2995214232204
 20
161.4486594672401
 30
0.0
 11
131.2995214232204
 21
158.9486594672401
 31
0.0
  0
LINE
  5
26A8
330
26A2
100
AcDbEntity
  8
寸法
  6
Continuous
 62
     0
370
    -2
100
AcDbLine
 10
131.2995214232204
 20
169.6486594672401
 30
0.0
 11
131.2995214232204
 21
172.1486594672401
 31
0.0
  0
SOLID
  5
26A9
330
26A2
100
AcDbEntity
  8
寸法
 62
     0
100
AcDbTrace
 10
131.7161880898871
 20
161.4486594672401
 30
0.0
 11
130.8828547565538
 21
161.4486594672401
 31
0.0
 12
131.2995214232204
 22
163.9486594672401
 32
0.0
 13
131.2995214232204
 23
163.9486594672401
 33
0.0
  0
SOLID
  5
26AA
330
26A2
100
AcDbEntity
  8
寸法
 62
     0
100
AcDbTrace
 10
130.8828547565538
 20
169.6486594672401
 30
0.0
 11
131.7161880898871
 21
169.6486594672401
 31
0.0
 12
131.2995214232204
 22
167.1486594672401
 32
0.0
 13
131.2995214232204
 23
167.1486594672401
 33
0.0
  0
MTEXT
  5
26AB
330
26A2
100
AcDbEntity
  8
寸法
  6
Continuous
 62
     0
100
AcDbMText
 10
140.0075192282891
 20
165.9698131541258
 30
0.0
 40
5.0
 41
0.0
 46
0.0
 71
     5
 72
     1
  1
1.6
 73
     1
 44
1.0
  0
POINT
  5
26AC
330
26A2
100
AcDbEntity
  8
Defpoints
 62
     0
100
AcDbPoint
 10
122.8089743092099
 20
163.9486594672401
 30
0.0
  0
POINT
  5
26AD
330
26A2
100
AcDbEntity
  8
Defpoints
 62
     0
100
AcDbPoint
 10
122.7248434136381
 20
167.1486594672401
 30
0.0
  0
POINT
  5
26AE
330
26A2
100
AcDbEntity
  8
Defpoints
 62
     0
100
AcDbPoint
 10
131.2995214232204
 20
167.1486594672401
 30
0.0
  0
ENDBLK
  5
26A4
330
26A2
100
AcDbEntity
  8
0
100
AcDbBlockEnd
  0
BLOCK
  5
26B3
330
26B2
100
AcDbEntity
  8
0
100
AcDbBlockBegin
  2
*D26
 70
     1
 10
0.0
 20
0.0
 30
0.0
  3
*D26
  1
*D249
  0
LINE
  5
26B5
330
26B2
100
AcDbEntity
  8
寸法
  6
Continuous
 62
     0
370
    -2
100
AcDbLine
 10
122.8645763147587
 20
159.9436418102187
 30
0.0
 11
132.5495214232204
 21
159.9436418102187
 31
0.0
  0
LINE
  5
26B6
330
26B2
100
AcDbEntity
  8
寸法
  6
Continuous
 62
     0
370
    -2
100
AcDbLine
 10
122.8089743092099
 20
163.9486594672401
 30
0.0
 11
132.5495214232204
 21
163.9486594672401
 31
0.0
  0
LINE
  5
26B7
330
26B2
100
AcDbEntity
  8
寸法
  6
Continuous
 62
     0
370
    -2
100
AcDbLine
 10
131.2995214232204
 20
157.4436418102187
 30
0.0
 11
131.2995214232204
 21
154.9436418102187
 31
0.0
  0
LINE
  5
26B8
330
26B2
100
AcDbEntity
  8
寸法
  6
Continuous
 62
     0
370
    -2
100
AcDbLine
 10
131.2995214232204
 20
166.4486594672401
 30
0.0
 11
131.2995214232204
 21
168.9486594672401
 31
0.0
  0
SOLID
  5
26B9
330
26B2
100
AcDbEntity
  8
寸法
 62
     0
100
AcDbTrace
 10
131.7161880898871
 20
157.4436418102187
 30
0.0
 11
130.8828547565538
 21
157.4436418102187
 31
0.0
 12
131.2995214232204
 22
159.9436418102187
 32
0.0
 13
131.2995214232204
 23
159.9436418102187
 33
0.0
  0
SOLID
  5
26BA
330
26B2
100
AcDbEntity
  8
寸法
 62
     0
100
AcDbTrace
 10
130.8828547565538
 20
166.4486594672401
 30
0.0
 11
131.7161880898871
 21
166.4486594672401
 31
0.0
 12
131.2995214232204
 22
163.9486594672401
 32
0.0
 13
131.2995214232204
 23
163.9486594672401
 33
0.0
  0
MTEXT
  5
26BB
330
26B2
100
AcDbEntity
  8
寸法
  6
Continuous
 62
     0
100
AcDbMText
 10
139.6844657207703
 20
159.8317965112699
 30
0.0
 40
5.0
 41
0.0
 46
0.0
 71
     5
 72
     1
  1
2
 73
     1
 44
1.0
  0
POINT
  5
26BC
330
26B2
100
AcDbEntity
  8
Defpoints
 62
     0
100
AcDbPoint
 10
122.2395763147587
 20
159.9436418102187
 30
0.0
  0
POINT
  5
26BD
330
26B2
100
AcDbEntity
  8
Defpoints
 62
     0
100
AcDbPoint
 10
122.1839743092099
 20
163.9486594672401
 30
0.0
  0
POINT
  5
26BE
330
26B2
100
AcDbEntity
  8
Defpoints
 62
     0
100
AcDbPoint
 10
131.2995214232204
 20
163.9486594672401
 30
0.0
  0
ENDBLK
  5
26B4
330
26B2
100
AcDbEntity
  8
0
100
AcDbBlockEnd
  0
BLOCK
  5
26C3
330
26C2
100
AcDbEntity
  8
0
100
AcDbBlockBegin
  2
*D27
 70
     1
 10
0.0
 20
0.0
 30
0.0
  3
*D27
  1
*D250
  0
LINE
  5
26C5
330
26C2
100
AcDbEntity
  8
寸法
  6
Continuous
 62
     0
370
    -2
100
AcDbLine
 10
123.3498434136381
 20
167.1486594672401
 30
0.0
 11
132.5495214232204
 21
167.1486594672401
 31
0.0
  0
LINE
  5
26C6
330
26C2
100
AcDbEntity
  8
寸法
  6
Continuous
 62
     0
370
    -2
100
AcDbLine
 10
120.3956574266639
 20
173.54865946724
 30
0.0
 11
132.5495214232204
 21
173.54865946724
 31
0.0
  0
LINE
  5
26C7
330
26C2
100
AcDbEntity
  8
寸法
  6
Continuous
 62
     0
370
    -2
100
AcDbLine
 10
131.2995214232204
 20
169.6486594672401
 30
0.0
 11
131.2995214232204
 21
171.04865946724
 31
0.0
  0
SOLID
  5
26C8
330
26C2
100
AcDbEntity
  8
寸法
 62
     0
100
AcDbTrace
 10
130.8828547565538
 20
169.6486594672401
 30
0.0
 11
131.7161880898871
 21
169.6486594672401
 31
0.0
 12
131.2995214232204
 22
167.1486594672401
 32
0.0
 13
131.2995214232204
 23
167.1486594672401
 33
0.0
  0
SOLID
  5
26C9
330
26C2
100
AcDbEntity
  8
寸法
 62
     0
100
AcDbTrace
 10
131.7161880898871
 20
171.04865946724
 30
0.0
 11
130.8828547565538
 21
171.04865946724
 31
0.0
 12
131.2995214232204
 22
173.54865946724
 32
0.0
 13
131.2995214232204
 23
173.54865946724
 33
0.0
  0
MTEXT
  5
26CA
330
26C2
100
AcDbEntity
  8
寸法
  6
Continuous
 62
     0
100
AcDbMText
 10
139.8782978252816
 20
171.9139976924706
 30
0.0
 40
5.0
 41
0.0
 46
0.0
 71
     5
 72
     1
  1
3.2
 73
     1
 44
1.0
  0
POINT
  5
26CB
330
26C2
100
AcDbEntity
  8
Defpoints
 62
     0
100
AcDbPoint
 10
122.7248434136381
 20
167.1486594672401
 30
0.0
  0
POINT
  5
26CC
330
26C2
100
AcDbEntity
  8
Defpoints
 62
     0
100
AcDbPoint
 10
119.7706574266639
 20
173.54865946724
 30
0.0
  0
POINT
  5
26CD
330
26C2
100
AcDbEntity
  8
Defpoints
 62
     0
100
AcDbPoint
 10
131.2995214232204
 20
173.54865946724
 30
0.0
  0
ENDBLK
  5
26C4
330
26C2
100
AcDbEntity
  8
0
100
AcDbBlockEnd
  0
BLOCK
  5
2739
330
2738
100
AcDbEntity
  8
0
100
AcDbBlockBegin
  2
*D28
 70
     1
 10
0.0
 20
0.0
 30
0.0
  3
*D28
  1
*D255
  0
LINE
  5
273B
330
2738
100
AcDbEntity
  8
寸法
  6
Continuous
 62
     0
370
    -2
100
AcDbLine
 10
120.995657426664
 20
105.3796652516883
 30
0.0
 11
129.5924992000002
 21
105.3796652516883
 31
0.0
  0
LINE
  5
273C
330
2738
100
AcDbEntity
  8
寸法
  6
Continuous
 62
     0
370
    -2
100
AcDbLine
 10
120.995657426664
 20
102.9796652516883
 30
0.0
 11
129.5924992000002
 21
102.9796652516883
 31
0.0
  0
LINE
  5
273D
330
2738
100
AcDbEntity
  8
寸法
  6
Continuous
 62
     0
370
    -2
100
AcDbLine
 10
128.3424992000002
 20
107.8796652516883
 30
0.0
 11
128.3424992000002
 21
110.3796652516883
 31
0.0
  0
LINE
  5
273E
330
2738
100
AcDbEntity
  8
寸法
  6
Continuous
 62
     0
370
    -2
100
AcDbLine
 10
128.3424992000002
 20
100.4796652516883
 30
0.0
 11
128.3424992000002
 21
97.97966525168835
 31
0.0
  0
SOLID
  5
273F
330
2738
100
AcDbEntity
  8
寸法
 62
     0
100
AcDbTrace
 10
127.9258325333335
 20
107.8796652516883
 30
0.0
 11
128.7591658666668
 21
107.8796652516883
 31
0.0
 12
128.3424992000002
 22
105.3796652516883
 32
0.0
 13
128.3424992000002
 23
105.3796652516883
 33
0.0
  0
SOLID
  5
2740
330
2738
100
AcDbEntity
  8
寸法
 62
     0
100
AcDbTrace
 10
128.7591658666668
 20
100.4796652516883
 30
0.0
 11
127.9258325333335
 21
100.4796652516883
 31
0.0
 12
128.3424992000002
 22
102.9796652516883
 32
0.0
 13
128.3424992000002
 23
102.9796652516883
 33
0.0
  0
MTEXT
  5
2741
330
2738
100
AcDbEntity
  8
寸法
  6
Continuous
 62
     0
100
AcDbMText
 10
128.3424992000002
 20
96.56199679999997
 30
0.0
 40
5.0
 41
0.0
 46
0.0
 71
     5
 72
     1
  1
1.2
 73
     1
 44
1.0
  0
POINT
  5
2742
330
2738
100
AcDbEntity
  8
Defpoints
 62
     0
100
AcDbPoint
 10
120.370657426664
 20
105.3796652516883
 30
0.0
  0
POINT
  5
2743
330
2738
100
AcDbEntity
  8
Defpoints
 62
     0
100
AcDbPoint
 10
120.370657426664
 20
102.9796652516883
 30
0.0
  0
POINT
  5
2744
330
2738
100
AcDbEntity
  8
Defpoints
 62
     0
100
AcDbPoint
 10
128.3424992000002
 20
102.9796652516883
 30
0.0
  0
ENDBLK
  5
273A
330
2738
100
AcDbEntity
  8
0
100
AcDbBlockEnd
  0
BLOCK
  5
2749
330
2748
100
AcDbEntity
  8
0
100
AcDbBlockBegin
  2
*D29
 70
     1
 10
0.0
 20
0.0
 30
0.0
  3
*D29
  1
*D256
  0
LINE
  5
274B
330
2748
100
AcDbEntity
  8
寸法
  6
Continuous
 62
     0
370
    -2
100
AcDbLine
 10
97.94565742666396
 20
106.9796652516883
 30
0.0
 11
97.26160000000013
 21
106.9796652516883
 31
0.0
  0
LINE
  5
274C
330
2748
100
AcDbEntity
  8
寸法
  6
Continuous
 62
     0
370
    -2
100
AcDbLine
 10
97.94565742666396
 20
102.9796652516883
 30
0.0
 11
97.26160000000013
 21
102.9796652516883
 31
0.0
  0
LINE
  5
274D
330
2748
100
AcDbEntity
  8
寸法
  6
Continuous
 62
     0
370
    -2
100
AcDbLine
 10
98.51160000000013
 20
109.4796652516883
 30
0.0
 11
98.51160000000013
 21
111.9796652516883
 31
0.0
  0
LINE
  5
274E
330
2748
100
AcDbEntity
  8
寸法
  6
Continuous
 62
     0
370
    -2
100
AcDbLine
 10
98.51160000000013
 20
100.4796652516883
 30
0.0
 11
98.51160000000013
 21
97.97966525168835
 31
0.0
  0
SOLID
  5
274F
330
2748
100
AcDbEntity
  8
寸法
 62
     0
100
AcDbTrace
 10
98.09493333333346
 20
109.4796652516883
 30
0.0
 11
98.9282666666668
 21
109.4796652516883
 31
0.0
 12
98.51160000000013
 22
106.9796652516883
 32
0.0
 13
98.51160000000013
 23
106.9796652516883
 33
0.0
  0
SOLID
  5
2750
330
2748
100
AcDbEntity
  8
寸法
 62
     0
100
AcDbTrace
 10
98.9282666666668
 20
100.4796652516883
 30
0.0
 11
98.09493333333346
 21
100.4796652516883
 31
0.0
 12
98.51160000000013
 22
102.9796652516883
 32
0.0
 13
98.51160000000013
 23
102.9796652516883
 33
0.0
  0
MTEXT
  5
2751
330
2748
100
AcDbEntity
  8
寸法
  6
Continuous
 62
     0
100
AcDbMText
 10
98.51160000000013
 20
116.0655104
 30
0.0
 40
5.0
 41
0.0
 46
0.0
 71
     5
 72
     1
  1
2
 73
     1
 44
1.0
  0
POINT
  5
2752
330
2748
100
AcDbEntity
  8
Defpoints
 62
     0
100
AcDbPoint
 10
98.57065742666396
 20
106.9796652516883
 30
0.0
  0
POINT
  5
2753
330
2748
100
AcDbEntity
  8
Defpoints
 62
     0
100
AcDbPoint
 10
98.57065742666396
 20
102.9796652516883
 30
0.0
  0
POINT
  5
2754
330
2748
100
AcDbEntity
  8
Defpoints
 62
     0
100
AcDbPoint
 10
98.51160000000013
 20
102.9796652516883
 30
0.0
  0
ENDBLK
  5
274A
330
2748
100
AcDbEntity
  8
0
100
AcDbBlockEnd
  0
BLOCK
  5
2781
330
2780
100
AcDbEntity
  8
0
100
AcDbBlockBegin
  2
*D30
 70
     1
 10
0.0
 20
0.0
 30
0.0
  3
*D30
  1
*D258
  0
LINE
  5
2783
330
2780
100
AcDbEntity
  8
寸法
  6
Continuous
 62
     0
370
    -2
100
AcDbLine
 10
121.4749286257628
 20
175.6056939256527
 30
0.0
 11
122.6922651965477
 21
177.789289967376
 31
0.0
  0
MTEXT
  5
2784
330
2780
100
AcDbEntity
  8
寸法
  6
Continuous
 62
     0
100
AcDbMText
 10
134.2036754855001
 20
178.3450389265623
 30
0.0
 40
5.0
 41
0.0
 46
0.0
 71
     5
 72
     1
  1
R0.5
 73
     1
 44
1.0
  0
SOLID
  5
2785
330
2780
100
AcDbEntity
  8
寸法
 62
     0
100
AcDbTrace
 10
121.1109959521423
 20
175.8085833541168
 30
0.0
 11
121.8388612993834
 21
175.4028044971885
 31
0.0
 12
120.2575920549779
 22
173.4220978839294
 32
0.0
 13
120.2575920549779
 23
173.4220978839294
 33
0.0
  0
POINT
  5
2786
330
2780
100
AcDbEntity
  8
Defpoints
 62
     0
100
AcDbPoint
 10
120.2575920549779
 20
173.4220978839294
 30
0.0
  0
POINT
  5
2787
330
2780
100
AcDbEntity
  8
Defpoints
 62
     0
100
AcDbPoint
 10
119.7706574266639
 20
172.54865946724
 30
0.0
  0
ENDBLK
  5
2782
330
2780
100
AcDbEntity
  8
0
100
AcDbBlockEnd
  0
BLOCK
  5
28D2
330
28D1
100
AcDbEntity
  8
0
100
AcDbBlockBegin
  2
*D31
 70
     1
 10
0.0
 20
0.0
 30
0.0
  3
*D31
  1
*D261
  0
LINE
  5
28D4
330
28D1
100
AcDbEntity
  8
寸法
  6
Continuous
 62
     0
370
    -2
100
AcDbLine
 10
72.98026869845444
 20
159.5531935070345
 30
0.0
 11
44.35183872000002
 21
159.5531935070345
 31
0.0
  0
LINE
  5
28D5
330
28D1
100
AcDbEntity
  8
寸法
  6
Continuous
 62
     0
370
    -2
100
AcDbLine
 10
73.74565742666397
 20
157.54865946724
 30
0.0
 11
44.35183872000002
 21
157.54865946724
 31
0.0
  0
LINE
  5
28D6
330
28D1
100
AcDbEntity
  8
寸法
  6
Continuous
 62
     0
370
    -2
100
AcDbLine
 10
45.60183872000002
 20
162.0531935070345
 30
0.0
 11
45.60183872000002
 21
164.5531935070345
 31
0.0
  0
LINE
  5
28D7
330
28D1
100
AcDbEntity
  8
寸法
  6
Continuous
 62
     0
370
    -2
100
AcDbLine
 10
45.60183872000002
 20
155.04865946724
 30
0.0
 11
45.60183872000002
 21
152.54865946724
 31
0.0
  0
SOLID
  5
28D8
330
28D1
100
AcDbEntity
  8
寸法
 62
     0
100
AcDbTrace
 10
45.18517205333335
 20
162.0531935070345
 30
0.0
 11
46.01850538666668
 21
162.0531935070345
 31
0.0
 12
45.60183872000002
 22
159.5531935070345
 32
0.0
 13
45.60183872000002
 23
159.5531935070345
 33
0.0
  0
SOLID
  5
28D9
330
28D1
100
AcDbEntity
  8
寸法
 62
     0
100
AcDbTrace
 10
46.01850538666668
 20
155.04865946724
 30
0.0
 11
45.18517205333335
 21
155.04865946724
 31
0.0
 12
45.60183872000002
 22
157.54865946724
 32
0.0
 13
45.60183872000002
 23
157.54865946724
 33
0.0
  0
MTEXT
  5
28DA
330
28D1
100
AcDbEntity
  8
寸法
  6
Continuous
 62
     0
100
AcDbMText
 10
45.60183872000002
 20
149.5714687999999
 30
0.0
 40
5.0
 41
0.0
 46
0.0
 71
     5
 72
     1
  1
1
 73
     1
 44
1.0
  0
POINT
  5
28DB
330
28D1
100
AcDbEntity
  8
Defpoints
 62
     0
100
AcDbPoint
 10
73.60526869845444
 20
159.5531935070345
 30
0.0
  0
POINT
  5
28DC
330
28D1
100
AcDbEntity
  8
Defpoints
 62
     0
100
AcDbPoint
 10
74.37065742666397
 20
157.54865946724
 30
0.0
  0
POINT
  5
28DD
330
28D1
100
AcDbEntity
  8
Defpoints
 62
     0
100
AcDbPoint
 10
45.60183872000002
 20
157.54865946724
 30
0.0
  0
ENDBLK
  5
28D3
330
28D1
100
AcDbEntity
  8
0
100
AcDbBlockEnd
  0
BLOCK
  5
2BE7
330
2BE6
100
AcDbEntity
  8
0
100
AcDbBlockBegin
  2
*D32
 70
     1
 10
0.0
 20
0.0
 30
0.0
  3
*D32
  1
*D263
  0
LINE
  5
2BE9
330
2BE6
100
AcDbEntity
  8
寸法
  6
Continuous
 62
     0
370
    -2
100
AcDbLine
 10
131.0173588546639
 20
46.09412081215515
 30
0.0
 11
131.0173588546639
 21
49.86232218415495
 31
0.0
  0
LINE
  5
2BEA
330
2BE6
100
AcDbEntity
  8
寸法
  6
Continuous
 62
     0
370
    -2
100
AcDbLine
 10
134.017358854664
 20
46.09412081215515
 30
0.0
 11
134.017358854664
 21
49.86232218415495
 31
0.0
  0
LINE
  5
2BEB
330
2BE6
100
AcDbEntity
  8
寸法
  6
Continuous
 62
     0
370
    -2
100
AcDbLine
 10
128.5173588546639
 20
48.61232218415495
 30
0.0
 11
126.0173588546639
 21
48.61232218415495
 31
0.0
  0
LINE
  5
2BEC
330
2BE6
100
AcDbEntity
  8
寸法
  6
Continuous
 62
     0
370
    -2
100
AcDbLine
 10
136.517358854664
 20
48.61232218415495
 30
0.0
 11
139.017358854664
 21
48.61232218415495
 31
0.0
  0
SOLID
  5
2BED
330
2BE6
100
AcDbEntity
  8
寸法
 62
     0
100
AcDbTrace
 10
128.5173588546639
 20
48.19565551748828
 30
0.0
 11
128.5173588546639
 21
49.02898885082161
 31
0.0
 12
131.0173588546639
 22
48.61232218415495
 32
0.0
 13
131.0173588546639
 23
48.61232218415495
 33
0.0
  0
SOLID
  5
2BEE
330
2BE6
100
AcDbEntity
  8
寸法
 62
     0
100
AcDbTrace
 10
136.517358854664
 20
49.02898885082161
 30
0.0
 11
136.517358854664
 21
48.19565551748828
 31
0.0
 12
134.017358854664
 22
48.61232218415495
 32
0.0
 13
134.017358854664
 23
48.61232218415495
 33
0.0
  0
MTEXT
  5
2BEF
330
2BE6
100
AcDbEntity
  8
寸法
  6
Continuous
 62
     0
100
AcDbMText
 10
135.0769806974426
 20
53.49449204015497
 30
0.0
 40
5.0
 41
0.0
 46
0.0
 71
     5
 72
     1
  1
3
 73
     1
 44
1.0
  0
POINT
  5
2BF0
330
2BE6
100
AcDbEntity
  8
Defpoints
 62
     0
100
AcDbPoint
 10
131.0173588546639
 20
45.46912081215515
 30
0.0
  0
POINT
  5
2BF1
330
2BE6
100
AcDbEntity
  8
Defpoints
 62
     0
100
AcDbPoint
 10
134.017358854664
 20
45.46912081215515
 30
0.0
  0
POINT
  5
2BF2
330
2BE6
100
AcDbEntity
  8
Defpoints
 62
     0
100
AcDbPoint
 10
134.017358854664
 20
48.61232218415495
 30
0.0
  0
ENDBLK
  5
2BE8
330
2BE6
100
AcDbEntity
  8
0
100
AcDbBlockEnd
  0
BLOCK
  5
2BF7
330
2BF6
100
AcDbEntity
  8
0
100
AcDbBlockBegin
  2
*D33
 70
     1
 10
0.0
 20
0.0
 30
0.0
  3
*D33
  1
*D264
  0
LINE
  5
2BF9
330
2BF6
100
AcDbEntity
  8
寸法
  6
Continuous
 62
     0
370
    -2
100
AcDbLine
 10
133.1423588546639
 20
43.96912081215504
 30
0.0
 11
140.8568290174426
 21
43.96912081215504
 31
0.0
  0
LINE
  5
2BFA
330
2BF6
100
AcDbEntity
  8
寸法
  6
Continuous
 62
     0
370
    -2
100
AcDbLine
 10
134.642358854664
 20
45.46912081215515
 30
0.0
 11
140.8568290174426
 21
45.46912081215515
 31
0.0
  0
LINE
  5
2BFB
330
2BF6
100
AcDbEntity
  8
寸法
  6
Continuous
 62
     0
370
    -2
100
AcDbLine
 10
139.6068290174426
 20
41.46912081215504
 30
0.0
 11
139.6068290174426
 21
38.96912081215504
 31
0.0
  0
LINE
  5
2BFC
330
2BF6
100
AcDbEntity
  8
寸法
  6
Continuous
 62
     0
370
    -2
100
AcDbLine
 10
139.6068290174426
 20
47.96912081215515
 30
0.0
 11
139.6068290174426
 21
50.46912081215515
 31
0.0
  0
SOLID
  5
2BFD
330
2BF6
100
AcDbEntity
  8
寸法
 62
     0
100
AcDbTrace
 10
140.0234956841093
 20
41.46912081215504
 30
0.0
 11
139.1901623507759
 21
41.46912081215504
 31
0.0
 12
139.6068290174426
 22
43.96912081215504
 32
0.0
 13
139.6068290174426
 23
43.96912081215504
 33
0.0
  0
SOLID
  5
2BFE
330
2BF6
100
AcDbEntity
  8
寸法
 62
     0
100
AcDbTrace
 10
139.1901623507759
 20
47.96912081215515
 30
0.0
 11
140.0234956841093
 21
47.96912081215515
 31
0.0
 12
139.6068290174426
 22
45.46912081215515
 32
0.0
 13
139.6068290174426
 23
45.46912081215515
 33
0.0
  0
MTEXT
  5
2BFF
330
2BF6
100
AcDbEntity
  8
寸法
  6
Continuous
 62
     0
100
AcDbMText
 10
139.6068290174426
 20
37.69035456815499
 30
0.0
 40
5.0
 41
0.0
 46
0.0
 71
     5
 72
     1
  1
1.5
 73
     1
 44
1.0
  0
POINT
  5
2C00
330
2BF6
100
AcDbEntity
  8
Defpoints
 62
     0
100
AcDbPoint
 10
132.5173588546639
 20
43.96912081215504
 30
0.0
  0
POINT
  5
2C01
330
2BF6
100
AcDbEntity
  8
Defpoints
 62
     0
100
AcDbPoint
 10
134.017358854664
 20
45.46912081215515
 30
0.0
  0
POINT
  5
2C02
330
2BF6
100
AcDbEntity
  8
Defpoints
 62
     0
100
AcDbPoint
 10
139.6068290174426
 20
45.46912081215515
 30
0.0
  0
ENDBLK
  5
2BF8
330
2BF6
100
AcDbEntity
  8
0
100
AcDbBlockEnd
  0
BLOCK
  5
2EA7
330
2EA6
100
AcDbEntity
  8
0
100
AcDbBlockBegin
  2
*D34
 70
     1
 10
0.0
 20
0.0
 30
0.0
  3
*D34
  1
*D300
  0
LINE
  5
2EA9
330
2EA6
100
AcDbEntity
  8
寸法
  6
Continuous
 62
     0
370
    -2
100
AcDbLine
 10
67.36258494403161
 20
173.5441254274457
 30
0.0
 11
60.93370106531317
 21
173.5441254274457
 31
0.0
  0
LINE
  5
2EAA
330
2EA6
100
AcDbEntity
  8
寸法
  6
Continuous
 62
     0
370
    -2
100
AcDbLine
 10
69.74565742666393
 20
171.1441254274458
 30
0.0
 11
60.93370106531317
 21
171.1441254274458
 31
0.0
  0
LINE
  5
2EAB
330
2EA6
100
AcDbEntity
  8
寸法
  6
Continuous
 62
     0
370
    -2
100
AcDbLine
 10
62.18370106531317
 20
176.0441254274457
 30
0.0
 11
62.18370106531317
 21
178.5441254274457
 31
0.0
  0
LINE
  5
2EAC
330
2EA6
100
AcDbEntity
  8
寸法
  6
Continuous
 62
     0
370
    -2
100
AcDbLine
 10
62.18370106531317
 20
168.6441254274458
 30
0.0
 11
62.18370106531317
 21
166.1441254274458
 31
0.0
  0
SOLID
  5
2EAD
330
2EA6
100
AcDbEntity
  8
寸法
 62
     0
100
AcDbTrace
 10
61.76703439864651
 20
176.0441254274457
 30
0.0
 11
62.60036773197984
 21
176.0441254274457
 31
0.0
 12
62.18370106531317
 22
173.5441254274457
 32
0.0
 13
62.18370106531317
 23
173.5441254274457
 33
0.0
  0
SOLID
  5
2EAE
330
2EA6
100
AcDbEntity
  8
寸法
 62
     0
100
AcDbTrace
 10
62.60036773197984
 20
168.6441254274458
 30
0.0
 11
61.76703439864651
 21
168.6441254274458
 31
0.0
 12
62.18370106531317
 22
171.1441254274458
 32
0.0
 13
62.18370106531317
 23
171.1441254274458
 33
0.0
  0
MTEXT
  5
2EAF
330
2EA6
100
AcDbEntity
  8
寸法
  6
Continuous
 62
     0
100
AcDbMText
 10
55.593409511931
 20
170.865455319973
 30
0.0
 40
5.0
 41
0.0
 46
0.0
 71
     5
 72
     1
  1
1.2
 73
     1
 44
1.0
  0
POINT
  5
2EB0
330
2EA6
100
AcDbEntity
  8
Defpoints
 62
     0
100
AcDbPoint
 10
67.98758494403161
 20
173.5441254274457
 30
0.0
  0
POINT
  5
2EB1
330
2EA6
100
AcDbEntity
  8
Defpoints
 62
     0
100
AcDbPoint
 10
70.37065742666393
 20
171.1441254274458
 30
0.0
  0
POINT
  5
2EB2
330
2EA6
100
AcDbEntity
  8
Defpoints
 62
     0
100
AcDbPoint
 10
62.18370106531317
 20
171.1441254274458
 30
0.0
  0
ENDBLK
  5
2EA8
330
2EA6
100
AcDbEntity
  8
0
100
AcDbBlockEnd
  0
BLOCK
  5
2EB4
330
2EB3
100
AcDbEntity
  8
0
100
AcDbBlockBegin
  2
*D35
 70
     1
 10
0.0
 20
0.0
 30
0.0
  3
*D35
  1
*D301
  0
LINE
  5
2EB6
330
2EB3
100
AcDbEntity
  8
寸法
  6
Continuous
 62
     0
370
    -2
100
AcDbLine
 10
67.79560204738374
 20
169.9145873642084
 30
0.0
 11
70.37065742666393
 21
167.5441254274457
 31
0.0
  0
MTEXT
  5
2EB7
330
2EB3
100
AcDbEntity
  8
寸法
  6
Continuous
 62
     0
100
AcDbMText
 10
56.07319999999997
 20
179.3362659602057
 30
0.0
 40
5.0
 41
0.0
 46
0.0
 71
     5
 72
     1
  1
R3
 73
     1
 44
1.0
  0
SOLID
  5
2EB8
330
2EB3
100
AcDbEntity
  8
寸法
 62
     0
100
AcDbTrace
 10
68.07779989699833
 20
170.2211415760274
 30
0.0
 11
67.51340419776915
 21
169.6080331523893
 31
0.0
 12
65.95627677646934
 22
171.6077744618959
 32
0.0
 13
65.95627677646934
 23
171.6077744618959
 33
0.0
  0
POINT
  5
2EB9
330
2EB3
100
AcDbEntity
  8
Defpoints
 62
     0
100
AcDbPoint
 10
65.95627677646934
 20
171.6077744618959
 30
0.0
  0
POINT
  5
2EBA
330
2EB3
100
AcDbEntity
  8
Defpoints
 62
     0
100
AcDbPoint
 10
70.37065742666393
 20
167.5441254274457
 30
0.0
  0
ENDBLK
  5
2EB5
330
2EB3
100
AcDbEntity
  8
0
100
AcDbBlockEnd
  0
BLOCK
  5
2EC5
330
2EC4
100
AcDbEntity
  8
0
100
AcDbBlockBegin
  2
*D36
 70
     1
 10
0.0
 20
0.0
 30
0.0
  3
*D36
  1
*D302
  0
LINE
  5
2EC7
330
2EC4
100
AcDbEntity
  8
寸法
  6
Continuous
 62
     0
370
    -2
100
AcDbLine
 10
71.21783141416715
 20
158.7865190048686
 30
0.0
 11
70.37065742666397
 21
157.54865946724
 31
0.0
  0
MTEXT
  5
2EC8
330
2EC4
100
AcDbEntity
  8
寸法
  6
Continuous
 62
     0
100
AcDbMText
 10
67.39208388803159
 20
152.6294515495225
 30
0.0
 40
5.0
 41
0.0
 46
0.0
 71
     5
 72
     1
  1
R2
 73
     1
 44
1.0
  0
SOLID
  5
2EC9
330
2EC4
100
AcDbEntity
  8
寸法
 62
     0
100
AcDbTrace
 10
71.56168128573064
 20
158.5511928972288
 30
0.0
 11
70.87398154260366
 21
159.0218451125083
 31
0.0
 12
72.62978806000578
 22
160.8496182342495
 32
0.0
 13
72.62978806000578
 23
160.8496182342495
 33
0.0
  0
POINT
  5
2ECA
330
2EC4
100
AcDbEntity
  8
Defpoints
 62
     0
100
AcDbPoint
 10
72.62978806000578
 20
160.8496182342495
 30
0.0
  0
POINT
  5
2ECB
330
2EC4
100
AcDbEntity
  8
Defpoints
 62
     0
100
AcDbPoint
 10
70.37065742666397
 20
157.54865946724
 30
0.0
  0
ENDBLK
  5
2EC6
330
2EC4
100
AcDbEntity
  8
0
100
AcDbBlockEnd
  0
BLOCK
  5
399C
330
399B
100
AcDbEntity
  8
0
100
AcDbBlockBegin
  2
*D37
 70
     1
 10
0.0
 20
0.0
 30
0.0
  3
*D37
  1
*D377
  0
LINE
  5
399E
330
399B
100
AcDbEntity
  8
寸法
  6
Continuous
 62
     0
370
    -2
100
AcDbLine
 10
88.59565742666399
 20
167.1486594672401
 30
0.0
 11
94.82988437182206
 21
167.1486594672401
 31
0.0
  0
LINE
  5
399F
330
399B
100
AcDbEntity
  8
寸法
  6
Continuous
 62
     0
370
    -2
100
AcDbLine
 10
86.77347646325063
 20
160.1486594672401
 30
0.0
 11
94.82988437182206
 21
160.1486594672401
 31
0.0
  0
LINE
  5
39A0
330
399B
100
AcDbEntity
  8
寸法
  6
Continuous
 62
     0
370
    -2
100
AcDbLine
 10
93.57988437182206
 20
164.6486594672401
 30
0.0
 11
93.57988437182206
 21
162.6486594672401
 31
0.0
  0
SOLID
  5
39A1
330
399B
100
AcDbEntity
  8
寸法
 62
     0
100
AcDbTrace
 10
93.99655103848873
 20
164.6486594672401
 30
0.0
 11
93.16321770515539
 21
164.6486594672401
 31
0.0
 12
93.57988437182206
 22
167.1486594672401
 32
0.0
 13
93.57988437182206
 23
167.1486594672401
 33
0.0
  0
SOLID
  5
39A2
330
399B
100
AcDbEntity
  8
寸法
 62
     0
100
AcDbTrace
 10
93.16321770515539
 20
162.6486594672401
 30
0.0
 11
93.99655103848873
 21
162.6486594672401
 31
0.0
 12
93.57988437182206
 22
160.1486594672401
 32
0.0
 13
93.57988437182206
 23
160.1486594672401
 33
0.0
  0
MTEXT
  5
39A3
330
399B
100
AcDbEntity
  8
寸法
  6
Continuous
 62
     0
100
AcDbMText
 10
100.0286267718221
 20
163.0423886670308
 30
0.0
 40
5.0
 41
0.0
 46
0.0
 71
     5
 72
     1
  1
3.5
 73
     1
 44
1.0
  0
POINT
  5
39A4
330
399B
100
AcDbEntity
  8
Defpoints
 62
     0
100
AcDbPoint
 10
87.97065742666399
 20
167.1486594672401
 30
0.0
  0
POINT
  5
39A5
330
399B
100
AcDbEntity
  8
Defpoints
 62
     0
100
AcDbPoint
 10
86.14847646325063
 20
160.1486594672401
 30
0.0
  0
POINT
  5
39A6
330
399B
100
AcDbEntity
  8
Defpoints
 62
     0
100
AcDbPoint
 10
93.57988437182206
 20
160.1486594672401
 30
0.0
  0
ENDBLK
  5
399D
330
399B
100
AcDbEntity
  8
0
100
AcDbBlockEnd
  0
BLOCK
  5
3AC2
330
3AC1
100
AcDbEntity
  8
0
100
AcDbBlockBegin
  2
*D38
 70
     1
 10
0.0
 20
0.0
 30
0.0
  3
*D38
  1

  0
LINE
  5
3AC4
330
3AC1
100
AcDbEntity
  8
寸法
  6
Continuous
 62
     0
370
    -2
100
AcDbLine
 10
73.20636907936509
 20
107.4827397681963
 30
0.0
 11
73.20636907936509
 21
118.3251408164037
 31
0.0
  0
LINE
  5
3AC5
330
3AC1
100
AcDbEntity
  8
寸法
  6
Continuous
 62
     0
370
    -2
100
AcDbLine
 10
101.2063690793651
 20
107.2827397681964
 30
0.0
 11
101.2063690793651
 21
118.3251408164037
 31
0.0
  0
LINE
  5
3AC6
330
3AC1
100
AcDbEntity
  8
寸法
  6
Continuous
 62
     0
370
    -2
100
AcDbLine
 10
75.70636907936509
 20
117.0751408164037
 30
0.0
 11
86.12287180702218
 21
117.0751408164037
 31
0.0
  0
LINE
  5
3AC7
330
3AC1
100
AcDbEntity
  8
寸法
  6
Continuous
 62
     0
370
    -2
100
AcDbLine
 10
98.70636907936512
 20
117.0751408164037
 30
0.0
 11
91.53953847368884
 21
117.0751408164037
 31
0.0
  0
SOLID
  5
3AC8
330
3AC1
100
AcDbEntity
  8
寸法
 62
     0
100
AcDbTrace
 10
75.70636907936509
 20
117.4918074830704
 30
0.0
 11
75.70636907936509
 21
116.658474149737
 31
0.0
 12
73.20636907936509
 22
117.0751408164037
 32
0.0
 13
73.20636907936509
 23
117.0751408164037
 33
0.0
  0
SOLID
  5
3AC9
330
3AC1
100
AcDbEntity
  8
寸法
 62
     0
100
AcDbTrace
 10
98.70636907936512
 20
116.658474149737
 30
0.0
 11
98.70636907936512
 21
117.4918074830704
 31
0.0
 12
101.2063690793651
 22
117.0751408164037
 32
0.0
 13
101.2063690793651
 23
117.0751408164037
 33
0.0
  0
MTEXT
  5
3ACA
330
3AC1
100
AcDbEntity
  8
寸法
  6
Continuous
 62
     0
100
AcDbMText
 10
88.83120514035551
 20
117.0751408164037
 30
0.0
 40
2.5
 41
0.0
 46
0.0
 71
     5
 72
     1
  1
28
 73
     1
 44
1.0
  0
POINT
  5
3ACB
330
3AC1
100
AcDbEntity
  8
Defpoints
 62
     0
100
AcDbPoint
 10
73.20636907936509
 20
106.8577397681963
 30
0.0
  0
POINT
  5
3ACC
330
3AC1
100
AcDbEntity
  8
Defpoints
 62
     0
100
AcDbPoint
 10
101.2063690793651
 20
106.6577397681964
 30
0.0
  0
POINT
  5
3ACD
330
3AC1
100
AcDbEntity
  8
Defpoints
 62
     0
100
AcDbPoint
 10
101.2063690793651
 20
117.0751408164037
 30
0.0
  0
ENDBLK
  5
3AC3
330
3AC1
100
AcDbEntity
  8
0
100
AcDbBlockEnd
  0
BLOCK
  5
3AD2
330
3AD1
100
AcDbEntity
  8
0
100
AcDbBlockBegin
  2
*D39
 70
     1
 10
0.0
 20
0.0
 30
0.0
  3
*D39
  1

  0
LINE
  5
3AD4
330
3AD1
100
AcDbEntity
  8
寸法
  6
Continuous
 62
     0
370
    -2
100
AcDbLine
 10
73.20636907936509
 20
107.4827397681963
 30
0.0
 11
73.20636907936509
 21
123.1671754560847
 31
0.0
  0
LINE
  5
3AD5
330
3AD1
100
AcDbEntity
  8
寸法
  6
Continuous
 62
     0
370
    -2
100
AcDbLine
 10
101.4043450483356
 20
110.0276834477063
 30
0.0
 11
101.4043450483356
 21
123.1671754560847
 31
0.0
  0
LINE
  5
3AD6
330
3AD1
100
AcDbEntity
  8
寸法
  6
Continuous
 62
     0
370
    -2
100
AcDbLine
 10
75.70636907936509
 20
121.9171754560847
 30
0.0
 11
84.3031224772022
 21
121.9171754560847
 31
0.0
  0
LINE
  5
3AD7
330
3AD1
100
AcDbEntity
  8
寸法
  6
Continuous
 62
     0
370
    -2
100
AcDbLine
 10
98.9043450483356
 20
121.9171754560847
 30
0.0
 11
93.0531224772022
 21
121.9171754560847
 31
0.0
  0
SOLID
  5
3AD8
330
3AD1
100
AcDbEntity
  8
寸法
 62
     0
100
AcDbTrace
 10
75.70636907936509
 20
122.3338421227514
 30
0.0
 11
75.70636907936509
 21
121.5005087894181
 31
0.0
 12
73.20636907936509
 22
121.9171754560847
 32
0.0
 13
73.20636907936509
 23
121.9171754560847
 33
0.0
  0
SOLID
  5
3AD9
330
3AD1
100
AcDbEntity
  8
寸法
 62
     0
100
AcDbTrace
 10
98.9043450483356
 20
121.5005087894181
 30
0.0
 11
98.9043450483356
 21
122.3338421227514
 31
0.0
 12
101.4043450483356
 22
121.9171754560847
 32
0.0
 13
101.4043450483356
 23
121.9171754560847
 33
0.0
  0
MTEXT
  5
3ADA
330
3AD1
100
AcDbEntity
  8
寸法
  6
Continuous
 62
     0
100
AcDbMText
 10
88.6781224772022
 20
121.9171754560847
 30
0.0
 40
2.5
 41
0.0
 46
0.0
 71
     5
 72
     1
  1
28.2
 73
     1
 44
1.0
  0
POINT
  5
3ADB
330
3AD1
100
AcDbEntity
  8
Defpoints
 62
     0
100
AcDbPoint
 10
73.20636907936509
 20
106.8577397681963
 30
0.0
  0
POINT
  5
3ADC
330
3AD1
100
AcDbEntity
  8
Defpoints
 62
     0
100
AcDbPoint
 10
101.4043450483356
 20
109.4026834477063
 30
0.0
  0
POINT
  5
3ADD
330
3AD1
100
AcDbEntity
  8
Defpoints
 62
     0
100
AcDbPoint
 10
101.4043450483356
 20
121.9171754560847
 30
0.0
  0
ENDBLK
  5
3AD3
330
3AD1
100
AcDbEntity
  8
0
100
AcDbBlockEnd
  0
BLOCK
  5
3AE2
330
3AE1
100
AcDbEntity
  8
0
100
AcDbBlockBegin
  2
*D40
 70
     1
 10
0.0
 20
0.0
 30
0.0
  3
*D40
  1

  0
LINE
  5
3AE4
330
3AE1
100
AcDbEntity
  8
寸法
  6
Continuous
 62
     0
370
    -2
100
AcDbLine
 10
101.5313690793651
 20
109.8577397681964
 30
0.0
 11
106.5947719875527
 21
109.8577397681964
 31
0.0
  0
LINE
  5
3AE5
330
3AE1
100
AcDbEntity
  8
寸法
  6
Continuous
 62
     0
370
    -2
100
AcDbLine
 10
101.8313690793651
 20
101.8577397681964
 30
0.0
 11
106.5947719875527
 21
101.8577397681964
 31
0.0
  0
LINE
  5
3AE6
330
3AE1
100
AcDbEntity
  8
寸法
  6
Continuous
 62
     0
370
    -2
100
AcDbLine
 10
105.3447719875527
 20
107.3577397681964
 30
0.0
 11
105.3447719875527
 21
104.3577397681964
 31
0.0
  0
LINE
  5
3AE7
330
3AE1
100
AcDbEntity
  8
寸法
  6
Continuous
 62
     0
370
    -2
100
AcDbLine
 10
105.3447719875527
 20
104.3577397681964
 30
0.0
 11
105.3447719875527
 21
107.3577397681964
 31
0.0
  0
SOLID
  5
3AE8
330
3AE1
100
AcDbEntity
  8
寸法
 62
     0
100
AcDbTrace
 10
105.7614386542194
 20
107.3577397681964
 30
0.0
 11
104.9281053208861
 21
107.3577397681964
 31
0.0
 12
105.3447719875527
 22
109.8577397681964
 32
0.0
 13
105.3447719875527
 23
109.8577397681964
 33
0.0
  0
SOLID
  5
3AE9
330
3AE1
100
AcDbEntity
  8
寸法
 62
     0
100
AcDbTrace
 10
104.9281053208861
 20
104.3577397681964
 30
0.0
 11
105.7614386542194
 21
104.3577397681964
 31
0.0
 12
105.3447719875527
 22
101.8577397681964
 32
0.0
 13
105.3447719875527
 23
101.8577397681964
 33
0.0
  0
MTEXT
  5
3AEA
330
3AE1
100
AcDbEntity
  8
寸法
  6
Continuous
 62
     0
100
AcDbMText
 10
107.5679834429305
 20
105.9282595550706
 30
0.0
 40
2.5
 41
0.0
 46
0.0
 71
     5
 72
     1
  1
8
 73
     1
 44
1.0
  0
POINT
  5
3AEB
330
3AE1
100
AcDbEntity
  8
Defpoints
 62
     0
100
AcDbPoint
 10
100.9063690793651
 20
109.8577397681964
 30
0.0
  0
POINT
  5
3AEC
330
3AE1
100
AcDbEntity
  8
Defpoints
 62
     0
100
AcDbPoint
 10
101.2063690793651
 20
101.8577397681964
 30
0.0
  0
POINT
  5
3AED
330
3AE1
100
AcDbEntity
  8
Defpoints
 62
     0
100
AcDbPoint
 10
105.3447719875527
 20
101.8577397681964
 30
0.0
  0
ENDBLK
  5
3AE3
330
3AE1
100
AcDbEntity
  8
0
100
AcDbBlockEnd
  0
BLOCK
  5
3B13
330
3B12
100
AcDbEntity
  8
0
100
AcDbBlockBegin
  2
*D41
 70
     1
 10
0.0
 20
0.0
 30
0.0
  3
*D41
  1

  0
LINE
  5
3B15
330
3B12
100
AcDbEntity
  8
寸法
  6
Continuous
 62
     0
370
    -2
100
AcDbLine
 10
75.58136907936509
 20
109.8577397681964
 30
0.0
 11
63.66319167692602
 21
109.8577397681964
 31
0.0
  0
LINE
  5
3B16
330
3B12
100
AcDbEntity
  8
寸法
  6
Continuous
 62
     0
370
    -2
100
AcDbLine
 10
75.58136907936512
 20
103.8577397681964
 30
0.0
 11
63.66319167692602
 21
103.8577397681964
 31
0.0
  0
LINE
  5
3B17
330
3B12
100
AcDbEntity
  8
寸法
  6
Continuous
 62
     0
370
    -2
100
AcDbLine
 10
64.91319167692602
 20
112.3577397681964
 30
0.0
 11
64.91319167692602
 21
114.8577397681964
 31
0.0
  0
LINE
  5
3B18
330
3B12
100
AcDbEntity
  8
寸法
  6
Continuous
 62
     0
370
    -2
100
AcDbLine
 10
64.91319167692602
 20
101.3577397681964
 30
0.0
 11
64.91319167692602
 21
98.85773976819635
 31
0.0
  0
SOLID
  5
3B19
330
3B12
100
AcDbEntity
  8
寸法
 62
     0
100
AcDbTrace
 10
64.49652501025935
 20
112.3577397681964
 30
0.0
 11
65.32985834359269
 21
112.3577397681964
 31
0.0
 12
64.91319167692602
 22
109.8577397681964
 32
0.0
 13
64.91319167692602
 23
109.8577397681964
 33
0.0
  0
SOLID
  5
3B1A
330
3B12
100
AcDbEntity
  8
寸法
 62
     0
100
AcDbTrace
 10
65.32985834359269
 20
101.3577397681964
 30
0.0
 11
64.49652501025935
 21
101.3577397681964
 31
0.0
 12
64.91319167692602
 22
103.8577397681964
 32
0.0
 13
64.91319167692602
 23
103.8577397681964
 33
0.0
  0
MTEXT
  5
3B1B
330
3B12
100
AcDbEntity
  8
寸法
  6
Continuous
 62
     0
100
AcDbMText
 10
64.96332321572838
 20
106.8577397681964
 30
0.0
 40
2.5
 41
0.0
 46
0.0
 71
     5
 72
     1
  1
6
 73
     1
 44
1.0
  0
POINT
  5
3B1C
330
3B12
100
AcDbEntity
  8
Defpoints
 62
     0
100
AcDbPoint
 10
76.20636907936509
 20
109.8577397681964
 30
0.0
  0
POINT
  5
3B1D
330
3B12
100
AcDbEntity
  8
Defpoints
 62
     0
100
AcDbPoint
 10
76.20636907936512
 20
103.8577397681964
 30
0.0
  0
POINT
  5
3B1E
330
3B12
100
AcDbEntity
  8
Defpoints
 62
     0
100
AcDbPoint
 10
64.91319167692602
 20
103.8577397681964
 30
0.0
  0
ENDBLK
  5
3B14
330
3B12
100
AcDbEntity
  8
0
100
AcDbBlockEnd
  0
BLOCK
  5
3B23
330
3B22
100
AcDbEntity
  8
0
100
AcDbBlockBegin
  2
*D42
 70
     1
 10
0.0
 20
0.0
 30
0.0
  3
*D42
  1

  0
LINE
  5
3B25
330
3B22
100
AcDbEntity
  8
寸法
  6
Continuous
 62
     0
370
    -2
100
AcDbLine
 10
80.20636907936512
 20
101.2327397681964
 30
0.0
 11
80.20636907936512
 21
94.39278525128866
 31
0.0
  0
LINE
  5
3B26
330
3B22
100
AcDbEntity
  8
寸法
  6
Continuous
 62
     0
370
    -2
100
AcDbLine
 10
101.2063690793651
 20
101.2327397681964
 30
0.0
 11
101.2063690793651
 21
94.39278525128866
 31
0.0
  0
LINE
  5
3B27
330
3B22
100
AcDbEntity
  8
寸法
  6
Continuous
 62
     0
370
    -2
100
AcDbLine
 10
82.70636907936512
 20
95.64278525128866
 30
0.0
 11
88.41470241269845
 21
95.64278525128866
 31
0.0
  0
LINE
  5
3B28
330
3B22
100
AcDbEntity
  8
寸法
  6
Continuous
 62
     0
370
    -2
100
AcDbLine
 10
98.70636907936512
 20
95.64278525128866
 30
0.0
 11
92.99803574603179
 21
95.64278525128866
 31
0.0
  0
SOLID
  5
3B29
330
3B22
100
AcDbEntity
  8
寸法
 62
     0
100
AcDbTrace
 10
82.70636907936512
 20
96.05945191795533
 30
0.0
 11
82.70636907936512
 21
95.22611858462199
 31
0.0
 12
80.20636907936512
 22
95.64278525128866
 32
0.0
 13
80.20636907936512
 23
95.64278525128866
 33
0.0
  0
SOLID
  5
3B2A
330
3B22
100
AcDbEntity
  8
寸法
 62
     0
100
AcDbTrace
 10
98.70636907936512
 20
95.22611858462199
 30
0.0
 11
98.70636907936512
 21
96.05945191795533
 31
0.0
 12
101.2063690793651
 22
95.64278525128866
 32
0.0
 13
101.2063690793651
 23
95.64278525128866
 33
0.0
  0
MTEXT
  5
3B2B
330
3B22
100
AcDbEntity
  8
寸法
  6
Continuous
 62
     0
100
AcDbMText
 10
90.70636907936512
 20
95.64278525128866
 30
0.0
 40
2.5
 41
0.0
 46
0.0
 71
     5
 72
     1
  1
21
 73
     1
 44
1.0
  0
POINT
  5
3B2C
330
3B22
100
AcDbEntity
  8
Defpoints
 62
     0
100
AcDbPoint
 10
80.20636907936512
 20
101.8577397681964
 30
0.0
  0
POINT
  5
3B2D
330
3B22
100
AcDbEntity
  8
Defpoints
 62
     0
100
AcDbPoint
 10
101.2063690793651
 20
101.8577397681964
 30
0.0
  0
POINT
  5
3B2E
330
3B22
100
AcDbEntity
  8
Defpoints
 62
     0
100
AcDbPoint
 10
101.2063690793651
 20
95.64278525128866
 30
0.0
  0
ENDBLK
  5
3B24
330
3B22
100
AcDbEntity
  8
0
100
AcDbBlockEnd
  0
BLOCK
  5
3B33
330
3B32
100
AcDbEntity
  8
0
100
AcDbBlockBegin
  2
*D43
 70
     1
 10
0.0
 20
0.0
 30
0.0
  3
*D43
  1

  0
LINE
  5
3B35
330
3B32
100
AcDbEntity
  8
寸法
  6
Continuous
 62
     0
370
    -2
100
AcDbLine
 10
73.20636907936509
 20
106.2327397681963
 30
0.0
 11
73.20636907936509
 21
90.96880115108759
 31
0.0
  0
LINE
  5
3B36
330
3B32
100
AcDbEntity
  8
寸法
  6
Continuous
 62
     0
370
    -2
100
AcDbLine
 10
78.20636907936509
 20
101.2304727482992
 30
0.0
 11
78.20636907936509
 21
90.96880115108759
 31
0.0
  0
LINE
  5
3B37
330
3B32
100
AcDbEntity
  8
寸法
  6
Continuous
 62
     0
370
    -2
100
AcDbLine
 10
70.70636907936509
 20
92.21880115108759
 30
0.0
 11
68.20636907936509
 21
92.21880115108759
 31
0.0
  0
LINE
  5
3B38
330
3B32
100
AcDbEntity
  8
寸法
  6
Continuous
 62
     0
370
    -2
100
AcDbLine
 10
80.70636907936509
 20
92.21880115108759
 30
0.0
 11
83.20636907936509
 21
92.21880115108759
 31
0.0
  0
SOLID
  5
3B39
330
3B32
100
AcDbEntity
  8
寸法
 62
     0
100
AcDbTrace
 10
70.70636907936509
 20
91.80213448442092
 30
0.0
 11
70.70636907936509
 21
92.63546781775426
 31
0.0
 12
73.20636907936509
 22
92.21880115108759
 32
0.0
 13
73.20636907936509
 23
92.21880115108759
 33
0.0
  0
SOLID
  5
3B3A
330
3B32
100
AcDbEntity
  8
寸法
 62
     0
100
AcDbTrace
 10
80.70636907936509
 20
92.63546781775426
 30
0.0
 11
80.70636907936509
 21
91.80213448442092
 31
0.0
 12
78.20636907936509
 22
92.21880115108759
 32
0.0
 13
78.20636907936509
 23
92.21880115108759
 33
0.0
  0
MTEXT
  5
3B3B
330
3B32
100
AcDbEntity
  8
寸法
  6
Continuous
 62
     0
100
AcDbMText
 10
76.20636907936509
 20
92.21880115108759
 30
0.0
 40
2.5
 41
0.0
 46
0.0
 71
     5
 72
     1
  1
5
 73
     1
 44
1.0
  0
POINT
  5
3B3C
330
3B32
100
AcDbEntity
  8
Defpoints
 62
     0
100
AcDbPoint
 10
73.20636907936509
 20
106.8577397681963
 30
0.0
  0
POINT
  5
3B3D
330
3B32
100
AcDbEntity
  8
Defpoints
 62
     0
100
AcDbPoint
 10
78.20636907936509
 20
101.8554727482992
 30
0.0
  0
POINT
  5
3B3E
330
3B32
100
AcDbEntity
  8
Defpoints
 62
     0
100
AcDbPoint
 10
78.20636907936509
 20
92.21880115108759
 30
0.0
  0
ENDBLK
  5
3B34
330
3B32
100
AcDbEntity
  8
0
100
AcDbBlockEnd
  0
BLOCK
  5
3B43
330
3B42
100
AcDbEntity
  8
0
100
AcDbBlockBegin
  2
*D44
 70
     1
 10
0.0
 20
0.0
 30
0.0
  3
*D44
  1

  0
LINE
  5
3B45
330
3B42
100
AcDbEntity
  8
寸法
  6
Continuous
 62
     0
370
    -2
100
AcDbLine
 10
77.58136907936512
 20
101.8577397681964
 30
0.0
 11
69.9296340272208
 21
101.8577397681964
 31
0.0
  0
LINE
  5
3B46
330
3B42
100
AcDbEntity
  8
寸法
  6
Continuous
 62
     0
370
    -2
100
AcDbLine
 10
75.58136907936509
 20
103.8554727482992
 30
0.0
 11
69.9296340272208
 21
103.8554727482992
 31
0.0
  0
LINE
  5
3B47
330
3B42
100
AcDbEntity
  8
寸法
  6
Continuous
 62
     0
370
    -2
100
AcDbLine
 10
71.1796340272208
 20
99.35773976819635
 30
0.0
 11
71.1796340272208
 21
96.85773976819635
 31
0.0
  0
LINE
  5
3B48
330
3B42
100
AcDbEntity
  8
寸法
  6
Continuous
 62
     0
370
    -2
100
AcDbLine
 10
71.1796340272208
 20
106.3554727482992
 30
0.0
 11
71.1796340272208
 21
108.8554727482992
 31
0.0
  0
SOLID
  5
3B49
330
3B42
100
AcDbEntity
  8
寸法
 62
     0
100
AcDbTrace
 10
71.59630069388747
 20
99.35773976819635
 30
0.0
 11
70.76296736055413
 21
99.35773976819635
 31
0.0
 12
71.1796340272208
 22
101.8577397681964
 32
0.0
 13
71.1796340272208
 23
101.8577397681964
 33
0.0
  0
SOLID
  5
3B4A
330
3B42
100
AcDbEntity
  8
寸法
 62
     0
100
AcDbTrace
 10
70.76296736055413
 20
106.3554727482992
 30
0.0
 11
71.59630069388747
 21
106.3554727482992
 31
0.0
 12
71.1796340272208
 22
103.8554727482992
 32
0.0
 13
71.1796340272208
 23
103.8554727482992
 33
0.0
  0
MTEXT
  5
3B4B
330
3B42
100
AcDbEntity
  8
寸法
  6
Continuous
 62
     0
100
AcDbMText
 10
68.43843747498471
 20
102.8968189159899
 30
0.0
 40
2.5
 41
0.0
 46
0.0
 71
     5
 72
     1
  1
2
 73
     1
 44
1.0
  0
POINT
  5
3B4C
330
3B42
100
AcDbEntity
  8
Defpoints
 62
     0
100
AcDbPoint
 10
78.20636907936512
 20
101.8577397681964
 30
0.0
  0
POINT
  5
3B4D
330
3B42
100
AcDbEntity
  8
Defpoints
 62
     0
100
AcDbPoint
 10
76.20636907936509
 20
103.8554727482992
 30
0.0
  0
POINT
  5
3B4E
330
3B42
100
AcDbEntity
  8
Defpoints
 62
     0
100
AcDbPoint
 10
71.1796340272208
 20
103.8554727482992
 30
0.0
  0
ENDBLK
  5
3B44
330
3B42
100
AcDbEntity
  8
0
100
AcDbBlockEnd
  0
BLOCK
  5
3BE8
330
3BE7
100
AcDbEntity
  8
0
100
AcDbBlockBegin
  2
*D45
 70
     1
 10
0.0
 20
0.0
 30
0.0
  3
*D45
  1

  0
LINE
  5
3BE9
330
3BE7
100
AcDbEntity
  8
寸法
  6
Continuous
 62
     0
370
    -2
100
AcDbLine
 10
10.40125398791221
 20
16.51393861710875
 30
0.0
 11
10.40125398791221
 21
27.35633966531611
 31
0.0
  0
LINE
  5
3BEA
330
3BE7
100
AcDbEntity
  8
寸法
  6
Continuous
 62
     0
370
    -2
100
AcDbLine
 10
38.40125398791224
 20
16.31393861710883
 30
0.0
 11
38.40125398791224
 21
27.35633966531611
 31
0.0
  0
LINE
  5
3BEB
330
3BE7
100
AcDbEntity
  8
寸法
  6
Continuous
 62
     0
370
    -2
100
AcDbLine
 10
12.90125398791221
 20
26.10633966531611
 30
0.0
 11
23.3177567155693
 21
26.10633966531611
 31
0.0
  0
LINE
  5
3BEC
330
3BE7
100
AcDbEntity
  8
寸法
  6
Continuous
 62
     0
370
    -2
100
AcDbLine
 10
35.90125398791224
 20
26.10633966531611
 30
0.0
 11
28.73442338223596
 21
26.10633966531611
 31
0.0
  0
SOLID
  5
3BED
330
3BE7
100
AcDbEntity
  8
寸法
 62
     0
100
AcDbTrace
 10
12.90125398791221
 20
26.52300633198278
 30
0.0
 11
12.90125398791221
 21
25.68967299864945
 31
0.0
 12
10.40125398791221
 22
26.10633966531611
 32
0.0
 13
10.40125398791221
 23
26.10633966531611
 33
0.0
  0
SOLID
  5
3BEE
330
3BE7
100
AcDbEntity
  8
寸法
 62
     0
100
AcDbTrace
 10
35.90125398791224
 20
25.68967299864945
 30
0.0
 11
35.90125398791224
 21
26.52300633198278
 31
0.0
 12
38.40125398791224
 22
26.10633966531611
 32
0.0
 13
38.40125398791224
 23
26.10633966531611
 33
0.0
  0
MTEXT
  5
3BEF
330
3BE7
100
AcDbEntity
  8
寸法
  6
Continuous
 62
     0
100
AcDbMText
 10
26.02609004890263
 20
26.10633966531611
 30
0.0
 40
2.5
 41
0.0
 46
0.0
 71
     5
 72
     1
  1
28
 73
     1
 44
1.0
  0
POINT
  5
3BF0
330
3BE7
100
AcDbEntity
  8
Defpoints
 62
     0
100
AcDbPoint
 10
10.40125398791221
 20
15.88893861710875
 30
0.0
  0
POINT
  5
3BF1
330
3BE7
100
AcDbEntity
  8
Defpoints
 62
     0
100
AcDbPoint
 10
38.40125398791224
 20
15.68893861710883
 30
0.0
  0
POINT
  5
3BF2
330
3BE7
100
AcDbEntity
  8
Defpoints
 62
     0
100
AcDbPoint
 10
38.40125398791224
 20
26.10633966531611
 30
0.0
  0
ENDBLK
  5
3BF3
330
3BE7
100
AcDbEntity
  8
0
100
AcDbBlockEnd
  0
BLOCK
  5
3BF7
330
3BF6
100
AcDbEntity
  8
0
100
AcDbBlockBegin
  2
*D46
 70
     1
 10
0.0
 20
0.0
 30
0.0
  3
*D46
  1

  0
LINE
  5
3BF8
330
3BF6
100
AcDbEntity
  8
寸法
  6
Continuous
 62
     0
370
    -2
100
AcDbLine
 10
10.40125398791221
 20
16.51393861710875
 30
0.0
 11
10.40125398791221
 21
32.19837430499715
 31
0.0
  0
LINE
  5
3BF9
330
3BF6
100
AcDbEntity
  8
寸法
  6
Continuous
 62
     0
370
    -2
100
AcDbLine
 10
38.59922995688272
 20
19.05888229661873
 30
0.0
 11
38.59922995688272
 21
32.19837430499715
 31
0.0
  0
LINE
  5
3BFA
330
3BF6
100
AcDbEntity
  8
寸法
  6
Continuous
 62
     0
370
    -2
100
AcDbLine
 10
12.90125398791221
 20
30.94837430499715
 30
0.0
 11
21.49800738574932
 21
30.94837430499715
 31
0.0
  0
LINE
  5
3BFB
330
3BF6
100
AcDbEntity
  8
寸法
  6
Continuous
 62
     0
370
    -2
100
AcDbLine
 10
36.09922995688272
 20
30.94837430499715
 30
0.0
 11
30.24800738574931
 21
30.94837430499715
 31
0.0
  0
SOLID
  5
3BFC
330
3BF6
100
AcDbEntity
  8
寸法
 62
     0
100
AcDbTrace
 10
12.90125398791221
 20
31.36504097166381
 30
0.0
 11
12.90125398791221
 21
30.53170763833048
 31
0.0
 12
10.40125398791221
 22
30.94837430499715
 32
0.0
 13
10.40125398791221
 23
30.94837430499715
 33
0.0
  0
SOLID
  5
3BFD
330
3BF6
100
AcDbEntity
  8
寸法
 62
     0
100
AcDbTrace
 10
36.09922995688272
 20
30.53170763833048
 30
0.0
 11
36.09922995688272
 21
31.36504097166381
 31
0.0
 12
38.59922995688272
 22
30.94837430499715
 32
0.0
 13
38.59922995688272
 23
30.94837430499715
 33
0.0
  0
MTEXT
  5
3BFE
330
3BF6
100
AcDbEntity
  8
寸法
  6
Continuous
 62
     0
100
AcDbMText
 10
25.87300738574932
 20
30.94837430499715
 30
0.0
 40
2.5
 41
0.0
 46
0.0
 71
     5
 72
     1
  1
28.2
 73
     1
 44
1.0
  0
POINT
  5
3BFF
330
3BF6
100
AcDbEntity
  8
Defpoints
 62
     0
100
AcDbPoint
 10
10.40125398791221
 20
15.88893861710875
 30
0.0
  0
POINT
  5
3C00
330
3BF6
100
AcDbEntity
  8
Defpoints
 62
     0
100
AcDbPoint
 10
38.59922995688272
 20
18.43388229661873
 30
0.0
  0
POINT
  5
3C01
330
3BF6
100
AcDbEntity
  8
Defpoints
 62
     0
100
AcDbPoint
 10
38.59922995688272
 20
30.94837430499715
 30
0.0
  0
ENDBLK
  5
3C02
330
3BF6
100
AcDbEntity
  8
0
100
AcDbBlockEnd
  0
BLOCK
  5
3C07
330
3C06
100
AcDbEntity
  8
0
100
AcDbBlockBegin
  2
*D47
 70
     1
 10
0.0
 20
0.0
 30
0.0
  3
*D47
  1

  0
LINE
  5
3C08
330
3C06
100
AcDbEntity
  8
寸法
  6
Continuous
 62
     0
370
    -2
100
AcDbLine
 10
38.72625398791223
 20
18.88893861710876
 30
0.0
 11
43.78965689609986
 21
18.88893861710876
 31
0.0
  0
LINE
  5
3C09
330
3C06
100
AcDbEntity
  8
寸法
  6
Continuous
 62
     0
370
    -2
100
AcDbLine
 10
39.02625398791224
 20
10.88893861710882
 30
0.0
 11
43.78965689609986
 21
10.88893861710882
 31
0.0
  0
LINE
  5
3C0A
330
3C06
100
AcDbEntity
  8
寸法
  6
Continuous
 62
     0
370
    -2
100
AcDbLine
 10
42.53965689609986
 20
16.38893861710876
 30
0.0
 11
42.53965689609986
 21
13.38893861710882
 31
0.0
  0
LINE
  5
3C0B
330
3C06
100
AcDbEntity
  8
寸法
  6
Continuous
 62
     0
370
    -2
100
AcDbLine
 10
42.53965689609986
 20
13.38893861710882
 30
0.0
 11
42.53965689609986
 21
16.38893861710876
 31
0.0
  0
SOLID
  5
3C0C
330
3C06
100
AcDbEntity
  8
寸法
 62
     0
100
AcDbTrace
 10
42.95632356276652
 20
16.38893861710876
 30
0.0
 11
42.12299022943319
 21
16.38893861710876
 31
0.0
 12
42.53965689609986
 22
18.88893861710876
 32
0.0
 13
42.53965689609986
 23
18.88893861710876
 33
0.0
  0
SOLID
  5
3C0D
330
3C06
100
AcDbEntity
  8
寸法
 62
     0
100
AcDbTrace
 10
42.12299022943319
 20
13.38893861710882
 30
0.0
 11
42.95632356276652
 21
13.38893861710882
 31
0.0
 12
42.53965689609986
 22
10.88893861710882
 32
0.0
 13
42.53965689609986
 23
10.88893861710882
 33
0.0
  0
MTEXT
  5
3C0E
330
3C06
100
AcDbEntity
  8
寸法
  6
Continuous
 62
     0
100
AcDbMText
 10
44.76286835147758
 20
14.95945840398301
 30
0.0
 40
2.5
 41
0.0
 46
0.0
 71
     5
 72
     1
  1
8
 73
     1
 44
1.0
  0
POINT
  5
3C0F
330
3C06
100
AcDbEntity
  8
Defpoints
 62
     0
100
AcDbPoint
 10
38.10125398791223
 20
18.88893861710876
 30
0.0
  0
POINT
  5
3C10
330
3C06
100
AcDbEntity
  8
Defpoints
 62
     0
100
AcDbPoint
 10
38.40125398791224
 20
10.88893861710882
 30
0.0
  0
POINT
  5
3C11
330
3C06
100
AcDbEntity
  8
Defpoints
 62
     0
100
AcDbPoint
 10
42.53965689609986
 20
10.88893861710882
 30
0.0
  0
ENDBLK
  5
3C12
330
3C06
100
AcDbEntity
  8
0
100
AcDbBlockEnd
  0
BLOCK
  5
3C1D
330
3C1C
100
AcDbEntity
  8
0
100
AcDbBlockBegin
  2
*D48
 70
     1
 10
0.0
 20
0.0
 30
0.0
  3
*D48
  1

  0
LINE
  5
3C1E
330
3C1C
100
AcDbEntity
  8
寸法
  6
Continuous
 62
     0
370
    -2
100
AcDbLine
 10
12.77625398791221
 20
18.88893861710876
 30
0.0
 11
0.8580765854731429
 21
18.88893861710876
 31
0.0
  0
LINE
  5
3C1F
330
3C1C
100
AcDbEntity
  8
寸法
  6
Continuous
 62
     0
370
    -2
100
AcDbLine
 10
12.77625398791224
 20
12.88893861710876
 30
0.0
 11
0.8580765854731425
 21
12.88893861710876
 31
0.0
  0
LINE
  5
3C20
330
3C1C
100
AcDbEntity
  8
寸法
  6
Continuous
 62
     0
370
    -2
100
AcDbLine
 10
2.108076585473143
 20
21.38893861710876
 30
0.0
 11
2.108076585473143
 21
23.88893861710876
 31
0.0
  0
LINE
  5
3C21
330
3C1C
100
AcDbEntity
  8
寸法
  6
Continuous
 62
     0
370
    -2
100
AcDbLine
 10
2.108076585473142
 20
10.38893861710876
 30
0.0
 11
2.108076585473142
 21
7.888938617108764
 31
0.0
  0
SOLID
  5
3C22
330
3C1C
100
AcDbEntity
  8
寸法
 62
     0
100
AcDbTrace
 10
1.691409918806476
 20
21.38893861710876
 30
0.0
 11
2.524743252139809
 21
21.38893861710876
 31
0.0
 12
2.108076585473143
 22
18.88893861710876
 32
0.0
 13
2.108076585473143
 23
18.88893861710876
 33
0.0
  0
SOLID
  5
3C23
330
3C1C
100
AcDbEntity
  8
寸法
 62
     0
100
AcDbTrace
 10
2.524743252139809
 20
10.38893861710876
 30
0.0
 11
1.691409918806476
 21
10.38893861710876
 31
0.0
 12
2.108076585473142
 22
12.88893861710876
 32
0.0
 13
2.108076585473142
 23
12.88893861710876
 33
0.0
  0
MTEXT
  5
3C24
330
3C1C
100
AcDbEntity
  8
寸法
  6
Continuous
 62
     0
100
AcDbMText
 10
2.158208124275504
 20
15.88893861710878
 30
0.0
 40
2.5
 41
0.0
 46
0.0
 71
     5
 72
     1
  1
6
 73
     1
 44
1.0
  0
POINT
  5
3C25
330
3C1C
100
AcDbEntity
  8
Defpoints
 62
     0
100
AcDbPoint
 10
13.40125398791221
 20
18.88893861710876
 30
0.0
  0
POINT
  5
3C26
330
3C1C
100
AcDbEntity
  8
Defpoints
 62
     0
100
AcDbPoint
 10
13.40125398791224
 20
12.88893861710876
 30
0.0
  0
POINT
  5
3C27
330
3C1C
100
AcDbEntity
  8
Defpoints
 62
     0
100
AcDbPoint
 10
2.108076585473142
 20
12.88893861710876
 30
0.0
  0
ENDBLK
  5
3C28
330
3C1C
100
AcDbEntity
  8
0
100
AcDbBlockEnd
  0
BLOCK
  5
3C2D
330
3C2C
100
AcDbEntity
  8
0
100
AcDbBlockBegin
  2
*D49
 70
     1
 10
0.0
 20
0.0
 30
0.0
  3
*D49
  1

  0
LINE
  5
3C2E
330
3C2C
100
AcDbEntity
  8
寸法
  6
Continuous
 62
     0
370
    -2
100
AcDbLine
 10
17.40125398791224
 20
10.26393861710882
 30
0.0
 11
17.40125398791224
 21
3.423984100201068
 31
0.0
  0
LINE
  5
3C2F
330
3C2C
100
AcDbEntity
  8
寸法
  6
Continuous
 62
     0
370
    -2
100
AcDbLine
 10
38.40125398791224
 20
10.26393861710882
 30
0.0
 11
38.40125398791224
 21
3.423984100201068
 31
0.0
  0
LINE
  5
3C30
330
3C2C
100
AcDbEntity
  8
寸法
  6
Continuous
 62
     0
370
    -2
100
AcDbLine
 10
19.90125398791224
 20
4.673984100201068
 30
0.0
 11
25.60958732124557
 21
4.673984100201068
 31
0.0
  0
LINE
  5
3C31
330
3C2C
100
AcDbEntity
  8
寸法
  6
Continuous
 62
     0
370
    -2
100
AcDbLine
 10
35.90125398791224
 20
4.673984100201068
 30
0.0
 11
30.19292065457891
 21
4.673984100201068
 31
0.0
  0
SOLID
  5
3C32
330
3C2C
100
AcDbEntity
  8
寸法
 62
     0
100
AcDbTrace
 10
19.90125398791224
 20
5.090650766867735
 30
0.0
 11
19.90125398791224
 21
4.257317433534401
 31
0.0
 12
17.40125398791224
 22
4.673984100201068
 32
0.0
 13
17.40125398791224
 23
4.673984100201068
 33
0.0
  0
SOLID
  5
3C33
330
3C2C
100
AcDbEntity
  8
寸法
 62
     0
100
AcDbTrace
 10
35.90125398791224
 20
4.257317433534401
 30
0.0
 11
35.90125398791224
 21
5.090650766867735
 31
0.0
 12
38.40125398791224
 22
4.673984100201068
 32
0.0
 13
38.40125398791224
 23
4.673984100201068
 33
0.0
  0
MTEXT
  5
3C34
330
3C2C
100
AcDbEntity
  8
寸法
  6
Continuous
 62
     0
100
AcDbMText
 10
27.90125398791224
 20
4.673984100201068
 30
0.0
 40
2.5
 41
0.0
 46
0.0
 71
     5
 72
     1
  1
21
 73
     1
 44
1.0
  0
POINT
  5
3C35
330
3C2C
100
AcDbEntity
  8
Defpoints
 62
     0
100
AcDbPoint
 10
17.40125398791224
 20
10.88893861710882
 30
0.0
  0
POINT
  5
3C36
330
3C2C
100
AcDbEntity
  8
Defpoints
 62
     0
100
AcDbPoint
 10
38.40125398791224
 20
10.88893861710882
 30
0.0
  0
POINT
  5
3C37
330
3C2C
100
AcDbEntity
  8
Defpoints
 62
     0
100
AcDbPoint
 10
38.40125398791224
 20
4.673984100201068
 30
0.0
  0
ENDBLK
  5
3C38
330
3C2C
100
AcDbEntity
  8
0
100
AcDbBlockEnd
  0
BLOCK
  5
3C3D
330
3C3C
100
AcDbEntity
  8
0
100
AcDbBlockBegin
  2
*D50
 70
     1
 10
0.0
 20
0.0
 30
0.0
  3
*D50
  1

  0
LINE
  5
3C3E
330
3C3C
100
AcDbEntity
  8
寸法
  6
Continuous
 62
     0
370
    -2
100
AcDbLine
 10
10.40125398791221
 20
15.26393861710875
 30
0.0
 11
10.40125398791221
 21
0.0
 31
0.0
  0
LINE
  5
3C3F
330
3C3C
100
AcDbEntity
  8
寸法
  6
Continuous
 62
     0
370
    -2
100
AcDbLine
 10
15.40125398791221
 20
10.26167159721162
 30
0.0
 11
15.40125398791221
 21
0.0
 31
0.0
  0
LINE
  5
3C40
330
3C3C
100
AcDbEntity
  8
寸法
  6
Continuous
 62
     0
370
    -2
100
AcDbLine
 10
7.901253987912213
 20
1.25
 30
0.0
 11
5.401253987912213
 21
1.25
 31
0.0
  0
LINE
  5
3C41
330
3C3C
100
AcDbEntity
  8
寸法
  6
Continuous
 62
     0
370
    -2
100
AcDbLine
 10
17.90125398791221
 20
1.25
 30
0.0
 11
20.40125398791221
 21
1.25
 31
0.0
  0
SOLID
  5
3C42
330
3C3C
100
AcDbEntity
  8
寸法
 62
     0
100
AcDbTrace
 10
7.901253987912213
 20
0.8333333333333333
 30
0.0
 11
7.901253987912213
 21
1.666666666666667
 31
0.0
 12
10.40125398791221
 22
1.25
 32
0.0
 13
10.40125398791221
 23
1.25
 33
0.0
  0
SOLID
  5
3C43
330
3C3C
100
AcDbEntity
  8
寸法
 62
     0
100
AcDbTrace
 10
17.90125398791221
 20
1.666666666666667
 30
0.0
 11
17.90125398791221
 21
0.8333333333333333
 31
0.0
 12
15.40125398791221
 22
1.25
 32
0.0
 13
15.40125398791221
 23
1.25
 33
0.0
  0
MTEXT
  5
3C44
330
3C3C
100
AcDbEntity
  8
寸法
  6
Continuous
 62
     0
100
AcDbMText
 10
13.40125398791221
 20
1.25
 30
0.0
 40
2.5
 41
0.0
 46
0.0
 71
     5
 72
     1
  1
5
 73
     1
 44
1.0
  0
POINT
  5
3C45
330
3C3C
100
AcDbEntity
  8
Defpoints
 62
     0
100
AcDbPoint
 10
10.40125398791221
 20
15.88893861710875
 30
0.0
  0
POINT
  5
3C46
330
3C3C
100
AcDbEntity
  8
Defpoints
 62
     0
100
AcDbPoint
 10
15.40125398791221
 20
10.88667159721162
 30
0.0
  0
POINT
  5
3C47
330
3C3C
100
AcDbEntity
  8
Defpoints
 62
     0
100
AcDbPoint
 10
15.40125398791221
 20
1.25
 30
0.0
  0
ENDBLK
  5
3C48
330
3C3C
100
AcDbEntity
  8
0
100
AcDbBlockEnd
  0
BLOCK
  5
3C4D
330
3C4C
100
AcDbEntity
  8
0
100
AcDbBlockBegin
  2
*D51
 70
     1
 10
0.0
 20
0.0
 30
0.0
  3
*D51
  1

  0
LINE
  5
3C4E
330
3C4C
100
AcDbEntity
  8
寸法
  6
Continuous
 62
     0
370
    -2
100
AcDbLine
 10
14.77625398791224
 20
10.88893861710876
 30
0.0
 11
7.124518935767924
 21
10.88893861710876
 31
0.0
  0
LINE
  5
3C4F
330
3C4C
100
AcDbEntity
  8
寸法
  6
Continuous
 62
     0
370
    -2
100
AcDbLine
 10
12.77625398791221
 20
12.88667159721162
 30
0.0
 11
7.124518935767924
 21
12.88667159721162
 31
0.0
  0
LINE
  5
3C50
330
3C4C
100
AcDbEntity
  8
寸法
  6
Continuous
 62
     0
370
    -2
100
AcDbLine
 10
8.374518935767924
 20
8.388938617108764
 30
0.0
 11
8.374518935767924
 21
5.888938617108764
 31
0.0
  0
LINE
  5
3C51
330
3C4C
100
AcDbEntity
  8
寸法
  6
Continuous
 62
     0
370
    -2
100
AcDbLine
 10
8.374518935767924
 20
15.38667159721162
 30
0.0
 11
8.374518935767924
 21
17.88667159721162
 31
0.0
  0
SOLID
  5
3C52
330
3C4C
100
AcDbEntity
  8
寸法
 62
     0
100
AcDbTrace
 10
8.79118560243459
 20
8.388938617108764
 30
0.0
 11
7.957852269101257
 21
8.388938617108764
 31
0.0
 12
8.374518935767924
 22
10.88893861710876
 32
0.0
 13
8.374518935767924
 23
10.88893861710876
 33
0.0
  0
SOLID
  5
3C53
330
3C4C
100
AcDbEntity
  8
寸法
 62
     0
100
AcDbTrace
 10
7.957852269101257
 20
15.38667159721162
 30
0.0
 11
8.79118560243459
 21
15.38667159721162
 31
0.0
 12
8.374518935767924
 22
12.88667159721162
 32
0.0
 13
8.374518935767924
 23
12.88667159721162
 33
0.0
  0
MTEXT
  5
3C54
330
3C4C
100
AcDbEntity
  8
寸法
  6
Continuous
 62
     0
100
AcDbMText
 10
5.633322383531834
 20
11.92801776490229
 30
0.0
 40
2.5
 41
0.0
 46
0.0
 71
     5
 72
     1
  1
2
 73
     1
 44
1.0
  0
POINT
  5
3C55
330
3C4C
100
AcDbEntity
  8
Defpoints
 62
     0
100
AcDbPoint
 10
15.40125398791224
 20
10.88893861710876
 30
0.0
  0
POINT
  5
3C56
330
3C4C
100
AcDbEntity
  8
Defpoints
 62
     0
100
AcDbPoint
 10
13.40125398791221
 20
12.88667159721162
 30
0.0
  0
POINT
  5
3C57
330
3C4C
100
AcDbEntity
  8
Defpoints
 62
     0
100
AcDbPoint
 10
8.374518935767924
 20
12.88667159721162
 30
0.0
  0
ENDBLK
  5
3C58
330
3C4C
100
AcDbEntity
  8
0
100
AcDbBlockEnd
  0
BLOCK
  5
3CD5
330
3CD4
100
AcDbEntity
  8
0
100
AcDbBlockBegin
  2
*D52
 70
     1
 10
0.0
 20
0.0
 30
0.0
  3
*D52
  1

  0
LINE
  5
3CD7
330
3CD4
100
AcDbEntity
  8
寸法
  6
Continuous
 62
     0
370
    -2
100
AcDbLine
 10
125.3962834993197
 20
104.3014874155704
 30
0.0
 11
125.3962834993197
 21
115.1438884637778
 31
0.0
  0
LINE
  5
3CD8
330
3CD4
100
AcDbEntity
  8
寸法
  6
Continuous
 62
     0
370
    -2
100
AcDbLine
 10
153.3962834993198
 20
104.1014874155705
 30
0.0
 11
153.3962834993198
 21
115.1438884637778
 31
0.0
  0
LINE
  5
3CD9
330
3CD4
100
AcDbEntity
  8
寸法
  6
Continuous
 62
     0
370
    -2
100
AcDbLine
 10
127.8962834993197
 20
113.8938884637778
 30
0.0
 11
138.3127862269768
 21
113.8938884637778
 31
0.0
  0
LINE
  5
3CDA
330
3CD4
100
AcDbEntity
  8
寸法
  6
Continuous
 62
     0
370
    -2
100
AcDbLine
 10
150.8962834993198
 20
113.8938884637778
 30
0.0
 11
143.7294528936435
 21
113.8938884637778
 31
0.0
  0
SOLID
  5
3CDB
330
3CD4
100
AcDbEntity
  8
寸法
 62
     0
100
AcDbTrace
 10
127.8962834993197
 20
114.3105551304444
 30
0.0
 11
127.8962834993197
 21
113.4772217971111
 31
0.0
 12
125.3962834993197
 22
113.8938884637778
 32
0.0
 13
125.3962834993197
 23
113.8938884637778
 33
0.0
  0
SOLID
  5
3CDC
330
3CD4
100
AcDbEntity
  8
寸法
 62
     0
100
AcDbTrace
 10
150.8962834993198
 20
113.4772217971111
 30
0.0
 11
150.8962834993198
 21
114.3105551304444
 31
0.0
 12
153.3962834993198
 22
113.8938884637778
 32
0.0
 13
153.3962834993198
 23
113.8938884637778
 33
0.0
  0
MTEXT
  5
3CDD
330
3CD4
100
AcDbEntity
  8
寸法
  6
Continuous
 62
     0
100
AcDbMText
 10
141.0211195603102
 20
113.8938884637778
 30
0.0
 40
2.5
 41
0.0
 46
0.0
 71
     5
 72
     1
  1
28
 73
     1
 44
1.0
  0
POINT
  5
3CDE
330
3CD4
100
AcDbEntity
  8
Defpoints
 62
     0
100
AcDbPoint
 10
125.3962834993197
 20
103.6764874155704
 30
0.0
  0
POINT
  5
3CDF
330
3CD4
100
AcDbEntity
  8
Defpoints
 62
     0
100
AcDbPoint
 10
153.3962834993198
 20
103.4764874155705
 30
0.0
  0
POINT
  5
3CE0
330
3CD4
100
AcDbEntity
  8
Defpoints
 62
     0
100
AcDbPoint
 10
153.3962834993198
 20
113.8938884637778
 30
0.0
  0
ENDBLK
  5
3CD6
330
3CD4
100
AcDbEntity
  8
0
100
AcDbBlockEnd
  0
BLOCK
  5
3CE2
330
3CE1
100
AcDbEntity
  8
0
100
AcDbBlockBegin
  2
*D53
 70
     1
 10
0.0
 20
0.0
 30
0.0
  3
*D53
  1

  0
LINE
  5
3CE4
330
3CE1
100
AcDbEntity
  8
寸法
  6
Continuous
 62
     0
370
    -2
100
AcDbLine
 10
125.3962834993197
 20
104.3014874155704
 30
0.0
 11
125.3962834993197
 21
119.9859231034588
 31
0.0
  0
LINE
  5
3CE5
330
3CE1
100
AcDbEntity
  8
寸法
  6
Continuous
 62
     0
370
    -2
100
AcDbLine
 10
153.5942594682903
 20
106.8464310950804
 30
0.0
 11
153.5942594682903
 21
119.9859231034588
 31
0.0
  0
LINE
  5
3CE6
330
3CE1
100
AcDbEntity
  8
寸法
  6
Continuous
 62
     0
370
    -2
100
AcDbLine
 10
127.8962834993197
 20
118.7359231034588
 30
0.0
 11
136.4930368971569
 21
118.7359231034588
 31
0.0
  0
LINE
  5
3CE7
330
3CE1
100
AcDbEntity
  8
寸法
  6
Continuous
 62
     0
370
    -2
100
AcDbLine
 10
151.0942594682903
 20
118.7359231034588
 30
0.0
 11
145.2430368971569
 21
118.7359231034588
 31
0.0
  0
SOLID
  5
3CE8
330
3CE1
100
AcDbEntity
  8
寸法
 62
     0
100
AcDbTrace
 10
127.8962834993197
 20
119.1525897701255
 30
0.0
 11
127.8962834993197
 21
118.3192564367921
 31
0.0
 12
125.3962834993197
 22
118.7359231034588
 32
0.0
 13
125.3962834993197
 23
118.7359231034588
 33
0.0
  0
SOLID
  5
3CE9
330
3CE1
100
AcDbEntity
  8
寸法
 62
     0
100
AcDbTrace
 10
151.0942594682903
 20
118.3192564367921
 30
0.0
 11
151.0942594682903
 21
119.1525897701255
 31
0.0
 12
153.5942594682903
 22
118.7359231034588
 32
0.0
 13
153.5942594682903
 23
118.7359231034588
 33
0.0
  0
MTEXT
  5
3CEA
330
3CE1
100
AcDbEntity
  8
寸法
  6
Continuous
 62
     0
100
AcDbMText
 10
140.8680368971569
 20
118.7359231034588
 30
0.0
 40
2.5
 41
0.0
 46
0.0
 71
     5
 72
     1
  1
28.2
 73
     1
 44
1.0
  0
POINT
  5
3CEB
330
3CE1
100
AcDbEntity
  8
Defpoints
 62
     0
100
AcDbPoint
 10
125.3962834993197
 20
103.6764874155704
 30
0.0
  0
POINT
  5
3CEC
330
3CE1
100
AcDbEntity
  8
Defpoints
 62
     0
100
AcDbPoint
 10
153.5942594682903
 20
106.2214310950804
 30
0.0
  0
POINT
  5
3CED
330
3CE1
100
AcDbEntity
  8
Defpoints
 62
     0
100
AcDbPoint
 10
153.5942594682903
 20
118.7359231034588
 30
0.0
  0
ENDBLK
  5
3CE3
330
3CE1
100
AcDbEntity
  8
0
100
AcDbBlockEnd
  0
BLOCK
  5
3CEF
330
3CEE
100
AcDbEntity
  8
0
100
AcDbBlockBegin
  2
*D54
 70
     1
 10
0.0
 20
0.0
 30
0.0
  3
*D54
  1

  0
LINE
  5
3CF1
330
3CEE
100
AcDbEntity
  8
寸法
  6
Continuous
 62
     0
370
    -2
100
AcDbLine
 10
153.7212834993198
 20
106.6764874155704
 30
0.0
 11
158.7846864075074
 21
106.6764874155704
 31
0.0
  0
LINE
  5
3CF2
330
3CEE
100
AcDbEntity
  8
寸法
  6
Continuous
 62
     0
370
    -2
100
AcDbLine
 10
154.0212834993198
 20
98.67648741557048
 30
0.0
 11
158.7846864075074
 21
98.67648741557048
 31
0.0
  0
LINE
  5
3CF3
330
3CEE
100
AcDbEntity
  8
寸法
  6
Continuous
 62
     0
370
    -2
100
AcDbLine
 10
157.5346864075074
 20
104.1764874155704
 30
0.0
 11
157.5346864075074
 21
101.1764874155705
 31
0.0
  0
LINE
  5
3CF4
330
3CEE
100
AcDbEntity
  8
寸法
  6
Continuous
 62
     0
370
    -2
100
AcDbLine
 10
157.5346864075074
 20
101.1764874155705
 30
0.0
 11
157.5346864075074
 21
104.1764874155704
 31
0.0
  0
SOLID
  5
3CF5
330
3CEE
100
AcDbEntity
  8
寸法
 62
     0
100
AcDbTrace
 10
157.951353074174
 20
104.1764874155704
 30
0.0
 11
157.1180197408407
 21
104.1764874155704
 31
0.0
 12
157.5346864075074
 22
106.6764874155704
 32
0.0
 13
157.5346864075074
 23
106.6764874155704
 33
0.0
  0
SOLID
  5
3CF6
330
3CEE
100
AcDbEntity
  8
寸法
 62
     0
100
AcDbTrace
 10
157.1180197408407
 20
101.1764874155705
 30
0.0
 11
157.951353074174
 21
101.1764874155705
 31
0.0
 12
157.5346864075074
 22
98.67648741557048
 32
0.0
 13
157.5346864075074
 23
98.67648741557048
 33
0.0
  0
MTEXT
  5
3CF7
330
3CEE
100
AcDbEntity
  8
寸法
  6
Continuous
 62
     0
100
AcDbMText
 10
159.7578978628851
 20
102.7470072024447
 30
0.0
 40
2.5
 41
0.0
 46
0.0
 71
     5
 72
     1
  1
8
 73
     1
 44
1.0
  0
POINT
  5
3CF8
330
3CEE
100
AcDbEntity
  8
Defpoints
 62
     0
100
AcDbPoint
 10
153.0962834993198
 20
106.6764874155704
 30
0.0
  0
POINT
  5
3CF9
330
3CEE
100
AcDbEntity
  8
Defpoints
 62
     0
100
AcDbPoint
 10
153.3962834993198
 20
98.67648741557048
 30
0.0
  0
POINT
  5
3CFA
330
3CEE
100
AcDbEntity
  8
Defpoints
 62
     0
100
AcDbPoint
 10
157.5346864075074
 20
98.67648741557048
 30
0.0
  0
ENDBLK
  5
3CF0
330
3CEE
100
AcDbEntity
  8
0
100
AcDbBlockEnd
  0
BLOCK
  5
3CFC
330
3CFB
100
AcDbEntity
  8
0
100
AcDbBlockBegin
  2
*D55
 70
     1
 10
0.0
 20
0.0
 30
0.0
  3
*D55
  1

  0
LINE
  5
3CFE
330
3CFB
100
AcDbEntity
  8
寸法
  6
Continuous
 62
     0
370
    -2
100
AcDbLine
 10
127.7712834993197
 20
106.6764874155704
 30
0.0
 11
115.8531060968807
 21
106.6764874155704
 31
0.0
  0
LINE
  5
3CFF
330
3CFB
100
AcDbEntity
  8
寸法
  6
Continuous
 62
     0
370
    -2
100
AcDbLine
 10
127.7712834993198
 20
100.6764874155704
 30
0.0
 11
115.8531060968807
 21
100.6764874155704
 31
0.0
  0
LINE
  5
3D00
330
3CFB
100
AcDbEntity
  8
寸法
  6
Continuous
 62
     0
370
    -2
100
AcDbLine
 10
117.1031060968807
 20
109.1764874155704
 30
0.0
 11
117.1031060968807
 21
111.6764874155704
 31
0.0
  0
LINE
  5
3D01
330
3CFB
100
AcDbEntity
  8
寸法
  6
Continuous
 62
     0
370
    -2
100
AcDbLine
 10
117.1031060968807
 20
98.17648741557042
 30
0.0
 11
117.1031060968807
 21
95.67648741557042
 31
0.0
  0
SOLID
  5
3D02
330
3CFB
100
AcDbEntity
  8
寸法
 62
     0
100
AcDbTrace
 10
116.686439430214
 20
109.1764874155704
 30
0.0
 11
117.5197727635473
 21
109.1764874155704
 31
0.0
 12
117.1031060968807
 22
106.6764874155704
 32
0.0
 13
117.1031060968807
 23
106.6764874155704
 33
0.0
  0
SOLID
  5
3D03
330
3CFB
100
AcDbEntity
  8
寸法
 62
     0
100
AcDbTrace
 10
117.5197727635473
 20
98.17648741557042
 30
0.0
 11
116.686439430214
 21
98.17648741557042
 31
0.0
 12
117.1031060968807
 22
100.6764874155704
 32
0.0
 13
117.1031060968807
 23
100.6764874155704
 33
0.0
  0
MTEXT
  5
3D04
330
3CFB
100
AcDbEntity
  8
寸法
  6
Continuous
 62
     0
100
AcDbMText
 10
117.153237635683
 20
103.6764874155704
 30
0.0
 40
2.5
 41
0.0
 46
0.0
 71
     5
 72
     1
  1
6
 73
     1
 44
1.0
  0
POINT
  5
3D05
330
3CFB
100
AcDbEntity
  8
Defpoints
 62
     0
100
AcDbPoint
 10
128.3962834993197
 20
106.6764874155704
 30
0.0
  0
POINT
  5
3D06
330
3CFB
100
AcDbEntity
  8
Defpoints
 62
     0
100
AcDbPoint
 10
128.3962834993198
 20
100.6764874155704
 30
0.0
  0
POINT
  5
3D07
330
3CFB
100
AcDbEntity
  8
Defpoints
 62
     0
100
AcDbPoint
 10
117.1031060968807
 20
100.6764874155704
 30
0.0
  0
ENDBLK
  5
3CFD
330
3CFB
100
AcDbEntity
  8
0
100
AcDbBlockEnd
  0
BLOCK
  5
3D09
330
3D08
100
AcDbEntity
  8
0
100
AcDbBlockBegin
  2
*D56
 70
     1
 10
0.0
 20
0.0
 30
0.0
  3
*D56
  1

  0
LINE
  5
3D0B
330
3D08
100
AcDbEntity
  8
寸法
  6
Continuous
 62
     0
370
    -2
100
AcDbLine
 10
132.3962834993198
 20
98.05148741557048
 30
0.0
 11
132.3962834993198
 21
91.21153289866272
 31
0.0
  0
LINE
  5
3D0C
330
3D08
100
AcDbEntity
  8
寸法
  6
Continuous
 62
     0
370
    -2
100
AcDbLine
 10
153.3962834993198
 20
98.05148741557048
 30
0.0
 11
153.3962834993198
 21
91.21153289866272
 31
0.0
  0
LINE
  5
3D0D
330
3D08
100
AcDbEntity
  8
寸法
  6
Continuous
 62
     0
370
    -2
100
AcDbLine
 10
134.8962834993198
 20
92.46153289866272
 30
0.0
 11
140.6046168326531
 21
92.46153289866272
 31
0.0
  0
LINE
  5
3D0E
330
3D08
100
AcDbEntity
  8
寸法
  6
Continuous
 62
     0
370
    -2
100
AcDbLine
 10
150.8962834993198
 20
92.46153289866272
 30
0.0
 11
145.1879501659864
 21
92.46153289866272
 31
0.0
  0
SOLID
  5
3D0F
330
3D08
100
AcDbEntity
  8
寸法
 62
     0
100
AcDbTrace
 10
134.8962834993198
 20
92.8781995653294
 30
0.0
 11
134.8962834993198
 21
92.04486623199605
 31
0.0
 12
132.3962834993198
 22
92.46153289866272
 32
0.0
 13
132.3962834993198
 23
92.46153289866272
 33
0.0
  0
SOLID
  5
3D10
330
3D08
100
AcDbEntity
  8
寸法
 62
     0
100
AcDbTrace
 10
150.8962834993198
 20
92.04486623199605
 30
0.0
 11
150.8962834993198
 21
92.8781995653294
 31
0.0
 12
153.3962834993198
 22
92.46153289866272
 32
0.0
 13
153.3962834993198
 23
92.46153289866272
 33
0.0
  0
MTEXT
  5
3D11
330
3D08
100
AcDbEntity
  8
寸法
  6
Continuous
 62
     0
100
AcDbMText
 10
142.8962834993198
 20
92.46153289866272
 30
0.0
 40
2.5
 41
0.0
 46
0.0
 71
     5
 72
     1
  1
21
 73
     1
 44
1.0
  0
POINT
  5
3D12
330
3D08
100
AcDbEntity
  8
Defpoints
 62
     0
100
AcDbPoint
 10
132.3962834993198
 20
98.67648741557048
 30
0.0
  0
POINT
  5
3D13
330
3D08
100
AcDbEntity
  8
Defpoints
 62
     0
100
AcDbPoint
 10
153.3962834993198
 20
98.67648741557048
 30
0.0
  0
POINT
  5
3D14
330
3D08
100
AcDbEntity
  8
Defpoints
 62
     0
100
AcDbPoint
 10
153.3962834993198
 20
92.46153289866272
 30
0.0
  0
ENDBLK
  5
3D0A
330
3D08
100
AcDbEntity
  8
0
100
AcDbBlockEnd
  0
BLOCK
  5
3D16
330
3D15
100
AcDbEntity
  8
0
100
AcDbBlockBegin
  2
*D57
 70
     1
 10
0.0
 20
0.0
 30
0.0
  3
*D57
  1

  0
LINE
  5
3D18
330
3D15
100
AcDbEntity
  8
寸法
  6
Continuous
 62
     0
370
    -2
100
AcDbLine
 10
125.3962834993197
 20
103.0514874155704
 30
0.0
 11
125.3962834993197
 21
87.78754879846166
 31
0.0
  0
LINE
  5
3D19
330
3D15
100
AcDbEntity
  8
寸法
  6
Continuous
 62
     0
370
    -2
100
AcDbLine
 10
130.3962834993197
 20
98.04922039567327
 30
0.0
 11
130.3962834993197
 21
87.78754879846166
 31
0.0
  0
LINE
  5
3D1A
330
3D15
100
AcDbEntity
  8
寸法
  6
Continuous
 62
     0
370
    -2
100
AcDbLine
 10
122.8962834993197
 20
89.03754879846166
 30
0.0
 11
120.3962834993197
 21
89.03754879846166
 31
0.0
  0
LINE
  5
3D1B
330
3D15
100
AcDbEntity
  8
寸法
  6
Continuous
 62
     0
370
    -2
100
AcDbLine
 10
132.8962834993197
 20
89.03754879846166
 30
0.0
 11
135.3962834993197
 21
89.03754879846166
 31
0.0
  0
SOLID
  5
3D1C
330
3D15
100
AcDbEntity
  8
寸法
 62
     0
100
AcDbTrace
 10
122.8962834993197
 20
88.62088213179499
 30
0.0
 11
122.8962834993197
 21
89.45421546512833
 31
0.0
 12
125.3962834993197
 22
89.03754879846166
 32
0.0
 13
125.3962834993197
 23
89.03754879846166
 33
0.0
  0
SOLID
  5
3D1D
330
3D15
100
AcDbEntity
  8
寸法
 62
     0
100
AcDbTrace
 10
132.8962834993197
 20
89.45421546512833
 30
0.0
 11
132.8962834993197
 21
88.62088213179499
 31
0.0
 12
130.3962834993197
 22
89.03754879846166
 32
0.0
 13
130.3962834993197
 23
89.03754879846166
 33
0.0
  0
MTEXT
  5
3D1E
330
3D15
100
AcDbEntity
  8
寸法
  6
Continuous
 62
     0
100
AcDbMText
 10
128.3962834993197
 20
89.03754879846166
 30
0.0
 40
2.5
 41
0.0
 46
0.0
 71
     5
 72
     1
  1
5
 73
     1
 44
1.0
  0
POINT
  5
3D1F
330
3D15
100
AcDbEntity
  8
Defpoints
 62
     0
100
AcDbPoint
 10
125.3962834993197
 20
103.6764874155704
 30
0.0
  0
POINT
  5
3D20
330
3D15
100
AcDbEntity
  8
Defpoints
 62
     0
100
AcDbPoint
 10
130.3962834993197
 20
98.67422039567327
 30
0.0
  0
POINT
  5
3D21
330
3D15
100
AcDbEntity
  8
Defpoints
 62
     0
100
AcDbPoint
 10
130.3962834993197
 20
89.03754879846166
 30
0.0
  0
ENDBLK
  5
3D17
330
3D15
100
AcDbEntity
  8
0
100
AcDbBlockEnd
  0
BLOCK
  5
3D23
330
3D22
100
AcDbEntity
  8
0
100
AcDbBlockBegin
  2
*D58
 70
     1
 10
0.0
 20
0.0
 30
0.0
  3
*D58
  1

  0
LINE
  5
3D25
330
3D22
100
AcDbEntity
  8
寸法
  6
Continuous
 62
     0
370
    -2
100
AcDbLine
 10
129.7712834993198
 20
98.67648741557042
 30
0.0
 11
122.1195484471754
 21
98.67648741557042
 31
0.0
  0
LINE
  5
3D26
330
3D22
100
AcDbEntity
  8
寸法
  6
Continuous
 62
     0
370
    -2
100
AcDbLine
 10
127.7712834993197
 20
100.6742203956733
 30
0.0
 11
122.1195484471754
 21
100.6742203956733
 31
0.0
  0
LINE
  5
3D27
330
3D22
100
AcDbEntity
  8
寸法
  6
Continuous
 62
     0
370
    -2
100
AcDbLine
 10
123.3695484471754
 20
96.17648741557042
 30
0.0
 11
123.3695484471754
 21
93.67648741557042
 31
0.0
  0
LINE
  5
3D28
330
3D22
100
AcDbEntity
  8
寸法
  6
Continuous
 62
     0
370
    -2
100
AcDbLine
 10
123.3695484471754
 20
103.1742203956733
 30
0.0
 11
123.3695484471754
 21
105.6742203956733
 31
0.0
  0
SOLID
  5
3D29
330
3D22
100
AcDbEntity
  8
寸法
 62
     0
100
AcDbTrace
 10
123.7862151138421
 20
96.17648741557042
 30
0.0
 11
122.9528817805088
 21
96.17648741557042
 31
0.0
 12
123.3695484471754
 22
98.67648741557042
 32
0.0
 13
123.3695484471754
 23
98.67648741557042
 33
0.0
  0
SOLID
  5
3D2A
330
3D22
100
AcDbEntity
  8
寸法
 62
     0
100
AcDbTrace
 10
122.9528817805088
 20
103.1742203956733
 30
0.0
 11
123.7862151138421
 21
103.1742203956733
 31
0.0
 12
123.3695484471754
 22
100.6742203956733
 32
0.0
 13
123.3695484471754
 23
100.6742203956733
 33
0.0
  0
MTEXT
  5
3D2B
330
3D22
100
AcDbEntity
  8
寸法
  6
Continuous
 62
     0
100
AcDbMText
 10
120.6283518949394
 20
99.71556656336395
 30
0.0
 40
2.5
 41
0.0
 46
0.0
 71
     5
 72
     1
  1
2
 73
     1
 44
1.0
  0
POINT
  5
3D2C
330
3D22
100
AcDbEntity
  8
Defpoints
 62
     0
100
AcDbPoint
 10
130.3962834993198
 20
98.67648741557042
 30
0.0
  0
POINT
  5
3D2D
330
3D22
100
AcDbEntity
  8
Defpoints
 62
     0
100
AcDbPoint
 10
128.3962834993197
 20
100.6742203956733
 30
0.0
  0
POINT
  5
3D2E
330
3D22
100
AcDbEntity
  8
Defpoints
 62
     0
100
AcDbPoint
 10
123.3695484471754
 20
100.6742203956733
 30
0.0
  0
ENDBLK
  5
3D24
330
3D22
100
AcDbEntity
  8
0
100
AcDbBlockEnd
  0
BLOCK
  5
3D9E
330
3D9D
100
AcDbEntity
  8
0
100
AcDbBlockBegin
  2
*D59
 70
     1
 10
0.0
 20
0.0
 30
0.0
  3
*D59
  1

  0
LINE
  5
3D9F
330
3D9D
100
AcDbEntity
  8
寸法
  6
Continuous
 62
     0
370
    -2
100
AcDbLine
 10
10.4012539879122
 20
16.51393861710875
 30
0.0
 11
10.4012539879122
 21
27.35633966531614
 31
0.0
  0
LINE
  5
3DA0
330
3D9D
100
AcDbEntity
  8
寸法
  6
Continuous
 62
     0
370
    -2
100
AcDbLine
 10
38.4012539879123
 20
16.31393861710885
 30
0.0
 11
38.4012539879123
 21
27.35633966531614
 31
0.0
  0
LINE
  5
3DA1
330
3D9D
100
AcDbEntity
  8
寸法
  6
Continuous
 62
     0
370
    -2
100
AcDbLine
 10
12.9012539879122
 20
26.10633966531614
 30
0.0
 11
23.31775671556938
 21
26.10633966531614
 31
0.0
  0
LINE
  5
3DA2
330
3D9D
100
AcDbEntity
  8
寸法
  6
Continuous
 62
     0
370
    -2
100
AcDbLine
 10
35.9012539879123
 20
26.10633966531614
 30
0.0
 11
28.73442338223605
 21
26.10633966531614
 31
0.0
  0
SOLID
  5
3DA3
330
3D9D
100
AcDbEntity
  8
寸法
 62
     0
100
AcDbTrace
 10
12.9012539879122
 20
26.52300633198281
 30
0.0
 11
12.9012539879122
 21
25.68967299864947
 31
0.0
 12
10.4012539879122
 22
26.10633966531614
 32
0.0
 13
10.4012539879122
 23
26.10633966531614
 33
0.0
  0
SOLID
  5
3DA4
330
3D9D
100
AcDbEntity
  8
寸法
 62
     0
100
AcDbTrace
 10
35.9012539879123
 20
25.68967299864947
 30
0.0
 11
35.9012539879123
 21
26.52300633198281
 31
0.0
 12
38.4012539879123
 22
26.10633966531614
 32
0.0
 13
38.4012539879123
 23
26.10633966531614
 33
0.0
  0
MTEXT
  5
3DA5
330
3D9D
100
AcDbEntity
  8
寸法
  6
Continuous
 62
     0
100
AcDbMText
 10
26.02609004890272
 20
26.10633966531614
 30
0.0
 40
2.5
 41
0.0
 46
0.0
 71
     5
 72
     1
  1
28
 73
     1
 44
1.0
  0
POINT
  5
3DA6
330
3D9D
100
AcDbEntity
  8
Defpoints
 62
     0
100
AcDbPoint
 10
10.4012539879122
 20
15.88893861710875
 30
0.0
  0
POINT
  5
3DA7
330
3D9D
100
AcDbEntity
  8
Defpoints
 62
     0
100
AcDbPoint
 10
38.4012539879123
 20
15.68893861710885
 30
0.0
  0
POINT
  5
3DA8
330
3D9D
100
AcDbEntity
  8
Defpoints
 62
     0
100
AcDbPoint
 10
38.4012539879123
 20
26.10633966531614
 30
0.0
  0
ENDBLK
  5
3DA9
330
3D9D
100
AcDbEntity
  8
0
100
AcDbBlockEnd
  0
BLOCK
  5
3DAD
330
3DAC
100
AcDbEntity
  8
0
100
AcDbBlockBegin
  2
*D60
 70
     1
 10
0.0
 20
0.0
 30
0.0
  3
*D60
  1

  0
LINE
  5
3DAE
330
3DAC
100
AcDbEntity
  8
寸法
  6
Continuous
 62
     0
370
    -2
100
AcDbLine
 10
10.4012539879122
 20
16.51393861710875
 30
0.0
 11
10.4012539879122
 21
32.19837430499715
 31
0.0
  0
LINE
  5
3DAF
330
3DAC
100
AcDbEntity
  8
寸法
  6
Continuous
 62
     0
370
    -2
100
AcDbLine
 10
38.59922995688279
 20
19.05888229661875
 30
0.0
 11
38.59922995688279
 21
32.19837430499715
 31
0.0
  0
LINE
  5
3DB0
330
3DAC
100
AcDbEntity
  8
寸法
  6
Continuous
 62
     0
370
    -2
100
AcDbLine
 10
12.9012539879122
 20
30.94837430499715
 30
0.0
 11
21.49800738574942
 21
30.94837430499715
 31
0.0
  0
LINE
  5
3DB1
330
3DAC
100
AcDbEntity
  8
寸法
  6
Continuous
 62
     0
370
    -2
100
AcDbLine
 10
36.09922995688279
 20
30.94837430499715
 30
0.0
 11
30.24800738574942
 21
30.94837430499715
 31
0.0
  0
SOLID
  5
3DB2
330
3DAC
100
AcDbEntity
  8
寸法
 62
     0
100
AcDbTrace
 10
12.9012539879122
 20
31.36504097166381
 30
0.0
 11
12.9012539879122
 21
30.53170763833048
 31
0.0
 12
10.4012539879122
 22
30.94837430499715
 32
0.0
 13
10.4012539879122
 23
30.94837430499715
 33
0.0
  0
SOLID
  5
3DB3
330
3DAC
100
AcDbEntity
  8
寸法
 62
     0
100
AcDbTrace
 10
36.09922995688279
 20
30.53170763833048
 30
0.0
 11
36.09922995688279
 21
31.36504097166381
 31
0.0
 12
38.59922995688279
 22
30.94837430499715
 32
0.0
 13
38.59922995688279
 23
30.94837430499715
 33
0.0
  0
MTEXT
  5
3DB4
330
3DAC
100
AcDbEntity
  8
寸法
  6
Continuous
 62
     0
100
AcDbMText
 10
25.87300738574942
 20
30.94837430499715
 30
0.0
 40
2.5
 41
0.0
 46
0.0
 71
     5
 72
     1
  1
28.2
 73
     1
 44
1.0
  0
POINT
  5
3DB5
330
3DAC
100
AcDbEntity
  8
Defpoints
 62
     0
100
AcDbPoint
 10
10.4012539879122
 20
15.88893861710875
 30
0.0
  0
POINT
  5
3DB6
330
3DAC
100
AcDbEntity
  8
Defpoints
 62
     0
100
AcDbPoint
 10
38.59922995688279
 20
18.43388229661875
 30
0.0
  0
POINT
  5
3DB7
330
3DAC
100
AcDbEntity
  8
Defpoints
 62
     0
100
AcDbPoint
 10
38.59922995688279
 20
30.94837430499715
 30
0.0
  0
ENDBLK
  5
3DB8
330
3DAC
100
AcDbEntity
  8
0
100
AcDbBlockEnd
  0
BLOCK
  5
3DBD
330
3DBC
100
AcDbEntity
  8
0
100
AcDbBlockBegin
  2
*D61
 70
     1
 10
0.0
 20
0.0
 30
0.0
  3
*D61
  1

  0
LINE
  5
3DBE
330
3DBC
100
AcDbEntity
  8
寸法
  6
Continuous
 62
     0
370
    -2
100
AcDbLine
 10
38.72625398791232
 20
18.88893861710875
 30
0.0
 11
43.7896568960999
 21
18.88893861710875
 31
0.0
  0
LINE
  5
3DBF
330
3DBC
100
AcDbEntity
  8
寸法
  6
Continuous
 62
     0
370
    -2
100
AcDbLine
 10
39.0262539879123
 20
10.88893861710882
 30
0.0
 11
43.7896568960999
 21
10.88893861710882
 31
0.0
  0
LINE
  5
3DC0
330
3DBC
100
AcDbEntity
  8
寸法
  6
Continuous
 62
     0
370
    -2
100
AcDbLine
 10
42.5396568960999
 20
16.38893861710875
 30
0.0
 11
42.5396568960999
 21
13.38893861710882
 31
0.0
  0
LINE
  5
3DC1
330
3DBC
100
AcDbEntity
  8
寸法
  6
Continuous
 62
     0
370
    -2
100
AcDbLine
 10
42.5396568960999
 20
13.38893861710882
 30
0.0
 11
42.5396568960999
 21
16.38893861710875
 31
0.0
  0
SOLID
  5
3DC2
330
3DBC
100
AcDbEntity
  8
寸法
 62
     0
100
AcDbTrace
 10
42.95632356276656
 20
16.38893861710875
 30
0.0
 11
42.12299022943323
 21
16.38893861710875
 31
0.0
 12
42.5396568960999
 22
18.88893861710875
 32
0.0
 13
42.5396568960999
 23
18.88893861710875
 33
0.0
  0
SOLID
  5
3DC3
330
3DBC
100
AcDbEntity
  8
寸法
 62
     0
100
AcDbTrace
 10
42.12299022943323
 20
13.38893861710882
 30
0.0
 11
42.95632356276656
 21
13.38893861710882
 31
0.0
 12
42.5396568960999
 22
10.88893861710882
 32
0.0
 13
42.5396568960999
 23
10.88893861710882
 33
0.0
  0
MTEXT
  5
3DC4
330
3DBC
100
AcDbEntity
  8
寸法
  6
Continuous
 62
     0
100
AcDbMText
 10
44.76286835147761
 20
14.95945840398305
 30
0.0
 40
2.5
 41
0.0
 46
0.0
 71
     5
 72
     1
  1
8
 73
     1
 44
1.0
  0
POINT
  5
3DC5
330
3DBC
100
AcDbEntity
  8
Defpoints
 62
     0
100
AcDbPoint
 10
38.10125398791232
 20
18.88893861710875
 30
0.0
  0
POINT
  5
3DC6
330
3DBC
100
AcDbEntity
  8
Defpoints
 62
     0
100
AcDbPoint
 10
38.4012539879123
 20
10.88893861710882
 30
0.0
  0
POINT
  5
3DC7
330
3DBC
100
AcDbEntity
  8
Defpoints
 62
     0
100
AcDbPoint
 10
42.5396568960999
 20
10.88893861710882
 30
0.0
  0
ENDBLK
  5
3DC8
330
3DBC
100
AcDbEntity
  8
0
100
AcDbBlockEnd
  0
BLOCK
  5
3DD3
330
3DD2
100
AcDbEntity
  8
0
100
AcDbBlockBegin
  2
*D62
 70
     1
 10
0.0
 20
0.0
 30
0.0
  3
*D62
  1

  0
LINE
  5
3DD4
330
3DD2
100
AcDbEntity
  8
寸法
  6
Continuous
 62
     0
370
    -2
100
AcDbLine
 10
12.77625398791221
 20
18.88893861710875
 30
0.0
 11
0.8580765854731998
 21
18.88893861710875
 31
0.0
  0
LINE
  5
3DD5
330
3DD2
100
AcDbEntity
  8
寸法
  6
Continuous
 62
     0
370
    -2
100
AcDbLine
 10
12.7762539879123
 20
12.88893861710875
 30
0.0
 11
0.8580765854731993
 21
12.88893861710875
 31
0.0
  0
LINE
  5
3DD6
330
3DD2
100
AcDbEntity
  8
寸法
  6
Continuous
 62
     0
370
    -2
100
AcDbLine
 10
2.1080765854732
 20
21.38893861710875
 30
0.0
 11
2.1080765854732
 21
23.88893861710875
 31
0.0
  0
LINE
  5
3DD7
330
3DD2
100
AcDbEntity
  8
寸法
  6
Continuous
 62
     0
370
    -2
100
AcDbLine
 10
2.108076585473199
 20
10.38893861710875
 30
0.0
 11
2.108076585473199
 21
7.888938617108749
 31
0.0
  0
SOLID
  5
3DD8
330
3DD2
100
AcDbEntity
  8
寸法
 62
     0
100
AcDbTrace
 10
1.691409918806533
 20
21.38893861710875
 30
0.0
 11
2.524743252139866
 21
21.38893861710875
 31
0.0
 12
2.1080765854732
 22
18.88893861710875
 32
0.0
 13
2.1080765854732
 23
18.88893861710875
 33
0.0
  0
SOLID
  5
3DD9
330
3DD2
100
AcDbEntity
  8
寸法
 62
     0
100
AcDbTrace
 10
2.524743252139866
 20
10.38893861710875
 30
0.0
 11
1.691409918806533
 21
10.38893861710875
 31
0.0
 12
2.108076585473199
 22
12.88893861710875
 32
0.0
 13
2.108076585473199
 23
12.88893861710875
 33
0.0
  0
MTEXT
  5
3DDA
330
3DD2
100
AcDbEntity
  8
寸法
  6
Continuous
 62
     0
100
AcDbMText
 10
2.158208124275504
 20
15.88893861710875
 30
0.0
 40
2.5
 41
0.0
 46
0.0
 71
     5
 72
     1
  1
6
 73
     1
 44
1.0
  0
POINT
  5
3DDB
330
3DD2
100
AcDbEntity
  8
Defpoints
 62
     0
100
AcDbPoint
 10
13.40125398791221
 20
18.88893861710875
 30
0.0
  0
POINT
  5
3DDC
330
3DD2
100
AcDbEntity
  8
Defpoints
 62
     0
100
AcDbPoint
 10
13.4012539879123
 20
12.88893861710875
 30
0.0
  0
POINT
  5
3DDD
330
3DD2
100
AcDbEntity
  8
Defpoints
 62
     0
100
AcDbPoint
 10
2.108076585473199
 20
12.88893861710875
 30
0.0
  0
ENDBLK
  5
3DDE
330
3DD2
100
AcDbEntity
  8
0
100
AcDbBlockEnd
  0
BLOCK
  5
3DE3
330
3DE2
100
AcDbEntity
  8
0
100
AcDbBlockBegin
  2
*D63
 70
     1
 10
0.0
 20
0.0
 30
0.0
  3
*D63
  1

  0
LINE
  5
3DE4
330
3DE2
100
AcDbEntity
  8
寸法
  6
Continuous
 62
     0
370
    -2
100
AcDbLine
 10
17.4012539879123
 20
10.26393861710882
 30
0.0
 11
17.4012539879123
 21
3.423984100201068
 31
0.0
  0
LINE
  5
3DE5
330
3DE2
100
AcDbEntity
  8
寸法
  6
Continuous
 62
     0
370
    -2
100
AcDbLine
 10
38.4012539879123
 20
10.26393861710882
 30
0.0
 11
38.4012539879123
 21
3.423984100201068
 31
0.0
  0
LINE
  5
3DE6
330
3DE2
100
AcDbEntity
  8
寸法
  6
Continuous
 62
     0
370
    -2
100
AcDbLine
 10
19.9012539879123
 20
4.673984100201068
 30
0.0
 11
25.60958732124563
 21
4.673984100201068
 31
0.0
  0
LINE
  5
3DE7
330
3DE2
100
AcDbEntity
  8
寸法
  6
Continuous
 62
     0
370
    -2
100
AcDbLine
 10
35.9012539879123
 20
4.673984100201068
 30
0.0
 11
30.19292065457896
 21
4.673984100201068
 31
0.0
  0
SOLID
  5
3DE8
330
3DE2
100
AcDbEntity
  8
寸法
 62
     0
100
AcDbTrace
 10
19.9012539879123
 20
5.090650766867735
 30
0.0
 11
19.9012539879123
 21
4.257317433534401
 31
0.0
 12
17.4012539879123
 22
4.673984100201068
 32
0.0
 13
17.4012539879123
 23
4.673984100201068
 33
0.0
  0
SOLID
  5
3DE9
330
3DE2
100
AcDbEntity
  8
寸法
 62
     0
100
AcDbTrace
 10
35.9012539879123
 20
4.257317433534401
 30
0.0
 11
35.9012539879123
 21
5.090650766867735
 31
0.0
 12
38.4012539879123
 22
4.673984100201068
 32
0.0
 13
38.4012539879123
 23
4.673984100201068
 33
0.0
  0
MTEXT
  5
3DEA
330
3DE2
100
AcDbEntity
  8
寸法
  6
Continuous
 62
     0
100
AcDbMText
 10
27.9012539879123
 20
4.673984100201068
 30
0.0
 40
2.5
 41
0.0
 46
0.0
 71
     5
 72
     1
  1
21
 73
     1
 44
1.0
  0
POINT
  5
3DEB
330
3DE2
100
AcDbEntity
  8
Defpoints
 62
     0
100
AcDbPoint
 10
17.4012539879123
 20
10.88893861710882
 30
0.0
  0
POINT
  5
3DEC
330
3DE2
100
AcDbEntity
  8
Defpoints
 62
     0
100
AcDbPoint
 10
38.4012539879123
 20
10.88893861710882
 30
0.0
  0
POINT
  5
3DED
330
3DE2
100
AcDbEntity
  8
Defpoints
 62
     0
100
AcDbPoint
 10
38.4012539879123
 20
4.673984100201068
 30
0.0
  0
ENDBLK
  5
3DEE
330
3DE2
100
AcDbEntity
  8
0
100
AcDbBlockEnd
  0
BLOCK
  5
3DF3
330
3DF2
100
AcDbEntity
  8
0
100
AcDbBlockBegin
  2
*D64
 70
     1
 10
0.0
 20
0.0
 30
0.0
  3
*D64
  1

  0
LINE
  5
3DF4
330
3DF2
100
AcDbEntity
  8
寸法
  6
Continuous
 62
     0
370
    -2
100
AcDbLine
 10
10.4012539879122
 20
15.26393861710875
 30
0.0
 11
10.4012539879122
 21
0.0
 31
0.0
  0
LINE
  5
3DF5
330
3DF2
100
AcDbEntity
  8
寸法
  6
Continuous
 62
     0
370
    -2
100
AcDbLine
 10
15.40125398791221
 20
10.26167159721162
 30
0.0
 11
15.40125398791221
 21
0.0
 31
0.0
  0
LINE
  5
3DF6
330
3DF2
100
AcDbEntity
  8
寸法
  6
Continuous
 62
     0
370
    -2
100
AcDbLine
 10
7.901253987912199
 20
1.25
 30
0.0
 11
5.401253987912199
 21
1.25
 31
0.0
  0
LINE
  5
3DF7
330
3DF2
100
AcDbEntity
  8
寸法
  6
Continuous
 62
     0
370
    -2
100
AcDbLine
 10
17.90125398791221
 20
1.25
 30
0.0
 11
20.40125398791221
 21
1.25
 31
0.0
  0
SOLID
  5
3DF8
330
3DF2
100
AcDbEntity
  8
寸法
 62
     0
100
AcDbTrace
 10
7.901253987912199
 20
0.8333333333333333
 30
0.0
 11
7.901253987912199
 21
1.666666666666667
 31
0.0
 12
10.4012539879122
 22
1.25
 32
0.0
 13
10.4012539879122
 23
1.25
 33
0.0
  0
SOLID
  5
3DF9
330
3DF2
100
AcDbEntity
  8
寸法
 62
     0
100
AcDbTrace
 10
17.90125398791221
 20
1.666666666666667
 30
0.0
 11
17.90125398791221
 21
0.8333333333333333
 31
0.0
 12
15.40125398791221
 22
1.25
 32
0.0
 13
15.40125398791221
 23
1.25
 33
0.0
  0
MTEXT
  5
3DFA
330
3DF2
100
AcDbEntity
  8
寸法
  6
Continuous
 62
     0
100
AcDbMText
 10
13.40125398791221
 20
1.25
 30
0.0
 40
2.5
 41
0.0
 46
0.0
 71
     5
 72
     1
  1
5
 73
     1
 44
1.0
  0
POINT
  5
3DFB
330
3DF2
100
AcDbEntity
  8
Defpoints
 62
     0
100
AcDbPoint
 10
10.4012539879122
 20
15.88893861710875
 30
0.0
  0
POINT
  5
3DFC
330
3DF2
100
AcDbEntity
  8
Defpoints
 62
     0
100
AcDbPoint
 10
15.40125398791221
 20
10.88667159721162
 30
0.0
  0
POINT
  5
3DFD
330
3DF2
100
AcDbEntity
  8
Defpoints
 62
     0
100
AcDbPoint
 10
15.40125398791221
 20
1.25
 30
0.0
  0
ENDBLK
  5
3DFE
330
3DF2
100
AcDbEntity
  8
0
100
AcDbBlockEnd
  0
BLOCK
  5
3E03
330
3E02
100
AcDbEntity
  8
0
100
AcDbBlockBegin
  2
*D65
 70
     1
 10
0.0
 20
0.0
 30
0.0
  3
*D65
  1

  0
LINE
  5
3E04
330
3E02
100
AcDbEntity
  8
寸法
  6
Continuous
 62
     0
370
    -2
100
AcDbLine
 10
14.7762539879123
 20
10.88893861710876
 30
0.0
 11
7.12451893576791
 21
10.88893861710876
 31
0.0
  0
LINE
  5
3E05
330
3E02
100
AcDbEntity
  8
寸法
  6
Continuous
 62
     0
370
    -2
100
AcDbLine
 10
12.77625398791221
 20
12.88667159721165
 30
0.0
 11
7.12451893576791
 21
12.88667159721165
 31
0.0
  0
LINE
  5
3E06
330
3E02
100
AcDbEntity
  8
寸法
  6
Continuous
 62
     0
370
    -2
100
AcDbLine
 10
8.37451893576791
 20
8.388938617108764
 30
0.0
 11
8.37451893576791
 21
5.888938617108764
 31
0.0
  0
LINE
  5
3E07
330
3E02
100
AcDbEntity
  8
寸法
  6
Continuous
 62
     0
370
    -2
100
AcDbLine
 10
8.37451893576791
 20
15.38667159721165
 30
0.0
 11
8.37451893576791
 21
17.88667159721165
 31
0.0
  0
SOLID
  5
3E08
330
3E02
100
AcDbEntity
  8
寸法
 62
     0
100
AcDbTrace
 10
8.791185602434576
 20
8.388938617108764
 30
0.0
 11
7.957852269101243
 21
8.388938617108764
 31
0.0
 12
8.37451893576791
 22
10.88893861710876
 32
0.0
 13
8.37451893576791
 23
10.88893861710876
 33
0.0
  0
SOLID
  5
3E09
330
3E02
100
AcDbEntity
  8
寸法
 62
     0
100
AcDbTrace
 10
7.957852269101243
 20
15.38667159721165
 30
0.0
 11
8.791185602434576
 21
15.38667159721165
 31
0.0
 12
8.37451893576791
 22
12.88667159721165
 32
0.0
 13
8.37451893576791
 23
12.88667159721165
 33
0.0
  0
MTEXT
  5
3E0A
330
3E02
100
AcDbEntity
  8
寸法
  6
Continuous
 62
     0
100
AcDbMText
 10
5.633322383531905
 20
11.92801776490229
 30
0.0
 40
2.5
 41
0.0
 46
0.0
 71
     5
 72
     1
  1
2
 73
     1
 44
1.0
  0
POINT
  5
3E0B
330
3E02
100
AcDbEntity
  8
Defpoints
 62
     0
100
AcDbPoint
 10
15.4012539879123
 20
10.88893861710876
 30
0.0
  0
POINT
  5
3E0C
330
3E02
100
AcDbEntity
  8
Defpoints
 62
     0
100
AcDbPoint
 10
13.40125398791221
 20
12.88667159721165
 30
0.0
  0
POINT
  5
3E0D
330
3E02
100
AcDbEntity
  8
Defpoints
 62
     0
100
AcDbPoint
 10
8.37451893576791
 20
12.88667159721165
 30
0.0
  0
ENDBLK
  5
3E0E
330
3E02
100
AcDbEntity
  8
0
100
AcDbBlockEnd
  0
BLOCK
  5
3E8B
330
3E8A
100
AcDbEntity
  8
0
100
AcDbBlockBegin
  2
*D66
 70
     1
 10
0.0
 20
0.0
 30
0.0
  3
*D66
  1

  0
LINE
  5
3E8D
330
3E8A
100
AcDbEntity
  8
寸法
  6
Continuous
 62
     0
370
    -2
100
AcDbLine
 10
103.9999999999999
 20
106.425
 30
0.0
 11
103.9999999999999
 21
115.05
 31
0.0
  0
LINE
  5
3E8E
330
3E8A
100
AcDbEntity
  8
寸法
  6
Continuous
 62
     0
370
    -2
100
AcDbLine
 10
132.0
 20
106.2250000000001
 30
0.0
 11
132.0
 21
115.05
 31
0.0
  0
LINE
  5
3E8F
330
3E8A
100
AcDbEntity
  8
寸法
  6
Continuous
 62
     0
370
    -2
100
AcDbLine
 10
106.4999999999999
 20
113.8
 30
0.0
 11
129.5
 21
113.8
 31
0.0
  0
LINE
  5
3E90
330
3E8A
100
AcDbEntity
  8
寸法
  6
Continuous
 62
     0
370
    -2
100
AcDbLine
 10
129.5
 20
113.8
 30
0.0
 11
106.4999999999999
 21
113.8
 31
0.0
  0
SOLID
  5
3E91
330
3E8A
100
AcDbEntity
  8
寸法
 62
     0
100
AcDbTrace
 10
106.4999999999999
 20
114.2166666666667
 30
0.0
 11
106.4999999999999
 21
113.3833333333333
 31
0.0
 12
103.9999999999999
 22
113.8
 32
0.0
 13
103.9999999999999
 23
113.8
 33
0.0
  0
SOLID
  5
3E92
330
3E8A
100
AcDbEntity
  8
寸法
 62
     0
100
AcDbTrace
 10
129.5
 20
113.3833333333333
 30
0.0
 11
129.5
 21
114.2166666666667
 31
0.0
 12
132.0
 22
113.8
 32
0.0
 13
132.0
 23
113.8
 33
0.0
  0
MTEXT
  5
3E93
330
3E8A
100
AcDbEntity
  8
寸法
  6
Continuous
 62
     0
100
AcDbMText
 10
119.6248360609904
 20
116.0174010482074
 30
0.0
 40
2.5
 41
0.0
 46
0.0
 71
     5
 72
     1
  1
28
 73
     1
 44
1.0
  0
POINT
  5
3E94
330
3E8A
100
AcDbEntity
  8
Defpoints
 62
     0
100
AcDbPoint
 10
103.9999999999999
 20
105.8
 30
0.0
  0
POINT
  5
3E95
330
3E8A
100
AcDbEntity
  8
Defpoints
 62
     0
100
AcDbPoint
 10
132.0
 20
105.6000000000001
 30
0.0
  0
POINT
  5
3E96
330
3E8A
100
AcDbEntity
  8
Defpoints
 62
     0
100
AcDbPoint
 10
132.0
 20
113.8
 30
0.0
  0
ENDBLK
  5
3E8C
330
3E8A
100
AcDbEntity
  8
0
100
AcDbBlockEnd
  0
BLOCK
  5
3E98
330
3E97
100
AcDbEntity
  8
0
100
AcDbBlockBegin
  2
*D67
 70
     1
 10
0.0
 20
0.0
 30
0.0
  3
*D67
  1

  0
LINE
  5
3E9A
330
3E97
100
AcDbEntity
  8
寸法
  6
Continuous
 62
     0
370
    -2
100
AcDbLine
 10
103.9999999999999
 20
106.425
 30
0.0
 11
103.9999999999999
 21
122.1094356878884
 31
0.0
  0
LINE
  5
3E9B
330
3E97
100
AcDbEntity
  8
寸法
  6
Continuous
 62
     0
370
    -2
100
AcDbLine
 10
132.1979759689705
 20
108.96994367951
 30
0.0
 11
132.1979759689705
 21
122.1094356878884
 31
0.0
  0
LINE
  5
3E9C
330
3E97
100
AcDbEntity
  8
寸法
  6
Continuous
 62
     0
370
    -2
100
AcDbLine
 10
106.4999999999999
 20
120.8594356878884
 30
0.0
 11
115.0967533978371
 21
120.8594356878884
 31
0.0
  0
LINE
  5
3E9D
330
3E97
100
AcDbEntity
  8
寸法
  6
Continuous
 62
     0
370
    -2
100
AcDbLine
 10
129.6979759689705
 20
120.8594356878884
 30
0.0
 11
123.8467533978371
 21
120.8594356878884
 31
0.0
  0
SOLID
  5
3E9E
330
3E97
100
AcDbEntity
  8
寸法
 62
     0
100
AcDbTrace
 10
106.4999999999999
 20
121.2761023545551
 30
0.0
 11
106.4999999999999
 21
120.4427690212218
 31
0.0
 12
103.9999999999999
 22
120.8594356878884
 32
0.0
 13
103.9999999999999
 23
120.8594356878884
 33
0.0
  0
SOLID
  5
3E9F
330
3E97
100
AcDbEntity
  8
寸法
 62
     0
100
AcDbTrace
 10
129.6979759689705
 20
120.4427690212218
 30
0.0
 11
129.6979759689705
 21
121.2761023545551
 31
0.0
 12
132.1979759689705
 22
120.8594356878884
 32
0.0
 13
132.1979759689705
 23
120.8594356878884
 33
0.0
  0
MTEXT
  5
3EA0
330
3E97
100
AcDbEntity
  8
寸法
  6
Continuous
 62
     0
100
AcDbMText
 10
119.4717533978371
 20
120.8594356878884
 30
0.0
 40
2.5
 41
0.0
 46
0.0
 71
     5
 72
     1
  1
28.2
 73
     1
 44
1.0
  0
POINT
  5
3EA1
330
3E97
100
AcDbEntity
  8
Defpoints
 62
     0
100
AcDbPoint
 10
103.9999999999999
 20
105.8
 30
0.0
  0
POINT
  5
3EA2
330
3E97
100
AcDbEntity
  8
Defpoints
 62
     0
100
AcDbPoint
 10
132.1979759689705
 20
108.34494367951
 30
0.0
  0
POINT
  5
3EA3
330
3E97
100
AcDbEntity
  8
Defpoints
 62
     0
100
AcDbPoint
 10
132.1979759689705
 20
120.8594356878884
 30
0.0
  0
ENDBLK
  5
3E99
330
3E97
100
AcDbEntity
  8
0
100
AcDbBlockEnd
  0
BLOCK
  5
3EA5
330
3EA4
100
AcDbEntity
  8
0
100
AcDbBlockBegin
  2
*D68
 70
     1
 10
0.0
 20
0.0
 30
0.0
  3
*D68
  1

  0
LINE
  5
3EA7
330
3EA4
100
AcDbEntity
  8
寸法
  6
Continuous
 62
     0
370
    -2
100
AcDbLine
 10
132.325
 20
108.8
 30
0.0
 11
138.25
 21
108.8
 31
0.0
  0
LINE
  5
3EA8
330
3EA4
100
AcDbEntity
  8
寸法
  6
Continuous
 62
     0
370
    -2
100
AcDbLine
 10
132.625
 20
100.8000000000001
 30
0.0
 11
138.25
 21
100.8000000000001
 31
0.0
  0
LINE
  5
3EA9
330
3EA4
100
AcDbEntity
  8
寸法
  6
Continuous
 62
     0
370
    -2
100
AcDbLine
 10
137.0
 20
108.8
 30
0.0
 11
137.0
 21
106.7455197868744
 31
0.0
  0
LINE
  5
3EAA
330
3EA4
100
AcDbEntity
  8
寸法
  6
Continuous
 62
     0
370
    -2
100
AcDbLine
 10
137.0
 20
100.8000000000001
 30
0.0
 11
137.0
 21
102.9955197868744
 31
0.0
  0
LINE
  5
3EAB
330
3EA4
100
AcDbEntity
  8
寸法
  6
Continuous
 62
     0
370
    -2
100
AcDbLine
 10
137.0
 20
111.3
 30
0.0
 11
137.0
 21
113.8
 31
0.0
  0
LINE
  5
3EAC
330
3EA4
100
AcDbEntity
  8
寸法
  6
Continuous
 62
     0
370
    -2
100
AcDbLine
 10
137.0
 20
98.3000000000001
 30
0.0
 11
137.0
 21
95.8000000000001
 31
0.0
  0
SOLID
  5
3EAD
330
3EA4
100
AcDbEntity
  8
寸法
 62
     0
100
AcDbTrace
 10
136.5833333333333
 20
111.3
 30
0.0
 11
137.4166666666667
 21
111.3
 31
0.0
 12
137.0
 22
108.8
 32
0.0
 13
137.0
 23
108.8
 33
0.0
  0
SOLID
  5
3EAE
330
3EA4
100
AcDbEntity
  8
寸法
 62
     0
100
AcDbTrace
 10
137.4166666666667
 20
98.3000000000001
 30
0.0
 11
136.5833333333333
 21
98.3000000000001
 31
0.0
 12
137.0
 22
100.8000000000001
 32
0.0
 13
137.0
 23
100.8000000000001
 33
0.0
  0
MTEXT
  5
3EAF
330
3EA4
100
AcDbEntity
  8
寸法
  6
Continuous
 62
     0
100
AcDbMText
 10
137.0
 20
104.8705197868744
 30
0.0
 40
2.5
 41
0.0
 46
0.0
 71
     5
 72
     1
  1
8
 73
     1
 44
1.0
  0
POINT
  5
3EB0
330
3EA4
100
AcDbEntity
  8
Defpoints
 62
     0
100
AcDbPoint
 10
131.7
 20
108.8
 30
0.0
  0
POINT
  5
3EF5
330
3EA4
100
AcDbEntity
  8
Defpoints
 62
     0
100
AcDbPoint
 10
132.0
 20
100.8000000000001
 30
0.0
  0
POINT
  5
3EF6
330
3EA4
100
AcDbEntity
  8
Defpoints
 62
     0
100
AcDbPoint
 10
137.0
 20
100.8000000000001
 30
0.0
  0
ENDBLK
  5
3EA6
330
3EA4
100
AcDbEntity
  8
0
100
AcDbBlockEnd
  0
BLOCK
  5
3EB2
330
3EB1
100
AcDbEntity
  8
0
100
AcDbBlockBegin
  2
*D69
 70
     1
 10
0.0
 20
0.0
 30
0.0
  3
*D69
  1

  0
LINE
  5
3EB4
330
3EB1
100
AcDbEntity
  8
寸法
  6
Continuous
 62
     0
370
    -2
100
AcDbLine
 10
106.3749999999999
 20
108.8
 30
0.0
 11
97.7499999999999
 21
108.8
 31
0.0
  0
LINE
  5
3EB5
330
3EB1
100
AcDbEntity
  8
寸法
  6
Continuous
 62
     0
370
    -2
100
AcDbLine
 10
106.375
 20
102.8
 30
0.0
 11
97.7499999999999
 21
102.8
 31
0.0
  0
LINE
  5
3EB6
330
3EB1
100
AcDbEntity
  8
寸法
  6
Continuous
 62
     0
370
    -2
100
AcDbLine
 10
98.9999999999999
 20
108.8
 30
0.0
 11
98.9999999999999
 21
111.3
 31
0.0
  0
LINE
  5
3EB7
330
3EB1
100
AcDbEntity
  8
寸法
  6
Continuous
 62
     0
370
    -2
100
AcDbLine
 10
98.9999999999999
 20
102.8
 30
0.0
 11
98.9999999999999
 21
100.3
 31
0.0
  0
SOLID
  5
3EB8
330
3EB1
100
AcDbEntity
  8
寸法
 62
     0
100
AcDbTrace
 10
99.41666666666657
 20
106.3
 30
0.0
 11
98.58333333333323
 21
106.3
 31
0.0
 12
98.9999999999999
 22
108.8
 32
0.0
 13
98.9999999999999
 23
108.8
 33
0.0
  0
SOLID
  5
3EB9
330
3EB1
100
AcDbEntity
  8
寸法
 62
     0
100
AcDbTrace
 10
98.58333333333323
 20
105.3
 30
0.0
 11
99.41666666666657
 21
105.3
 31
0.0
 12
98.9999999999999
 22
102.8
 32
0.0
 13
98.9999999999999
 23
102.8
 33
0.0
  0
MTEXT
  5
3EBA
330
3EB1
100
AcDbEntity
  8
寸法
  6
Continuous
 62
     0
100
AcDbMText
 10
95.61577972013684
 20
105.8
 30
0.0
 40
2.5
 41
0.0
 46
0.0
 71
     5
 72
     1
  1
6
 73
     1
 44
1.0
  0
POINT
  5
3EBB
330
3EB1
100
AcDbEntity
  8
Defpoints
 62
     0
100
AcDbPoint
 10
106.9999999999999
 20
108.8
 30
0.0
  0
POINT
  5
3F0B
330
3EB1
100
AcDbEntity
  8
Defpoints
 62
     0
100
AcDbPoint
 10
107.0
 20
102.8
 30
0.0
  0
POINT
  5
3F0C
330
3EB1
100
AcDbEntity
  8
Defpoints
 62
     0
100
AcDbPoint
 10
98.9999999999999
 20
102.8
 30
0.0
  0
ENDBLK
  5
3EB3
330
3EB1
100
AcDbEntity
  8
0
100
AcDbBlockEnd
  0
BLOCK
  5
3EBF
330
3EBE
100
AcDbEntity
  8
0
100
AcDbBlockBegin
  2
*D70
 70
     1
 10
0.0
 20
0.0
 30
0.0
  3
*D70
  1

  0
LINE
  5
3EC1
330
3EBE
100
AcDbEntity
  8
寸法
  6
Continuous
 62
     0
370
    -2
100
AcDbLine
 10
111.0
 20
100.1750000000001
 30
0.0
 11
111.0
 21
94.5500000000001
 31
0.0
  0
LINE
  5
3EC2
330
3EBE
100
AcDbEntity
  8
寸法
  6
Continuous
 62
     0
370
    -2
100
AcDbLine
 10
132.0
 20
100.1750000000001
 30
0.0
 11
132.0
 21
94.5500000000001
 31
0.0
  0
LINE
  5
3EC3
330
3EBE
100
AcDbEntity
  8
寸法
  6
Continuous
 62
     0
370
    -2
100
AcDbLine
 10
113.5
 20
95.8000000000001
 30
0.0
 11
119.2083333333333
 21
95.8000000000001
 31
0.0
  0
LINE
  5
3EC4
330
3EBE
100
AcDbEntity
  8
寸法
  6
Continuous
 62
     0
370
    -2
100
AcDbLine
 10
129.5
 20
95.8000000000001
 30
0.0
 11
123.7916666666667
 21
95.8000000000001
 31
0.0
  0
SOLID
  5
3EC5
330
3EBE
100
AcDbEntity
  8
寸法
 62
     0
100
AcDbTrace
 10
113.5
 20
96.21666666666677
 30
0.0
 11
113.5
 21
95.38333333333343
 31
0.0
 12
111.0
 22
95.8000000000001
 32
0.0
 13
111.0
 23
95.8000000000001
 33
0.0
  0
SOLID
  5
3EC6
330
3EBE
100
AcDbEntity
  8
寸法
 62
     0
100
AcDbTrace
 10
129.5
 20
95.38333333333343
 30
0.0
 11
129.5
 21
96.21666666666677
 31
0.0
 12
132.0
 22
95.8000000000001
 32
0.0
 13
132.0
 23
95.8000000000001
 33
0.0
  0
MTEXT
  5
3EC7
330
3EBE
100
AcDbEntity
  8
寸法
  6
Continuous
 62
     0
100
AcDbMText
 10
121.5
 20
95.8000000000001
 30
0.0
 40
2.5
 41
0.0
 46
0.0
 71
     5
 72
     1
  1
21
 73
     1
 44
1.0
  0
POINT
  5
3EC8
330
3EBE
100
AcDbEntity
  8
Defpoints
 62
     0
100
AcDbPoint
 10
111.0
 20
100.8000000000001
 30
0.0
  0
POINT
  5
3EC9
330
3EBE
100
AcDbEntity
  8
Defpoints
 62
     0
100
AcDbPoint
 10
132.0
 20
100.8000000000001
 30
0.0
  0
POINT
  5
3ECA
330
3EBE
100
AcDbEntity
  8
Defpoints
 62
     0
100
AcDbPoint
 10
132.0
 20
95.8000000000001
 30
0.0
  0
ENDBLK
  5
3EC0
330
3EBE
100
AcDbEntity
  8
0
100
AcDbBlockEnd
  0
BLOCK
  5
3ECC
330
3ECB
100
AcDbEntity
  8
0
100
AcDbBlockBegin
  2
*D71
 70
     1
 10
0.0
 20
0.0
 30
0.0
  3
*D71
  1

  0
LINE
  5
3ECE
330
3ECB
100
AcDbEntity
  8
寸法
  6
Continuous
 62
     0
370
    -2
100
AcDbLine
 10
103.9999999999999
 20
105.175
 30
0.0
 11
103.9999999999999
 21
94.5477329801029
 31
0.0
  0
LINE
  5
3ECF
330
3ECB
100
AcDbEntity
  8
寸法
  6
Continuous
 62
     0
370
    -2
100
AcDbLine
 10
108.9999999999999
 20
100.1727329801029
 30
0.0
 11
108.9999999999999
 21
94.5477329801029
 31
0.0
  0
LINE
  5
3ED0
330
3ECB
100
AcDbEntity
  8
寸法
  6
Continuous
 62
     0
370
    -2
100
AcDbLine
 10
101.4999999999999
 20
95.7977329801029
 30
0.0
 11
98.9999999999999
 21
95.7977329801029
 31
0.0
  0
LINE
  5
3ED1
330
3ECB
100
AcDbEntity
  8
寸法
  6
Continuous
 62
     0
370
    -2
100
AcDbLine
 10
111.4999999999999
 20
95.7977329801029
 30
0.0
 11
113.9999999999999
 21
95.7977329801029
 31
0.0
  0
SOLID
  5
3ED2
330
3ECB
100
AcDbEntity
  8
寸法
 62
     0
100
AcDbTrace
 10
101.4999999999999
 20
95.38106631343622
 30
0.0
 11
101.4999999999999
 21
96.21439964676956
 31
0.0
 12
103.9999999999999
 22
95.7977329801029
 32
0.0
 13
103.9999999999999
 23
95.7977329801029
 33
0.0
  0
SOLID
  5
3ED3
330
3ECB
100
AcDbEntity
  8
寸法
 62
     0
100
AcDbTrace
 10
111.4999999999999
 20
96.21439964676956
 30
0.0
 11
111.4999999999999
 21
95.38106631343622
 31
0.0
 12
108.9999999999999
 22
95.7977329801029
 32
0.0
 13
108.9999999999999
 23
95.7977329801029
 33
0.0
  0
MTEXT
  5
3ED4
330
3ECB
100
AcDbEntity
  8
寸法
  6
Continuous
 62
     0
100
AcDbMText
 10
106.4999999999999
 20
95.79370886133412
 30
0.0
 40
2.5
 41
0.0
 46
0.0
 71
     5
 72
     1
  1
5
 73
     1
 44
1.0
  0
POINT
  5
3ED5
330
3ECB
100
AcDbEntity
  8
Defpoints
 62
     0
100
AcDbPoint
 10
103.9999999999999
 20
105.8
 30
0.0
  0
POINT
  5
3F07
330
3ECB
100
AcDbEntity
  8
Defpoints
 62
     0
100
AcDbPoint
 10
108.9999999999999
 20
100.7977329801029
 30
0.0
  0
POINT
  5
3F08
330
3ECB
100
AcDbEntity
  8
Defpoints
 62
     0
100
AcDbPoint
 10
108.9999999999999
 20
95.7977329801029
 30
0.0
  0
ENDBLK
  5
3ECD
330
3ECB
100
AcDbEntity
  8
0
100
AcDbBlockEnd
  0
BLOCK
  5
3ED9
330
3ED8
100
AcDbEntity
  8
0
100
AcDbBlockBegin
  2
*D72
 70
     1
 10
0.0
 20
0.0
 30
0.0
  3
*D72
  1

  0
LINE
  5
3EDB
330
3ED8
100
AcDbEntity
  8
寸法
  6
Continuous
 62
     0
370
    -2
100
AcDbLine
 10
108.375
 20
100.8000000000001
 30
0.0
 11
97.7499999999999
 21
100.8000000000001
 31
0.0
  0
LINE
  5
3EDC
330
3ED8
100
AcDbEntity
  8
寸法
  6
Continuous
 62
     0
370
    -2
100
AcDbLine
 10
106.3749999999999
 20
102.7977329801029
 30
0.0
 11
97.7499999999999
 21
102.7977329801029
 31
0.0
  0
LINE
  5
3EDD
330
3ED8
100
AcDbEntity
  8
寸法
  6
Continuous
 62
     0
370
    -2
100
AcDbLine
 10
98.9999999999999
 20
100.8000000000001
 30
0.0
 11
98.9999999999999
 21
98.3000000000001
 31
0.0
  0
LINE
  5
3EDE
330
3ED8
100
AcDbEntity
  8
寸法
  6
Continuous
 62
     0
370
    -2
100
AcDbLine
 10
98.9999999999999
 20
102.7977329801029
 30
0.0
 11
98.9999999999999
 21
105.2977329801029
 31
0.0
  0
SOLID
  5
3EDF
330
3ED8
100
AcDbEntity
  8
寸法
 62
     0
100
AcDbTrace
 10
98.58333333333323
 20
103.3000000000001
 30
0.0
 11
99.41666666666657
 21
103.3000000000001
 31
0.0
 12
98.9999999999999
 22
100.8000000000001
 32
0.0
 13
98.9999999999999
 23
100.8000000000001
 33
0.0
  0
SOLID
  5
3EE0
330
3ED8
100
AcDbEntity
  8
寸法
 62
     0
100
AcDbTrace
 10
99.41666666666657
 20
100.2977329801029
 30
0.0
 11
98.58333333333323
 21
100.2977329801029
 31
0.0
 12
98.9999999999999
 22
102.7977329801029
 32
0.0
 13
98.9999999999999
 23
102.7977329801029
 33
0.0
  0
MTEXT
  5
3EE1
330
3ED8
100
AcDbEntity
  8
寸法
  6
Continuous
 62
     0
100
AcDbMText
 10
95.61577972013683
 20
101.8390791477936
 30
0.0
 40
2.5
 41
0.0
 46
0.0
 71
     5
 72
     1
  1
2
 73
     1
 44
1.0
  0
POINT
  5
3EE2
330
3ED8
100
AcDbEntity
  8
Defpoints
 62
     0
100
AcDbPoint
 10
109.0
 20
100.8000000000001
 30
0.0
  0
POINT
  5
3F09
330
3ED8
100
AcDbEntity
  8
Defpoints
 62
     0
100
AcDbPoint
 10
106.9999999999999
 20
102.7977329801029
 30
0.0
  0
POINT
  5
3F0A
330
3ED8
100
AcDbEntity
  8
Defpoints
 62
     0
100
AcDbPoint
 10
98.9999999999999
 20
102.7977329801029
 30
0.0
  0
ENDBLK
  5
3EDA
330
3ED8
100
AcDbEntity
  8
0
100
AcDbBlockEnd
  0
BLOCK
  5
3EFE
330
3EFD
100
AcDbEntity
  8
0
100
AcDbBlockBegin
  2
_None
 70
     0
 10
0.0
 20
0.0
 30
0.0
  3
_None
  1

  0
ENDBLK
  5
3EFF
330
3EFD
100
AcDbEntity
  8
0
100
AcDbBlockEnd
  0
ENDSEC
  0
SECTION
  2
ENTITIES
  0
LINE
  5
664
330
1F
100
AcDbEntity
  8
用紙範囲
  6
HIDDEN
100
AcDbLine
 10
0.0
 20
205.0
 30
0.0
 11
0.0
 21
0.0
 31
0.0
  0
LINE
  5
665
330
1F
100
AcDbEntity
  8
用紙範囲
  6
HIDDEN
100
AcDbLine
 10
292.0
 20
205.0
 30
0.0
 11
292.0
 21
0.0
 31
0.0
  0
LINE
  5
666
330
1F
100
AcDbEntity
  8
用紙範囲
  6
HIDDEN
100
AcDbLine
 10
0.0
 20
205.0
 30
0.0
 11
292.0
 21
205.0
 31
0.0
  0
LINE
  5
667
330
1F
100
AcDbEntity
  8
用紙範囲
  6
HIDDEN
100
AcDbLine
 10
0.0
 20
0.0
 30
0.0
 11
292.0
 21
0.0
 31
0.0
  0
LINE
  5
668
330
1F
100
AcDbEntity
  8
枠
  6
Continuous
100
AcDbLine
 10
11.00000000000003
 20
193.5
 30
0.0
 11
281.0
 21
193.5
 31
0.0
  0
LINE
  5
669
330
1F
100
AcDbEntity
  8
枠
  6
Continuous
100
AcDbLine
 10
11.00000000000003
 20
11.5
 30
0.0
 11
281.0
 21
11.5
 31
0.0
  0
LINE
  5
66A
330
1F
100
AcDbEntity
  8
枠
  6
Continuous
100
AcDbLine
 10
11.00000000000003
 20
193.5
 30
0.0
 11
11.00000000000003
 21
11.5
 31
0.0
  0
LINE
  5
66B
330
1F
100
AcDbEntity
  8
枠
  6
Continuous
100
AcDbLine
 10
281.0
 20
193.5
 30
0.0
 11
281.0
 21
11.5
 31
0.0
  0
LINE
  5
673
330
1F
100
AcDbEntity
  8
枠
  6
Continuous
100
AcDbLine
 10
10.00000000000003
 20
194.5
 30
0.0
 11
282.0
 21
194.5
 31
0.0
  0
LINE
  5
674
330
1F
100
AcDbEntity
  8
枠
  6
Continuous
100
AcDbLine
 10
10.00000000000003
 20
194.5
 30
0.0
 11
10.00000000000003
 21
10.5
 31
0.0
  0
LINE
  5
675
330
1F
100
AcDbEntity
  8
枠
  6
Continuous
100
AcDbLine
 10
10.00000000000003
 20
10.5
 30
0.0
 11
282.0
 21
10.5
 31
0.0
  0
LINE
  5
676
330
1F
100
AcDbEntity
  8
枠
  6
Continuous
100
AcDbLine
 10
282.0
 20
194.5
 30
0.0
 11
282.0
 21
10.5
 31
0.0
  0
LINE
  5
677
330
1F
100
AcDbEntity
  8
枠
  6
Continuous
100
AcDbLine
 10
236.0
 20
193.5
 30
0.0
 11
236.0
 21
11.5
 31
0.0
  0
LINE
  5
678
330
1F
100
AcDbEntity
  8
枠
  6
Continuous
100
AcDbLine
 10
236.0
 20
171.3660465293556
 30
0.0
 11
281.0
 21
171.3660465293556
 31
0.0
  0
LINE
  5
679
330
1F
100
AcDbEntity
  8
枠
  6
Continuous
100
AcDbLine
 10
236.0
 20
149.2320930587111
 30
0.0
 11
281.0
 21
149.2320930587111
 31
0.0
  0
LINE
  5
67A
330
1F
100
AcDbEntity
  8
枠
  6
Continuous
100
AcDbLine
 10
236.0
 20
31.85622692164787
 30
0.0
 11
281.0
 21
31.85622692164787
 31
0.0
  0
LINE
  5
67B
330
1F
100
AcDbEntity
  8
枠
  6
Continuous
100
AcDbLine
 10
236.0
 20
41.87291584484291
 30
0.0
 11
281.0
 21
41.87291584484291
 31
0.0
  0
LINE
  5
67D
330
1F
100
AcDbEntity
  8
枠
  6
Continuous
100
AcDbLine
 10
235.0
 20
193.5
 30
0.0
 11
235.0
 21
11.5
 31
0.0
  0
MTEXT
  5
A15
330
1F
100
AcDbEntity
  8
文字
100
AcDbMText
 10
238.0774350305441
 20
192.0038694137743
 30
0.0
 40
2.5
 41
19.50744578598591
 46
2.8275
 71
     1
 72
     5
  1
{\fＭＳ Ｐゴシック|b0|i0|c0|p0;名称}
 73
     1
 44
1.0
1001
ACAD
1000
ACAD_MTEXT_DEFINED_HEIGHT_BEGIN
1070
    46
1040
2.8275
1000
ACAD_MTEXT_DEFINED_HEIGHT_END
  0
MTEXT
  5
A17
330
1F
100
AcDbEntity
  8
文字
100
AcDbMText
 10
238.0202817368044
 20
183.859332666015
 30
0.0
 40
2.5
 41
44.55038821496987
 46
7.509469696969697
 71
     1
 72
     5
  1
{\pxql;\fＭＳ Ｐゴシック|b0|i0|c0|p0;Ｐｒｅｖｉｏ Ｍ　室内木階段用　\P素足用ノンスリップ }
 73
     1
 44
1.0
1001
ACAD
1000
ACAD_MTEXT_DEFINED_HEIGHT_BEGIN
1070
    46
1040
7.509469696969697
1000
ACAD_MTEXT_DEFINED_HEIGHT_END
  0
MTEXT
  5
A18
330
1F
100
AcDbEntity
  8
文字
100
AcDbMText
 10
238.0774350305441
 20
169.6766048811238
 30
0.0
 40
2.5
 41
12.9189203585147
 46
2.84
 71
     1
 72
     5
  1
{\fＭＳ Ｐゴシック|b0|i0|c0|p0;品番}
 73
     1
 44
1.0
1001
ACAD
1000
ACAD_MTEXT_DEFINED_HEIGHT_BEGIN
1070
    46
1040
2.84
1000
ACAD_MTEXT_DEFINED_HEIGHT_END
  0
MTEXT
  5
A1C
330
1F
100
AcDbEntity
  8
文字
100
AcDbMText
 10
238.0774350305441
 20
148.0690084662711
 30
0.0
 40
2.5
 41
9.970036363636382
 46
2.8125
 71
     1
 72
     5
  1
{\fＭＳ Ｐゴシック|b0|i0|c0|p0;仕様}
 73
     1
 44
1.0
1001
ACAD
1000
ACAD_MTEXT_DEFINED_HEIGHT_BEGIN
1070
    46
1040
2.8125
1000
ACAD_MTEXT_DEFINED_HEIGHT_END
  0
MTEXT
  5
A1D
330
1F
100
AcDbEntity
  8
文字
100
AcDbMText
 10
245.3794334940524
 20
138.8428917133901
 30
0.0
 40
2.0
 41
31.03349346991041
 46
2.33
 71
     1
 72
     5
  1
{\fＭＳ Ｐゴシック|b0|i0|c0|p0;材質：アルミ製}
 73
     1
 44
1.0
1001
ACAD
1000
ACAD_MTEXT_DEFINED_HEIGHT_BEGIN
1070
    46
1040
2.33
1000
ACAD_MTEXT_DEFINED_HEIGHT_END
  0
MTEXT
  5
A1E
330
1F
100
AcDbEntity
  8
文字
100
AcDbMText
 10
245.3794334940524
 20
130.5090576528301
 30
0.0
 40
2.0
 41
31.03349346991041
 46
2.124
 71
     1
 72
     5
  1
{\fＭＳ Ｐゴシック|b0|i0|c0|p0;仕上：シルバー}
 73
     1
 44
1.0
1001
ACAD
1000
ACAD_MTEXT_DEFINED_HEIGHT_BEGIN
1070
    46
1040
2.124
1000
ACAD_MTEXT_DEFINED_HEIGHT_END
  0
MTEXT
  5
A21
330
1F
100
AcDbEntity
  8
社名
100
AcDbMText
 10
236.0
 20
21.17832272679322
 30
0.0
 40
5.0
 41
45.0
 46
5.0
 71
     1
 72
     5
  1
{\pxqc;\fＭＳ Ｐゴシック|b0|i0|c0|p0;\T1.15;\W1.3;AFOLA}
 73
     1
 44
1.0
1001
ACAD
1000
ACAD_MTEXT_DEFINED_HEIGHT_BEGIN
1070
    46
1040
5.0
1000
ACAD_MTEXT_DEFINED_HEIGHT_END
  0
MTEXT
  5
A22
330
1F
100
AcDbEntity
  8
社名
100
AcDbMText
 10
236.0
 20
27.34522337664271
 30
0.0
 40
3.0
 41
45.0
 46
3.375
 71
     1
 72
     5
  1
{\pxqc;\fＭＳ Ｐゴシック|b0|i0|c0|p0;株式会社ＡＳＳＩＳＴ}
 73
     1
 44
1.0
1001
ACAD
1000
ACAD_MTEXT_DEFINED_HEIGHT_BEGIN
1070
    46
1040
3.375
1000
ACAD_MTEXT_DEFINED_HEIGHT_END
  0
MTEXT
  5
A24
330
1F
100
AcDbEntity
  8
文字
100
AcDbMText
 10
238.0774350305441
 20
40.57287029565668
 30
0.0
 40
2.5
 41
9.970036363636382
 46
2.8275
 71
     1
 72
     5
  1
{\fＭＳ Ｐゴシック|b0|i0|c0|p0;縮尺}
 73
     1
 44
1.0
1001
ACAD
1000
ACAD_MTEXT_DEFINED_HEIGHT_BEGIN
1070
    46
1040
2.8275
1000
ACAD_MTEXT_DEFINED_HEIGHT_END
  0
MTEXT
  5
A25
330
1F
100
AcDbEntity
  8
文字
100
AcDbMText
 10
251.2855836701089
 20
36.1417552124301
 30
0.0
 40
2.5
 41
28.36545556978234
 46
2.5
 71
     1
 72
     5
  1
{\fＭＳ Ｐゴシック|b0|i0|c0|p0;1：１ }
 73
     1
 44
1.0
1001
ACAD
1000
ACAD_MTEXT_DEFINED_HEIGHT_BEGIN
1070
    46
1040
2.5
1000
ACAD_MTEXT_DEFINED_HEIGHT_END
  0
MTEXT
  5
DF8
330
1F
100
AcDbEntity
  8
文字
100
AcDbMText
 10
253.810188672227
 20
134.80617212146
 30
0.0
 40
2.0
 41
31.03349346991041
 46
2.228
 71
     1
 72
     5
  1
{\fＭＳ Ｐゴシック|b0|i0|c0|p0;（A6063S-T5)}
 73
     1
 44
1.0
1001
ACAD
1000
ACAD_MTEXT_DEFINED_HEIGHT_BEGIN
1070
    46
1040
2.228
1000
ACAD_MTEXT_DEFINED_HEIGHT_END
  0
MTEXT
  5
13F5
330
1F
100
AcDbEntity
  8
文字
100
AcDbMText
 10
239.5379477351412
 20
143.0699637133901
 30
0.0
 40
2.0
 41
31.03349346991041
 46
2.25
 71
     1
 72
     5
  1
{\fＭＳ Ｐゴシック|b0|i0|c0|p0;ベース部分}
 73
     1
 44
1.0
1001
ACAD
1000
ACAD_MTEXT_DEFINED_HEIGHT_BEGIN
1070
    46
1040
2.25
1000
ACAD_MTEXT_DEFINED_HEIGHT_END
  0
MTEXT
  5
27D9
330
1F
100
AcDbEntity
  8
文字
100
AcDbMText
 10
245.3794334940524
 20
117.3880437133901
 30
0.0
 40
2.0
 41
31.03349346991041
 46
2.238
 71
     1
 72
     5
  1
{\fＭＳ Ｐゴシック|b0|i0|c0|p0;材質：軟硬同時成型品}
 73
     1
 44
1.0
1001
ACAD
1000
ACAD_MTEXT_DEFINED_HEIGHT_BEGIN
1070
    46
1040
2.238
1000
ACAD_MTEXT_DEFINED_HEIGHT_END
  0
MTEXT
  5
27DB
330
1F
100
AcDbEntity
  8
文字
100
AcDbMText
 10
239.5379477351412
 20
121.6151157133901
 30
0.0
 40
2.0
 41
31.03349346991041
 46
2.25
 71
     1
 72
     5
  1
{\fＭＳ Ｐゴシック|b0|i0|c0|p0;タイヤ部分}
 73
     1
 44
1.0
1001
ACAD
1000
ACAD_MTEXT_DEFINED_HEIGHT_BEGIN
1070
    46
1040
2.25
1000
ACAD_MTEXT_DEFINED_HEIGHT_END
  0
MTEXT
  5
27DC
330
1F
100
AcDbEntity
  8
文字
100
AcDbMText
 10
243.6094939751414
 20
107.9650013328301
 30
0.0
 40
2.0
 41
31.03349346991041
 46
2.182
 71
     1
 72
     5
  1
{\fＭＳ Ｐゴシック|b0|i0|c0|p0;カラー：５色}
 73
     1
 44
1.0
1001
ACAD
1000
ACAD_MTEXT_DEFINED_HEIGHT_BEGIN
1070
    46
1040
2.182
1000
ACAD_MTEXT_DEFINED_HEIGHT_END
  0
MTEXT
  5
27DD
330
1F
100
AcDbEntity
  8
文字
100
AcDbMText
 10
253.0466779751414
 20
103.7379293328301
 30
0.0
 40
2.0
 41
31.03349346991041
 46
2.182
 71
     1
 72
     5
  1
{\fＭＳ Ｐゴシック|b0|i0|c0|p0;ＡＱ：アクア}
 73
     1
 44
1.0
1001
ACAD
1000
ACAD_MTEXT_DEFINED_HEIGHT_BEGIN
1070
    46
1040
2.182
1000
ACAD_MTEXT_DEFINED_HEIGHT_END
  0
MTEXT
  5
27DE
330
1F
100
AcDbEntity
  8
文字
100
AcDbMText
 10
254.0764217142858
 20
100.1203421328301
 30
0.0
 40
2.0
 41
31.03349346991041
 46
2.216
 71
     1
 72
     5
  1
{\fＭＳ Ｐゴシック|b0|i0|c0|p0;Ｐ Ｉ：ピンク}
 73
     1
 44
1.0
1001
ACAD
1000
ACAD_MTEXT_DEFINED_HEIGHT_BEGIN
1070
    46
1040
2.216
1000
ACAD_MTEXT_DEFINED_HEIGHT_END
  0
MTEXT
  5
27DF
330
1F
100
AcDbEntity
  8
文字
100
AcDbMText
 10
253.3647569280001
 20
90.16457240137134
 30
0.0
 40
2.0
 41
31.03349346991041
 46
2.194
 71
     1
 72
     5
  1
{\fＭＳ Ｐゴシック|b0|i0|c0|p0;ＯＲ：オレンジ}
 73
     1
 44
1.0
1001
ACAD
1000
ACAD_MTEXT_DEFINED_HEIGHT_BEGIN
1070
    46
1040
2.194
1000
ACAD_MTEXT_DEFINED_HEIGHT_END
  0
LINE
  5
27E4
330
1F
100
AcDbEntity
  8
枠
  6
Continuous
100
AcDbLine
 10
236.0
 20
51.87291584484291
 30
0.0
 11
281.0
 21
51.87291584484291
 31
0.0
  0
MTEXT
  5
27E5
330
1F
100
AcDbEntity
  8
文字
100
AcDbMText
 10
238.0774350305441
 20
50.57287029565668
 30
0.0
 40
2.5
 41
9.970036363636382
 46
2.5
 71
     1
 72
     5
  1
{\fＭＳ Ｐゴシック|b0|i0|c0|p0;Date}
 73
     1
 44
1.0
1001
ACAD
1000
ACAD_MTEXT_DEFINED_HEIGHT_BEGIN
1070
    46
1040
2.5
1000
ACAD_MTEXT_DEFINED_HEIGHT_END
  0
MTEXT
  5
27E6
330
1F
100
AcDbEntity
  8
文字
100
AcDbMText
 10
246.1251641599999
 20
46.1417552124301
 30
0.0
 40
2.5
 41
28.36545556978231
 46
2.627860447667875
 71
     1
 72
     5
  1
{\fＭＳ Ｐゴシック|b0|i0|c0|p0;2022年6月24日}
 73
     1
 44
1.0
1001
ACAD
1000
ACAD_MTEXT_DEFINED_HEIGHT_BEGIN
1070
    46
1040
2.627860447667875
1000
ACAD_MTEXT_DEFINED_HEIGHT_END
  0
MTEXT
  5
27E7
330
1F
100
AcDbEntity
  8
文字
100
AcDbMText
 10
253.610423305143
 20
96.60915730997301
 30
0.0
 40
2.0
 41
31.03349346991041
 46
2.17
 71
     1
 72
     5
  1
{\fＭＳ Ｐゴシック|b0|i0|c0|p0;ＹＥ：イエロー}
 73
     1
 44
1.0
1001
ACAD
1000
ACAD_MTEXT_DEFINED_HEIGHT_BEGIN
1070
    46
1040
2.17
1000
ACAD_MTEXT_DEFINED_HEIGHT_END
  0
MTEXT
  5
27E8
330
1F
100
AcDbEntity
  8
文字
100
AcDbMText
 10
253.3033403337144
 20
93.48106849279992
 30
0.0
 40
2.0
 41
31.03349346991041
 46
2.148
 71
     1
 72
     5
  1
{\fＭＳ Ｐゴシック|b0|i0|c0|p0;ＧＲ：グリーン}
 73
     1
 44
1.0
1001
ACAD
1000
ACAD_MTEXT_DEFINED_HEIGHT_BEGIN
1070
    46
1040
2.148
1000
ACAD_MTEXT_DEFINED_HEIGHT_END
  0
MTEXT
  5
3227
330
1F
100
AcDbEntity
  8
文字
100
AcDbMText
 10
236.0
 20
160.9200921596859
 30
0.0
 40
4.0
 41
45.0
 46
4.0
 71
     1
 72
     5
  1
{\pxqc;\fＭＳ Ｐゴシック|b0|i0|c0|p0;\H0.625x;PVＭ１０３\H1.6x; }
 73
     1
 44
1.0
1001
ACAD
1000
ACAD_MTEXT_DEFINED_HEIGHT_BEGIN
1070
    46
1040
4.0
1000
ACAD_MTEXT_DEFINED_HEIGHT_END
  0
LINE
  5
3E17
330
1F
100
AcDbEntity
  8
文字
  6
Continuous
100
AcDbLine
 10
111.0
 20
102.0000000000001
 30
0.0
 11
111.0
 21
104.6000000000001
 31
0.0
  0
LINE
  5
3E18
102
{ACAD_REACTORS
330
3E7E
102
}
330
1F
100
AcDbEntity
  8
金属部分
  6
Continuous
100
AcDbLine
 10
111.0
 20
100.8000000000001
 30
0.0
 11
111.0
 21
105.1000000000001
 31
0.0
  0
LINE
  5
3E19
102
{ACAD_REACTORS
330
3E6D
330
3E72
330
3E7E
102
}
330
1F
100
AcDbEntity
  8
金属部分
  6
Continuous
100
AcDbLine
 10
132.0
 20
100.8000000000001
 30
0.0
 11
132.0
 21
105.6000000000001
 31
0.0
  0
LINE
  5
3E1A
330
1F
100
AcDbEntity
  8
金属部分
  6
Continuous
100
AcDbLine
 10
113.5
 20
102.0000000000001
 30
0.0
 11
119.5
 21
102.0000000000001
 31
0.0
  0
ARC
  5
3E1B
330
1F
100
AcDbEntity
  8
金属部分
  6
Continuous
100
AcDbCircle
 10
111.5
 20
105.1000000000001
 30
0.0
 40
0.5000000000000002
100
AcDbArc
 50
90.0
 51
180.0
  0
LINE
  5
3E1C
330
1F
100
AcDbEntity
  8
金属部分
  6
Continuous
100
AcDbLine
 10
111.0
 20
100.8000000000001
 30
0.0
 11
132.0
 21
100.8000000000001
 31
0.0
  0
LINE
  5
3E1D
330
1F
100
AcDbEntity
  8
金属部分
  6
Continuous
100
AcDbLine
 10
119.5
 20
102.8000000000001
 30
0.0
 11
122.7
 21
102.8000000000001
 31
0.0
  0
LINE
  5
3E1E
330
1F
100
AcDbEntity
  8
金属部分
  6
Continuous
100
AcDbLine
 10
126.5
 20
102.8000000000001
 30
0.0
 11
126.5
 21
102.0000000000001
 31
0.0
  0
LINE
  5
3E1F
330
1F
100
AcDbEntity
  8
金属部分
  6
Continuous
100
AcDbLine
 10
119.5
 20
102.0000000000001
 30
0.0
 11
119.5
 21
102.8000000000001
 31
0.0
  0
LINE
  5
3E20
330
1F
100
AcDbEntity
  8
金属部分
  6
Continuous
100
AcDbLine
 10
126.5
 20
102.0000000000001
 30
0.0
 11
129.5
 21
102.0000000000001
 31
0.0
  0
LINE
  5
3E21
330
1F
100
AcDbEntity
  8
金属部分
  6
Continuous
100
AcDbLine
 10
123.0
 20
102.5000000000001
 30
0.0
 11
122.7
 21
102.8000000000001
 31
0.0
  0
LINE
  5
3E22
330
1F
100
AcDbEntity
  8
金属部分
  6
Continuous
100
AcDbLine
 10
123.3
 20
102.8000000000001
 30
0.0
 11
123.0
 21
102.5000000000001
 31
0.0
  0
LINE
  5
3E23
330
1F
100
AcDbEntity
  8
金属部分
  6
Continuous
100
AcDbLine
 10
123.3
 20
102.8000000000001
 30
0.0
 11
126.5
 21
102.8000000000001
 31
0.0
  0
LINE
  5
3E24
330
1F
100
AcDbEntity
  8
金属部分
  6
Continuous
100
AcDbLine
 10
112.6836602754411
 20
105.6000000000001
 30
0.0
 11
111.5
 21
105.6000000000001
 31
0.0
  0
ARC
  5
3E25
330
1F
100
AcDbEntity
  8
金属部分
  6
Continuous
100
AcDbCircle
 10
111.5
 20
105.1000000000001
 30
0.0
 40
0.5000000000000002
100
AcDbArc
 50
90.0
 51
180.0
  0
ARC
  5
3E26
330
1F
100
AcDbEntity
  8
金属部分
  6
Continuous
100
AcDbCircle
 10
113.5
 20
102.5000000000001
 30
0.0
 40
0.5000000000000002
100
AcDbArc
 50
180.0
 51
270.0
  0
LINE
  5
3E27
330
1F
100
AcDbEntity
  8
金属部分
  6
Continuous
100
AcDbLine
 10
132.0
 20
105.6000000000001
 30
0.0
 11
130.3163397245589
 21
105.6000000000001
 31
0.0
  0
ARC
  5
3E28
330
1F
100
AcDbEntity
  8
金属部分
  6
Continuous
100
AcDbCircle
 10
129.5
 20
102.5000000000001
 30
0.0
 40
0.5000000000000002
100
AcDbArc
 50
270.0
 51
0.0
  0
LINE
  5
3E29
330
1F
100
AcDbEntity
  8
軟質樹脂部分
  6
Continuous
100
AcDbLine
 10
106.9999999999999
 20
108.8
 30
0.0
 11
131.7
 21
108.8
 31
0.0
  0
LINE
  5
3E2A
330
1F
100
AcDbEntity
  8
硬質樹脂部分
  6
Continuous
100
AcDbLine
 10
107.9999999999999
 20
107.6
 30
0.0
 11
131.5
 21
107.6
 31
0.0
  0
LINE
  5
3E2B
330
1F
100
AcDbEntity
  8
硬質樹脂部分
  6
Continuous
100
AcDbLine
 10
132.0
 20
107.1
 30
0.0
 11
132.0
 21
106.1
 31
0.0
  0
LINE
  5
3E2C
330
1F
100
AcDbEntity
  8
硬質樹脂部分
  6
Continuous
100
AcDbLine
 10
131.5
 20
105.6000000000001
 30
0.0
 11
129.7999999999999
 21
105.6000000000001
 31
0.0
  0
LINE
  5
3E2D
330
1F
100
AcDbEntity
  8
軟質樹脂部分
  6
Continuous
100
AcDbLine
 10
132.2
 20
108.3
 30
0.0
 11
132.2
 21
107.6
 31
0.0
  0
LINE
  5
3E2E
330
1F
100
AcDbEntity
  8
硬質樹脂部分
  6
Continuous
100
AcDbLine
 10
110.6049813070074
 20
105.0121046807582
 30
0.0
 11
111.0
 21
102.8
 31
0.0
  0
ARC
  5
3E2F
330
1F
100
AcDbEntity
  8
硬質樹脂部分
  6
Continuous
100
AcDbCircle
 10
131.5
 20
106.1
 30
0.0
 40
0.5000000000000002
100
AcDbArc
 50
270.0
 51
0.0
  0
ARC
  5
3E30
330
1F
100
AcDbEntity
  8
硬質樹脂部分
  6
Continuous
100
AcDbCircle
 10
131.5
 20
107.1
 30
0.0
 40
0.5000000000000002
100
AcDbArc
 50
0.0
 51
90.0
  0
ARC
  5
3E31
330
1F
100
AcDbEntity
  8
軟質樹脂部分
  6
Continuous
100
AcDbCircle
 10
126.1031665878029
 20
107.6
 30
0.0
 40
6.0968334121971
100
AcDbArc
 50
345.1290860465917
 51
0.0
  0
LINE
  5
3E32
330
1F
100
AcDbEntity
  8
硬質樹脂部分
  6
Continuous
100
AcDbLine
 10
113.2
 20
105.6000000000001
 30
0.0
 11
111.0971950947617
 21
105.6000000000001
 31
0.0
  0
ARC
  5
3E33
330
1F
100
AcDbEntity
  8
硬質樹脂部分
  6
Continuous
100
AcDbCircle
 10
111.0971950947617
 20
105.1
 30
0.0
 40
0.5000000000000001
100
AcDbArc
 50
90.0
 51
190.1246716554008
  0
ARC
  5
3E34
102
{ACAD_REACTORS
330
3E72
102
}
330
1F
100
AcDbEntity
  8
軟質樹脂部分
  6
Continuous
100
AcDbCircle
 10
131.7
 20
108.3
 30
0.0
 40
0.5000000000000002
100
AcDbArc
 50
0.0
 51
90.0
  0
LINE
  5
3E35
330
1F
100
AcDbEntity
  8
硬質樹脂部分
  6
Continuous
100
AcDbLine
 10
111.0
 20
101.8022670198973
 30
0.0
 11
111.0
 21
102.8
 31
0.0
  0
LINE
  5
3E36
330
1F
100
AcDbEntity
  8
硬質樹脂部分
  6
Continuous
100
AcDbLine
 10
111.0
 20
101.8022670198973
 30
0.0
 11
111.0
 21
102.8
 31
0.0
  0
LINE
  5
3E37
102
{ACAD_REACTORS
330
3E84
102
}
330
1F
100
AcDbEntity
  8
軟質樹脂部分
  6
Continuous
100
AcDbLine
 10
109.0
 20
100.8000000000001
 30
0.0
 11
111.0
 21
100.8000000000001
 31
0.0
  0
LINE
  5
3E38
330
1F
100
AcDbEntity
  8
軟質樹脂部分
  6
Continuous
100
AcDbLine
 10
109.0
 20
100.8000000000001
 30
0.0
 11
109.0
 21
100.8000000000001
 31
0.0
  0
LINE
  5
3E39
330
1F
100
AcDbEntity
  8
硬質樹脂部分
  6
Continuous
100
AcDbLine
 10
111.0
 20
101.8022670198973
 30
0.0
 11
110.0
 21
101.8022670198973
 31
0.0
  0
LINE
  5
3E3A
330
1F
100
AcDbEntity
  8
軟質樹脂部分
  6
Continuous
100
AcDbLine
 10
110.2
 20
100.8000000000001
 30
0.0
 11
110.2
 21
100.8013602119384
 31
0.0
  0
LINE
  5
3E3B
330
1F
100
AcDbEntity
  8
硬質樹脂部分
  6
Continuous
100
AcDbLine
 10
110.0
 20
101.8022670198973
 30
0.0
 11
110.0
 21
102.711414938669
 31
0.0
  0
LINE
  5
3E3C
330
1F
100
AcDbEntity
  8
硬質樹脂部分
  6
Continuous
100
AcDbLine
 10
109.7698955247622
 20
104.0
 30
0.0
 11
110.0
 21
102.711414938669
 31
0.0
  0
LINE
  5
3E3D
330
1F
100
AcDbEntity
  8
軟質樹脂部分
  6
Continuous
100
AcDbLine
 10
111.0
 20
101.8022670198973
 30
0.0
 11
111.0
 21
100.8000000000001
 31
0.0
  0
LINE
  5
3E3E
330
1F
100
AcDbEntity
  8
軟質樹脂部分
  6
Continuous
100
AcDbLine
 10
109.0
 20
100.8000000000001
 30
0.0
 11
109.0
 21
100.8000000000001
 31
0.0
  0
LINE
  5
3E3F
330
1F
100
AcDbEntity
  8
軟質樹脂部分
  6
Continuous
100
AcDbLine
 10
109.0
 20
100.8000000000001
 30
0.0
 11
109.0
 21
100.8000000000001
 31
0.0
  0
LINE
  5
3E40
330
1F
100
AcDbEntity
  8
軟質樹脂部分
  6
Continuous
100
AcDbLine
 10
110.2
 20
100.8000000000001
 30
0.0
 11
110.2
 21
100.8013602119384
 31
0.0
  0
LINE
  5
3E41
330
1F
100
AcDbEntity
  8
硬質樹脂部分
  6
Continuous
100
AcDbLine
 10
109.7698955247622
 20
104.0
 30
0.0
 11
110.0
 21
102.711414938669
 31
0.0
  0
LINE
  5
3E42
102
{ACAD_REACTORS
330
3E81
102
}
330
1F
100
AcDbEntity
  8
硬質樹脂部分
  6
Continuous
100
AcDbLine
 10
108.9999999999999
 20
100.7977329801029
 30
0.0
 11
108.9999999999999
 21
100.7977329801029
 31
0.0
  0
LINE
  5
3E43
102
{ACAD_REACTORS
330
3E84
102
}
330
1F
100
AcDbEntity
  8
硬質樹脂部分
  6
Continuous
100
AcDbLine
 10
106.9999999999999
 20
102.7977329801029
 30
0.0
 11
106.9999999999999
 21
102.7977329801029
 31
0.0
  0
LINE
  5
3E44
330
1F
100
AcDbEntity
  8
硬質樹脂部分
  6
Continuous
100
AcDbLine
 10
108.9999999999999
 20
100.7977329801029
 30
0.0
 11
108.9999999999999
 21
100.7977329801029
 31
0.0
  0
LINE
  5
3E45
330
1F
100
AcDbEntity
  8
硬質樹脂部分
  6
Continuous
100
AcDbLine
 10
106.9999999999999
 20
104.5
 30
0.0
 11
106.9999999999999
 21
106.6
 31
0.0
  0
ARC
  5
3E46
330
1F
100
AcDbEntity
  8
硬質樹脂部分
  6
Continuous
100
AcDbCircle
 10
107.9999999999999
 20
106.6
 30
0.0
 40
1.0
100
AcDbArc
 50
90.0
 51
180.0
  0
ARC
  5
3E47
102
{ACAD_REACTORS
330
3E7B
102
}
330
1F
100
AcDbEntity
  8
軟質樹脂部分
  6
Continuous
100
AcDbCircle
 10
106.9999999999999
 20
105.8
 30
0.0
 40
3.0
100
AcDbArc
 50
90.0
 51
270.0000000000005
  0
LINE
  5
3E48
330
1F
100
AcDbEntity
  8
硬質樹脂部分
  6
Continuous
100
AcDbLine
 10
106.9999999999999
 20
102.7977329801029
 30
0.0
 11
106.9999999999999
 21
102.7977329801029
 31
0.0
  0
LINE
  5
3E49
330
1F
100
AcDbEntity
  8
硬質樹脂部分
  6
Continuous
100
AcDbLine
 10
107.4999999999999
 20
104.0
 30
0.0
 11
109.7698955247622
 21
104.0
 31
0.0
  0
LINE
  5
3E4A
330
1F
100
AcDbEntity
  8
軟質樹脂部分
  6
Continuous
100
AcDbLine
 10
110.2
 20
100.7977329801029
 30
0.0
 11
110.2
 21
100.7990931920413
 31
0.0
  0
ARC
  5
3E4B
330
1F
100
AcDbEntity
  8
硬質樹脂部分
  6
Continuous
100
AcDbCircle
 10
107.4999999999999
 20
104.5
 30
0.0
 40
0.5000000000000002
100
AcDbArc
 50
180.0
 51
270.0
  0
LINE
  5
3E4D
330
1F
100
AcDbEntity
  8
金属部分
  6
Continuous
100
AcDbLine
 10
113.0
 20
102.5000000000001
 30
0.0
 11
113.0
 21
104.1200000000001
 31
0.0
  0
LINE
  5
3E4E
330
1F
100
AcDbEntity
  8
金属部分
  6
Continuous
100
AcDbLine
 10
130.0
 20
102.5000000000001
 30
0.0
 11
129.9999999999999
 21
104.1200000000001
 31
0.0
  0
LINE
  5
3E4F
330
1F
100
AcDbEntity
  8
金属部分
  6
Continuous
100
AcDbLine
 10
129.2999999999999
 20
104.0000000000001
 30
0.0
 11
129.8568862279417
 21
105.2972371274541
 31
0.0
  0
LINE
  5
3E50
330
1F
100
AcDbEntity
  8
金属部分
  6
Continuous
100
AcDbLine
 10
129.9999999999999
 20
104.1200000000001
 30
0.0
 11
129.2999999999999
 21
104.0000000000001
 31
0.0
  0
ARC
  5
3E51
330
1F
100
AcDbEntity
  8
金属部分
  6
Continuous
100
AcDbCircle
 10
130.3163397245589
 20
105.1000000000001
 30
0.0
 40
0.4999999999999997
100
AcDbArc
 50
90.0
 51
156.7668112768438
  0
LINE
  5
3E52
330
1F
100
AcDbEntity
  8
金属部分
  6
Continuous
100
AcDbLine
 10
113.7
 20
104.0000000000001
 30
0.0
 11
113.1431137720581
 21
105.2972371274541
 31
0.0
  0
LINE
  5
3E53
330
1F
100
AcDbEntity
  8
金属部分
  6
Continuous
100
AcDbLine
 10
113.0
 20
104.1200000000001
 30
0.0
 11
113.7
 21
104.0000000000001
 31
0.0
  0
ARC
  5
3E54
330
1F
100
AcDbEntity
  8
金属部分
  6
Continuous
100
AcDbCircle
 10
112.6836602754411
 20
105.1000000000001
 30
0.0
 40
0.4999999999999997
100
AcDbArc
 50
23.23318872315923
 51
90.0
  0
LINE
  5
3E55
330
1F
100
AcDbEntity
  8
硬質樹脂部分
  6
Continuous
100
AcDbLine
 10
127.1999999999999
 20
105.5977329801029
 30
0.0
 11
115.7999999999999
 21
105.5977329801029
 31
0.0
  0
LINE
  5
3E56
330
1F
100
AcDbEntity
  8
硬質樹脂部分
  6
Continuous
100
AcDbLine
 10
115.0999999999999
 20
102.0977329801029
 30
0.0
 11
114.2207464268798
 21
102.0977329801029
 31
0.0
  0
LINE
  5
3E57
330
1F
100
AcDbEntity
  8
硬質樹脂部分
  6
Continuous
100
AcDbLine
 10
115.2999999999999
 20
105.0977329801029
 30
0.0
 11
115.2999999999999
 21
102.2977329801029
 31
0.0
  0
ARC
  5
3E58
330
1F
100
AcDbEntity
  8
硬質樹脂部分
  6
Continuous
100
AcDbCircle
 10
115.0999999999999
 20
102.2977329801029
 30
0.0
 40
0.2000000000000001
100
AcDbArc
 50
270.0
 51
0.0
  0
LINE
  5
3E59
330
1F
100
AcDbEntity
  8
硬質樹脂部分
  6
Continuous
100
AcDbLine
 10
113.7
 20
105.1000000000001
 30
0.0
 11
113.7
 21
103.9977329801029
 31
0.0
  0
LINE
  5
3E5A
330
1F
100
AcDbEntity
  8
硬質樹脂部分
  6
Continuous
100
AcDbLine
 10
113.7
 20
103.9977329801029
 30
0.0
 11
113.2656363713346
 21
103.9977329801029
 31
0.0
  0
LINE
  5
3E5B
330
1F
100
AcDbEntity
  8
硬質樹脂部分
  6
Continuous
100
AcDbLine
 10
113.1771445490964
 20
103.8511583368197
 30
0.0
 11
114.0437627824034
 21
102.2045836935364
 31
0.0
  0
ARC
  5
3E5C
330
1F
100
AcDbEntity
  8
硬質樹脂部分
  6
Continuous
100
AcDbCircle
 10
113.2656363713346
 20
103.8977329801029
 30
0.0
 40
0.1
100
AcDbArc
 50
90.0
 51
207.7585406010577
  0
ARC
  5
3E5D
330
1F
100
AcDbEntity
  8
硬質樹脂部分
  6
Continuous
100
AcDbCircle
 10
114.2207464268798
 20
102.2977329801029
 30
0.0
 40
0.2
100
AcDbArc
 50
207.7585406010616
 51
270.0
  0
ARC
  5
3E5E
330
1F
100
AcDbEntity
  8
硬質樹脂部分
  6
Continuous
100
AcDbCircle
 10
115.7999999999999
 20
105.0977329801029
 30
0.0
 40
0.5000000000000002
100
AcDbArc
 50
90.0
 51
180.0
  0
ARC
  5
3E5F
330
1F
100
AcDbEntity
  8
硬質樹脂部分
  6
Continuous
100
AcDbCircle
 10
127.1999999999999
 20
105.0977329801029
 30
0.0
 40
0.5000000000000002
100
AcDbArc
 50
0.0
 51
90.0
  0
LINE
  5
3E60
330
1F
100
AcDbEntity
  8
硬質樹脂部分
  6
Continuous
100
AcDbLine
 10
127.8999999999999
 20
102.0977329801029
 30
0.0
 11
128.7792535731201
 21
102.0977329801029
 31
0.0
  0
LINE
  5
3E61
330
1F
100
AcDbEntity
  8
硬質樹脂部分
  6
Continuous
100
AcDbLine
 10
127.6999999999999
 20
105.0977329801029
 30
0.0
 11
127.6999999999999
 21
102.2977329801029
 31
0.0
  0
ARC
  5
3E62
330
1F
100
AcDbEntity
  8
硬質樹脂部分
  6
Continuous
100
AcDbCircle
 10
127.8999999999999
 20
102.2977329801029
 30
0.0
 40
0.2000000000000001
100
AcDbArc
 50
180.0
 51
270.0
  0
LINE
  5
3E63
330
1F
100
AcDbEntity
  8
硬質樹脂部分
  6
Continuous
100
AcDbLine
 10
129.8228554509035
 20
103.8511583368197
 30
0.0
 11
128.9562372175965
 21
102.2045836935364
 31
0.0
  0
ARC
  5
3E64
330
1F
100
AcDbEntity
  8
硬質樹脂部分
  6
Continuous
100
AcDbCircle
 10
128.7792535731201
 20
102.2977329801029
 30
0.0
 40
0.2
100
AcDbArc
 50
270.0
 51
332.2414593989384
  0
LINE
  5
3E65
330
1F
100
AcDbEntity
  8
硬質樹脂部分
  6
Continuous
100
AcDbLine
 10
129.2999999999999
 20
103.9977329801029
 30
0.0
 11
129.7343636286653
 21
103.9977329801029
 31
0.0
  0
ARC
  5
3E66
330
1F
100
AcDbEntity
  8
硬質樹脂部分
  6
Continuous
100
AcDbCircle
 10
129.7343636286653
 20
103.8977329801029
 30
0.0
 40
0.1
100
AcDbArc
 50
332.2414593989423
 51
90.0
  0
LINE
  5
3E67
330
1F
100
AcDbEntity
  8
硬質樹脂部分
  6
Continuous
100
AcDbLine
 10
129.2999999999999
 20
105.1000000000001
 30
0.0
 11
129.2999999999999
 21
103.9977329801029
 31
0.0
  0
ARC
  5
3E68
330
1F
100
AcDbEntity
  8
硬質樹脂部分
  6
Continuous
100
AcDbCircle
 10
127.1999999999999
 20
105.0977329801029
 30
0.0
 40
0.5000000000000002
100
AcDbArc
 50
0.0
 51
90.0
  0
ARC
  5
3E69
330
1F
100
AcDbEntity
  8
硬質樹脂部分
  6
Continuous
100
AcDbCircle
 10
113.2
 20
105.1000000000001
 30
0.0
 40
0.5000000000000002
100
AcDbArc
 50
0.0
 51
90.0
  0
ARC
  5
3E6A
330
1F
100
AcDbEntity
  8
硬質樹脂部分
  6
Continuous
100
AcDbCircle
 10
129.7999999999999
 20
105.1000000000001
 30
0.0
 40
0.5000000000000002
100
AcDbArc
 50
90.0
 51
180.0
  0
DIMENSION
  5
3E6B
102
{ACAD_REACTORS
330
3E6D
102
}
102
{ACAD_XDICTIONARY
360
3E6C
102
}
330
1F
100
AcDbEntity
  8
寸法
  6
Continuous
100
AcDbDimension
280
     0
  2
*D66
 10
132.0
 20
113.8
 30
0.0
 11
119.6248360609904
 21
116.0174010482074
 31
0.0
 70
   160
 71
     5
 42
28.0000000000001
 73
     0
 74
     0
 75
     0
  3
ISO-1
100
AcDbAlignedDimension
 13
103.9999999999999
 23
105.8
 33
0.0
 14
132.0
 24
105.6000000000001
 34
0.0
100
AcDbRotatedDimension
  0
DIMENSION
  5
3E70
102
{ACAD_REACTORS
330
3E72
102
}
102
{ACAD_XDICTIONARY
360
3E71
102
}
330
1F
100
AcDbEntity
  8
寸法
  6
Continuous
100
AcDbDimension
280
     0
  2
*D68
 10
137.0
 20
100.8000000000001
 30
0.0
 11
137.0
 21
104.8705197868744
 31
0.0
 70
   160
 71
     5
 42
7.999999999999901
 73
     0
 74
     1
 75
     1
  3
ISO-1
100
AcDbAlignedDimension
 13
131.7
 23
108.8
 33
0.0
 14
132.0
 24
100.8000000000001
 34
0.0
 50
90.0
100
AcDbRotatedDimension
  0
LINE
  5
3E73
330
1F
100
AcDbEntity
  8
金属部分
  6
Continuous
100
AcDbLine
 10
123.5
 20
100.3000000000001
 30
0.0
 11
122.5
 21
100.3000000000001
 31
0.0
  0
LINE
  5
3E74
330
1F
100
AcDbEntity
  8
TOS_M1
  6
Continuous
100
AcDbLine
 10
123.0
 20
99.30000000000013
 30
0.0
 11
122.5
 21
100.3000000000001
 31
0.0
  0
LINE
  5
3E75
330
1F
100
AcDbEntity
  8
TOS_M1
  6
Continuous
100
AcDbLine
 10
123.0
 20
99.30000000000013
 30
0.0
 11
123.5
 21
100.3000000000001
 31
0.0
  0
HATCH
  5
3E76
330
1F
100
AcDbEntity
  8
TOS_M1
  6
Continuous
100
AcDbHatch
 10
0.0
 20
0.0
 30
0.0
210
0.0
220
0.0
230
1.0
  2
SOLID
 70
     1
 71
     0
 91
        1
 92
        7
 72
     0
 73
     1
 93
        3
 10
123.0
 20
99.30000000000013
 10
123.5
 20
100.3000000000001
 10
122.5
 20
100.3000000000001
 97
        0
 75
     0
 76
     1
 47
0.0
 98
        1
 10
122.9396744030721
 20
100.0950794087065
1001
ACAD
1010
0.0
1020
0.0
1030
0.0
  0
LINE
  5
3E77
330
1F
100
AcDbEntity
  8
TOS_M1
  6
ACAD_ISO07W100
 48
0.5
100
AcDbLine
 10
132.0
 20
98.05000000000013
 30
0.0
 11
123.0
 21
98.16462832250008
 31
0.0
  0
MTEXT
  5
3E78
330
1F
100
AcDbEntity
  8
TOS_M1
  6
Continuous
100
AcDbMText
 10
126.4679008197841
 20
99.2081143128276
 30
0.0
 40
2.0
 41
5.011594093714294
 46
2.0
 71
     1
 72
     5
  1
{9}
 73
     1
 44
1.0
1001
ACAD
1000
ACAD_MTEXT_DEFINED_HEIGHT_BEGIN
1070
    46
1040
2.0
1000
ACAD_MTEXT_DEFINED_HEIGHT_END
  0
DIMENSION
  5
3E79
102
{ACAD_REACTORS
330
3E7B
102
}
102
{ACAD_XDICTIONARY
360
3E7A
102
}
330
1F
100
AcDbEntity
  8
寸法
  6
Continuous
100
AcDbDimension
280
     0
  2
*D69
 10
98.9999999999999
 20
102.8
 30
0.0
 11
95.61577972013684
 21
105.8
 31
0.0
 70
   160
 71
     5
 42
6.0
 73
     0
 74
     1
 75
     1
  3
ISO-1
100
AcDbAlignedDimension
 13
106.9999999999999
 23
108.8
 33
0.0
 14
107.0
 24
102.8
 34
0.0
 50
90.0
100
AcDbRotatedDimension
1001
ACAD
1000
DSTYLE
1002
{
1070
   173
1070
     1
1070
   342
1005
0
1070
   344
1005
0
1070
   343
1005
0
1002
}
  0
DIMENSION
  5
3E7C
102
{ACAD_REACTORS
330
3E7E
102
}
102
{ACAD_XDICTIONARY
360
3E7D
102
}
330
1F
100
AcDbEntity
  8
寸法
  6
Continuous
100
AcDbDimension
280
     0
  2
*D70
 10
132.0
 20
95.8000000000001
 30
0.0
 11
121.5
 21
95.8000000000001
 31
0.0
 70
   160
 71
     5
 42
21.0
 73
     0
 74
     0
 75
     0
  3
ISO-1
100
AcDbAlignedDimension
 13
111.0
 23
100.8000000000001
 33
0.0
 14
132.0
 24
100.8000000000001
 34
0.0
100
AcDbRotatedDimension
  0
DIMENSION
  5
3E7F
102
{ACAD_REACTORS
330
3E81
102
}
102
{ACAD_XDICTIONARY
360
3E80
102
}
330
1F
100
AcDbEntity
  8
寸法
  6
Continuous
100
AcDbDimension
280
     0
  2
*D71
 10
108.9999999999999
 20
95.7977329801029
 30
0.0
 11
106.4999999999999
 21
95.79370886133412
 31
0.0
 70
   160
 71
     5
 42
5.0
 73
     0
 74
     0
 75
     0
  3
ISO-1
100
AcDbAlignedDimension
 13
103.9999999999999
 23
105.8
 33
0.0
 14
108.9999999999999
 24
100.7977329801029
 34
0.0
100
AcDbRotatedDimension
1001
ACAD
1000
DSTYLE
1002
{
1070
   173
1070
     1
1070
   342
1005
0
1070
   344
1005
0
1070
   343
1005
0
1002
}
  0
DIMENSION
  5
3E82
102
{ACAD_REACTORS
330
3E84
102
}
102
{ACAD_XDICTIONARY
360
3E83
102
}
330
1F
100
AcDbEntity
  8
寸法
  6
Continuous
100
AcDbDimension
280
     0
  2
*D72
 10
98.9999999999999
 20
102.7977329801029
 30
0.0
 11
95.61577972013683
 21
101.8390791477936
 31
0.0
 70
   160
 71
     5
 42
1.997732980102796
 73
     0
 74
     1
 75
     1
  3
ISO-1
100
AcDbAlignedDimension
 13
109.0
 23
100.8000000000001
 33
0.0
 14
106.9999999999999
 24
102.7977329801029
 34
0.0
 50
90.0
100
AcDbRotatedDimension
1001
ACAD
1000
DSTYLE
1002
{
1070
   173
1070
     1
1070
   342
1005
0
1070
   344
1005
0
1070
   343
1005
0
1002
}
  0
LEADER
  5
3E86
330
1F
100
AcDbEntity
  8
TOS_M1
  6
Continuous
100
AcDbLeader
  3
ISO-1
 76
     2
 10
128.6908231737385
 20
106.4958392288903
 30
0.0
 10
136.0225607235834
 20
118.7842241952933
 30
0.0
  0
LEADER
  5
3E88
102
{ACAD_XDICTIONARY
360
3E89
102
}
330
1F
100
AcDbEntity
  8
TOS_M1
  6
Continuous
100
AcDbLeader
  3
ISO-1
 76
     2
 10
105.5524210120876
 20
107.0852764624649
 30
0.0
 10
99.54417205048424
 20
117.3455550547383
 30
0.0
  0
LINE
  5
3EED
330
1F
100
AcDbEntity
  8
軟質樹脂部分
  6
Continuous
100
AcDbLine
 10
109.0
 20
100.8000000000001
 30
0.0
 11
109.0
 21
102.6000000000001
 31
0.0
  0
LINE
  5
3EEE
330
1F
100
AcDbEntity
  8
軟質樹脂部分
  6
Continuous
100
AcDbLine
 10
108.8
 20
102.8000000000001
 30
0.0
 11
106.9999999999999
 21
102.8
 31
0.0
  0
ARC
  5
3EF0
330
1F
100
AcDbEntity
  8
軟質樹脂部分
  6
Continuous
100
AcDbCircle
 10
108.8
 20
102.6000000000001
 30
0.0
 40
0.2
100
AcDbArc
 50
0.0
 51
90.00000000000286
  0
LINE
  5
3EF9
330
1F
100
AcDbEntity
  8
寸法
  6
Continuous
100
AcDbLine
 10
108.9999999999999
 20
100.7977329801029
 30
0.0
 11
108.9999999999999
 21
95.7977329801029
 31
0.0
  0
MTEXT
  5
3F36
330
1F
100
AcDbEntity
  8
文字
  6
Continuous
100
AcDbMText
 10
137.1541605044083
 20
120.0185854899188
 30
0.0
 40
1.5
 41
4.938580352176587
 46
1.704545454545455
 71
     1
 72
     5
  1
{\fＭＳ Ｐゴシック|b0|i0|c0|p0;\C6;硬質}
 73
     1
 44
1.0
1001
ACAD
1000
ACAD_MTEXT_DEFINED_HEIGHT_BEGIN
1070
    46
1040
1.704545454545455
1000
ACAD_MTEXT_DEFINED_HEIGHT_END
  0
MTEXT
  5
3F5A
330
1F
100
AcDbEntity
  8
文字
  6
Continuous
100
AcDbMText
 10
94.68781310375724
 20
118.7658851890732
 30
0.0
 40
1.5
 41
5.141204285793108
 46
1.704545454545455
 71
     1
 72
     5
  1
{\fＭＳ Ｐゴシック|b0|i0|c0|p0;軟質}
 73
     1
 44
1.0
1001
ACAD
1000
ACAD_MTEXT_DEFINED_HEIGHT_BEGIN
1070
    46
1040
1.704545454545455
1000
ACAD_MTEXT_DEFINED_HEIGHT_END
  0
ENDSEC
  0
SECTION
  2
OBJECTS
  0
DICTIONARY
  5
C
330
0
100
AcDbDictionary
281
     1
  3
ACAD_COLOR
350
A9A
  3
ACAD_DETAILVIEWSTYLE
350
A4E
  3
ACAD_GROUP
350
D
  3
ACAD_IMAGE_VARS
350
96F
  3
ACAD_LAYOUT
350
1A
  3
ACAD_MATERIAL
350
A42
  3
ACAD_MLEADERSTYLE
350
A48
  3
ACAD_MLINESTYLE
350
17
  3
ACAD_PLOTSETTINGS
350
19
  3
ACAD_PLOTSTYLENAME
350
E
  3
ACAD_SCALELIST
350
935
  3
ACAD_SECTIONVIEWSTYLE
350
A4F
  3
ACAD_TABLESTYLE
350
A46
  3
ACAD_VISUALSTYLE
350
A29
  3
ACDB_RECOMPOSE_DATA
350
3F60
  3
AcDbVariableDictionary
350
3E1
  3
APPDATA
350
96E
  3
DimOffsetDictionary
350
14C9
  0
SUN
  5
A4A
330
934
100
AcDbSun
 90
        1
290
     0
 63
     7
421
 16777215
 40
1.0
291
     1
 91
  2455826
 92
 54000000
292
     0
 70
     2
 71
   256
280
     1
  0
DICTIONARY
  5
970
330
2
100
AcDbDictionary
280
     1
281
     1
  3
ACAD_LAYERSTATES
360
971
  3
ACLYDICTIONARY
360
207B
  0
DICTIONARY
  5
A87
330
A86
100
AcDbDictionary
280
     1
281
     1
  3
ADSK_XREC_LAYER_RECONCILED
360
A88
  0
DICTIONARY
  5
A8B
330
A8A
100
AcDbDictionary
280
     1
281
     1
  3
ADSK_XREC_LAYER_RECONCILED
360
A8C
  0
DICTIONARY
  5
3E6C
330
3E6B
100
AcDbDictionary
280
     1
281
     1
  3
ACAD_DIMASSOC
360
3E6D
  0
DICTIONARY
  5
3E71
330
3E70
100
AcDbDictionary
280
     1
281
     1
  3
ACAD_DIMASSOC
360
3E72
  0
DICTIONARY
  5
3E7A
330
3E79
100
AcDbDictionary
280
     1
281
     1
  3
ACAD_DIMASSOC
360
3E7B
  0
DICTIONARY
  5
3E7D
330
3E7C
100
AcDbDictionary
280
     1
281
     1
  3
ACAD_DIMASSOC
360
3E7E
  0
DICTIONARY
  5
3E80
330
3E7F
100
AcDbDictionary
280
     1
281
     1
  3
ACAD_DIMASSOC
360
3E81
  0
DICTIONARY
  5
3E83
330
3E82
100
AcDbDictionary
280
     1
281
     1
  3
ACAD_DIMASSOC
360
3E84
  0
DICTIONARY
  5
3E89
330
3E88
100
AcDbDictionary
280
     1
281
     1
  0
DICTIONARY
  5
A9A
102
{ACAD_REACTORS
330
C
102
}
330
C
100
AcDbDictionary
281
     1
  0
DICTIONARY
  5
A4E
102
{ACAD_REACTORS
330
C
102
}
330
C
100
AcDbDictionary
281
     1
  0
DICTIONARY
  5
D
102
{ACAD_REACTORS
330
C
102
}
330
C
100
AcDbDictionary
281
     1
  0
RASTERVARIABLES
  5
96F
102
{ACAD_REACTORS
330
C
102
}
330
C
100
AcDbRasterVariables
 90
        0
 70
     1
 71
     1
 72
     1
  0
DICTIONARY
  5
1A
102
{ACAD_REACTORS
330
C
102
}
330
C
100
AcDbDictionary
281
     1
  3
Model
350
22
  3
ﾚｲｱｳﾄ1
350
1E
  3
ﾚｲｱｳﾄ2
350
26
  0
DICTIONARY
  5
A42
102
{ACAD_REACTORS
330
C
102
}
330
C
100
AcDbDictionary
281
     1
  3
ByBlock
350
A44
  3
ByLayer
350
A43
  3
Global
350
A45
  0
DICTIONARY
  5
A48
102
{ACAD_REACTORS
330
C
102
}
330
C
100
AcDbDictionary
281
     1
  3
Standard
350
A49
  0
DICTIONARY
  5
17
102
{ACAD_REACTORS
330
C
102
}
330
C
100
AcDbDictionary
281
     1
  3
Standard
350
18
  0
DICTIONARY
  5
19
102
{ACAD_REACTORS
330
C
102
}
330
C
100
AcDbDictionary
281
     1
  0
ACDBDICTIONARYWDFLT
  5
E
102
{ACAD_REACTORS
330
C
102
}
330
C
100
AcDbDictionary
281
     1
  3
Normal
350
F
100
AcDbDictionaryWithDefault
340
F
  0
DICTIONARY
  5
935
102
{ACAD_REACTORS
330
C
102
}
330
C
100
AcDbDictionary
281
     1
  3
A0
350
936
  3
A1
350
937
  3
A2
350
938
  3
A3
350
939
  3
A4
350
93A
  3
A5
350
93B
  3
A6
350
93C
  3
A7
350
93D
  3
A8
350
93E
  3
A9
350
93F
  3
B0
350
940
  3
B1
350
941
  3
B2
350
942
  3
B3
350
943
  3
B4
350
944
  3
B5
350
945
  3
B6
350
946
  3
B7
350
947
  3
B8
350
948
  3
B9
350
949
  3
C0
350
94A
  3
C1
350
94B
  3
C2
350
94C
  3
C3
350
94D
  3
C4
350
94E
  3
C5
350
94F
  3
C6
350
950
  3
C7
350
951
  3
C8
350
952
  3
C9
350
953
  3
D0
350
954
  3
D1
350
955
  3
D2
350
956
  0
DICTIONARY
  5
A4F
102
{ACAD_REACTORS
330
C
102
}
330
C
100
AcDbDictionary
281
     1
  0
DICTIONARY
  5
A46
102
{ACAD_REACTORS
330
C
102
}
330
C
100
AcDbDictionary
281
     1
  3
Standard
350
A47
  0
DICTIONARY
  5
A29
102
{ACAD_REACTORS
330
C
102
}
330
C
100
AcDbDictionary
281
     1
  3
2dWireframe
350
A2E
  3
Basic
350
A31
  3
Brighten
350
A35
  3
ColorChange
350
A39
  3
Conceptual
350
A33
  3
Dim
350
A34
  3
EdgeColorOff
350
A3C
  3
Facepattern
350
A38
  3
Flat
350
A2A
  3
FlatWithEdges
350
A2B
  3
Gouraud
350
A2C
  3
GouraudWithEdges
350
A2D
  3
Hidden
350
A30
  3
JitterOff
350
A3A
  3
Linepattern
350
A37
  3
OverhangOff
350
A3B
  3
Realistic
350
A32
  3
Shaded
350
A41
  3
Shaded with edges
350
A40
  3
Shades of Gray
350
A3D
  3
Sketchy
350
A3E
  3
Thicken
350
A36
  3
Wireframe
350
A2F
  3
X-Ray
350
A3F
  0
XRECORD
  5
3F60
102
{ACAD_REACTORS
330
C
102
}
330
C
100
AcDbXrecord
280
     1
 90
        1
330
A47
  0
DICTIONARY
  5
3E1
102
{ACAD_REACTORS
330
C
102
}
330
C
100
AcDbDictionary
281
     1
  3
CANNOSCALE
350
137E
  3
CMLEADERSTYLE
350
A4C
  3
CTABLESTYLE
350
A4B
  3
HPTRANSPARENCY
350
14C8
  3
MSLTSCALE
350
A4D
  3
SORTENTS
350
3E2
  0
DICTIONARY
  5
96E
102
{ACAD_REACTORS
330
C
102
}
330
C
100
AcDbDictionary
281
     1
  0
DICTIONARY
  5
14C9
102
{ACAD_REACTORS
330
C
102
}
330
C
100
AcDbDictionary
281
     1
  3
DIMRAILANGLE
350
2EBD
  3
DIMRAILFIRSTOFFSET
350
2EBB
  3
DIMRAILOFFSET
350
2EBC
  3
DIMRAILSENABLED
350
2EBE
  0
DICTIONARY
  5
971
102
{ACAD_REACTORS
330
970
102
}
330
970
100
AcDbDictionary
281
     1
  0
DICTIONARY
  5
207B
102
{ACAD_REACTORS
330
970
102
}
330
970
100
AcDbDictionary
281
     1
1001
ACAD
1000
<All
  0
XRECORD
  5
A88
102
{ACAD_REACTORS
330
A87
102
}
330
A87
100
AcDbXrecord
280
     1
290
     1
  0
XRECORD
  5
A8C
102
{ACAD_REACTORS
330
A8B
102
}
330
A8B
100
AcDbXrecord
280
     1
290
     1
  0
DIMASSOC
  5
3E6D
102
{ACAD_REACTORS
330
3E6C
102
}
330
3E6C
100
AcDbDimAssoc
330
3E6B
 90
        2
 70
     0
 71
     1
  1
AcDbOsnapPointRef
 72
     1
331
3E19
 73
     0
 91
        0
 40
0.0
 10
0.0
 20
0.0
 30
0.0
 75
     0
  0
DIMASSOC
  5
3E72
102
{ACAD_REACTORS
330
3E71
102
}
330
3E71
100
AcDbDimAssoc
330
3E70
 90
        3
 70
     0
 71
     1
  1
AcDbOsnapPointRef
 72
     1
331
3E34
 73
     0
 91
        0
 40
0.0
 10
0.0
 20
0.0
 30
0.0
 75
     0
  1
AcDbOsnapPointRef
 72
    13
331
3E19
 73
     0
 91
        0
 40
0.0
 10
0.0
 20
0.0
 30
0.0
 75
     0
  0
DIMASSOC
  5
3E7B
102
{ACAD_REACTORS
330
3E7A
102
}
330
3E7A
100
AcDbDimAssoc
330
3E79
 90
        3
 70
     0
 71
     1
  1
AcDbOsnapPointRef
 72
    13
331
3E47
 73
     0
 91
        0
 40
0.0
 10
0.0
 20
0.0
 30
0.0
 75
     0
  1
AcDbOsnapPointRef
 72
     1
331
3E47
 73
     0
 91
        0
 40
0.0
 10
0.0
 20
0.0
 30
0.0
 75
     0
  0
DIMASSOC
  5
3E7E
102
{ACAD_REACTORS
330
3E7D
102
}
330
3E7D
100
AcDbDimAssoc
330
3E7C
 90
        3
 70
     0
 71
     1
  1
AcDbOsnapPointRef
 72
    13
331
3E18
 73
     0
 91
        0
 40
0.0
 10
0.0
 20
0.0
 30
0.0
 75
     0
  1
AcDbOsnapPointRef
 72
    13
331
3E19
 73
     0
 91
        0
 40
0.0
 10
0.0
 20
0.0
 30
0.0
 75
     0
  0
DIMASSOC
  5
3E81
102
{ACAD_REACTORS
330
3E80
102
}
330
3E80
100
AcDbDimAssoc
330
3E7F
 90
        2
 70
     0
 71
     1
  1
AcDbOsnapPointRef
 72
    13
331
3E42
 73
     0
 91
        0
 40
0.0
 10
0.0
 20
0.0
 30
0.0
 75
     0
  0
DIMASSOC
  5
3E84
102
{ACAD_REACTORS
330
3E83
102
}
330
3E83
100
AcDbDimAssoc
330
3E82
 90
        3
 70
     0
 71
     1
  1
AcDbOsnapPointRef
 72
    13
331
3E37
 73
     0
 91
        0
 40
0.0
 10
0.0
 20
0.0
 30
0.0
 75
     0
  1
AcDbOsnapPointRef
 72
    13
331
3E43
 73
     0
 91
        0
 40
0.0
 10
0.0
 20
0.0
 30
0.0
 75
     0
  0
LAYOUT
  5
22
102
{ACAD_REACTORS
330
1A
102
}
330
1A
100
AcDbPlotSettings
  1

  2
RICOH IPSiO NX850 RPCS
  4
A4
  6

 40
5.873749732971191
 41
5.873747825622559
 42
5.873748779296875
 43
5.873748779296875
 44
209.9733276367188
 45
296.9259948730469
 46
56.21
 47
68.71
 48
0.0
 49
0.0
140
0.0
141
0.0
142
1.0
143
1.0
 70
 11940
 72
     1
 73
     1
 74
     0
  7

 75
     0
 76
     0
 77
     2
 78
   300
147
1.0
148
-86.56519164515282
149
-171.1912652483589
100
AcDbLayout
  1
Model
 70
     1
 71
     0
 10
0.0
 20
0.0
 11
12.0
 21
9.0
 12
0.0
 22
0.0
 32
0.0
 14
0.0
 24
0.0
 34
0.0
 15
292.0
 25
205.0
 35
0.0
146
0.0
 13
0.0
 23
0.0
 33
0.0
 16
1.0
 26
0.0
 36
0.0
 17
0.0
 27
1.0
 37
0.0
 76
     0
330
1F
331
934
  0
LAYOUT
  5
1E
102
{ACAD_REACTORS
330
1A
102
}
330
1A
100
AcDbPlotSettings
  1

  2
RICOH IPSiO NX850 RPCS
  4

  6

 40
0.0
 41
0.0
 42
0.0
 43
0.0
 44
0.0
 45
0.0
 46
0.0
 47
0.0
 48
0.0
 49
0.0
140
0.0
141
0.0
142
1.0
143
1.0
 70
   688
 72
     0
 73
     0
 74
     5
  7

 75
    16
 76
     0
 77
     2
 78
   300
147
1.0
148
0.0
149
0.0
100
AcDbLayout
  1
ﾚｲｱｳﾄ1
 70
     1
 71
     1
 10
0.0
 20
0.0
 11
420.0
 21
297.0
 12
0.0
 22
0.0
 32
0.0
 14
1.000000000000000E+20
 24
1.000000000000000E+20
 34
1.000000000000000E+20
 15
-1.000000000000000E+20
 25
-1.000000000000000E+20
 35
-1.000000000000000E+20
146
0.0
 13
0.0
 23
0.0
 33
0.0
 16
1.0
 26
0.0
 36
0.0
 17
0.0
 27
1.0
 37
0.0
 76
     0
330
1B
  0
LAYOUT
  5
26
102
{ACAD_REACTORS
330
1A
102
}
330
1A
100
AcDbPlotSettings
  1

  2
RICOH IPSiO NX850 RPCS
  4

  6

 40
0.0
 41
0.0
 42
0.0
 43
0.0
 44
0.0
 45
0.0
 46
0.0
 47
0.0
 48
0.0
 49
0.0
140
0.0
141
0.0
142
1.0
143
1.0
 70
   688
 72
     0
 73
     0
 74
     5
  7

 75
    16
 76
     0
 77
     2
 78
   300
147
1.0
148
0.0
149
0.0
100
AcDbLayout
  1
ﾚｲｱｳﾄ2
 70
     1
 71
     2
 10
0.0
 20
0.0
 11
12.0
 21
9.0
 12
0.0
 22
0.0
 32
0.0
 14
0.0
 24
0.0
 34
0.0
 15
0.0
 25
0.0
 35
0.0
146
0.0
 13
0.0
 23
0.0
 33
0.0
 16
1.0
 26
0.0
 36
0.0
 17
0.0
 27
1.0
 37
0.0
 76
     0
330
23
  0
MATERIAL
  5
A44
102
{ACAD_REACTORS
330
A42
102
}
330
A42
100
AcDbMaterial
  1
ByBlock
 72
     1
 94
      127
  0
MATERIAL
  5
A43
102
{ACAD_REACTORS
330
A42
102
}
330
A42
100
AcDbMaterial
  1
ByLayer
 72
     1
 94
      127
  0
MATERIAL
  5
A45
102
{ACAD_REACTORS
330
A42
102
}
330
A42
100
AcDbMaterial
  1
Global
 72
     1
 94
      127
  0
MLEADERSTYLE
  5
A49
102
{ACAD_REACTORS
330
A48
102
}
330
A48
100
AcDbMLeaderStyle
179
     2
170
     2
171
     1
172
     0
 90
        2
 40
0.0
 41
0.0
173
     1
 91
-1056964608
340
14
 92
       -2
290
     1
 42
2.0
291
     1
 43
8.0
  3
Standard
341
0
 44
4.0
300

342
11
174
     1
178
     6
175
     1
176
     0
 93
-1056964608
 45
4.0
292
     0
297
     0
 46
4.0
343
0
 94
-1056964608
 47
1.0
 49
1.0
140
1.0
293
     1
141
0.0
294
     1
177
     0
142
1.0
295
     0
296
     0
143
3.75
271
     0
272
     9
273
     9
  0
MLINESTYLE
  5
18
102
{ACAD_REACTORS
330
17
102
}
330
17
100
AcDbMlineStyle
  2
STANDARD
 70
     0
  3

 62
   256
 51
90.0
 52
90.0
 71
     2
 49
0.5
 62
   256
  6
BYLAYER
 49
-0.5
 62
   256
  6
BYLAYER
  0
ACDBPLACEHOLDER
  5
F
102
{ACAD_REACTORS
330
E
102
}
330
E
  0
SCALE
  5
936
102
{ACAD_REACTORS
330
935
102
}
330
935
100
AcDbScale
 70
     0
300
1:1
140
1.0
141
1.0
290
     1
  0
SCALE
  5
937
102
{ACAD_REACTORS
330
935
102
}
330
935
100
AcDbScale
 70
     0
300
1:2
140
1.0
141
2.0
290
     0
  0
SCALE
  5
938
102
{ACAD_REACTORS
330
935
102
}
330
935
100
AcDbScale
 70
     0
300
1:4
140
1.0
141
4.0
290
     0
  0
SCALE
  5
939
102
{ACAD_REACTORS
330
935
102
}
330
935
100
AcDbScale
 70
     0
300
1:5
140
1.0
141
5.0
290
     0
  0
SCALE
  5
93A
102
{ACAD_REACTORS
330
935
102
}
330
935
100
AcDbScale
 70
     0
300
1:8
140
1.0
141
8.0
290
     0
  0
SCALE
  5
93B
102
{ACAD_REACTORS
330
935
102
}
330
935
100
AcDbScale
 70
     0
300
1:10
140
1.0
141
10.0
290
     0
  0
SCALE
  5
93C
102
{ACAD_REACTORS
330
935
102
}
330
935
100
AcDbScale
 70
     0
300
1:16
140
1.0
141
16.0
290
     0
  0
SCALE
  5
93D
102
{ACAD_REACTORS
330
935
102
}
330
935
100
AcDbScale
 70
     0
300
1:20
140
1.0
141
20.0
290
     0
  0
SCALE
  5
93E
102
{ACAD_REACTORS
330
935
102
}
330
935
100
AcDbScale
 70
     0
300
1:30
140
1.0
141
30.0
290
     0
  0
SCALE
  5
93F
102
{ACAD_REACTORS
330
935
102
}
330
935
100
AcDbScale
 70
     0
300
1:40
140
1.0
141
40.0
290
     0
  0
SCALE
  5
940
102
{ACAD_REACTORS
330
935
102
}
330
935
100
AcDbScale
 70
     0
300
1:50
140
1.0
141
50.0
290
     0
  0
SCALE
  5
941
102
{ACAD_REACTORS
330
935
102
}
330
935
100
AcDbScale
 70
     0
300
1:100
140
1.0
141
100.0
290
     0
  0
SCALE
  5
942
102
{ACAD_REACTORS
330
935
102
}
330
935
100
AcDbScale
 70
     0
300
2:1
140
2.0
141
1.0
290
     0
  0
SCALE
  5
943
102
{ACAD_REACTORS
330
935
102
}
330
935
100
AcDbScale
 70
     0
300
4:1
140
4.0
141
1.0
290
     0
  0
SCALE
  5
944
102
{ACAD_REACTORS
330
935
102
}
330
935
100
AcDbScale
 70
     0
300
8:1
140
8.0
141
1.0
290
     0
  0
SCALE
  5
945
102
{ACAD_REACTORS
330
935
102
}
330
935
100
AcDbScale
 70
     0
300
10:1
140
10.0
141
1.0
290
     0
  0
SCALE
  5
946
102
{ACAD_REACTORS
330
935
102
}
330
935
100
AcDbScale
 70
     0
300
100:1
140
100.0
141
1.0
290
     0
  0
SCALE
  5
947
102
{ACAD_REACTORS
330
935
102
}
330
935
100
AcDbScale
 70
     0
300
1/128" = 1'-0"
140
0.0078125
141
12.0
290
     0
  0
SCALE
  5
948
102
{ACAD_REACTORS
330
935
102
}
330
935
100
AcDbScale
 70
     0
300
1/64" = 1'-0"
140
0.015625
141
12.0
290
     0
  0
SCALE
  5
949
102
{ACAD_REACTORS
330
935
102
}
330
935
100
AcDbScale
 70
     0
300
1/32" = 1'-0"
140
0.03125
141
12.0
290
     0
  0
SCALE
  5
94A
102
{ACAD_REACTORS
330
935
102
}
330
935
100
AcDbScale
 70
     0
300
1/16" = 1'-0"
140
0.0625
141
12.0
290
     0
  0
SCALE
  5
94B
102
{ACAD_REACTORS
330
935
102
}
330
935
100
AcDbScale
 70
     0
300
3/32" = 1'-0"
140
0.09375
141
12.0
290
     0
  0
SCALE
  5
94C
102
{ACAD_REACTORS
330
935
102
}
330
935
100
AcDbScale
 70
     0
300
1/8" = 1'-0"
140
0.125
141
12.0
290
     0
  0
SCALE
  5
94D
102
{ACAD_REACTORS
330
935
102
}
330
935
100
AcDbScale
 70
     0
300
3/16" = 1'-0"
140
0.1875
141
12.0
290
     0
  0
SCALE
  5
94E
102
{ACAD_REACTORS
330
935
102
}
330
935
100
AcDbScale
 70
     0
300
1/4" = 1'-0"
140
0.25
141
12.0
290
     0
  0
SCALE
  5
94F
102
{ACAD_REACTORS
330
935
102
}
330
935
100
AcDbScale
 70
     0
300
3/8" = 1'-0"
140
0.375
141
12.0
290
     0
  0
SCALE
  5
950
102
{ACAD_REACTORS
330
935
102
}
330
935
100
AcDbScale
 70
     0
300
1/2" = 1'-0"
140
0.5
141
12.0
290
     0
  0
SCALE
  5
951
102
{ACAD_REACTORS
330
935
102
}
330
935
100
AcDbScale
 70
     0
300
3/4" = 1'-0"
140
0.75
141
12.0
290
     0
  0
SCALE
  5
952
102
{ACAD_REACTORS
330
935
102
}
330
935
100
AcDbScale
 70
     0
300
1" = 1'-0"
140
1.0
141
12.0
290
     0
  0
SCALE
  5
953
102
{ACAD_REACTORS
330
935
102
}
330
935
100
AcDbScale
 70
     0
300
1-1/2" = 1'-0"
140
1.5
141
12.0
290
     0
  0
SCALE
  5
954
102
{ACAD_REACTORS
330
935
102
}
330
935
100
AcDbScale
 70
     0
300
3" = 1'-0"
140
3.0
141
12.0
290
     0
  0
SCALE
  5
955
102
{ACAD_REACTORS
330
935
102
}
330
935
100
AcDbScale
 70
     0
300
6" = 1'-0"
140
6.0
141
12.0
290
     0
  0
SCALE
  5
956
102
{ACAD_REACTORS
330
935
102
}
330
935
100
AcDbScale
 70
     0
300
1'-0" = 1'-0"
140
12.0
141
12.0
290
     0
  0
TABLESTYLE
  5
A47
102
{ACAD_REACTORS
330
A46
102
}
102
{ACAD_XDICTIONARY
360
3F5E
102
}
330
A46
100
AcDbTableStyle
  3
Standard
 70
     0
 71
     0
 40
1.5
 41
1.5
280
     0
281
     0
  7
Standard
140
4.5
170
     2
 62
     0
 63
   257
283
     0
 90
        4
 91
        0
  1

274
    -2
284
     1
 64
     0
275
    -2
285
     1
 65
     0
276
    -2
286
     1
 66
     0
277
    -2
287
     1
 67
     0
278
    -2
288
     1
 68
     0
279
    -2
289
     1
 69
     0
  7
Standard
140
6.0
170
     5
 62
     0
 63
   257
283
     0
 90
        4
 91
        0
  1

274
    -2
284
     1
 64
     0
275
    -2
285
     1
 65
     0
276
    -2
286
     1
 66
     0
277
    -2
287
     1
 67
     0
278
    -2
288
     1
 68
     0
279
    -2
289
     1
 69
     0
  7
Standard
140
4.5
170
     5
 62
     0
 63
   257
283
     0
 90
        4
 91
        0
  1

274
    -2
284
     1
 64
     0
275
    -2
285
     1
 65
     0
276
    -2
286
     1
 66
     0
277
    -2
287
     1
 67
     0
278
    -2
288
     1
 68
     0
279
    -2
289
     1
 69
     0
  0
VISUALSTYLE
  5
A2E
102
{ACAD_REACTORS
330
A29
102
}
330
A29
100
AcDbVisualStyle
  2
2dWireframe
 70
     4
177
     2
291
     0
 71
     0
176
     1
 72
     2
176
     1
 73
     0
176
     1
 90
        0
176
     1
 40
0.6
176
     1
 41
30.0
176
     1
 62
     5
 63
     7
421
 16777215
176
     1
 74
     1
176
     1
 91
        4
176
     1
 64
     7
176
     1
 65
   257
176
     1
 75
     1
176
     1
175
     1
176
     1
 42
1.0
176
     1
 92
        0
176
     1
 66
   257
176
     1
 43
1.0
176
     1
 76
     1
176
     1
 77
     6
176
     1
 78
     2
176
     1
 67
     7
176
     1
 79
     5
176
     1
170
     0
176
     1
171
     0
176
     1
290
     0
176
     1
 93
        1
176
     1
 44
0.0
176
     1
173
     0
176
     1
  0
VISUALSTYLE
  5
A31
102
{ACAD_REACTORS
330
A29
102
}
330
A29
100
AcDbVisualStyle
  2
Basic
 70
     7
177
     2
291
     1
 71
     1
176
     1
 72
     0
176
     1
 73
     1
176
     1
 90
        0
176
     1
 40
0.6
176
     1
 41
30.0
176
     1
 62
     5
 63
     7
421
 16777215
176
     1
 74
     0
176
     1
 91
        4
176
     1
 64
     7
176
     1
 65
   257
176
     1
 75
     1
176
     1
175
     1
176
     1
 42
1.0
176
     1
 92
        8
176
     1
 66
     7
176
     1
 43
1.0
176
     1
 76
     1
176
     1
 77
     6
176
     1
 78
     2
176
     1
 67
     7
176
     1
 79
     5
176
     1
170
     0
176
     1
171
     0
176
     1
290
     0
176
     1
 93
        1
176
     1
 44
0.0
176
     1
173
     0
176
     1
  0
VISUALSTYLE
  5
A35
102
{ACAD_REACTORS
330
A29
102
}
330
A29
100
AcDbVisualStyle
  2
Brighten
 70
    12
177
     2
291
     1
 71
     2
176
     1
 72
     2
176
     1
 73
     0
176
     1
 90
        0
176
     1
 40
0.6
176
     1
 41
30.0
176
     1
 62
     5
 63
     7
421
 16777215
176
     1
 74
     1
176
     1
 91
        4
176
     1
 64
     7
176
     1
 65
   257
176
     1
 75
     1
176
     1
175
     1
176
     1
 42
1.0
176
     1
 92
        8
176
     1
 66
     7
176
     1
 43
1.0
176
     1
 76
     1
176
     1
 77
     6
176
     1
 78
     2
176
     1
 67
     7
176
     1
 79
     5
176
     1
170
     0
176
     1
171
     0
176
     1
290
     0
176
     1
 93
        1
176
     1
 44
50.0
176
     1
173
     0
176
     1
  0
VISUALSTYLE
  5
A39
102
{ACAD_REACTORS
330
A29
102
}
330
A29
100
AcDbVisualStyle
  2
ColorChange
 70
    16
177
     2
291
     1
 71
     2
176
     1
 72
     2
176
     1
 73
     3
176
     1
 90
        0
176
     1
 40
0.6
176
     1
 41
30.0
176
     1
 62
     5
 63
     8
421
  8421504
176
     1
 74
     1
176
     1
 91
        4
176
     1
 64
     7
176
     1
 65
   257
176
     1
 75
     1
176
     1
175
     1
176
     1
 42
1.0
176
     1
 92
        8
176
     1
 66
     8
424
  8421504
176
     1
 43
1.0
176
     1
 76
     1
176
     1
 77
     6
176
     1
 78
     2
176
     1
 67
     7
176
     1
 79
     5
176
     1
170
     0
176
     1
171
     0
176
     1
290
     0
176
     1
 93
        1
176
     1
 44
0.0
176
     1
173
     0
176
     1
  0
VISUALSTYLE
  5
A33
102
{ACAD_REACTORS
330
A29
102
}
330
A29
100
AcDbVisualStyle
  2
Conceptual
 70
     9
177
     2
291
     0
 71
     3
176
     1
 72
     2
176
     1
 73
     0
176
     1
 90
        0
176
     1
 40
0.6
176
     1
 41
30.0
176
     1
 62
     5
 63
     7
421
 16777215
176
     1
 74
     2
176
     1
 91
        2
176
     1
 64
     7
176
     1
 65
   257
176
     1
 75
     1
176
     1
175
     1
176
     1
 42
179.0
176
     1
 92
        8
176
     1
 66
     7
176
     1
 43
1.0
176
     1
 76
     1
176
     1
 77
     6
176
     1
 78
     2
176
     1
 67
     7
176
     1
 79
     3
176
     1
170
     0
176
     1
171
     0
176
     1
290
     0
176
     1
 93
        1
176
     1
 44
0.0
176
     1
173
     0
176
     1
  0
VISUALSTYLE
  5
A34
102
{ACAD_REACTORS
330
A29
102
}
330
A29
100
AcDbVisualStyle
  2
Dim
 70
    11
177
     2
291
     1
 71
     2
176
     1
 72
     2
176
     1
 73
     0
176
     1
 90
        0
176
     1
 40
0.6
176
     1
 41
30.0
176
     1
 62
     5
 63
     7
421
 16777215
176
     1
 74
     1
176
     1
 91
        4
176
     1
 64
     7
176
     1
 65
   257
176
     1
 75
     1
176
     1
175
     1
176
     1
 42
1.0
176
     1
 92
        8
176
     1
 66
     7
176
     1
 43
1.0
176
     1
 76
     1
176
     1
 77
     6
176
     1
 78
     2
176
     1
 67
     7
176
     1
 79
     5
176
     1
170
     0
176
     1
171
     0
176
     1
290
     0
176
     1
 93
        1
176
     1
 44
-50.0
176
     1
173
     0
176
     1
  0
VISUALSTYLE
  5
A3C
102
{ACAD_REACTORS
330
A29
102
}
330
A29
100
AcDbVisualStyle
  2
EdgeColorOff
 70
    22
177
     2
291
     1
 71
     2
176
     0
 72
     2
176
     0
 73
     0
176
     0
 90
        0
176
     0
 40
0.6
176
     0
 41
30.0
176
     0
 62
     5
 63
     7
421
 16777215
176
     0
 74
     1
176
     0
 91
        4
176
     0
 64
     7
176
     0
 65
   257
176
     0
 75
     1
176
     0
175
     1
176
     0
 42
1.0
176
     0
 92
        8
176
     2
 66
     7
176
     0
 43
1.0
176
     0
 76
     1
176
     0
 77
     6
176
     0
 78
     2
176
     0
 67
     7
176
     0
 79
     5
176
     0
170
     0
176
     0
171
     0
176
     0
290
     0
176
     0
 93
        1
176
     0
 44
0.0
176
     0
173
     0
176
     0
  0
VISUALSTYLE
  5
A38
102
{ACAD_REACTORS
330
A29
102
}
330
A29
100
AcDbVisualStyle
  2
Facepattern
 70
    15
177
     2
291
     1
 71
     2
176
     1
 72
     2
176
     1
 73
     0
176
     1
 90
        0
176
     1
 40
0.6
176
     1
 41
30.0
176
     1
 62
     5
 63
     7
421
 16777215
176
     1
 74
     1
176
     1
 91
        4
176
     1
 64
     7
176
     1
 65
   257
176
     1
 75
     1
176
     1
175
     1
176
     1
 42
1.0
176
     1
 92
        8
176
     1
 66
     7
176
     1
 43
1.0
176
     1
 76
     1
176
     1
 77
     6
176
     1
 78
     2
176
     1
 67
     7
176
     1
 79
     5
176
     1
170
     0
176
     1
171
     0
176
     1
290
     0
176
     1
 93
        1
176
     1
 44
0.0
176
     1
173
     0
176
     1
  0
VISUALSTYLE
  5
A2A
102
{ACAD_REACTORS
330
A29
102
}
330
A29
100
AcDbVisualStyle
  2
Flat
 70
     0
177
     2
291
     1
 71
     2
176
     1
 72
     1
176
     1
 73
     1
176
     1
 90
        2
176
     1
 40
0.6
176
     1
 41
30.0
176
     1
 62
     5
 63
     7
421
 16777215
176
     1
 74
     0
176
     1
 91
        0
176
     1
 64
     7
176
     1
 65
   257
176
     1
 75
     1
176
     1
175
     1
176
     1
 42
1.0
176
     1
 92
        8
176
     1
 66
     7
176
     1
 43
1.0
176
     1
 76
     1
176
     1
 77
     6
176
     1
 78
     2
176
     1
 67
     7
176
     1
 79
     5
176
     1
170
     0
176
     1
171
     0
176
     1
290
     0
176
     1
 93
       13
176
     1
 44
0.0
176
     1
173
     0
176
     1
  0
VISUALSTYLE
  5
A2B
102
{ACAD_REACTORS
330
A29
102
}
330
A29
100
AcDbVisualStyle
  2
FlatWithEdges
 70
     1
177
     2
291
     1
 71
     2
176
     1
 72
     1
176
     1
 73
     1
176
     1
 90
        2
176
     1
 40
0.6
176
     1
 41
30.0
176
     1
 62
     5
 63
     7
421
 16777215
176
     1
 74
     1
176
     1
 91
        0
176
     1
 64
     7
176
     1
 65
   257
176
     1
 75
     1
176
     1
175
     1
176
     1
 42
1.0
176
     1
 92
        0
176
     1
 66
   257
176
     1
 43
1.0
176
     1
 76
     1
176
     1
 77
     6
176
     1
 78
     2
176
     1
 67
     7
176
     1
 79
     5
176
     1
170
     0
176
     1
171
     0
176
     1
290
     0
176
     1
 93
       13
176
     1
 44
0.0
176
     1
173
     0
176
     1
  0
VISUALSTYLE
  5
A2C
102
{ACAD_REACTORS
330
A29
102
}
330
A29
100
AcDbVisualStyle
  2
Gouraud
 70
     2
177
     2
291
     1
 71
     2
176
     1
 72
     2
176
     1
 73
     1
176
     1
 90
        2
176
     1
 40
0.6
176
     1
 41
30.0
176
     1
 62
     5
 63
     7
421
 16777215
176
     1
 74
     0
176
     1
 91
        0
176
     1
 64
     7
176
     1
 65
   257
176
     1
 75
     1
176
     1
175
     1
176
     1
 42
1.0
176
     1
 92
        0
176
     1
 66
     7
176
     1
 43
1.0
176
     1
 76
     1
176
     1
 77
     6
176
     1
 78
     2
176
     1
 67
     7
176
     1
 79
     5
176
     1
170
     0
176
     1
171
     0
176
     1
290
     0
176
     1
 93
       13
176
     1
 44
0.0
176
     1
173
     0
176
     1
  0
VISUALSTYLE
  5
A2D
102
{ACAD_REACTORS
330
A29
102
}
330
A29
100
AcDbVisualStyle
  2
GouraudWithEdges
 70
     3
177
     2
291
     1
 71
     2
176
     1
 72
     2
176
     1
 73
     1
176
     1
 90
        2
176
     1
 40
0.6
176
     1
 41
30.0
176
     1
 62
     5
 63
     7
421
 16777215
176
     1
 74
     1
176
     1
 91
        0
176
     1
 64
     7
176
     1
 65
   257
176
     1
 75
     1
176
     1
175
     1
176
     1
 42
1.0
176
     1
 92
        0
176
     1
 66
   257
176
     1
 43
1.0
176
     1
 76
     1
176
     1
 77
     6
176
     1
 78
     2
176
     1
 67
     7
176
     1
 79
     5
176
     1
170
     0
176
     1
171
     0
176
     1
290
     0
176
     1
 93
       13
176
     1
 44
0.0
176
     1
173
     0
176
     1
  0
VISUALSTYLE
  5
A30
102
{ACAD_REACTORS
330
A29
102
}
330
A29
100
AcDbVisualStyle
  2
Hidden
 70
     6
177
     2
291
     0
 71
     1
176
     1
 72
     2
176
     1
 73
     2
176
     1
 90
        0
176
     1
 40
0.6
176
     1
 41
30.0
176
     1
 62
     5
 63
     7
421
 16777215
176
     1
 74
     2
176
     1
 91
        2
176
     1
 64
     7
176
     1
 65
   257
176
     1
 75
     2
176
     1
175
     1
176
     1
 42
40.0
176
     1
 92
        0
176
     1
 66
   257
176
     1
 43
1.0
176
     1
 76
     1
176
     1
 77
     6
176
     1
 78
     2
176
     1
 67
     7
176
     1
 79
     3
176
     1
170
     0
176
     1
171
     0
176
     1
290
     0
176
     1
 93
        1
176
     1
 44
0.0
176
     1
173
     0
176
     1
  0
VISUALSTYLE
  5
A3A
102
{ACAD_REACTORS
330
A29
102
}
330
A29
100
AcDbVisualStyle
  2
JitterOff
 70
    20
177
     2
291
     1
 71
     2
176
     0
 72
     2
176
     0
 73
     0
176
     0
 90
        0
176
     0
 40
0.6
176
     0
 41
30.0
176
     0
 62
     5
 63
     7
421
 16777215
176
     0
 74
     1
176
     0
 91
        4
176
     0
 64
     7
176
     0
 65
   257
176
     0
 75
     1
176
     0
175
     1
176
     0
 42
1.0
176
     0
 92
       10
176
     2
 66
     7
176
     0
 43
1.0
176
     0
 76
     1
176
     0
 77
     6
176
     0
 78
     2
176
     0
 67
     7
176
     0
 79
     5
176
     0
170
     0
176
     0
171
     0
176
     0
290
     0
176
     0
 93
        1
176
     0
 44
0.0
176
     0
173
     0
176
     0
  0
VISUALSTYLE
  5
A37
102
{ACAD_REACTORS
330
A29
102
}
330
A29
100
AcDbVisualStyle
  2
Linepattern
 70
    14
177
     2
291
     1
 71
     2
176
     1
 72
     2
176
     1
 73
     0
176
     1
 90
        0
176
     1
 40
0.6
176
     1
 41
30.0
176
     1
 62
     5
 63
     7
421
 16777215
176
     1
 74
     1
176
     1
 91
        4
176
     1
 64
     7
176
     1
 65
   257
176
     1
 75
     7
176
     1
175
     7
176
     1
 42
1.0
176
     1
 92
        8
176
     1
 66
     7
176
     1
 43
1.0
176
     1
 76
     1
176
     1
 77
     6
176
     1
 78
     2
176
     1
 67
     7
176
     1
 79
     5
176
     1
170
     0
176
     1
171
     0
176
     1
290
     0
176
     1
 93
        1
176
     1
 44
0.0
176
     1
173
     0
176
     1
  0
VISUALSTYLE
  5
A3B
102
{ACAD_REACTORS
330
A29
102
}
330
A29
100
AcDbVisualStyle
  2
OverhangOff
 70
    21
177
     2
291
     1
 71
     2
176
     0
 72
     2
176
     0
 73
     0
176
     0
 90
        0
176
     0
 40
0.6
176
     0
 41
30.0
176
     0
 62
     5
 63
     7
421
 16777215
176
     0
 74
     1
176
     0
 91
        4
176
     0
 64
     7
176
     0
 65
   257
176
     0
 75
     1
176
     0
175
     1
176
     0
 42
1.0
176
     0
 92
        9
176
     2
 66
     7
176
     0
 43
1.0
176
     0
 76
     1
176
     0
 77
     6
176
     0
 78
     2
176
     0
 67
     7
176
     0
 79
     5
176
     0
170
     0
176
     0
171
     0
176
     0
290
     0
176
     0
 93
        1
176
     0
 44
0.0
176
     0
173
     0
176
     0
  0
VISUALSTYLE
  5
A32
102
{ACAD_REACTORS
330
A29
102
}
330
A29
100
AcDbVisualStyle
  2
Realistic
 70
     8
177
     2
291
     0
 71
     2
176
     1
 72
     3
176
     1
 73
     0
176
     1
 90
        2
176
     1
 40
0.6
176
     1
 41
30.0
176
     1
 62
     5
 63
     7
421
 16777215
176
     1
 74
     0
176
     1
 91
        0
176
     1
 64
     7
176
     1
 65
   257
176
     1
 75
     1
176
     1
175
     1
176
     1
 42
1.0
176
     1
 92
        8
176
     1
 66
   257
176
     1
 43
1.0
176
     1
 76
     1
176
     1
 77
     6
176
     1
 78
     2
176
     1
 67
     7
176
     1
 79
     3
176
     1
170
     0
176
     1
171
     0
176
     1
290
     0
176
     1
 93
       13
176
     1
 44
0.0
176
     1
173
     0
176
     1
  0
VISUALSTYLE
  5
A41
102
{ACAD_REACTORS
330
A29
102
}
330
A29
100
AcDbVisualStyle
  2
Shaded
 70
    27
177
     2
291
     0
 71
     2
176
     1
 72
     2
176
     1
 73
     1
176
     1
 90
        2
176
     1
 40
0.6
176
     1
 41
30.0
176
     1
 62
     5
 63
     7
421
 16777215
176
     1
 74
     0
176
     1
 91
        4
176
     1
 64
     7
176
     1
 65
   257
176
     1
 75
     1
176
     1
175
     1
176
     1
 42
1.0
176
     1
 92
        8
176
     1
 66
   257
176
     1
 43
1.0
176
     1
 76
     1
176
     1
 77
     6
176
     1
 78
     2
176
     1
 67
     8
425
  7895160
176
     1
 79
     3
176
     1
170
     0
176
     1
171
     0
176
     1
290
     0
176
     1
 93
        5
176
     1
 44
0.0
176
     1
173
     0
176
     1
  0
VISUALSTYLE
  5
A40
102
{ACAD_REACTORS
330
A29
102
}
330
A29
100
AcDbVisualStyle
  2
Shaded with edges
 70
    26
177
     2
291
     0
 71
     2
176
     1
 72
     2
176
     1
 73
     1
176
     1
 90
        2
176
     1
 40
0.6
176
     1
 41
30.0
176
     1
 62
     5
 63
     7
421
 16777215
176
     1
 74
     1
176
     1
 91
       10
176
     1
 64
     7
176
     1
 65
   257
176
     1
 75
     2
176
     1
175
     1
176
     1
 42
1.0
176
     1
 92
        8
176
     1
 66
   257
176
     1
 43
1.0
176
     1
 76
     1
176
     1
 77
     6
176
     1
 78
     2
176
     1
 67
     7
176
     1
 79
     3
176
     1
170
     0
176
     1
171
     0
176
     1
290
     0
176
     1
 93
        5
176
     1
 44
0.0
176
     1
173
     0
176
     1
  0
VISUALSTYLE
  5
A3D
102
{ACAD_REACTORS
330
A29
102
}
330
A29
100
AcDbVisualStyle
  2
Shades of Gray
 70
    23
177
     2
291
     0
 71
     2
176
     1
 72
     2
176
     1
 73
     3
176
     1
 90
        0
176
     1
 40
0.6
176
     1
 41
30.0
176
     1
 62
     5
 63
     7
421
 16777215
176
     1
 74
     2
176
     1
 91
        2
176
     1
 64
     7
176
     1
 65
     7
176
     1
 75
     1
176
     1
175
     1
176
     1
 42
40.0
176
     1
 92
        8
176
     1
 66
     7
176
     1
 43
1.0
176
     1
 76
     1
176
     1
 77
     6
176
     1
 78
     2
176
     1
 67
     7
176
     1
 79
     3
176
     1
170
     0
176
     1
171
     0
176
     1
290
     0
176
     1
 93
        1
176
     1
 44
0.0
176
     1
173
     0
176
     1
  0
VISUALSTYLE
  5
A3E
102
{ACAD_REACTORS
330
A29
102
}
330
A29
100
AcDbVisualStyle
  2
Sketchy
 70
    24
177
     2
291
     0
 71
     1
176
     1
 72
     2
176
     1
 73
     2
176
     1
 90
        0
176
     1
 40
0.6
176
     1
 41
30.0
176
     1
 62
     5
 63
     7
421
 16777215
176
     1
 74
     2
176
     1
 91
        2
176
     1
 64
     7
176
     1
 65
     7
176
     1
 75
     1
176
     1
175
     1
176
     1
 42
40.0
176
     1
 92
       11
176
     1
 66
     7
176
     1
 43
1.0
176
     1
 76
     1
176
     1
 77
     6
176
     1
 78
     2
176
     1
 67
     7
176
     1
 79
     6
176
     1
170
     0
176
     1
171
     0
176
     1
290
     0
176
     1
 93
        1
176
     1
 44
0.0
176
     1
173
     0
176
     1
  0
VISUALSTYLE
  5
A36
102
{ACAD_REACTORS
330
A29
102
}
330
A29
100
AcDbVisualStyle
  2
Thicken
 70
    13
177
     2
291
     1
 71
     2
176
     1
 72
     2
176
     1
 73
     0
176
     1
 90
        0
176
     1
 40
0.6
176
     1
 41
30.0
176
     1
 62
     5
 63
     7
421
 16777215
176
     1
 74
     1
176
     1
 91
        4
176
     1
 64
     7
176
     1
 65
   257
176
     1
 75
     1
176
     1
175
     1
176
     1
 42
1.0
176
     1
 92
       12
176
     1
 66
     7
176
     1
 43
1.0
176
     1
 76
     1
176
     1
 77
     6
176
     1
 78
     2
176
     1
 67
     7
176
     1
 79
     5
176
     1
170
     0
176
     1
171
     0
176
     1
290
     0
176
     1
 93
        1
176
     1
 44
0.0
176
     1
173
     0
176
     1
  0
VISUALSTYLE
  5
A2F
102
{ACAD_REACTORS
330
A29
102
}
330
A29
100
AcDbVisualStyle
  2
Wireframe
 70
     5
177
     2
291
     0
 71
     0
176
     1
 72
     2
176
     1
 73
     0
176
     1
 90
        0
176
     1
 40
0.6
176
     1
 41
30.0
176
     1
 62
     5
 63
     7
421
 16777215
176
     1
 74
     1
176
     1
 91
        4
176
     1
 64
     7
176
     1
 65
   257
176
     1
 75
     1
176
     1
175
     1
176
     1
 42
1.0
176
     1
 92
        0
176
     1
 66
   257
176
     1
 43
1.0
176
     1
 76
     1
176
     1
 77
     6
176
     1
 78
     2
176
     1
 67
     7
176
     1
 79
     3
176
     1
170
     0
176
     1
171
     0
176
     1
290
     0
176
     1
 93
        1
176
     1
 44
0.0
176
     1
173
     0
176
     1
  0
VISUALSTYLE
  5
A3F
102
{ACAD_REACTORS
330
A29
102
}
330
A29
100
AcDbVisualStyle
  2
X-Ray
 70
    25
177
     2
291
     0
 71
     2
176
     1
 72
     2
176
     1
 73
     1
176
     1
 90
        1
176
     1
 40
0.5
176
     1
 41
30.0
176
     1
 62
     5
 63
     7
421
 16777215
176
     1
 74
     1
176
     1
 91
        0
176
     1
 64
     7
176
     1
 65
   257
176
     1
 75
     1
176
     1
175
     1
176
     1
 42
1.0
176
     1
 92
        8
176
     1
 66
     7
176
     1
 43
1.0
176
     1
 76
     1
176
     1
 77
     6
176
     1
 78
     2
176
     1
 67
     7
176
     1
 79
     3
176
     1
170
     0
176
     1
171
     0
176
     1
290
     0
176
     1
 93
       13
176
     1
 44
0.0
176
     1
173
     0
176
     1
  0
DICTIONARYVAR
  5
137E
102
{ACAD_REACTORS
330
3E1
102
}
330
3E1
100
DictionaryVariables
280
     0
  1
1:1
  0
DICTIONARYVAR
  5
A4C
102
{ACAD_REACTORS
330
3E1
102
}
330
3E1
100
DictionaryVariables
280
     0
  1
Standard
  0
DICTIONARYVAR
  5
A4B
102
{ACAD_REACTORS
330
3E1
102
}
330
3E1
100
DictionaryVariables
280
     0
  1
Standard
  0
DICTIONARYVAR
  5
14C8
102
{ACAD_REACTORS
330
3E1
102
}
330
3E1
100
DictionaryVariables
280
     0
  1
ByLayer
  0
DICTIONARYVAR
  5
A4D
102
{ACAD_REACTORS
330
3E1
102
}
330
3E1
100
DictionaryVariables
280
     0
  1
0
  0
DICTIONARYVAR
  5
3E2
102
{ACAD_REACTORS
330
3E1
102
}
330
3E1
100
DictionaryVariables
280
     0
  1
96
  0
DICTIONARYVAR
  5
2EBD
102
{ACAD_REACTORS
330
14C9
102
}
330
14C9
100
DictionaryVariables
280
     0
  1
0.261799
  0
DICTIONARYVAR
  5
2EBB
102
{ACAD_REACTORS
330
14C9
102
}
330
14C9
100
DictionaryVariables
280
     0
  1
10.000000
  0
DICTIONARYVAR
  5
2EBC
102
{ACAD_REACTORS
330
14C9
102
}
330
14C9
100
DictionaryVariables
280
     0
  1
6.000000
  0
DICTIONARYVAR
  5
2EBE
102
{ACAD_REACTORS
330
14C9
102
}
330
14C9
100
DictionaryVariables
280
     0
  1
0
  0
DICTIONARY
  5
3F5E
330
A47
100
AcDbDictionary
280
     1
281
     1
  3
ACAD_ROUNDTRIP_2008_TABLESTYLE_CELLSTYLEMAP
360
3F5F
  0
CELLSTYLEMAP
  5
3F5F
102
{ACAD_REACTORS
330
3F5E
102
}
330
3F5E
100
AcDbCellStyleMap
 90
        3
300
CELLSTYLE
  1
TABLEFORMAT_BEGIN
 90
        5
170
     1
 91
        0
 92
    32768
 62
   257
 93
        1
300
CONTENTFORMAT
  1
CONTENTFORMAT_BEGIN
 90
        0
 91
        0
 92
        4
 93
        0
300

 40
0.0
140
1.0
 94
        5
 62
     0
340
11
144
6.0
309
CONTENTFORMAT_END
171
     1
301
MARGIN
  1
CELLMARGIN_BEGIN
 40
1.5
 40
1.5
 40
1.5
 40
1.5
 40
1.5
 40
1.5
309
CELLMARGIN_END
 94
        6
 95
        1
302
GRIDFORMAT
  1
GRIDFORMAT_BEGIN
 90
        0
 91
        1
 62
     0
 92
       -2
340
14
 93
        0
 40
0.045
309
GRIDFORMAT_END
 95
        2
302
GRIDFORMAT
  1
GRIDFORMAT_BEGIN
 90
        0
 91
        1
 62
     0
 92
       -2
340
14
 93
        0
 40
0.045
309
GRIDFORMAT_END
 95
        4
302
GRIDFORMAT
  1
GRIDFORMAT_BEGIN
 90
        0
 91
        1
 62
     0
 92
       -2
340
14
 93
        0
 40
0.045
309
GRIDFORMAT_END
 95
        8
302
GRIDFORMAT
  1
GRIDFORMAT_BEGIN
 90
        0
 91
        1
 62
     0
 92
       -2
340
14
 93
        0
 40
0.045
309
GRIDFORMAT_END
 95
       16
302
GRIDFORMAT
  1
GRIDFORMAT_BEGIN
 90
        0
 91
        1
 62
     0
 92
       -2
340
14
 93
        0
 40
0.045
309
GRIDFORMAT_END
 95
       32
302
GRIDFORMAT
  1
GRIDFORMAT_BEGIN
 90
        0
 91
        1
 62
     0
 92
       -2
340
14
 93
        0
 40
0.045
309
GRIDFORMAT_END
309
TABLEFORMAT_END
  1
CELLSTYLE_BEGIN
 90
        1
 91
        1
300
_TITLE
309
CELLSTYLE_END
300
CELLSTYLE
  1
TABLEFORMAT_BEGIN
 90
        5
170
     1
 91
        0
 92
        0
 62
   257
 93
        1
300
CONTENTFORMAT
  1
CONTENTFORMAT_BEGIN
 90
        0
 91
        0
 92
        4
 93
        0
300

 40
0.0
140
1.0
 94
        5
 62
     0
340
11
144
4.5
309
CONTENTFORMAT_END
171
     1
301
MARGIN
  1
CELLMARGIN_BEGIN
 40
1.5
 40
1.5
 40
1.5
 40
1.5
 40
1.5
 40
1.5
309
CELLMARGIN_END
 94
        6
 95
        1
302
GRIDFORMAT
  1
GRIDFORMAT_BEGIN
 90
        0
 91
        1
 62
     0
 92
       -2
340
14
 93
        0
 40
0.045
309
GRIDFORMAT_END
 95
        2
302
GRIDFORMAT
  1
GRIDFORMAT_BEGIN
 90
        0
 91
        1
 62
     0
 92
       -2
340
14
 93
        0
 40
0.045
309
GRIDFORMAT_END
 95
        4
302
GRIDFORMAT
  1
GRIDFORMAT_BEGIN
 90
        0
 91
        1
 62
     0
 92
       -2
340
14
 93
        0
 40
0.045
309
GRIDFORMAT_END
 95
        8
302
GRIDFORMAT
  1
GRIDFORMAT_BEGIN
 90
        0
 91
        1
 62
     0
 92
       -2
340
14
 93
        0
 40
0.045
309
GRIDFORMAT_END
 95
       16
302
GRIDFORMAT
  1
GRIDFORMAT_BEGIN
 90
        0
 91
        1
 62
     0
 92
       -2
340
14
 93
        0
 40
0.045
309
GRIDFORMAT_END
 95
       32
302
GRIDFORMAT
  1
GRIDFORMAT_BEGIN
 90
        0
 91
        1
 62
     0
 92
       -2
340
14
 93
        0
 40
0.045
309
GRIDFORMAT_END
309
TABLEFORMAT_END
  1
CELLSTYLE_BEGIN
 90
        2
 91
        1
300
_HEADER
309
CELLSTYLE_END
300
CELLSTYLE
  1
TABLEFORMAT_BEGIN
 90
        5
170
     1
 91
        0
 92
        0
 62
   257
 93
        1
300
CONTENTFORMAT
  1
CONTENTFORMAT_BEGIN
 90
        0
 91
        0
 92
        4
 93
        0
300

 40
0.0
140
1.0
 94
        2
 62
     0
340
11
144
4.5
309
CONTENTFORMAT_END
171
     1
301
MARGIN
  1
CELLMARGIN_BEGIN
 40
1.5
 40
1.5
 40
1.5
 40
1.5
 40
1.5
 40
1.5
309
CELLMARGIN_END
 94
        6
 95
        1
302
GRIDFORMAT
  1
GRIDFORMAT_BEGIN
 90
        0
 91
        1
 62
     0
 92
       -2
340
14
 93
        0
 40
0.045
309
GRIDFORMAT_END
 95
        2
302
GRIDFORMAT
  1
GRIDFORMAT_BEGIN
 90
        0
 91
        1
 62
     0
 92
       -2
340
14
 93
        0
 40
0.045
309
GRIDFORMAT_END
 95
        4
302
GRIDFORMAT
  1
GRIDFORMAT_BEGIN
 90
        0
 91
        1
 62
     0
 92
       -2
340
14
 93
        0
 40
0.045
309
GRIDFORMAT_END
 95
        8
302
GRIDFORMAT
  1
GRIDFORMAT_BEGIN
 90
        0
 91
        1
 62
     0
 92
       -2
340
14
 93
        0
 40
0.045
309
GRIDFORMAT_END
 95
       16
302
GRIDFORMAT
  1
GRIDFORMAT_BEGIN
 90
        0
 91
        1
 62
     0
 92
       -2
340
14
 93
        0
 40
0.045
309
GRIDFORMAT_END
 95
       32
302
GRIDFORMAT
  1
GRIDFORMAT_BEGIN
 90
        0
 91
        1
 62
     0
 92
       -2
340
14
 93
        0
 40
0.045
309
GRIDFORMAT_END
309
TABLEFORMAT_END
  1
CELLSTYLE_BEGIN
 90
        3
 91
        2
300
_DATA
309
CELLSTYLE_END
  0
ENDSEC
  0
EOF
