  0
SECTION
  2
HEADER
  9
$ACADVER
  1
AC1024
  9
$ACADMAINTVER
 70
     6
  9
$DWGCODEPAGE
  3
ANSI_932
  9
$LASTSAVEDBY
  1
営業企画A
  9
$INSBASE
 10
0.0
 20
0.0
 30
0.0
  9
$EXTMIN
 10
0.0
 20
0.0
 30
0.0
  9
$EXTMAX
 10
292.0
 20
205.0
 30
0.0
  9
$LIMMIN
 10
0.0
 20
0.0
  9
$LIMMAX
 10
297.0
 20
210.0
  9
$ORTHOMODE
 70
     1
  9
$REGENMODE
 70
     1
  9
$FILLMODE
 70
     1
  9
$QTEXTMODE
 70
     0
  9
$MIRRTEXT
 70
     1
  9
$LTSCALE
 40
1.0
  9
$ATTMODE
 70
     1
  9
$TEXTSIZE
 40
2.5
  9
$TRACEWID
 40
1.0
  9
$TEXTSTYLE
  7
Standard
  9
$CLAYER
  8
寸法
  9
$CELTYPE
  6
Continuous
  9
$CECOLOR
 62
   256
  9
$CELTSCALE
 40
1.0
  9
$DISPSILH
 70
     0
  9
$DIMSCALE
 40
1.0
  9
$DIMASZ
 40
2.5
  9
$DIMEXO
 40
0.625
  9
$DIMDLI
 40
3.75
  9
$DIMRND
 40
0.0
  9
$DIMDLE
 40
0.0
  9
$DIMEXE
 40
1.25
  9
$DIMTP
 40
0.0
  9
$DIMTM
 40
0.0
  9
$DIMTXT
 40
2.5
  9
$DIMCEN
 40
0.0
  9
$DIMTSZ
 40
0.0
  9
$DIMTOL
 70
     0
  9
$DIMLIM
 70
     0
  9
$DIMTIH
 70
     1
  9
$DIMTOH
 70
     1
  9
$DIMSE1
 70
     0
  9
$DIMSE2
 70
     0
  9
$DIMTAD
 70
     1
  9
$DIMZIN
 70
     8
  9
$DIMBLK
  1

  9
$DIMASO
 70
     1
  9
$DIMSHO
 70
     1
  9
$DIMPOST
  1

  9
$DIMAPOST
  1

  9
$DIMALT
 70
     0
  9
$DIMALTD
 70
     3
  9
$DIMALTF
 40
0.03937007874016
  9
$DIMLFAC
 40
1.0
  9
$DIMTOFL
 70
     0
  9
$DIMTVP
 40
0.0
  9
$DIMTIX
 70
     0
  9
$DIMSOXD
 70
     0
  9
$DIMSAH
 70
     0
  9
$DIMBLK1
  1

  9
$DIMBLK2
  1

  9
$DIMSTYLE
  2
ISO-1
  9
$DIMCLRD
 70
     0
  9
$DIMCLRE
 70
     0
  9
$DIMCLRT
 70
     0
  9
$DIMTFAC
 40
1.0
  9
$DIMGAP
 40
0.625
  9
$DIMJUST
 70
     0
  9
$DIMSD1
 70
     0
  9
$DIMSD2
 70
     0
  9
$DIMTOLJ
 70
     0
  9
$DIMTZIN
 70
     8
  9
$DIMALTZ
 70
     0
  9
$DIMALTTZ
 70
     0
  9
$DIMUPT
 70
     1
  9
$DIMDEC
 70
     2
  9
$DIMTDEC
 70
     2
  9
$DIMALTU
 70
     2
  9
$DIMALTTD
 70
     3
  9
$DIMTXSTY
  7
Standard
  9
$DIMAUNIT
 70
     0
  9
$DIMADEC
 70
     0
  9
$DIMALTRND
 40
0.0
  9
$DIMAZIN
 70
     0
  9
$DIMDSEP
 70
    46
  9
$DIMATFIT
 70
     3
  9
$DIMFRAC
 70
     0
  9
$DIMLDRBLK
  1

  9
$DIMLUNIT
 70
     2
  9
$DIMLWD
 70
    -2
  9
$DIMLWE
 70
    -2
  9
$DIMTMOVE
 70
     2
  9
$DIMFXL
 40
1.0
  9
$DIMFXLON
 70
     0
  9
$DIMJOGANG
 40
0.7853981633974483
  9
$DIMTFILL
 70
     0
  9
$DIMTFILLCLR
 70
     0
  9
$DIMARCSYM
 70
     0
  9
$DIMLTYPE
  6

  9
$DIMLTEX1
  6

  9
$DIMLTEX2
  6

  9
$DIMTXTDIRECTION
 70
     0
  9
$LUNITS
 70
     2
  9
$LUPREC
 70
     4
  9
$SKETCHINC
 40
1.0
  9
$FILLETRAD
 40
0.5
  9
$AUNITS
 70
     0
  9
$AUPREC
 70
     0
  9
$MENU
  1
.
  9
$ELEVATION
 40
0.0
  9
$PELEVATION
 40
0.0
  9
$THICKNESS
 40
0.0
  9
$LIMCHECK
 70
     0
  9
$CHAMFERA
 40
10.0
  9
$CHAMFERB
 40
10.0
  9
$CHAMFERC
 40
20.0
  9
$CHAMFERD
 40
0.0
  9
$SKPOLY
 70
     0
  9
$TDCREATE
 40
2453866.557479954
  9
$TDUCREATE
 40
2453866.182479954
  9
$TDUPDATE
 40
2459762.682482859
  9
$TDUUPDATE
 40
2459762.307482859
  9
$TDINDWG
 40
0.5843374769
  9
$TDUSRTIMER
 40
0.0008746181
  9
$USRTIMER
 70
     1
  9
$ANGBASE
 50
0.0
  9
$ANGDIR
 70
     0
  9
$PDMODE
 70
     0
  9
$PDSIZE
 40
0.0
  9
$PLINEWID
 40
0.0
  9
$SPLFRAME
 70
     0
  9
$SPLINETYPE
 70
     6
  9
$SPLINESEGS
 70
     8
  9
$HANDSEED
  5
334D
  9
$SURFTAB1
 70
     6
  9
$SURFTAB2
 70
     6
  9
$SURFTYPE
 70
     6
  9
$SURFU
 70
     6
  9
$SURFV
 70
     6
  9
$UCSBASE
  2

  9
$UCSNAME
  2

  9
$UCSORG
 10
0.0
 20
0.0
 30
0.0
  9
$UCSXDIR
 10
1.0
 20
0.0
 30
0.0
  9
$UCSYDIR
 10
0.0
 20
1.0
 30
0.0
  9
$UCSORTHOREF
  2

  9
$UCSORTHOVIEW
 70
     0
  9
$UCSORGTOP
 10
0.0
 20
0.0
 30
0.0
  9
$UCSORGBOTTOM
 10
0.0
 20
0.0
 30
0.0
  9
$UCSORGLEFT
 10
0.0
 20
0.0
 30
0.0
  9
$UCSORGRIGHT
 10
0.0
 20
0.0
 30
0.0
  9
$UCSORGFRONT
 10
0.0
 20
0.0
 30
0.0
  9
$UCSORGBACK
 10
0.0
 20
0.0
 30
0.0
  9
$PUCSBASE
  2

  9
$PUCSNAME
  2

  9
$PUCSORG
 10
0.0
 20
0.0
 30
0.0
  9
$PUCSXDIR
 10
1.0
 20
0.0
 30
0.0
  9
$PUCSYDIR
 10
0.0
 20
1.0
 30
0.0
  9
$PUCSORTHOREF
  2

  9
$PUCSORTHOVIEW
 70
     0
  9
$PUCSORGTOP
 10
0.0
 20
0.0
 30
0.0
  9
$PUCSORGBOTTOM
 10
0.0
 20
0.0
 30
0.0
  9
$PUCSORGLEFT
 10
0.0
 20
0.0
 30
0.0
  9
$PUCSORGRIGHT
 10
0.0
 20
0.0
 30
0.0
  9
$PUCSORGFRONT
 10
0.0
 20
0.0
 30
0.0
  9
$PUCSORGBACK
 10
0.0
 20
0.0
 30
0.0
  9
$USERI1
 70
     0
  9
$USERI2
 70
     0
  9
$USERI3
 70
     0
  9
$USERI4
 70
     0
  9
$USERI5
 70
     0
  9
$USERR1
 40
0.0
  9
$USERR2
 40
0.0
  9
$USERR3
 40
0.0
  9
$USERR4
 40
0.0
  9
$USERR5
 40
0.0
  9
$WORLDVIEW
 70
     1
  9
$SHADEDGE
 70
     3
  9
$SHADEDIF
 70
    70
  9
$TILEMODE
 70
     1
  9
$MAXACTVP
 70
    64
  9
$PINSBASE
 10
0.0
 20
0.0
 30
0.0
  9
$PLIMCHECK
 70
     0
  9
$PEXTMIN
 10
1.000000000000000E+20
 20
1.000000000000000E+20
 30
1.000000000000000E+20
  9
$PEXTMAX
 10
-1.000000000000000E+20
 20
-1.000000000000000E+20
 30
-1.000000000000000E+20
  9
$PLIMMIN
 10
0.0
 20
0.0
  9
$PLIMMAX
 10
0.0
 20
0.0
  9
$UNITMODE
 70
     0
  9
$VISRETAIN
 70
     1
  9
$PLINEGEN
 70
     0
  9
$PSLTSCALE
 70
     1
  9
$TREEDEPTH
 70
  3020
  9
$CMLSTYLE
  2
Standard
  9
$CMLJUST
 70
     0
  9
$CMLSCALE
 40
20.0
  9
$PROXYGRAPHICS
 70
     1
  9
$MEASUREMENT
 70
     1
  9
$CELWEIGHT
370
    -1
  9
$ENDCAPS
280
     0
  9
$JOINSTYLE
280
     0
  9
$LWDISPLAY
290
     0
  9
$INSUNITS
 70
     4
  9
$HYPERLINKBASE
  1

  9
$STYLESHEET
  1

  9
$XEDIT
290
     1
  9
$CEPSNTYPE
380
     0
  9
$PSTYLEMODE
290
     1
  9
$FINGERPRINTGUID
  2
{49B20B3B-064E-400B-9469-2837C497CFA5}
  9
$VERSIONGUID
  2
{CCDC3A7D-9D77-4BF9-B421-98E64B28052D}
  9
$EXTNAMES
290
     1
  9
$PSVPSCALE
 40
0.0
  9
$OLESTARTUP
290
     0
  9
$SORTENTS
280
    96
  9
$INDEXCTL
280
     0
  9
$HIDETEXT
280
     1
  9
$XCLIPFRAME
280
     2
  9
$HALOGAP
280
     0
  9
$OBSCOLOR
 70
   257
  9
$OBSLTYPE
280
     0
  9
$INTERSECTIONDISPLAY
280
     0
  9
$INTERSECTIONCOLOR
 70
   257
  9
$DIMASSOC
280
     2
  9
$PROJECTNAME
  1

  9
$CAMERADISPLAY
290
     0
  9
$LENSLENGTH
 40
50.0
  9
$CAMERAHEIGHT
 40
0.0
  9
$STEPSPERSEC
 40
2.0
  9
$STEPSIZE
 40
6.0
  9
$3DDWFPREC
 40
2.0
  9
$PSOLWIDTH
 40
0.25
  9
$PSOLHEIGHT
 40
4.0
  9
$LOFTANG1
 40
1.570796326794897
  9
$LOFTANG2
 40
1.570796326794897
  9
$LOFTMAG1
 40
0.0
  9
$LOFTMAG2
 40
0.0
  9
$LOFTPARAM
 70
     7
  9
$LOFTNORMALS
280
     1
  9
$LATITUDE
 40
37.795
  9
$LONGITUDE
 40
-122.394
  9
$NORTHDIRECTION
 40
0.0
  9
$TIMEZONE
 70
 -8000
  9
$LIGHTGLYPHDISPLAY
280
     1
  9
$TILEMODELIGHTSYNCH
280
     1
  9
$SOLIDHIST
280
     0
  9
$SHOWHIST
280
     1
  9
$DWFFRAME
280
     2
  9
$DGNFRAME
280
     2
  9
$REALWORLDSCALE
290
     1
  9
$INTERFERECOLOR
 62
   256
  9
$CSHADOW
280
     0
  9
$SHADOWPLANELOCATION
 40
0.0
  0
ENDSEC
  0
SECTION
  2
CLASSES
  0
CLASS
  1
ACDBDICTIONARYWDFLT
  2
AcDbDictionaryWithDefault
  3
ObjectDBX Classes
 90
        0
 91
        3
280
     0
281
     0
  0
CLASS
  1
ACDBPLACEHOLDER
  2
AcDbPlaceHolder
  3
ObjectDBX Classes
 90
        0
 91
        1
280
     0
281
     0
  0
CLASS
  1
LAYOUT
  2
AcDbLayout
  3
ObjectDBX Classes
 90
        0
 91
        1
280
     0
281
     0
  0
CLASS
  1
DICTIONARYVAR
  2
AcDbDictionaryVar
  3
ObjectDBX Classes
 90
        0
 91
        3
280
     0
281
     0
  0
CLASS
  1
SCALE
  2
AcDbScale
  3
ObjectDBX Classes
 90
     1153
 91
        3
280
     0
281
     0
  0
CLASS
  1
MATERIAL
  2
AcDbMaterial
  3
ObjectDBX Classes
 90
     1153
 91
        3
280
     0
281
     0
  0
CLASS
  1
VISUALSTYLE
  2
AcDbVisualStyle
  3
ObjectDBX Classes
 90
     4095
 91
        3
280
     0
281
     0
  0
CLASS
  1
TABLESTYLE
  2
AcDbTableStyle
  3
ObjectDBX Classes
 90
     4095
 91
        3
280
     0
281
     0
  0
CLASS
  1
RASTERVARIABLES
  2
AcDbRasterVariables
  3
ISM
 90
        0
 91
        3
280
     0
281
     0
  0
CLASS
  1
DIMASSOC
  2
AcDbDimAssoc
  3
"AcDbDimAssoc|Product Desc:     AcDim ARX App For Dimension|Company:          Autodesk, Inc.|WEB Address:      www.autodesk.com"
 90
        0
 91
        3
280
     0
281
     0
  0
CLASS
  1
MLEADERSTYLE
  2
AcDbMLeaderStyle
  3
ACDB_MLEADERSTYLE_CLASS
 90
     4095
 91
        3
280
     0
281
     0
  0
CLASS
  1
SUN
  2
AcDbSun
  3
SCENEOE
 90
     1153
 91
        3
280
     0
281
     0
  0
CLASS
  1
CELLSTYLEMAP
  2
AcDbCellStyleMap
  3
ObjectDBX Classes
 90
     1152
 91
        3
280
     0
281
     0
  0
ENDSEC
  0
SECTION
  2
TABLES
  0
TABLE
  2
VPORT
  5
8
330
0
100
AcDbSymbolTable
 70
     1
  0
VPORT
  5
934
330
8
100
AcDbSymbolTableRecord
100
AcDbViewportTableRecord
  2
*Active
 70
     0
 10
0.0
 20
0.0
 11
1.0
 21
1.0
 12
146.0
 22
102.5
 13
0.0
 23
0.0
 14
10.0
 24
10.0
 15
10.0
 25
10.0
 16
0.0
 26
0.0
 36
1.0
 17
0.0
 27
0.0
 37
0.0
 40
209.1
 41
1.737931034482759
 42
50.0
 43
0.0
 44
0.0
 50
0.0
 51
0.0
 71
    16
 72
   100
 73
     1
 74
     3
 75
     0
 76
     0
 77
     0
 78
     0
281
     0
 65
     1
110
0.0
120
0.0
130
0.0
111
1.0
121
0.0
131
0.0
112
0.0
122
1.0
132
0.0
 79
     0
146
0.0
348
A2E
 60
     3
 61
     5
292
     1
282
     1
141
0.0
142
0.0
 63
   256
361
A4A
  0
ENDTAB
  0
TABLE
  2
LTYPE
  5
5
330
0
100
AcDbSymbolTable
 70
     5
  0
LTYPE
  5
14
330
5
100
AcDbSymbolTableRecord
100
AcDbLinetypeTableRecord
  2
ByBlock
 70
     0
  3

 72
    65
 73
     0
 40
0.0
  0
LTYPE
  5
15
330
5
100
AcDbSymbolTableRecord
100
AcDbLinetypeTableRecord
  2
ByLayer
 70
     0
  3

 72
    65
 73
     0
 40
0.0
  0
LTYPE
  5
16
330
5
100
AcDbSymbolTableRecord
100
AcDbLinetypeTableRecord
  2
Continuous
 70
     0
  3
Solid line
 72
    65
 73
     0
 40
0.0
  0
LTYPE
  5
C6
330
5
100
AcDbSymbolTableRecord
100
AcDbLinetypeTableRecord
  2
ACAD_ISO02W100
 70
     0
  3
ISO dash __ __ __ __ __ __ __ __ __ __ __ __ __
 72
    65
 73
     2
 40
15.0
 49
12.0
 74
     0
 49
-3.0
 74
     0
  0
LTYPE
  5
63F
330
5
100
AcDbSymbolTableRecord
100
AcDbLinetypeTableRecord
  2
HIDDEN
 70
     0
  3
Hidden __ __ __ __ __ __ __ __ __ __ __ __ __ _
 72
    65
 73
     2
 40
4.5
 49
3.0
 74
     0
 49
-1.5
 74
     0
  0
LTYPE
  5
7A5
330
5
100
AcDbSymbolTableRecord
100
AcDbLinetypeTableRecord
  2
ACAD_ISO07W100
 70
     0
  3
ISO dot . . . . . . . . . . . . . . . . . . . .
 72
    65
 73
     2
 40
3.0
 49
0.0
 74
     0
 49
-3.0
 74
     0
  0
LTYPE
  5
A8D
330
5
100
AcDbSymbolTableRecord
100
AcDbLinetypeTableRecord
  2
CENTER2
 70
     0
  3
Center (.5x) ___ _ ___ _ ___ _ ___ _ ___ _ ___
 72
    65
 73
     4
 40
28.575
 49
19.05
 74
     0
 49
-3.175
 74
     0
 49
3.175
 74
     0
 49
-3.175
 74
     0
  0
ENDTAB
  0
TABLE
  2
LAYER
  5
2
102
{ACAD_XDICTIONARY
360
970
102
}
330
0
100
AcDbSymbolTable
 70
    17
  0
LAYER
  5
10
330
2
100
AcDbSymbolTableRecord
100
AcDbLayerTableRecord
  2
0
 70
     0
 62
     7
  6
Continuous
370
    -3
390
F
347
A45
  0
LAYER
  5
110
330
2
100
AcDbSymbolTableRecord
100
AcDbLayerTableRecord
  2
Defpoints
 70
     0
 62
     7
  6
Continuous
290
     0
370
    -3
390
F
347
A45
  0
LAYER
  5
4E7
330
2
100
AcDbSymbolTableRecord
100
AcDbLayerTableRecord
  2
100
 70
     0
 62
     7
  6
ACAD_ISO07W100
370
    -3
390
F
347
A45
  0
LAYER
  5
68D
330
2
100
AcDbSymbolTableRecord
100
AcDbLayerTableRecord
  2
用紙範囲
 70
     0
 62
    10
  6
Continuous
370
    -3
390
F
347
A45
  0
LAYER
  5
68E
330
2
100
AcDbSymbolTableRecord
100
AcDbLayerTableRecord
  2
枠
 70
     0
 62
   112
  6
Continuous
370
    -3
390
F
347
A45
  0
LAYER
  5
68F
330
2
100
AcDbSymbolTableRecord
100
AcDbLayerTableRecord
  2
寸法
 70
     0
 62
    90
  6
Continuous
370
    -3
390
F
347
A45
  0
LAYER
  5
690
330
2
100
AcDbSymbolTableRecord
100
AcDbLayerTableRecord
  2
金属部分
 70
     0
 62
   170
  6
Continuous
370
    -3
390
F
347
A45
  0
LAYER
  5
691
330
2
100
AcDbSymbolTableRecord
100
AcDbLayerTableRecord
  2
品番
 70
     0
 62
   244
  6
Continuous
370
    -3
390
F
347
A45
  0
LAYER
  5
786
330
2
100
AcDbSymbolTableRecord
100
AcDbLayerTableRecord
  2
文字
 70
     0
 62
    40
  6
Continuous
370
    -3
390
F
347
A45
  0
LAYER
  5
790
330
2
100
AcDbSymbolTableRecord
100
AcDbLayerTableRecord
  2
社名
 70
     0
 62
     1
  6
Continuous
370
    -3
390
F
347
A45
  0
LAYER
  5
880
330
2
100
AcDbSymbolTableRecord
100
AcDbLayerTableRecord
  2
軟質樹脂部分
 70
     0
 62
    30
  6
Continuous
370
    -3
390
F
347
A45
  0
LAYER
  5
896
330
2
100
AcDbSymbolTableRecord
100
AcDbLayerTableRecord
  2
TOS_M1
 70
     0
 62
     7
  6
Continuous
370
    -3
390
F
347
A45
  0
LAYER
  5
897
330
2
100
AcDbSymbolTableRecord
100
AcDbLayerTableRecord
  2
TOS_S1
 70
     0
 62
     4
  6
Continuous
370
    -3
390
F
347
A45
  0
LAYER
  5
A57
330
2
100
AcDbSymbolTableRecord
100
AcDbLayerTableRecord
  2
補助
 70
     0
 62
     7
  6
HIDDEN
370
    -3
390
F
347
A45
1001
AcAecLayerStandard
1000

1000

  0
LAYER
  5
A86
102
{ACAD_XDICTIONARY
360
A87
102
}
330
2
100
AcDbSymbolTableRecord
100
AcDbLayerTableRecord
  2
SCALE
 70
     0
 62
     3
  6
Continuous
370
    -3
390
F
347
A45
  0
LAYER
  5
A8A
102
{ACAD_XDICTIONARY
360
A8B
102
}
330
2
100
AcDbSymbolTableRecord
100
AcDbLayerTableRecord
  2
Hojo
 70
     0
 62
   111
  6
Continuous
370
    -3
390
F
347
A45
  0
LAYER
  5
2076
330
2
100
AcDbSymbolTableRecord
100
AcDbLayerTableRecord
  2
硬質樹脂部分
 70
     0
 62
   220
  6
Continuous
370
    -3
390
F
347
A45
1001
AcAecLayerStandard
1000

1000

  0
ENDTAB
  0
TABLE
  2
STYLE
  5
3
330
0
100
AcDbSymbolTable
 70
     2
  0
STYLE
  5
11
330
3
100
AcDbSymbolTableRecord
100
AcDbTextStyleTableRecord
  2
Standard
 70
     0
 40
0.0
 41
1.0
 50
0.0
 71
     0
 42
2.5
  3
txt.shx
  4
bigfont.shx
  0
STYLE
  5
C5
330
3
100
AcDbSymbolTableRecord
100
AcDbTextStyleTableRecord
  2

 70
     1
 40
0.0
 41
1.0
 50
0.0
 71
     0
 42
2.5
  3
ltypeshp.shx
  4

  0
ENDTAB
  0
TABLE
  2
VIEW
  5
6
330
0
100
AcDbSymbolTable
 70
     0
  0
ENDTAB
  0
TABLE
  2
UCS
  5
7
330
0
100
AcDbSymbolTable
 70
     0
  0
ENDTAB
  0
TABLE
  2
APPID
  5
9
330
0
100
AcDbSymbolTable
 70
     6
  0
APPID
  5
12
330
9
100
AcDbSymbolTableRecord
100
AcDbRegAppTableRecord
  2
ACAD
 70
     0
  0
APPID
  5
A58
330
9
100
AcDbSymbolTableRecord
100
AcDbRegAppTableRecord
  2
AcAecLayerStandard
 70
     0
  0
APPID
  5
A97
330
9
100
AcDbSymbolTableRecord
100
AcDbRegAppTableRecord
  2
ACAD_NAV_VCDISPLAY
 70
     0
  0
APPID
  5
A98
330
9
100
AcDbSymbolTableRecord
100
AcDbRegAppTableRecord
  2
ACAD_PSEXT
 70
     0
  0
APPID
  5
B15
330
9
100
AcDbSymbolTableRecord
100
AcDbRegAppTableRecord
  2
ACAD_DSTYLE_DIMRADIAL_EXTENSION
 70
     0
  0
APPID
  5
311E
330
9
100
AcDbSymbolTableRecord
100
AcDbRegAppTableRecord
  2
PLOTTRANSPARENCY
 70
     0
  0
ENDTAB
  0
TABLE
  2
DIMSTYLE
  5
A
330
0
100
AcDbSymbolTable
 70
     4
100
AcDbDimStyleTable
  0
DIMSTYLE
105
27
102
{ACAD_REACTORS
102
}
330
A
100
AcDbSymbolTableRecord
100
AcDbDimStyleTableRecord
  2
ISO-25
 70
     0
 41
2.5
 42
0.625
 43
3.75
 44
1.25
 77
     1
 78
     8
140
2.5
141
2.5
143
0.03937007874016
147
0.625
171
     3
178
     0
271
     2
272
     2
274
     3
279
     2
283
     0
284
     8
288
     1
340
11
  0
DIMSTYLE
105
4E8
330
A
100
AcDbSymbolTableRecord
100
AcDbDimStyleTableRecord
  2
Standard
 70
     0
178
     0
340
11
  0
DIMSTYLE
105
14C6
102
{ACAD_REACTORS
330
321F
330
3223
330
3225
330
3227
330
3229
330
327C
330
327E
330
3280
102
}
330
A
100
AcDbSymbolTableRecord
100
AcDbDimStyleTableRecord
  2
ISO-1
 70
     0
 41
2.5
 42
0.625
 43
3.75
 44
1.25
 77
     1
 78
     8
140
2.5
141
0.0
143
0.03937007874016
147
0.625
171
     3
178
     0
271
     2
272
     2
274
     3
279
     2
283
     0
284
     8
288
     1
340
11
  0
DIMSTYLE
105
2BCC
330
A
100
AcDbSymbolTableRecord
100
AcDbDimStyleTableRecord
  2
ISO-2
 70
     0
 41
2.5
 42
0.625
 43
3.75
 44
1.25
 77
     1
 78
     8
140
5.0
141
0.0
143
0.03937007874016
144
0.2
147
0.625
171
     3
178
     0
271
     2
272
     2
274
     3
279
     2
283
     0
284
     8
288
     1
340
11
  0
ENDTAB
  0
TABLE
  2
BLOCK_RECORD
  5
1
330
0
100
AcDbSymbolTable
 70
    75
  0
BLOCK_RECORD
  5
1F
330
1
100
AcDbSymbolTableRecord
100
AcDbBlockTableRecord
  2
*Model_Space
340
22
 70
     0
280
     1
281
     0
  0
BLOCK_RECORD
  5
1B
330
1
100
AcDbSymbolTableRecord
100
AcDbBlockTableRecord
  2
*Paper_Space
340
1E
 70
     0
280
     1
281
     0
  0
BLOCK_RECORD
  5
23
330
1
100
AcDbSymbolTableRecord
100
AcDbBlockTableRecord
  2
*Paper_Space0
340
26
 70
     0
280
     1
281
     0
  0
BLOCK_RECORD
  5
A91
330
1
100
AcDbSymbolTableRecord
100
AcDbBlockTableRecord
  2
_OPEN
340
0
 70
     0
280
     1
281
     0
  0
BLOCK_RECORD
  5
245E
330
1
100
AcDbSymbolTableRecord
100
AcDbBlockTableRecord
  2
*D2
340
0
 70
     0
280
     1
281
     0
  0
BLOCK_RECORD
  5
246E
330
1
100
AcDbSymbolTableRecord
100
AcDbBlockTableRecord
  2
*D3
340
0
 70
     0
280
     1
281
     0
  0
BLOCK_RECORD
  5
248E
330
1
100
AcDbSymbolTableRecord
100
AcDbBlockTableRecord
  2
*D4
340
0
 70
     0
280
     1
281
     0
  0
BLOCK_RECORD
  5
249E
330
1
100
AcDbSymbolTableRecord
100
AcDbBlockTableRecord
  2
*D5
340
0
 70
     0
280
     1
281
     0
  0
BLOCK_RECORD
  5
24AE
330
1
100
AcDbSymbolTableRecord
100
AcDbBlockTableRecord
  2
*D6
340
0
 70
     0
280
     1
281
     0
  0
BLOCK_RECORD
  5
24BE
330
1
100
AcDbSymbolTableRecord
100
AcDbBlockTableRecord
  2
*D7
340
0
 70
     0
280
     1
281
     0
  0
BLOCK_RECORD
  5
24DF
330
1
100
AcDbSymbolTableRecord
100
AcDbBlockTableRecord
  2
*D8
340
0
 70
     0
280
     1
281
     0
  0
BLOCK_RECORD
  5
24EF
330
1
100
AcDbSymbolTableRecord
100
AcDbBlockTableRecord
  2
*D9
340
0
 70
     0
280
     1
281
     0
  0
BLOCK_RECORD
  5
2551
330
1
100
AcDbSymbolTableRecord
100
AcDbBlockTableRecord
  2
*D10
340
0
 70
     0
280
     1
281
     0
  0
BLOCK_RECORD
  5
2561
330
1
100
AcDbSymbolTableRecord
100
AcDbBlockTableRecord
  2
*D11
340
0
 70
     0
280
     1
281
     0
  0
BLOCK_RECORD
  5
2571
330
1
100
AcDbSymbolTableRecord
100
AcDbBlockTableRecord
  2
*D12
340
0
 70
     0
280
     1
281
     0
  0
BLOCK_RECORD
  5
2581
330
1
100
AcDbSymbolTableRecord
100
AcDbBlockTableRecord
  2
*D13
340
0
 70
     0
280
     1
281
     0
  0
BLOCK_RECORD
  5
25A1
330
1
100
AcDbSymbolTableRecord
100
AcDbBlockTableRecord
  2
*D14
340
0
 70
     0
280
     1
281
     0
  0
BLOCK_RECORD
  5
25B1
330
1
100
AcDbSymbolTableRecord
100
AcDbBlockTableRecord
  2
*D15
340
0
 70
     0
280
     1
281
     0
  0
BLOCK_RECORD
  5
25C0
330
1
100
AcDbSymbolTableRecord
100
AcDbBlockTableRecord
  2
*D16
340
0
 70
     0
280
     1
281
     0
  0
BLOCK_RECORD
  5
25CF
330
1
100
AcDbSymbolTableRecord
100
AcDbBlockTableRecord
  2
*D17
340
0
 70
     0
280
     1
281
     0
  0
BLOCK_RECORD
  5
25DF
330
1
100
AcDbSymbolTableRecord
100
AcDbBlockTableRecord
  2
*D18
340
0
 70
     0
280
     1
281
     0
  0
BLOCK_RECORD
  5
25EF
330
1
100
AcDbSymbolTableRecord
100
AcDbBlockTableRecord
  2
*D19
340
0
 70
     0
280
     1
281
     0
  0
BLOCK_RECORD
  5
2600
330
1
100
AcDbSymbolTableRecord
100
AcDbBlockTableRecord
  2
*D20
340
0
 70
     0
280
     1
281
     0
  0
BLOCK_RECORD
  5
2610
330
1
100
AcDbSymbolTableRecord
100
AcDbBlockTableRecord
  2
*D21
340
0
 70
     0
280
     1
281
     0
  0
BLOCK_RECORD
  5
2630
330
1
100
AcDbSymbolTableRecord
100
AcDbBlockTableRecord
  2
*D22
340
0
 70
     0
280
     1
281
     0
  0
BLOCK_RECORD
  5
2640
330
1
100
AcDbSymbolTableRecord
100
AcDbBlockTableRecord
  2
*D23
340
0
 70
     0
280
     1
281
     0
  0
BLOCK_RECORD
  5
2671
330
1
100
AcDbSymbolTableRecord
100
AcDbBlockTableRecord
  2
*D24
340
0
 70
     0
280
     1
281
     0
  0
BLOCK_RECORD
  5
2682
330
1
100
AcDbSymbolTableRecord
100
AcDbBlockTableRecord
  2
*D25
340
0
 70
     0
280
     1
281
     0
  0
BLOCK_RECORD
  5
2692
330
1
100
AcDbSymbolTableRecord
100
AcDbBlockTableRecord
  2
*D26
340
0
 70
     0
280
     1
281
     0
  0
BLOCK_RECORD
  5
26A2
330
1
100
AcDbSymbolTableRecord
100
AcDbBlockTableRecord
  2
*D27
340
0
 70
     0
280
     1
281
     0
  0
BLOCK_RECORD
  5
26B2
330
1
100
AcDbSymbolTableRecord
100
AcDbBlockTableRecord
  2
*D28
340
0
 70
     0
280
     1
281
     0
  0
BLOCK_RECORD
  5
26C2
330
1
100
AcDbSymbolTableRecord
100
AcDbBlockTableRecord
  2
*D29
340
0
 70
     0
280
     1
281
     0
  0
BLOCK_RECORD
  5
26D1
330
1
100
AcDbSymbolTableRecord
100
AcDbBlockTableRecord
  2
*D30
340
0
 70
     0
280
     1
281
     0
  0
BLOCK_RECORD
  5
2738
330
1
100
AcDbSymbolTableRecord
100
AcDbBlockTableRecord
  2
*D31
340
0
 70
     0
280
     1
281
     0
  0
BLOCK_RECORD
  5
2748
330
1
100
AcDbSymbolTableRecord
100
AcDbBlockTableRecord
  2
*D32
340
0
 70
     0
280
     1
281
     0
  0
BLOCK_RECORD
  5
2775
330
1
100
AcDbSymbolTableRecord
100
AcDbBlockTableRecord
  2
*D33
340
0
 70
     0
280
     1
281
     0
  0
BLOCK_RECORD
  5
2780
330
1
100
AcDbSymbolTableRecord
100
AcDbBlockTableRecord
  2
*D34
340
0
 70
     0
280
     1
281
     0
  0
BLOCK_RECORD
  5
278D
330
1
100
AcDbSymbolTableRecord
100
AcDbBlockTableRecord
  2
*D35
340
0
 70
     0
280
     1
281
     0
  0
BLOCK_RECORD
  5
28D1
330
1
100
AcDbSymbolTableRecord
100
AcDbBlockTableRecord
  2
*D36
340
0
 70
     0
280
     1
281
     0
  0
BLOCK_RECORD
  5
2BE6
330
1
100
AcDbSymbolTableRecord
100
AcDbBlockTableRecord
  2
*D37
340
0
 70
     0
280
     1
281
     0
  0
BLOCK_RECORD
  5
2BF6
330
1
100
AcDbSymbolTableRecord
100
AcDbBlockTableRecord
  2
*D38
340
0
 70
     0
280
     1
281
     0
  0
BLOCK_RECORD
  5
2D6C
330
1
100
AcDbSymbolTableRecord
100
AcDbBlockTableRecord
  2
*D39
340
0
 70
     0
280
     1
281
     0
  0
BLOCK_RECORD
  5
2F0A
330
1
100
AcDbSymbolTableRecord
100
AcDbBlockTableRecord
  2
*D40
340
0
 70
     0
280
     1
281
     0
  0
BLOCK_RECORD
  5
2F19
330
1
100
AcDbSymbolTableRecord
100
AcDbBlockTableRecord
  2
*D41
340
0
 70
     0
280
     1
281
     0
  0
BLOCK_RECORD
  5
2F28
330
1
100
AcDbSymbolTableRecord
100
AcDbBlockTableRecord
  2
*D42
340
0
 70
     0
280
     1
281
     0
  0
BLOCK_RECORD
  5
2F37
330
1
100
AcDbSymbolTableRecord
100
AcDbBlockTableRecord
  2
*D43
340
0
 70
     0
280
     1
281
     0
  0
BLOCK_RECORD
  5
2F46
330
1
100
AcDbSymbolTableRecord
100
AcDbBlockTableRecord
  2
*D44
340
0
 70
     0
280
     1
281
     0
  0
BLOCK_RECORD
  5
2F55
330
1
100
AcDbSymbolTableRecord
100
AcDbBlockTableRecord
  2
*D45
340
0
 70
     0
280
     1
281
     0
  0
BLOCK_RECORD
  5
2F64
330
1
100
AcDbSymbolTableRecord
100
AcDbBlockTableRecord
  2
*D46
340
0
 70
     0
280
     1
281
     0
  0
BLOCK_RECORD
  5
2F73
330
1
100
AcDbSymbolTableRecord
100
AcDbBlockTableRecord
  2
*D47
340
0
 70
     0
280
     1
281
     0
  0
BLOCK_RECORD
  5
303D
330
1
100
AcDbSymbolTableRecord
100
AcDbBlockTableRecord
  2
*D48
340
0
 70
     0
280
     1
281
     0
  0
BLOCK_RECORD
  5
304A
330
1
100
AcDbSymbolTableRecord
100
AcDbBlockTableRecord
  2
*D49
340
0
 70
     0
280
     1
281
     0
  0
BLOCK_RECORD
  5
3057
330
1
100
AcDbSymbolTableRecord
100
AcDbBlockTableRecord
  2
*D50
340
0
 70
     0
280
     1
281
     0
  0
BLOCK_RECORD
  5
3064
330
1
100
AcDbSymbolTableRecord
100
AcDbBlockTableRecord
  2
*D51
340
0
 70
     0
280
     1
281
     0
  0
BLOCK_RECORD
  5
3071
330
1
100
AcDbSymbolTableRecord
100
AcDbBlockTableRecord
  2
*D52
340
0
 70
     0
280
     1
281
     0
  0
BLOCK_RECORD
  5
307E
330
1
100
AcDbSymbolTableRecord
100
AcDbBlockTableRecord
  2
*D53
340
0
 70
     0
280
     1
281
     0
  0
BLOCK_RECORD
  5
308B
330
1
100
AcDbSymbolTableRecord
100
AcDbBlockTableRecord
  2
*D54
340
0
 70
     0
280
     1
281
     0
  0
BLOCK_RECORD
  5
3098
330
1
100
AcDbSymbolTableRecord
100
AcDbBlockTableRecord
  2
*D55
340
0
 70
     0
280
     1
281
     0
  0
BLOCK_RECORD
  5
30A8
330
1
100
AcDbSymbolTableRecord
100
AcDbBlockTableRecord
  2
*D56
340
0
 70
     0
280
     1
281
     0
  0
BLOCK_RECORD
  5
3125
330
1
100
AcDbSymbolTableRecord
100
AcDbBlockTableRecord
  2
*D57
340
0
 70
     0
280
     1
281
     0
  0
BLOCK_RECORD
  5
3135
330
1
100
AcDbSymbolTableRecord
100
AcDbBlockTableRecord
  2
*D58
340
0
 70
     0
280
     1
281
     0
  0
BLOCK_RECORD
  5
3158
330
1
100
AcDbSymbolTableRecord
100
AcDbBlockTableRecord
  2
*D59
340
0
 70
     0
280
     1
281
     0
  0
BLOCK_RECORD
  5
3167
330
1
100
AcDbSymbolTableRecord
100
AcDbBlockTableRecord
  2
*D60
340
0
 70
     0
280
     1
281
     0
  0
BLOCK_RECORD
  5
3176
330
1
100
AcDbSymbolTableRecord
100
AcDbBlockTableRecord
  2
*D61
340
0
 70
     0
280
     1
281
     0
  0
BLOCK_RECORD
  5
3185
330
1
100
AcDbSymbolTableRecord
100
AcDbBlockTableRecord
  2
*D62
340
0
 70
     0
280
     1
281
     0
  0
BLOCK_RECORD
  5
3194
330
1
100
AcDbSymbolTableRecord
100
AcDbBlockTableRecord
  2
*D63
340
0
 70
     0
280
     1
281
     0
  0
BLOCK_RECORD
  5
31A3
330
1
100
AcDbSymbolTableRecord
100
AcDbBlockTableRecord
  2
*D64
340
0
 70
     0
280
     1
281
     0
  0
BLOCK_RECORD
  5
3208
330
1
100
AcDbSymbolTableRecord
100
AcDbBlockTableRecord
  2
*D65
340
0
 70
     0
280
     1
281
     0
  0
BLOCK_RECORD
  5
328A
330
1
100
AcDbSymbolTableRecord
100
AcDbBlockTableRecord
  2
*D66
340
0
 70
     0
280
     1
281
     0
  0
BLOCK_RECORD
  5
3297
330
1
100
AcDbSymbolTableRecord
100
AcDbBlockTableRecord
  2
*D67
340
0
 70
     0
280
     1
281
     0
  0
BLOCK_RECORD
  5
32A4
330
1
100
AcDbSymbolTableRecord
100
AcDbBlockTableRecord
  2
*D68
340
0
 70
     0
280
     1
281
     0
  0
BLOCK_RECORD
  5
32B1
330
1
100
AcDbSymbolTableRecord
100
AcDbBlockTableRecord
  2
*D69
340
0
 70
     0
280
     1
281
     0
  0
BLOCK_RECORD
  5
32BE
330
1
100
AcDbSymbolTableRecord
100
AcDbBlockTableRecord
  2
*D70
340
0
 70
     0
280
     1
281
     0
  0
BLOCK_RECORD
  5
32CB
330
1
100
AcDbSymbolTableRecord
100
AcDbBlockTableRecord
  2
*D71
340
0
 70
     0
280
     1
281
     0
  0
BLOCK_RECORD
  5
32D8
330
1
100
AcDbSymbolTableRecord
100
AcDbBlockTableRecord
  2
*D72
340
0
 70
     0
280
     1
281
     0
  0
BLOCK_RECORD
  5
32F3
330
1
100
AcDbSymbolTableRecord
100
AcDbBlockTableRecord
  2
_None
340
0
 70
     0
280
     1
281
     0
  0
BLOCK_RECORD
  5
32F6
330
1
100
AcDbSymbolTableRecord
100
AcDbBlockTableRecord
  2
_DotSmall
340
0
 70
     0
280
     1
281
     0
  0
ENDTAB
  0
ENDSEC
  0
SECTION
  2
BLOCKS
  0
BLOCK
  5
20
330
1F
100
AcDbEntity
  8
0
100
AcDbBlockBegin
  2
*Model_Space
 70
     0
 10
0.0
 20
0.0
 30
0.0
  3
*Model_Space
  1
*Model_Space
  0
ENDBLK
  5
21
330
1F
100
AcDbEntity
  8
0
100
AcDbBlockEnd
  0
BLOCK
  5
1C
330
1B
100
AcDbEntity
 67
     1
  8
0
100
AcDbBlockBegin
  2
*Paper_Space
 70
     0
 10
0.0
 20
0.0
 30
0.0
  3
*Paper_Space
  1
*Paper_Space
  0
ENDBLK
  5
1D
330
1B
100
AcDbEntity
 67
     1
  8
0
100
AcDbBlockEnd
  0
BLOCK
  5
24
330
23
100
AcDbEntity
  8
0
100
AcDbBlockBegin
  2
*Paper_Space0
 70
     0
 10
0.0
 20
0.0
 30
0.0
  3
*Paper_Space0
  1
*Paper_Space0
  0
ENDBLK
  5
25
330
23
100
AcDbEntity
  8
0
100
AcDbBlockEnd
  0
BLOCK
  5
A92
330
A91
100
AcDbEntity
  8
0
100
AcDbBlockBegin
  2
_OPEN
 70
     0
 10
0.0
 20
0.0
 30
0.0
  3
_OPEN
  1
_OPEN
  0
LINE
  5
A93
330
A91
100
AcDbEntity
  8
0
  6
ByBlock
 62
     0
100
AcDbLine
 10
-1.0
 20
0.1666666666666667
 30
0.0
 11
0.0
 21
0.0
 31
0.0
  0
LINE
  5
A94
330
A91
100
AcDbEntity
  8
0
  6
ByBlock
 62
     0
100
AcDbLine
 10
0.0
 20
0.0
 30
0.0
 11
-1.0
 21
-0.1666666666666667
 31
0.0
  0
LINE
  5
A95
330
A91
100
AcDbEntity
  8
0
  6
ByBlock
 62
     0
100
AcDbLine
 10
0.0
 20
0.0
 30
0.0
 11
-1.0
 21
0.0
 31
0.0
  0
ENDBLK
  5
A96
330
A91
100
AcDbEntity
  8
0
100
AcDbBlockEnd
  0
BLOCK
  5
245F
330
245E
100
AcDbEntity
  8
0
100
AcDbBlockBegin
  2
*D2
 70
     1
 10
0.0
 20
0.0
 30
0.0
  3
*D2
  1
*D217
  0
LINE
  5
2461
330
245E
100
AcDbEntity
  8
寸法
  6
Continuous
 62
     0
370
    -2
100
AcDbLine
 10
197.4855435101199
 20
110.9796652516883
 30
0.0
 11
203.0109635101198
 21
110.9796652516883
 31
0.0
  0
LINE
  5
2462
330
245E
100
AcDbEntity
  8
寸法
  6
Continuous
 62
     0
370
    -2
100
AcDbLine
 10
197.4855435101199
 20
102.9796652516883
 30
0.0
 11
203.0109635101198
 21
102.9796652516883
 31
0.0
  0
LINE
  5
2463
330
245E
100
AcDbEntity
  8
寸法
  6
Continuous
 62
     0
370
    -2
100
AcDbLine
 10
201.7609635101198
 20
113.4796652516883
 30
0.0
 11
201.7609635101198
 21
115.9796652516883
 31
0.0
  0
LINE
  5
2464
330
245E
100
AcDbEntity
  8
寸法
  6
Continuous
 62
     0
370
    -2
100
AcDbLine
 10
201.7609635101198
 20
100.4796652516883
 30
0.0
 11
201.7609635101198
 21
97.97966525168826
 31
0.0
  0
SOLID
  5
2465
330
245E
100
AcDbEntity
  8
寸法
 62
     0
100
AcDbTrace
 10
201.3442968434532
 20
113.4796652516883
 30
0.0
 11
202.1776301767865
 21
113.4796652516883
 31
0.0
 12
201.7609635101198
 22
110.9796652516883
 32
0.0
 13
201.7609635101198
 23
110.9796652516883
 33
0.0
  0
SOLID
  5
2466
330
245E
100
AcDbEntity
  8
寸法
 62
     0
100
AcDbTrace
 10
202.1776301767865
 20
100.4796652516883
 30
0.0
 11
201.3442968434532
 21
100.4796652516883
 31
0.0
 12
201.7609635101198
 22
102.9796652516883
 32
0.0
 13
201.7609635101198
 23
102.9796652516883
 33
0.0
  0
MTEXT
  5
2467
330
245E
100
AcDbEntity
  8
寸法
  6
Continuous
 62
     0
100
AcDbMText
 10
201.7609635101198
 20
106.5566131855645
 30
0.0
 40
5.0
 41
0.0
 46
0.0
 71
     5
 72
     1
  1
8
 73
     1
 44
1.0
  0
POINT
  5
2468
330
245E
100
AcDbEntity
  8
Defpoints
 62
     0
100
AcDbPoint
 10
196.8605435101199
 20
110.9796652516883
 30
0.0
  0
POINT
  5
2469
330
245E
100
AcDbEntity
  8
Defpoints
 62
     0
100
AcDbPoint
 10
196.8605435101199
 20
102.9796652516883
 30
0.0
  0
POINT
  5
246A
330
245E
100
AcDbEntity
  8
Defpoints
 62
     0
100
AcDbPoint
 10
201.7609635101198
 20
102.9796652516883
 30
0.0
  0
ENDBLK
  5
2460
330
245E
100
AcDbEntity
  8
0
100
AcDbBlockEnd
  0
BLOCK
  5
246F
330
246E
100
AcDbEntity
  8
0
100
AcDbBlockBegin
  2
*D3
 70
     1
 10
0.0
 20
0.0
 30
0.0
  3
*D3
  1
*D218
  0
LINE
  5
2471
330
246E
100
AcDbEntity
  8
寸法
  6
Continuous
 62
     0
370
    -2
100
AcDbLine
 10
175.8605435101199
 20
102.3546652516883
 30
0.0
 11
175.8605435101199
 21
94.25935262584413
 31
0.0
  0
LINE
  5
2472
330
246E
100
AcDbEntity
  8
寸法
  6
Continuous
 62
     0
370
    -2
100
AcDbLine
 10
196.8605435101199
 20
102.3546652516883
 30
0.0
 11
196.8605435101199
 21
94.25935262584413
 31
0.0
  0
LINE
  5
2473
330
246E
100
AcDbEntity
  8
寸法
  6
Continuous
 62
     0
370
    -2
100
AcDbLine
 10
178.3605435101199
 20
95.50935262584413
 30
0.0
 11
182.5402045767866
 21
95.50935262584413
 31
0.0
  0
LINE
  5
2474
330
246E
100
AcDbEntity
  8
寸法
  6
Continuous
 62
     0
370
    -2
100
AcDbLine
 10
194.3605435101199
 20
95.50935262584413
 30
0.0
 11
190.4568712434532
 21
95.50935262584413
 31
0.0
  0
SOLID
  5
2475
330
246E
100
AcDbEntity
  8
寸法
 62
     0
100
AcDbTrace
 10
178.3605435101199
 20
95.9260192925108
 30
0.0
 11
178.3605435101199
 21
95.09268595917746
 31
0.0
 12
175.8605435101199
 22
95.50935262584413
 32
0.0
 13
175.8605435101199
 23
95.50935262584413
 33
0.0
  0
SOLID
  5
2476
330
246E
100
AcDbEntity
  8
寸法
 62
     0
100
AcDbTrace
 10
194.3605435101199
 20
95.09268595917746
 30
0.0
 11
194.3605435101199
 21
95.9260192925108
 31
0.0
 12
196.8605435101199
 22
95.50935262584413
 32
0.0
 13
196.8605435101199
 23
95.50935262584413
 33
0.0
  0
MTEXT
  5
2477
330
246E
100
AcDbEntity
  8
寸法
  6
Continuous
 62
     0
100
AcDbMText
 10
186.4985379101199
 20
93.51255262584412
 30
0.0
 40
5.0
 41
0.0
 46
0.0
 71
     5
 72
     1
  1
21
 73
     1
 44
1.0
  0
POINT
  5
2478
330
246E
100
AcDbEntity
  8
Defpoints
 62
     0
100
AcDbPoint
 10
175.8605435101199
 20
102.9796652516883
 30
0.0
  0
POINT
  5
2479
330
246E
100
AcDbEntity
  8
Defpoints
 62
     0
100
AcDbPoint
 10
196.8605435101199
 20
102.9796652516883
 30
0.0
  0
POINT
  5
2DD8
330
246E
100
AcDbEntity
  8
Defpoints
 62
     0
100
AcDbPoint
 10
196.8605435101199
 20
95.50935262584413
 30
0.0
  0
ENDBLK
  5
2470
330
246E
100
AcDbEntity
  8
0
100
AcDbBlockEnd
  0
BLOCK
  5
248F
330
248E
100
AcDbEntity
  8
0
100
AcDbBlockBegin
  2
*D4
 70
     1
 10
0.0
 20
0.0
 30
0.0
  3
*D4
  1
*D220
  0
LINE
  5
2491
330
248E
100
AcDbEntity
  8
寸法
  6
Continuous
 62
     0
370
    -2
100
AcDbLine
 10
171.8605435101199
 20
111.6046652516883
 30
0.0
 11
171.8605435101199
 21
121.3122279383325
 31
0.0
  0
LINE
  5
2492
330
248E
100
AcDbEntity
  8
寸法
  6
Continuous
 62
     0
370
    -2
100
AcDbLine
 10
197.0605435101199
 20
111.4046652516882
 30
0.0
 11
197.0605435101199
 21
121.3122279383325
 31
0.0
  0
LINE
  5
2493
330
248E
100
AcDbEntity
  8
寸法
  6
Continuous
 62
     0
370
    -2
100
AcDbLine
 10
174.3605435101199
 20
120.0622279383325
 30
0.0
 11
177.7372420603919
 21
120.0622279383325
 31
0.0
  0
LINE
  5
2494
330
248E
100
AcDbEntity
  8
寸法
  6
Continuous
 62
     0
370
    -2
100
AcDbLine
 10
194.5605435101199
 20
120.0622279383325
 30
0.0
 11
193.9872420603919
 21
120.0622279383325
 31
0.0
  0
SOLID
  5
2495
330
248E
100
AcDbEntity
  8
寸法
 62
     0
100
AcDbTrace
 10
174.3605435101199
 20
120.4788946049992
 30
0.0
 11
174.3605435101199
 21
119.6455612716658
 31
0.0
 12
171.8605435101199
 22
120.0622279383325
 32
0.0
 13
171.8605435101199
 23
120.0622279383325
 33
0.0
  0
SOLID
  5
2496
330
248E
100
AcDbEntity
  8
寸法
 62
     0
100
AcDbTrace
 10
194.5605435101199
 20
119.6455612716658
 30
0.0
 11
194.5605435101199
 21
120.4788946049992
 31
0.0
 12
197.0605435101199
 22
120.0622279383325
 32
0.0
 13
197.0605435101199
 23
120.0622279383325
 33
0.0
  0
MTEXT
  5
2497
330
248E
100
AcDbEntity
  8
寸法
  6
Continuous
 62
     0
100
AcDbMText
 10
185.8622420603919
 20
120.0622279383325
 30
0.0
 40
5.0
 41
0.0
 46
0.0
 71
     5
 72
     1
  1
25.2
 73
     1
 44
1.0
  0
POINT
  5
2498
330
248E
100
AcDbEntity
  8
Defpoints
 62
     0
100
AcDbPoint
 10
171.8605435101199
 20
110.9796652516883
 30
0.0
  0
POINT
  5
2499
330
248E
100
AcDbEntity
  8
Defpoints
 62
     0
100
AcDbPoint
 10
197.0605435101199
 20
110.7796652516882
 30
0.0
  0
POINT
  5
249A
330
248E
100
AcDbEntity
  8
Defpoints
 62
     0
100
AcDbPoint
 10
197.0605435101199
 20
120.0622279383325
 30
0.0
  0
ENDBLK
  5
2490
330
248E
100
AcDbEntity
  8
0
100
AcDbBlockEnd
  0
BLOCK
  5
249F
330
249E
100
AcDbEntity
  8
0
100
AcDbBlockBegin
  2
*D5
 70
     1
 10
0.0
 20
0.0
 30
0.0
  3
*D5
  1
*D221
  0
LINE
  5
24A1
330
249E
100
AcDbEntity
  8
寸法
  6
Continuous
 62
     0
370
    -2
100
AcDbLine
 10
171.8605435101199
 20
111.6046652516883
 30
0.0
 11
171.8605435101199
 21
116.5781607383325
 31
0.0
  0
LINE
  5
24A2
330
249E
100
AcDbEntity
  8
寸法
  6
Continuous
 62
     0
370
    -2
100
AcDbLine
 10
196.8605435101199
 20
111.6046652516883
 30
0.0
 11
196.8605435101199
 21
116.5781607383325
 31
0.0
  0
LINE
  5
24A3
330
249E
100
AcDbEntity
  8
寸法
  6
Continuous
 62
     0
370
    -2
100
AcDbLine
 10
174.3605435101199
 20
115.3281607383325
 30
0.0
 11
180.9382182737252
 21
115.3281607383325
 31
0.0
  0
LINE
  5
24A4
330
249E
100
AcDbEntity
  8
寸法
  6
Continuous
 62
     0
370
    -2
100
AcDbLine
 10
194.3605435101199
 20
115.3281607383325
 30
0.0
 11
190.5215516070585
 21
115.3281607383325
 31
0.0
  0
SOLID
  5
24A5
330
249E
100
AcDbEntity
  8
寸法
 62
     0
100
AcDbTrace
 10
174.3605435101199
 20
115.7448274049991
 30
0.0
 11
174.3605435101199
 21
114.9114940716658
 31
0.0
 12
171.8605435101199
 22
115.3281607383325
 32
0.0
 13
171.8605435101199
 23
115.3281607383325
 33
0.0
  0
SOLID
  5
24A6
330
249E
100
AcDbEntity
  8
寸法
 62
     0
100
AcDbTrace
 10
194.3605435101199
 20
114.9114940716658
 30
0.0
 11
194.3605435101199
 21
115.7448274049991
 31
0.0
 12
196.8605435101199
 22
115.3281607383325
 32
0.0
 13
196.8605435101199
 23
115.3281607383325
 33
0.0
  0
MTEXT
  5
24A7
330
249E
100
AcDbEntity
  8
寸法
  6
Continuous
 62
     0
100
AcDbMText
 10
185.7298849403919
 20
115.3281607383325
 30
0.0
 40
5.0
 41
0.0
 46
0.0
 71
     5
 72
     1
  1
25
 73
     1
 44
1.0
  0
POINT
  5
24A8
330
249E
100
AcDbEntity
  8
Defpoints
 62
     0
100
AcDbPoint
 10
171.8605435101199
 20
110.9796652516883
 30
0.0
  0
POINT
  5
24A9
330
249E
100
AcDbEntity
  8
Defpoints
 62
     0
100
AcDbPoint
 10
196.8605435101199
 20
110.9796652516883
 30
0.0
  0
POINT
  5
24AA
330
249E
100
AcDbEntity
  8
Defpoints
 62
     0
100
AcDbPoint
 10
196.8605435101199
 20
115.3281607383325
 30
0.0
  0
ENDBLK
  5
24A0
330
249E
100
AcDbEntity
  8
0
100
AcDbBlockEnd
  0
BLOCK
  5
24AF
330
24AE
100
AcDbEntity
  8
0
100
AcDbBlockBegin
  2
*D6
 70
     1
 10
0.0
 20
0.0
 30
0.0
  3
*D6
  1
*D222
  0
LINE
  5
24B1
330
24AE
100
AcDbEntity
  8
寸法
  6
Continuous
 62
     0
370
    -2
100
AcDbLine
 10
171.8605435101199
 20
102.3919338187282
 30
0.0
 11
171.8605435101199
 21
94.2966211928841
 31
0.0
  0
LINE
  5
24B2
330
24AE
100
AcDbEntity
  8
寸法
  6
Continuous
 62
     0
370
    -2
100
AcDbLine
 10
173.8605435101199
 20
102.7309435895196
 30
0.0
 11
173.8605435101199
 21
94.2966211928841
 31
0.0
  0
LINE
  5
24B3
330
24AE
100
AcDbEntity
  8
寸法
  6
Continuous
 62
     0
370
    -2
100
AcDbLine
 10
169.3605435101199
 20
95.5466211928841
 30
0.0
 11
166.8605435101199
 21
95.5466211928841
 31
0.0
  0
LINE
  5
24B4
330
24AE
100
AcDbEntity
  8
寸法
  6
Continuous
 62
     0
370
    -2
100
AcDbLine
 10
176.3605435101199
 20
95.5466211928841
 30
0.0
 11
178.8605435101199
 21
95.5466211928841
 31
0.0
  0
SOLID
  5
24B5
330
24AE
100
AcDbEntity
  8
寸法
 62
     0
100
AcDbTrace
 10
169.3605435101199
 20
95.12995452621743
 30
0.0
 11
169.3605435101199
 21
95.96328785955077
 31
0.0
 12
171.8605435101199
 22
95.5466211928841
 32
0.0
 13
171.8605435101199
 23
95.5466211928841
 33
0.0
  0
SOLID
  5
24B6
330
24AE
100
AcDbEntity
  8
寸法
 62
     0
100
AcDbTrace
 10
176.3605435101199
 20
95.96328785955077
 30
0.0
 11
176.3605435101199
 21
95.12995452621743
 31
0.0
 12
173.8605435101199
 22
95.5466211928841
 32
0.0
 13
173.8605435101199
 23
95.5466211928841
 33
0.0
  0
MTEXT
  5
24B7
330
24AE
100
AcDbEntity
  8
寸法
  6
Continuous
 62
     0
100
AcDbMText
 10
172.1989488251919
 20
93.31942119288409
 30
0.0
 40
5.0
 41
0.0
 46
0.0
 71
     5
 72
     1
  1
2
 73
     1
 44
1.0
  0
POINT
  5
24B8
330
24AE
100
AcDbEntity
  8
Defpoints
 62
     0
100
AcDbPoint
 10
171.8605435101199
 20
103.0169338187282
 30
0.0
  0
POINT
  5
24B9
330
24AE
100
AcDbEntity
  8
Defpoints
 62
     0
100
AcDbPoint
 10
173.8605435101199
 20
103.3559435895196
 30
0.0
  0
POINT
  5
24BA
330
24AE
100
AcDbEntity
  8
Defpoints
 62
     0
100
AcDbPoint
 10
173.8605435101199
 20
95.5466211928841
 30
0.0
  0
ENDBLK
  5
24B0
330
24AE
100
AcDbEntity
  8
0
100
AcDbBlockEnd
  0
BLOCK
  5
24BF
330
24BE
100
AcDbEntity
  8
0
100
AcDbBlockBegin
  2
*D7
 70
     1
 10
0.0
 20
0.0
 30
0.0
  3
*D7
  1
*D223
  0
LINE
  5
24C1
330
24BE
100
AcDbEntity
  8
寸法
  6
Continuous
 62
     0
370
    -2
100
AcDbLine
 10
173.8605435101199
 20
102.7309435895196
 30
0.0
 11
173.8605435101199
 21
94.25935262584413
 31
0.0
  0
LINE
  5
24C2
330
24BE
100
AcDbEntity
  8
寸法
  6
Continuous
 62
     0
370
    -2
100
AcDbLine
 10
175.8605435101199
 20
102.3546652516883
 30
0.0
 11
175.8605435101199
 21
94.25935262584413
 31
0.0
  0
LINE
  5
24C3
330
24BE
100
AcDbEntity
  8
寸法
  6
Continuous
 62
     0
370
    -2
100
AcDbLine
 10
171.3605435101199
 20
95.50935262584413
 30
0.0
 11
168.8605435101199
 21
95.50935262584413
 31
0.0
  0
LINE
  5
24C4
330
24BE
100
AcDbEntity
  8
寸法
  6
Continuous
 62
     0
370
    -2
100
AcDbLine
 10
178.3605435101199
 20
95.50935262584413
 30
0.0
 11
180.8605435101199
 21
95.50935262584413
 31
0.0
  0
SOLID
  5
24C5
330
24BE
100
AcDbEntity
  8
寸法
 62
     0
100
AcDbTrace
 10
171.3605435101199
 20
95.09268595917746
 30
0.0
 11
171.3605435101199
 21
95.9260192925108
 31
0.0
 12
173.8605435101199
 22
95.50935262584413
 32
0.0
 13
173.8605435101199
 23
95.50935262584413
 33
0.0
  0
SOLID
  5
24C6
330
24BE
100
AcDbEntity
  8
寸法
 62
     0
100
AcDbTrace
 10
178.3605435101199
 20
95.9260192925108
 30
0.0
 11
178.3605435101199
 21
95.09268595917746
 31
0.0
 12
175.8605435101199
 22
95.50935262584413
 32
0.0
 13
175.8605435101199
 23
95.50935262584413
 33
0.0
  0
MTEXT
  5
24C7
330
24BE
100
AcDbEntity
  8
寸法
  6
Continuous
 62
     0
100
AcDbMText
 10
174.9162075162639
 20
93.2053526258441
 30
0.0
 40
5.0
 41
0.0
 46
0.0
 71
     5
 72
     1
  1
2
 73
     1
 44
1.0
  0
POINT
  5
24C8
330
24BE
100
AcDbEntity
  8
Defpoints
 62
     0
100
AcDbPoint
 10
173.8605435101199
 20
103.3559435895196
 30
0.0
  0
POINT
  5
24C9
330
24BE
100
AcDbEntity
  8
Defpoints
 62
     0
100
AcDbPoint
 10
175.8605435101199
 20
102.9796652516883
 30
0.0
  0
POINT
  5
24CA
330
24BE
100
AcDbEntity
  8
Defpoints
 62
     0
100
AcDbPoint
 10
175.8605435101199
 20
95.50935262584413
 30
0.0
  0
ENDBLK
  5
24C0
330
24BE
100
AcDbEntity
  8
0
100
AcDbBlockEnd
  0
BLOCK
  5
24E0
330
24DF
100
AcDbEntity
  8
0
100
AcDbBlockBegin
  2
*D8
 70
     1
 10
0.0
 20
0.0
 30
0.0
  3
*D8
  1
*D225
  0
LINE
  5
24E2
330
24DF
100
AcDbEntity
  8
寸法
  6
Continuous
 62
     0
370
    -2
100
AcDbLine
 10
170.9231847778319
 20
110.9796652516883
 30
0.0
 11
166.6503464571919
 21
110.9796652516883
 31
0.0
  0
LINE
  5
24E3
330
24DF
100
AcDbEntity
  8
寸法
  6
Continuous
 62
     0
370
    -2
100
AcDbLine
 10
171.2355435101199
 20
104.9796652516883
 30
0.0
 11
166.6503464571919
 21
104.9796652516883
 31
0.0
  0
LINE
  5
24E4
330
24DF
100
AcDbEntity
  8
寸法
  6
Continuous
 62
     0
370
    -2
100
AcDbLine
 10
167.9003464571919
 20
113.4796652516883
 30
0.0
 11
167.9003464571919
 21
115.9796652516883
 31
0.0
  0
LINE
  5
24E5
330
24DF
100
AcDbEntity
  8
寸法
  6
Continuous
 62
     0
370
    -2
100
AcDbLine
 10
167.9003464571919
 20
102.4796652516883
 30
0.0
 11
167.9003464571919
 21
99.97966525168826
 31
0.0
  0
SOLID
  5
24E6
330
24DF
100
AcDbEntity
  8
寸法
 62
     0
100
AcDbTrace
 10
167.4836797905252
 20
113.4796652516883
 30
0.0
 11
168.3170131238585
 21
113.4796652516883
 31
0.0
 12
167.9003464571919
 22
110.9796652516883
 32
0.0
 13
167.9003464571919
 23
110.9796652516883
 33
0.0
  0
SOLID
  5
24E7
330
24DF
100
AcDbEntity
  8
寸法
 62
     0
100
AcDbTrace
 10
168.3170131238585
 20
102.4796652516883
 30
0.0
 11
167.4836797905252
 21
102.4796652516883
 31
0.0
 12
167.9003464571919
 22
104.9796652516883
 32
0.0
 13
167.9003464571919
 23
104.9796652516883
 33
0.0
  0
MTEXT
  5
24E8
330
24DF
100
AcDbEntity
  8
寸法
  6
Continuous
 62
     0
100
AcDbMText
 10
165.3444424571919
 20
107.9178338775325
 30
0.0
 40
5.0
 41
0.0
 46
0.0
 71
     5
 72
     1
  1
6
 73
     1
 44
1.0
  0
POINT
  5
24E9
330
24DF
100
AcDbEntity
  8
Defpoints
 62
     0
100
AcDbPoint
 10
171.5481847778319
 20
110.9796652516883
 30
0.0
  0
POINT
  5
24EA
330
24DF
100
AcDbEntity
  8
Defpoints
 62
     0
100
AcDbPoint
 10
171.8605435101199
 20
104.9796652516883
 30
0.0
  0
POINT
  5
2DD9
330
24DF
100
AcDbEntity
  8
Defpoints
 62
     0
100
AcDbPoint
 10
167.9003464571919
 20
104.9796652516883
 30
0.0
  0
ENDBLK
  5
24E1
330
24DF
100
AcDbEntity
  8
0
100
AcDbBlockEnd
  0
BLOCK
  5
24F0
330
24EF
100
AcDbEntity
  8
0
100
AcDbBlockBegin
  2
*D9
 70
     1
 10
0.0
 20
0.0
 30
0.0
  3
*D9
  1
*D226
  0
LINE
  5
24F2
330
24EF
100
AcDbEntity
  8
寸法
  6
Continuous
 62
     0
370
    -2
100
AcDbLine
 10
171.2355435101199
 20
104.9796652516883
 30
0.0
 11
166.6503464571919
 21
104.9796652516883
 31
0.0
  0
LINE
  5
24F3
330
24EF
100
AcDbEntity
  8
寸法
  6
Continuous
 62
     0
370
    -2
100
AcDbLine
 10
171.2355435101199
 20
102.9796652516883
 30
0.0
 11
166.6503464571919
 21
102.9796652516883
 31
0.0
  0
LINE
  5
24F4
330
24EF
100
AcDbEntity
  8
寸法
  6
Continuous
 62
     0
370
    -2
100
AcDbLine
 10
167.9003464571919
 20
107.4796652516883
 30
0.0
 11
167.9003464571919
 21
109.9796652516883
 31
0.0
  0
LINE
  5
24F5
330
24EF
100
AcDbEntity
  8
寸法
  6
Continuous
 62
     0
370
    -2
100
AcDbLine
 10
167.9003464571919
 20
100.4796652516883
 30
0.0
 11
167.9003464571919
 21
97.97966525168826
 31
0.0
  0
SOLID
  5
24F6
330
24EF
100
AcDbEntity
  8
寸法
 62
     0
100
AcDbTrace
 10
167.4836797905252
 20
107.4796652516883
 30
0.0
 11
168.3170131238585
 21
107.4796652516883
 31
0.0
 12
167.9003464571919
 22
104.9796652516883
 32
0.0
 13
167.9003464571919
 23
104.9796652516883
 33
0.0
  0
SOLID
  5
24F7
330
24EF
100
AcDbEntity
  8
寸法
 62
     0
100
AcDbTrace
 10
168.3170131238585
 20
100.4796652516883
 30
0.0
 11
167.4836797905252
 21
100.4796652516883
 31
0.0
 12
167.9003464571919
 22
102.9796652516883
 32
0.0
 13
167.9003464571919
 23
102.9796652516883
 33
0.0
  0
MTEXT
  5
24F8
330
24EF
100
AcDbEntity
  8
寸法
  6
Continuous
 62
     0
100
AcDbMText
 10
165.2657992571918
 20
103.7497442775325
 30
0.0
 40
5.0
 41
0.0
 46
0.0
 71
     5
 72
     1
  1
2
 73
     1
 44
1.0
  0
POINT
  5
24F9
330
24EF
100
AcDbEntity
  8
Defpoints
 62
     0
100
AcDbPoint
 10
171.8605435101199
 20
104.9796652516883
 30
0.0
  0
POINT
  5
24FA
330
24EF
100
AcDbEntity
  8
Defpoints
 62
     0
100
AcDbPoint
 10
171.8605435101199
 20
102.9796652516883
 30
0.0
  0
POINT
  5
24FB
330
24EF
100
AcDbEntity
  8
Defpoints
 62
     0
100
AcDbPoint
 10
167.9003464571919
 20
102.9796652516883
 30
0.0
  0
ENDBLK
  5
24F1
330
24EF
100
AcDbEntity
  8
0
100
AcDbBlockEnd
  0
BLOCK
  5
2552
330
2551
100
AcDbEntity
  8
0
100
AcDbBlockBegin
  2
*D10
 70
     1
 10
0.0
 20
0.0
 30
0.0
  3
*D10
  1
*D227
  0
LINE
  5
2554
330
2551
100
AcDbEntity
  8
寸法
  6
Continuous
 62
     0
370
    -2
100
AcDbLine
 10
70.37065742666397
 20
174.2518997745515
 30
0.0
 11
70.37065742666397
 21
185.7493729027747
 31
0.0
  0
LINE
  5
2555
330
2551
100
AcDbEntity
  8
寸法
  6
Continuous
 62
     0
370
    -2
100
AcDbLine
 10
120.770657426664
 20
174.3986594672401
 30
0.0
 11
120.770657426664
 21
185.7493729027747
 31
0.0
  0
LINE
  5
2556
330
2551
100
AcDbEntity
  8
寸法
  6
Continuous
 62
     0
370
    -2
100
AcDbLine
 10
72.87065742666397
 20
184.4993729027747
 30
0.0
 11
118.270657426664
 21
184.4993729027747
 31
0.0
  0
SOLID
  5
2557
330
2551
100
AcDbEntity
  8
寸法
 62
     0
100
AcDbTrace
 10
72.87065742666397
 20
184.9160395694414
 30
0.0
 11
72.87065742666397
 21
184.0827062361081
 31
0.0
 12
70.37065742666397
 22
184.4993729027747
 32
0.0
 13
70.37065742666397
 23
184.4993729027747
 33
0.0
  0
SOLID
  5
2558
330
2551
100
AcDbEntity
  8
寸法
 62
     0
100
AcDbTrace
 10
118.270657426664
 20
184.0827062361081
 30
0.0
 11
118.270657426664
 21
184.9160395694414
 31
0.0
 12
120.770657426664
 22
184.4993729027747
 32
0.0
 13
120.770657426664
 23
184.4993729027747
 33
0.0
  0
MTEXT
  5
2559
330
2551
100
AcDbEntity
  8
寸法
  6
Continuous
 62
     0
100
AcDbMText
 10
96.67664033322924
 20
188.3757309904323
 30
0.0
 40
5.0
 41
0.0
 46
0.0
 71
     5
 72
     1
  1
25.2
 73
     1
 44
1.0
  0
POINT
  5
255A
330
2551
100
AcDbEntity
  8
Defpoints
 62
     0
100
AcDbPoint
 10
70.37065742666397
 20
173.6268997745515
 30
0.0
  0
POINT
  5
255B
330
2551
100
AcDbEntity
  8
Defpoints
 62
     0
100
AcDbPoint
 10
120.770657426664
 20
173.7736594672401
 30
0.0
  0
POINT
  5
255C
330
2551
100
AcDbEntity
  8
Defpoints
 62
     0
100
AcDbPoint
 10
120.770657426664
 20
184.4993729027747
 30
0.0
  0
ENDBLK
  5
2553
330
2551
100
AcDbEntity
  8
0
100
AcDbBlockEnd
  0
BLOCK
  5
2562
330
2561
100
AcDbEntity
  8
0
100
AcDbBlockBegin
  2
*D11
 70
     1
 10
0.0
 20
0.0
 30
0.0
  3
*D11
  1
*D228
  0
LINE
  5
2564
330
2561
100
AcDbEntity
  8
寸法
  6
Continuous
 62
     0
370
    -2
100
AcDbLine
 10
70.74565742666397
 20
173.54865946724
 30
0.0
 11
60.93370106531322
 21
173.54865946724
 31
0.0
  0
LINE
  5
2565
330
2561
100
AcDbEntity
  8
寸法
  6
Continuous
 62
     0
370
    -2
100
AcDbLine
 10
69.74565742666397
 20
171.1486594672401
 30
0.0
 11
60.93370106531322
 21
171.1486594672401
 31
0.0
  0
LINE
  5
2566
330
2561
100
AcDbEntity
  8
寸法
  6
Continuous
 62
     0
370
    -2
100
AcDbLine
 10
62.18370106531322
 20
176.04865946724
 30
0.0
 11
62.18370106531322
 21
178.54865946724
 31
0.0
  0
LINE
  5
2567
330
2561
100
AcDbEntity
  8
寸法
  6
Continuous
 62
     0
370
    -2
100
AcDbLine
 10
62.18370106531322
 20
168.6486594672401
 30
0.0
 11
62.18370106531322
 21
166.1486594672401
 31
0.0
  0
SOLID
  5
2568
330
2561
100
AcDbEntity
  8
寸法
 62
     0
100
AcDbTrace
 10
61.76703439864655
 20
176.04865946724
 30
0.0
 11
62.60036773197988
 21
176.04865946724
 31
0.0
 12
62.18370106531322
 22
173.54865946724
 32
0.0
 13
62.18370106531322
 23
173.54865946724
 33
0.0
  0
SOLID
  5
2569
330
2561
100
AcDbEntity
  8
寸法
 62
     0
100
AcDbTrace
 10
62.60036773197988
 20
168.6486594672401
 30
0.0
 11
61.76703439864655
 21
168.6486594672401
 31
0.0
 12
62.18370106531322
 22
171.1486594672401
 32
0.0
 13
62.18370106531322
 23
171.1486594672401
 33
0.0
  0
MTEXT
  5
256A
330
2561
100
AcDbEntity
  8
寸法
  6
Continuous
 62
     0
100
AcDbMText
 10
55.59340951193104
 20
170.8699893597673
 30
0.0
 40
5.0
 41
0.0
 46
0.0
 71
     5
 72
     1
  1
1.2
 73
     1
 44
1.0
  0
POINT
  5
256B
330
2561
100
AcDbEntity
  8
Defpoints
 62
     0
100
AcDbPoint
 10
71.37065742666397
 20
173.54865946724
 30
0.0
  0
POINT
  5
256C
330
2561
100
AcDbEntity
  8
Defpoints
 62
     0
100
AcDbPoint
 10
70.37065742666397
 20
171.1486594672401
 30
0.0
  0
POINT
  5
256D
330
2561
100
AcDbEntity
  8
Defpoints
 62
     0
100
AcDbPoint
 10
62.18370106531322
 20
171.1486594672401
 30
0.0
  0
ENDBLK
  5
2563
330
2561
100
AcDbEntity
  8
0
100
AcDbBlockEnd
  0
BLOCK
  5
2572
330
2571
100
AcDbEntity
  8
0
100
AcDbBlockBegin
  2
*D12
 70
     1
 10
0.0
 20
0.0
 30
0.0
  3
*D12
  1
*D229
  0
LINE
  5
2574
330
2571
100
AcDbEntity
  8
寸法
  6
Continuous
 62
     0
370
    -2
100
AcDbLine
 10
70.74565742666397
 20
173.54865946724
 30
0.0
 11
33.11520000000002
 21
173.54865946724
 31
0.0
  0
LINE
  5
2575
330
2571
100
AcDbEntity
  8
寸法
  6
Continuous
 62
     0
370
    -2
100
AcDbLine
 10
70.74565742666397
 20
161.54865946724
 30
0.0
 11
33.11520000000002
 21
161.54865946724
 31
0.0
  0
LINE
  5
2576
330
2571
100
AcDbEntity
  8
寸法
  6
Continuous
 62
     0
370
    -2
100
AcDbLine
 10
34.36520000000002
 20
171.04865946724
 30
0.0
 11
34.36520000000002
 21
164.04865946724
 31
0.0
  0
SOLID
  5
2577
330
2571
100
AcDbEntity
  8
寸法
 62
     0
100
AcDbTrace
 10
34.78186666666668
 20
171.04865946724
 30
0.0
 11
33.94853333333335
 21
171.04865946724
 31
0.0
 12
34.36520000000002
 22
173.54865946724
 32
0.0
 13
34.36520000000002
 23
173.54865946724
 33
0.0
  0
SOLID
  5
2578
330
2571
100
AcDbEntity
  8
寸法
 62
     0
100
AcDbTrace
 10
33.94853333333335
 20
164.04865946724
 30
0.0
 11
34.78186666666668
 21
164.04865946724
 31
0.0
 12
34.36520000000002
 22
161.54865946724
 32
0.0
 13
34.36520000000002
 23
161.54865946724
 33
0.0
  0
MTEXT
  5
2579
330
2571
100
AcDbEntity
  8
寸法
  6
Continuous
 62
     0
100
AcDbMText
 10
29.45000000000002
 20
167.3971641539409
 30
0.0
 40
5.0
 41
0.0
 46
0.0
 71
     5
 72
     1
  1
6
 73
     1
 44
1.0
  0
POINT
  5
257A
330
2571
100
AcDbEntity
  8
Defpoints
 62
     0
100
AcDbPoint
 10
71.37065742666397
 20
173.54865946724
 30
0.0
  0
POINT
  5
257B
330
2571
100
AcDbEntity
  8
Defpoints
 62
     0
100
AcDbPoint
 10
71.37065742666397
 20
161.54865946724
 30
0.0
  0
POINT
  5
257C
330
2571
100
AcDbEntity
  8
Defpoints
 62
     0
100
AcDbPoint
 10
34.36520000000002
 20
161.54865946724
 30
0.0
  0
ENDBLK
  5
2573
330
2571
100
AcDbEntity
  8
0
100
AcDbBlockEnd
  0
BLOCK
  5
2582
330
2581
100
AcDbEntity
  8
0
100
AcDbBlockBegin
  2
*D13
 70
     1
 10
0.0
 20
0.0
 30
0.0
  3
*D13
  1
*D230
  0
LINE
  5
2584
330
2581
100
AcDbEntity
  8
寸法
  6
Continuous
 62
     0
370
    -2
100
AcDbLine
 10
70.74565742666397
 20
161.54865946724
 30
0.0
 11
33.11520000000002
 21
161.54865946724
 31
0.0
  0
LINE
  5
2585
330
2581
100
AcDbEntity
  8
寸法
  6
Continuous
 62
     0
370
    -2
100
AcDbLine
 10
73.74565742666397
 20
157.54865946724
 30
0.0
 11
33.11520000000002
 21
157.54865946724
 31
0.0
  0
LINE
  5
2586
330
2581
100
AcDbEntity
  8
寸法
  6
Continuous
 62
     0
370
    -2
100
AcDbLine
 10
34.36520000000002
 20
164.04865946724
 30
0.0
 11
34.36520000000002
 21
166.54865946724
 31
0.0
  0
LINE
  5
2587
330
2581
100
AcDbEntity
  8
寸法
  6
Continuous
 62
     0
370
    -2
100
AcDbLine
 10
34.36520000000002
 20
155.04865946724
 30
0.0
 11
34.36520000000002
 21
152.54865946724
 31
0.0
  0
SOLID
  5
2588
330
2581
100
AcDbEntity
  8
寸法
 62
     0
100
AcDbTrace
 10
33.94853333333335
 20
164.04865946724
 30
0.0
 11
34.78186666666668
 21
164.04865946724
 31
0.0
 12
34.36520000000002
 22
161.54865946724
 32
0.0
 13
34.36520000000002
 23
161.54865946724
 33
0.0
  0
SOLID
  5
2589
330
2581
100
AcDbEntity
  8
寸法
 62
     0
100
AcDbTrace
 10
34.78186666666668
 20
155.04865946724
 30
0.0
 11
33.94853333333335
 21
155.04865946724
 31
0.0
 12
34.36520000000002
 22
157.54865946724
 32
0.0
 13
34.36520000000002
 23
157.54865946724
 33
0.0
  0
MTEXT
  5
258A
330
2581
100
AcDbEntity
  8
寸法
  6
Continuous
 62
     0
100
AcDbMText
 10
29.75720000000001
 20
159.60708373731
 30
0.0
 40
5.0
 41
0.0
 46
0.0
 71
     5
 72
     1
  1
2
 73
     1
 44
1.0
  0
POINT
  5
258B
330
2581
100
AcDbEntity
  8
Defpoints
 62
     0
100
AcDbPoint
 10
71.37065742666397
 20
161.54865946724
 30
0.0
  0
POINT
  5
258C
330
2581
100
AcDbEntity
  8
Defpoints
 62
     0
100
AcDbPoint
 10
74.37065742666397
 20
157.54865946724
 30
0.0
  0
POINT
  5
258D
330
2581
100
AcDbEntity
  8
Defpoints
 62
     0
100
AcDbPoint
 10
34.36520000000002
 20
157.54865946724
 30
0.0
  0
ENDBLK
  5
2583
330
2581
100
AcDbEntity
  8
0
100
AcDbBlockEnd
  0
BLOCK
  5
25A2
330
25A1
100
AcDbEntity
  8
0
100
AcDbBlockBegin
  2
*D14
 70
     1
 10
0.0
 20
0.0
 30
0.0
  3
*D14
  1
*D232
  0
LINE
  5
25A4
330
25A1
100
AcDbEntity
  8
寸法
  6
Continuous
 62
     0
370
    -2
100
AcDbLine
 10
78.37065742666397
 20
102.3546652516883
 30
0.0
 11
78.37065742666397
 21
91.88525368714005
 31
0.0
  0
LINE
  5
25A5
330
25A1
100
AcDbEntity
  8
寸法
  6
Continuous
 62
     0
370
    -2
100
AcDbLine
 10
120.370657426664
 20
102.3546652516883
 30
0.0
 11
120.370657426664
 21
91.88525368714005
 31
0.0
  0
LINE
  5
25A6
330
25A1
100
AcDbEntity
  8
寸法
  6
Continuous
 62
     0
370
    -2
100
AcDbLine
 10
80.87065742666397
 20
93.13525368714005
 30
0.0
 11
96.50970114113183
 21
93.13525368714005
 31
0.0
  0
LINE
  5
25A7
330
25A1
100
AcDbEntity
  8
寸法
  6
Continuous
 62
     0
370
    -2
100
AcDbLine
 10
117.870657426664
 20
93.13525368714005
 30
0.0
 11
104.4263678077985
 21
93.13525368714005
 31
0.0
  0
SOLID
  5
25A8
330
25A1
100
AcDbEntity
  8
寸法
 62
     0
100
AcDbTrace
 10
80.87065742666397
 20
93.55192035380672
 30
0.0
 11
80.87065742666397
 21
92.71858702047338
 31
0.0
 12
78.37065742666397
 22
93.13525368714005
 32
0.0
 13
78.37065742666397
 23
93.13525368714005
 33
0.0
  0
SOLID
  5
25A9
330
25A1
100
AcDbEntity
  8
寸法
 62
     0
100
AcDbTrace
 10
117.870657426664
 20
92.71858702047338
 30
0.0
 11
117.870657426664
 21
93.55192035380672
 31
0.0
 12
120.370657426664
 22
93.13525368714005
 32
0.0
 13
120.370657426664
 23
93.13525368714005
 33
0.0
  0
MTEXT
  5
25AA
330
25A1
100
AcDbEntity
  8
寸法
  6
Continuous
 62
     0
100
AcDbMText
 10
100.4680344744652
 20
93.13525368714005
 30
0.0
 40
5.0
 41
0.0
 46
0.0
 71
     5
 72
     1
  1
21
 73
     1
 44
1.0
  0
POINT
  5
25AB
330
25A1
100
AcDbEntity
  8
Defpoints
 62
     0
100
AcDbPoint
 10
78.37065742666397
 20
102.9796652516883
 30
0.0
  0
POINT
  5
25AC
330
25A1
100
AcDbEntity
  8
Defpoints
 62
     0
100
AcDbPoint
 10
120.370657426664
 20
102.9796652516883
 30
0.0
  0
POINT
  5
25AD
330
25A1
100
AcDbEntity
  8
Defpoints
 62
     0
100
AcDbPoint
 10
120.370657426664
 20
93.13525368714005
 30
0.0
  0
ENDBLK
  5
25A3
330
25A1
100
AcDbEntity
  8
0
100
AcDbBlockEnd
  0
BLOCK
  5
25B2
330
25B1
100
AcDbEntity
  8
0
100
AcDbBlockBegin
  2
*D15
 70
     1
 10
0.0
 20
0.0
 30
0.0
  3
*D15
  1
*D233
  0
LINE
  5
25B4
330
25B1
100
AcDbEntity
  8
寸法
  6
Continuous
 62
     0
370
    -2
100
AcDbLine
 10
120.995657426664
 20
112.5796652516884
 30
0.0
 11
132.5549342787776
 21
112.5796652516884
 31
0.0
  0
LINE
  5
25B5
330
25B1
100
AcDbEntity
  8
寸法
  6
Continuous
 62
     0
370
    -2
100
AcDbLine
 10
120.995657426664
 20
102.9796652516883
 30
0.0
 11
132.5549342787776
 21
102.9796652516883
 31
0.0
  0
LINE
  5
25B6
330
25B1
100
AcDbEntity
  8
寸法
  6
Continuous
 62
     0
370
    -2
100
AcDbLine
 10
131.3049342787776
 20
110.0796652516884
 30
0.0
 11
131.3049342787776
 21
105.4796652516883
 31
0.0
  0
SOLID
  5
25B7
330
25B1
100
AcDbEntity
  8
寸法
 62
     0
100
AcDbTrace
 10
131.7216009454442
 20
110.0796652516884
 30
0.0
 11
130.8882676121109
 21
110.0796652516884
 31
0.0
 12
131.3049342787776
 22
112.5796652516884
 32
0.0
 13
131.3049342787776
 23
112.5796652516884
 33
0.0
  0
SOLID
  5
25B8
330
25B1
100
AcDbEntity
  8
寸法
 62
     0
100
AcDbTrace
 10
130.8882676121109
 20
105.4796652516883
 30
0.0
 11
131.7216009454442
 21
105.4796652516883
 31
0.0
 12
131.3049342787776
 22
102.9796652516883
 32
0.0
 13
131.3049342787776
 23
102.9796652516883
 33
0.0
  0
MTEXT
  5
25B9
330
25B1
100
AcDbEntity
  8
寸法
  6
Continuous
 62
     0
100
AcDbMText
 10
137.3783402201298
 20
107.2141759955676
 30
0.0
 40
5.0
 41
0.0
 46
0.0
 71
     5
 72
     1
  1
4.8
 73
     1
 44
1.0
  0
POINT
  5
25BA
330
25B1
100
AcDbEntity
  8
Defpoints
 62
     0
100
AcDbPoint
 10
120.370657426664
 20
112.5796652516884
 30
0.0
  0
POINT
  5
25BB
330
25B1
100
AcDbEntity
  8
Defpoints
 62
     0
100
AcDbPoint
 10
120.370657426664
 20
102.9796652516883
 30
0.0
  0
POINT
  5
25BC
330
25B1
100
AcDbEntity
  8
Defpoints
 62
     0
100
AcDbPoint
 10
131.3049342787776
 20
102.9796652516883
 30
0.0
  0
ENDBLK
  5
25B3
330
25B1
100
AcDbEntity
  8
0
100
AcDbBlockEnd
  0
BLOCK
  5
25C1
330
25C0
100
AcDbEntity
  8
0
100
AcDbBlockBegin
  2
*D16
 70
     1
 10
0.0
 20
0.0
 30
0.0
  3
*D16
  1
*D234
  0
LINE
  5
25C3
330
25C0
100
AcDbEntity
  8
寸法
  6
Continuous
 62
     0
370
    -2
100
AcDbLine
 10
77.67382174009546
 20
112.5796652516884
 30
0.0
 11
63.49750242810262
 21
112.5796652516884
 31
0.0
  0
LINE
  5
25C4
330
25C0
100
AcDbEntity
  8
寸法
  6
Continuous
 62
     0
370
    -2
100
AcDbLine
 10
77.74565742666397
 20
102.9796652516883
 30
0.0
 11
63.49750242810262
 21
102.9796652516883
 31
0.0
  0
LINE
  5
25C5
330
25C0
100
AcDbEntity
  8
寸法
  6
Continuous
 62
     0
370
    -2
100
AcDbLine
 10
64.74750242810262
 20
110.0796652516884
 30
0.0
 11
64.74750242810262
 21
105.4796652516883
 31
0.0
  0
SOLID
  5
25C6
330
25C0
100
AcDbEntity
  8
寸法
 62
     0
100
AcDbTrace
 10
65.16416909476929
 20
110.0796652516884
 30
0.0
 11
64.33083576143595
 21
110.0796652516884
 31
0.0
 12
64.74750242810262
 22
112.5796652516884
 32
0.0
 13
64.74750242810262
 23
112.5796652516884
 33
0.0
  0
SOLID
  5
25C7
330
25C0
100
AcDbEntity
  8
寸法
 62
     0
100
AcDbTrace
 10
64.33083576143595
 20
105.4796652516883
 30
0.0
 11
65.16416909476929
 21
105.4796652516883
 31
0.0
 12
64.74750242810262
 22
102.9796652516883
 32
0.0
 13
64.74750242810262
 23
102.9796652516883
 33
0.0
  0
MTEXT
  5
25C8
330
25C0
100
AcDbEntity
  8
寸法
  6
Continuous
 62
     0
100
AcDbMText
 10
56.36830207683545
 20
107.42963438713
 30
0.0
 40
5.0
 41
0.0
 46
0.0
 71
     5
 72
     1
  1
4.8
 73
     1
 44
1.0
  0
POINT
  5
25C9
330
25C0
100
AcDbEntity
  8
Defpoints
 62
     0
100
AcDbPoint
 10
78.29882174009546
 20
112.5796652516884
 30
0.0
  0
POINT
  5
25CA
330
25C0
100
AcDbEntity
  8
Defpoints
 62
     0
100
AcDbPoint
 10
78.37065742666397
 20
102.9796652516883
 30
0.0
  0
POINT
  5
25CB
330
25C0
100
AcDbEntity
  8
Defpoints
 62
     0
100
AcDbPoint
 10
64.74750242810262
 20
102.9796652516883
 30
0.0
  0
ENDBLK
  5
25C2
330
25C0
100
AcDbEntity
  8
0
100
AcDbBlockEnd
  0
BLOCK
  5
25D0
330
25CF
100
AcDbEntity
  8
0
100
AcDbBlockBegin
  2
*D17
 70
     1
 10
0.0
 20
0.0
 30
0.0
  3
*D17
  1
*D235
  0
LINE
  5
25D2
330
25CF
100
AcDbEntity
  8
寸法
  6
Continuous
 62
     0
370
    -2
100
AcDbLine
 10
78.37065742666397
 20
112.2046652516884
 30
0.0
 11
78.37065742666397
 21
125.6945902410338
 31
0.0
  0
LINE
  5
25D3
330
25CF
100
AcDbEntity
  8
寸法
  6
Continuous
 62
     0
370
    -2
100
AcDbLine
 10
83.77065742666397
 20
110.2594180183127
 30
0.0
 11
83.77065742666397
 21
125.6945902410338
 31
0.0
  0
LINE
  5
25D4
330
25CF
100
AcDbEntity
  8
寸法
  6
Continuous
 62
     0
370
    -2
100
AcDbLine
 10
75.87065742666397
 20
124.4445902410338
 30
0.0
 11
73.37065742666397
 21
124.4445902410338
 31
0.0
  0
LINE
  5
25D5
330
25CF
100
AcDbEntity
  8
寸法
  6
Continuous
 62
     0
370
    -2
100
AcDbLine
 10
86.27065742666397
 20
124.4445902410338
 30
0.0
 11
88.77065742666397
 21
124.4445902410338
 31
0.0
  0
SOLID
  5
25D6
330
25CF
100
AcDbEntity
  8
寸法
 62
     0
100
AcDbTrace
 10
75.87065742666397
 20
124.0279235743672
 30
0.0
 11
75.87065742666397
 21
124.8612569077005
 31
0.0
 12
78.37065742666397
 22
124.4445902410338
 32
0.0
 13
78.37065742666397
 23
124.4445902410338
 33
0.0
  0
SOLID
  5
25D7
330
25CF
100
AcDbEntity
  8
寸法
 62
     0
100
AcDbTrace
 10
86.27065742666397
 20
124.8612569077005
 30
0.0
 11
86.27065742666397
 21
124.0279235743672
 31
0.0
 12
83.77065742666397
 22
124.4445902410338
 32
0.0
 13
83.77065742666397
 23
124.4445902410338
 33
0.0
  0
MTEXT
  5
25D8
330
25CF
100
AcDbEntity
  8
寸法
  6
Continuous
 62
     0
100
AcDbMText
 10
81.29931041257873
 20
128.9875301905161
 30
0.0
 40
5.0
 41
0.0
 46
0.0
 71
     5
 72
     1
  1
2.7
 73
     1
 44
1.0
  0
POINT
  5
25D9
330
25CF
100
AcDbEntity
  8
Defpoints
 62
     0
100
AcDbPoint
 10
78.37065742666397
 20
111.5796652516884
 30
0.0
  0
POINT
  5
25DA
330
25CF
100
AcDbEntity
  8
Defpoints
 62
     0
100
AcDbPoint
 10
83.77065742666397
 20
109.6344180183127
 30
0.0
  0
POINT
  5
25DB
330
25CF
100
AcDbEntity
  8
Defpoints
 62
     0
100
AcDbPoint
 10
83.77065742666397
 20
124.4445902410338
 30
0.0
  0
ENDBLK
  5
25D1
330
25CF
100
AcDbEntity
  8
0
100
AcDbBlockEnd
  0
BLOCK
  5
25E0
330
25DF
100
AcDbEntity
  8
0
100
AcDbBlockBegin
  2
*D18
 70
     1
 10
0.0
 20
0.0
 30
0.0
  3
*D18
  1
*D236
  0
LINE
  5
25E2
330
25DF
100
AcDbEntity
  8
寸法
  6
Continuous
 62
     0
370
    -2
100
AcDbLine
 10
82.36377321097748
 20
112.5796652516884
 30
0.0
 11
88.10956200991279
 21
112.5796652516884
 31
0.0
  0
LINE
  5
25E3
330
25DF
100
AcDbEntity
  8
寸法
  6
Continuous
 62
     0
370
    -2
100
AcDbLine
 10
84.388065027995
 20
109.3796652516883
 30
0.0
 11
88.10956200991279
 21
109.3796652516883
 31
0.0
  0
LINE
  5
25E4
330
25DF
100
AcDbEntity
  8
寸法
  6
Continuous
 62
     0
370
    -2
100
AcDbLine
 10
86.85956200991279
 20
115.0796652516884
 30
0.0
 11
86.85956200991279
 21
117.5796652516884
 31
0.0
  0
LINE
  5
25E5
330
25DF
100
AcDbEntity
  8
寸法
  6
Continuous
 62
     0
370
    -2
100
AcDbLine
 10
86.85956200991279
 20
106.8796652516883
 30
0.0
 11
86.85956200991279
 21
104.3796652516883
 31
0.0
  0
SOLID
  5
25E6
330
25DF
100
AcDbEntity
  8
寸法
 62
     0
100
AcDbTrace
 10
86.44289534324612
 20
115.0796652516884
 30
0.0
 11
87.27622867657946
 21
115.0796652516884
 31
0.0
 12
86.85956200991279
 22
112.5796652516884
 32
0.0
 13
86.85956200991279
 23
112.5796652516884
 33
0.0
  0
SOLID
  5
25E7
330
25DF
100
AcDbEntity
  8
寸法
 62
     0
100
AcDbTrace
 10
87.27622867657946
 20
106.8796652516883
 30
0.0
 11
86.44289534324612
 21
106.8796652516883
 31
0.0
 12
86.85956200991279
 22
109.3796652516883
 32
0.0
 13
86.85956200991279
 23
109.3796652516883
 33
0.0
  0
MTEXT
  5
25E8
330
25DF
100
AcDbEntity
  8
寸法
  6
Continuous
 62
     0
100
AcDbMText
 10
90.38324694278697
 20
119.5987876282528
 30
0.0
 40
5.0
 41
0.0
 46
0.0
 71
     5
 72
     1
  1
1.6
 73
     1
 44
1.0
  0
POINT
  5
25E9
330
25DF
100
AcDbEntity
  8
Defpoints
 62
     0
100
AcDbPoint
 10
81.73877321097748
 20
112.5796652516884
 30
0.0
  0
POINT
  5
25EA
330
25DF
100
AcDbEntity
  8
Defpoints
 62
     0
100
AcDbPoint
 10
83.763065027995
 20
109.3796652516883
 30
0.0
  0
POINT
  5
25EB
330
25DF
100
AcDbEntity
  8
Defpoints
 62
     0
100
AcDbPoint
 10
86.85956200991279
 20
109.3796652516883
 30
0.0
  0
ENDBLK
  5
25E1
330
25DF
100
AcDbEntity
  8
0
100
AcDbBlockEnd
  0
BLOCK
  5
25F0
330
25EF
100
AcDbEntity
  8
0
100
AcDbBlockBegin
  2
*D19
 70
     1
 10
0.0
 20
0.0
 30
0.0
  3
*D19
  1
*D237
  0
LINE
  5
25F2
330
25EF
100
AcDbEntity
  8
寸法
  6
Continuous
 62
     0
370
    -2
100
AcDbLine
 10
83.77065742666397
 20
125.0695902410338
 30
0.0
 11
83.77065742666397
 21
125.6945902410338
 31
0.0
  0
LINE
  5
25F3
330
25EF
100
AcDbEntity
  8
寸法
  6
Continuous
 62
     0
370
    -2
100
AcDbLine
 10
114.970657426664
 20
110.2594180183127
 30
0.0
 11
114.970657426664
 21
125.6945902410338
 31
0.0
  0
LINE
  5
25F4
330
25EF
100
AcDbEntity
  8
寸法
  6
Continuous
 62
     0
370
    -2
100
AcDbLine
 10
86.27065742666397
 20
124.4445902410338
 30
0.0
 11
112.470657426664
 21
124.4445902410338
 31
0.0
  0
SOLID
  5
25F5
330
25EF
100
AcDbEntity
  8
寸法
 62
     0
100
AcDbTrace
 10
86.27065742666397
 20
124.8612569077005
 30
0.0
 11
86.27065742666397
 21
124.0279235743672
 31
0.0
 12
83.77065742666397
 22
124.4445902410338
 32
0.0
 13
83.77065742666397
 23
124.4445902410338
 33
0.0
  0
SOLID
  5
25F6
330
25EF
100
AcDbEntity
  8
寸法
 62
     0
100
AcDbTrace
 10
112.470657426664
 20
124.0279235743672
 30
0.0
 11
112.470657426664
 21
124.8612569077005
 31
0.0
 12
114.970657426664
 22
124.4445902410338
 32
0.0
 13
114.970657426664
 23
124.4445902410338
 33
0.0
  0
MTEXT
  5
25F7
330
25EF
100
AcDbEntity
  8
寸法
  6
Continuous
 62
     0
100
AcDbMText
 10
100.7049242660559
 20
128.1181673716741
 30
0.0
 40
5.0
 41
0.0
 46
0.0
 71
     5
 72
     1
  1
15.6
 73
     1
 44
1.0
  0
POINT
  5
25F8
330
25EF
100
AcDbEntity
  8
Defpoints
 62
     0
100
AcDbPoint
 10
83.77065742666397
 20
124.4445902410338
 30
0.0
  0
POINT
  5
25F9
330
25EF
100
AcDbEntity
  8
Defpoints
 62
     0
100
AcDbPoint
 10
114.970657426664
 20
109.6344180183127
 30
0.0
  0
POINT
  5
25FA
330
25EF
100
AcDbEntity
  8
Defpoints
 62
     0
100
AcDbPoint
 10
114.970657426664
 20
124.4445902410338
 30
0.0
  0
ENDBLK
  5
25F1
330
25EF
100
AcDbEntity
  8
0
100
AcDbBlockEnd
  0
BLOCK
  5
2601
330
2600
100
AcDbEntity
  8
0
100
AcDbBlockBegin
  2
*D20
 70
     1
 10
0.0
 20
0.0
 30
0.0
  3
*D20
  1
*D238
  0
LINE
  5
2603
330
2600
100
AcDbEntity
  8
寸法
  6
Continuous
 62
     0
370
    -2
100
AcDbLine
 10
114.970657426664
 20
110.2594180183127
 30
0.0
 11
114.970657426664
 21
125.6945902410338
 31
0.0
  0
LINE
  5
2604
330
2600
100
AcDbEntity
  8
寸法
  6
Continuous
 62
     0
370
    -2
100
AcDbLine
 10
120.370657426664
 20
113.2046652516884
 30
0.0
 11
120.370657426664
 21
125.6945902410338
 31
0.0
  0
LINE
  5
2605
330
2600
100
AcDbEntity
  8
寸法
  6
Continuous
 62
     0
370
    -2
100
AcDbLine
 10
112.470657426664
 20
124.4445902410338
 30
0.0
 11
109.970657426664
 21
124.4445902410338
 31
0.0
  0
LINE
  5
2606
330
2600
100
AcDbEntity
  8
寸法
  6
Continuous
 62
     0
370
    -2
100
AcDbLine
 10
122.870657426664
 20
124.4445902410338
 30
0.0
 11
125.370657426664
 21
124.4445902410338
 31
0.0
  0
SOLID
  5
2607
330
2600
100
AcDbEntity
  8
寸法
 62
     0
100
AcDbTrace
 10
112.470657426664
 20
124.0279235743672
 30
0.0
 11
112.470657426664
 21
124.8612569077005
 31
0.0
 12
114.970657426664
 22
124.4445902410338
 32
0.0
 13
114.970657426664
 23
124.4445902410338
 33
0.0
  0
SOLID
  5
2608
330
2600
100
AcDbEntity
  8
寸法
 62
     0
100
AcDbTrace
 10
122.870657426664
 20
124.8612569077005
 30
0.0
 11
122.870657426664
 21
124.0279235743672
 31
0.0
 12
120.370657426664
 22
124.4445902410338
 32
0.0
 13
120.370657426664
 23
124.4445902410338
 33
0.0
  0
MTEXT
  5
2609
330
2600
100
AcDbEntity
  8
寸法
  6
Continuous
 62
     0
100
AcDbMText
 10
118.8115407186223
 20
129.1757618596117
 30
0.0
 40
5.0
 41
0.0
 46
0.0
 71
     5
 72
     1
  1
2.7
 73
     1
 44
1.0
  0
POINT
  5
260A
330
2600
100
AcDbEntity
  8
Defpoints
 62
     0
100
AcDbPoint
 10
114.970657426664
 20
109.6344180183127
 30
0.0
  0
POINT
  5
260B
330
2600
100
AcDbEntity
  8
Defpoints
 62
     0
100
AcDbPoint
 10
120.370657426664
 20
112.5796652516884
 30
0.0
  0
POINT
  5
260C
330
2600
100
AcDbEntity
  8
Defpoints
 62
     0
100
AcDbPoint
 10
120.370657426664
 20
124.4445902410338
 30
0.0
  0
ENDBLK
  5
2602
330
2600
100
AcDbEntity
  8
0
100
AcDbBlockEnd
  0
BLOCK
  5
2611
330
2610
100
AcDbEntity
  8
0
100
AcDbBlockBegin
  2
*D21
 70
     1
 10
0.0
 20
0.0
 30
0.0
  3
*D21
  1
*D239
  0
LINE
  5
2613
330
2610
100
AcDbEntity
  8
寸法
  6
Continuous
 62
     0
370
    -2
100
AcDbLine
 10
82.37065742666397
 20
108.7546652516883
 30
0.0
 11
82.37065742666397
 21
106.6834531788409
 31
0.0
  0
LINE
  5
2614
330
2610
100
AcDbEntity
  8
寸法
  6
Continuous
 62
     0
370
    -2
100
AcDbLine
 10
83.770657426664
 20
109.1546652516883
 30
0.0
 11
83.770657426664
 21
106.6834531788409
 31
0.0
  0
LINE
  5
2615
330
2610
100
AcDbEntity
  8
寸法
  6
Continuous
 62
     0
370
    -2
100
AcDbLine
 10
79.87065742666397
 20
107.9334531788409
 30
0.0
 11
77.37065742666397
 21
107.9334531788409
 31
0.0
  0
LINE
  5
2616
330
2610
100
AcDbEntity
  8
寸法
  6
Continuous
 62
     0
370
    -2
100
AcDbLine
 10
86.270657426664
 20
107.9334531788409
 30
0.0
 11
88.770657426664
 21
107.9334531788409
 31
0.0
  0
SOLID
  5
2617
330
2610
100
AcDbEntity
  8
寸法
 62
     0
100
AcDbTrace
 10
79.87065742666397
 20
107.5167865121742
 30
0.0
 11
79.87065742666397
 21
108.3501198455075
 31
0.0
 12
82.37065742666397
 22
107.9334531788409
 32
0.0
 13
82.37065742666397
 23
107.9334531788409
 33
0.0
  0
SOLID
  5
2618
330
2610
100
AcDbEntity
  8
寸法
 62
     0
100
AcDbTrace
 10
86.270657426664
 20
108.3501198455075
 30
0.0
 11
86.270657426664
 21
107.5167865121742
 31
0.0
 12
83.770657426664
 22
107.9334531788409
 32
0.0
 13
83.770657426664
 23
107.9334531788409
 33
0.0
  0
MTEXT
  5
2619
330
2610
100
AcDbEntity
  8
寸法
  6
Continuous
 62
     0
100
AcDbMText
 10
87.72716667245598
 20
99.63104688527415
 30
0.0
 40
5.0
 41
0.0
 46
0.0
 71
     5
 72
     1
  1
0.7
 73
     1
 44
1.0
  0
POINT
  5
261A
330
2610
100
AcDbEntity
  8
Defpoints
 62
     0
100
AcDbPoint
 10
82.37065742666397
 20
109.3796652516883
 30
0.0
  0
POINT
  5
261B
330
2610
100
AcDbEntity
  8
Defpoints
 62
     0
100
AcDbPoint
 10
83.770657426664
 20
109.7796652516883
 30
0.0
  0
POINT
  5
261C
330
2610
100
AcDbEntity
  8
Defpoints
 62
     0
100
AcDbPoint
 10
83.770657426664
 20
107.9334531788409
 30
0.0
  0
ENDBLK
  5
2612
330
2610
100
AcDbEntity
  8
0
100
AcDbBlockEnd
  0
BLOCK
  5
2631
330
2630
100
AcDbEntity
  8
0
100
AcDbBlockBegin
  2
*D22
 70
     1
 10
0.0
 20
0.0
 30
0.0
  3
*D22
  1
*D241
  0
LINE
  5
2633
330
2630
100
AcDbEntity
  8
寸法
  6
Continuous
 62
     0
370
    -2
100
AcDbLine
 10
70.37065742666397
 20
156.92365946724
 30
0.0
 11
70.37065742666397
 21
145.9412177499177
 31
0.0
  0
LINE
  5
2634
330
2630
100
AcDbEntity
  8
寸法
  6
Continuous
 62
     0
370
    -2
100
AcDbLine
 10
74.37065742666397
 20
156.92365946724
 30
0.0
 11
74.37065742666397
 21
145.9412177499177
 31
0.0
  0
LINE
  5
2635
330
2630
100
AcDbEntity
  8
寸法
  6
Continuous
 62
     0
370
    -2
100
AcDbLine
 10
67.87065742666397
 20
147.1912177499177
 30
0.0
 11
65.37065742666397
 21
147.1912177499177
 31
0.0
  0
LINE
  5
2636
330
2630
100
AcDbEntity
  8
寸法
  6
Continuous
 62
     0
370
    -2
100
AcDbLine
 10
76.87065742666397
 20
147.1912177499177
 30
0.0
 11
79.37065742666397
 21
147.1912177499177
 31
0.0
  0
SOLID
  5
2637
330
2630
100
AcDbEntity
  8
寸法
 62
     0
100
AcDbTrace
 10
67.87065742666397
 20
146.7745510832511
 30
0.0
 11
67.87065742666397
 21
147.6078844165844
 31
0.0
 12
70.37065742666397
 22
147.1912177499177
 32
0.0
 13
70.37065742666397
 23
147.1912177499177
 33
0.0
  0
SOLID
  5
2638
330
2630
100
AcDbEntity
  8
寸法
 62
     0
100
AcDbTrace
 10
76.87065742666397
 20
147.6078844165844
 30
0.0
 11
76.87065742666397
 21
146.7745510832511
 31
0.0
 12
74.37065742666397
 22
147.1912177499177
 32
0.0
 13
74.37065742666397
 23
147.1912177499177
 33
0.0
  0
MTEXT
  5
2639
330
2630
100
AcDbEntity
  8
寸法
  6
Continuous
 62
     0
100
AcDbMText
 10
71.53843229787705
 20
143.5084077642042
 30
0.0
 40
5.0
 41
0.0
 46
0.0
 71
     5
 72
     1
  1
2
 73
     1
 44
1.0
  0
POINT
  5
263A
330
2630
100
AcDbEntity
  8
Defpoints
 62
     0
100
AcDbPoint
 10
70.37065742666397
 20
157.54865946724
 30
0.0
  0
POINT
  5
263B
330
2630
100
AcDbEntity
  8
Defpoints
 62
     0
100
AcDbPoint
 10
74.37065742666397
 20
157.54865946724
 30
0.0
  0
POINT
  5
263C
330
2630
100
AcDbEntity
  8
Defpoints
 62
     0
100
AcDbPoint
 10
74.37065742666397
 20
147.1912177499177
 30
0.0
  0
ENDBLK
  5
2632
330
2630
100
AcDbEntity
  8
0
100
AcDbBlockEnd
  0
BLOCK
  5
2641
330
2640
100
AcDbEntity
  8
0
100
AcDbBlockBegin
  2
*D23
 70
     1
 10
0.0
 20
0.0
 30
0.0
  3
*D23
  1
*D242
  0
LINE
  5
2643
330
2640
100
AcDbEntity
  8
寸法
  6
Continuous
 62
     0
370
    -2
100
AcDbLine
 10
74.37065742666397
 20
156.92365946724
 30
0.0
 11
74.37065742666397
 21
145.9412177499177
 31
0.0
  0
LINE
  5
2644
330
2640
100
AcDbEntity
  8
寸法
  6
Continuous
 62
     0
370
    -2
100
AcDbLine
 10
78.370657426664
 20
157.32365946724
 30
0.0
 11
78.370657426664
 21
145.9412177499177
 31
0.0
  0
LINE
  5
2645
330
2640
100
AcDbEntity
  8
寸法
  6
Continuous
 62
     0
370
    -2
100
AcDbLine
 10
71.87065742666397
 20
147.1912177499177
 30
0.0
 11
69.37065742666397
 21
147.1912177499177
 31
0.0
  0
LINE
  5
2646
330
2640
100
AcDbEntity
  8
寸法
  6
Continuous
 62
     0
370
    -2
100
AcDbLine
 10
80.870657426664
 20
147.1912177499177
 30
0.0
 11
83.370657426664
 21
147.1912177499177
 31
0.0
  0
SOLID
  5
2647
330
2640
100
AcDbEntity
  8
寸法
 62
     0
100
AcDbTrace
 10
71.87065742666397
 20
146.7745510832511
 30
0.0
 11
71.87065742666397
 21
147.6078844165844
 31
0.0
 12
74.37065742666397
 22
147.1912177499177
 32
0.0
 13
74.37065742666397
 23
147.1912177499177
 33
0.0
  0
SOLID
  5
2648
330
2640
100
AcDbEntity
  8
寸法
 62
     0
100
AcDbTrace
 10
80.870657426664
 20
147.6078844165844
 30
0.0
 11
80.870657426664
 21
146.7745510832511
 31
0.0
 12
78.370657426664
 22
147.1912177499177
 32
0.0
 13
78.370657426664
 23
147.1912177499177
 33
0.0
  0
MTEXT
  5
2649
330
2640
100
AcDbEntity
  8
寸法
  6
Continuous
 62
     0
100
AcDbMText
 10
77.28650832878768
 20
143.6319434254793
 30
0.0
 40
5.0
 41
0.0
 46
0.0
 71
     5
 72
     1
  1
2
 73
     1
 44
1.0
  0
POINT
  5
264A
330
2640
100
AcDbEntity
  8
Defpoints
 62
     0
100
AcDbPoint
 10
74.37065742666397
 20
157.54865946724
 30
0.0
  0
POINT
  5
264B
330
2640
100
AcDbEntity
  8
Defpoints
 62
     0
100
AcDbPoint
 10
78.370657426664
 20
157.94865946724
 30
0.0
  0
POINT
  5
264C
330
2640
100
AcDbEntity
  8
Defpoints
 62
     0
100
AcDbPoint
 10
78.370657426664
 20
147.1912177499177
 30
0.0
  0
ENDBLK
  5
2642
330
2640
100
AcDbEntity
  8
0
100
AcDbBlockEnd
  0
BLOCK
  5
2672
330
2671
100
AcDbEntity
  8
0
100
AcDbBlockBegin
  2
*D24
 70
     1
 10
0.0
 20
0.0
 30
0.0
  3
*D24
  1
*D245
  0
LINE
  5
2674
330
2671
100
AcDbEntity
  8
寸法
  6
Continuous
 62
     0
370
    -2
100
AcDbLine
 10
82.56494652485691
 20
156.8072106921737
 30
0.0
 11
82.56494652485691
 21
145.9412177499177
 31
0.0
  0
LINE
  5
2675
330
2671
100
AcDbEntity
  8
寸法
  6
Continuous
 62
     0
370
    -2
100
AcDbLine
 10
86.97065742666396
 20
156.8072106921737
 30
0.0
 11
86.97065742666396
 21
145.9412177499177
 31
0.0
  0
LINE
  5
2676
330
2671
100
AcDbEntity
  8
寸法
  6
Continuous
 62
     0
370
    -2
100
AcDbLine
 10
80.06494652485691
 20
147.1912177499177
 30
0.0
 11
77.56494652485691
 21
147.1912177499177
 31
0.0
  0
LINE
  5
2677
330
2671
100
AcDbEntity
  8
寸法
  6
Continuous
 62
     0
370
    -2
100
AcDbLine
 10
89.47065742666396
 20
147.1912177499177
 30
0.0
 11
91.97065742666396
 21
147.1912177499177
 31
0.0
  0
SOLID
  5
2678
330
2671
100
AcDbEntity
  8
寸法
 62
     0
100
AcDbTrace
 10
80.06494652485691
 20
146.7745510832511
 30
0.0
 11
80.06494652485691
 21
147.6078844165844
 31
0.0
 12
82.56494652485691
 22
147.1912177499177
 32
0.0
 13
82.56494652485691
 23
147.1912177499177
 33
0.0
  0
SOLID
  5
2679
330
2671
100
AcDbEntity
  8
寸法
 62
     0
100
AcDbTrace
 10
89.47065742666396
 20
147.6078844165844
 30
0.0
 11
89.47065742666396
 21
146.7745510832511
 31
0.0
 12
86.97065742666396
 22
147.1912177499177
 32
0.0
 13
86.97065742666396
 23
147.1912177499177
 33
0.0
  0
MTEXT
  5
267A
330
2671
100
AcDbEntity
  8
寸法
  6
Continuous
 62
     0
100
AcDbMText
 10
85.90314414317174
 20
142.7793880904751
 30
0.0
 40
5.0
 41
0.0
 46
0.0
 71
     5
 72
     1
  1
2.2
 73
     1
 44
1.0
  0
POINT
  5
267B
330
2671
100
AcDbEntity
  8
Defpoints
 62
     0
100
AcDbPoint
 10
82.56494652485691
 20
157.4322106921737
 30
0.0
  0
POINT
  5
267C
330
2671
100
AcDbEntity
  8
Defpoints
 62
     0
100
AcDbPoint
 10
86.97065742666396
 20
157.4322106921737
 30
0.0
  0
POINT
  5
271E
330
2671
100
AcDbEntity
  8
Defpoints
 62
     0
100
AcDbPoint
 10
86.97065742666396
 20
147.1912177499177
 30
0.0
  0
ENDBLK
  5
2673
330
2671
100
AcDbEntity
  8
0
100
AcDbBlockEnd
  0
BLOCK
  5
2683
330
2682
100
AcDbEntity
  8
0
100
AcDbBlockBegin
  2
*D25
 70
     1
 10
0.0
 20
0.0
 30
0.0
  3
*D25
  1
*D246
  0
LINE
  5
2685
330
2682
100
AcDbEntity
  8
寸法
  6
Continuous
 62
     0
370
    -2
100
AcDbLine
 10
111.770657426664
 20
158.388460081888
 30
0.0
 11
111.770657426664
 21
145.9412177499177
 31
0.0
  0
LINE
  5
2686
330
2682
100
AcDbEntity
  8
寸法
  6
Continuous
 62
     0
370
    -2
100
AcDbLine
 10
116.170657426664
 20
159.2364729358646
 30
0.0
 11
116.170657426664
 21
145.9412177499177
 31
0.0
  0
LINE
  5
2687
330
2682
100
AcDbEntity
  8
寸法
  6
Continuous
 62
     0
370
    -2
100
AcDbLine
 10
109.270657426664
 20
147.1912177499177
 30
0.0
 11
106.770657426664
 21
147.1912177499177
 31
0.0
  0
LINE
  5
2688
330
2682
100
AcDbEntity
  8
寸法
  6
Continuous
 62
     0
370
    -2
100
AcDbLine
 10
118.670657426664
 20
147.1912177499177
 30
0.0
 11
121.170657426664
 21
147.1912177499177
 31
0.0
  0
SOLID
  5
2689
330
2682
100
AcDbEntity
  8
寸法
 62
     0
100
AcDbTrace
 10
109.270657426664
 20
146.7745510832511
 30
0.0
 11
109.270657426664
 21
147.6078844165844
 31
0.0
 12
111.770657426664
 22
147.1912177499177
 32
0.0
 13
111.770657426664
 23
147.1912177499177
 33
0.0
  0
SOLID
  5
268A
330
2682
100
AcDbEntity
  8
寸法
 62
     0
100
AcDbTrace
 10
118.670657426664
 20
147.6078844165844
 30
0.0
 11
118.670657426664
 21
146.7745510832511
 31
0.0
 12
116.170657426664
 22
147.1912177499177
 32
0.0
 13
116.170657426664
 23
147.1912177499177
 33
0.0
  0
MTEXT
  5
268B
330
2682
100
AcDbEntity
  8
寸法
  6
Continuous
 62
     0
100
AcDbMText
 10
110.0248377202107
 20
142.4886498067795
 30
0.0
 40
5.0
 41
0.0
 46
0.0
 71
     5
 72
     1
  1
2.2
 73
     1
 44
1.0
  0
POINT
  5
268C
330
2682
100
AcDbEntity
  8
Defpoints
 62
     0
100
AcDbPoint
 10
111.770657426664
 20
159.013460081888
 30
0.0
  0
POINT
  5
268D
330
2682
100
AcDbEntity
  8
Defpoints
 62
     0
100
AcDbPoint
 10
116.170657426664
 20
159.8614729358646
 30
0.0
  0
POINT
  5
268E
330
2682
100
AcDbEntity
  8
Defpoints
 62
     0
100
AcDbPoint
 10
116.170657426664
 20
147.1912177499177
 30
0.0
  0
ENDBLK
  5
2684
330
2682
100
AcDbEntity
  8
0
100
AcDbBlockEnd
  0
BLOCK
  5
2693
330
2692
100
AcDbEntity
  8
0
100
AcDbBlockBegin
  2
*D26
 70
     1
 10
0.0
 20
0.0
 30
0.0
  3
*D26
  1
*D247
  0
LINE
  5
2695
330
2692
100
AcDbEntity
  8
寸法
  6
Continuous
 62
     0
370
    -2
100
AcDbLine
 10
116.170657426664
 20
158.6114729358646
 30
0.0
 11
116.170657426664
 21
145.9412177499177
 31
0.0
  0
LINE
  5
2696
330
2692
100
AcDbEntity
  8
寸法
  6
Continuous
 62
     0
370
    -2
100
AcDbLine
 10
120.370657426664
 20
159.3191746337895
 30
0.0
 11
120.370657426664
 21
145.9412177499177
 31
0.0
  0
LINE
  5
2697
330
2692
100
AcDbEntity
  8
寸法
  6
Continuous
 62
     0
370
    -2
100
AcDbLine
 10
113.670657426664
 20
147.1912177499177
 30
0.0
 11
111.170657426664
 21
147.1912177499177
 31
0.0
  0
LINE
  5
2698
330
2692
100
AcDbEntity
  8
寸法
  6
Continuous
 62
     0
370
    -2
100
AcDbLine
 10
122.870657426664
 20
147.1912177499177
 30
0.0
 11
125.370657426664
 21
147.1912177499177
 31
0.0
  0
SOLID
  5
2699
330
2692
100
AcDbEntity
  8
寸法
 62
     0
100
AcDbTrace
 10
113.670657426664
 20
146.7745510832511
 30
0.0
 11
113.670657426664
 21
147.6078844165844
 31
0.0
 12
116.170657426664
 22
147.1912177499177
 32
0.0
 13
116.170657426664
 23
147.1912177499177
 33
0.0
  0
SOLID
  5
269A
330
2692
100
AcDbEntity
  8
寸法
 62
     0
100
AcDbTrace
 10
122.870657426664
 20
147.6078844165844
 30
0.0
 11
122.870657426664
 21
146.7745510832511
 31
0.0
 12
120.370657426664
 22
147.1912177499177
 32
0.0
 13
120.370657426664
 23
147.1912177499177
 33
0.0
  0
MTEXT
  5
269B
330
2692
100
AcDbEntity
  8
寸法
  6
Continuous
 62
     0
100
AcDbMText
 10
120.3919588356392
 20
142.4886498067795
 30
0.0
 40
5.0
 41
0.0
 46
0.0
 71
     5
 72
     1
  1
2.1
 73
     1
 44
1.0
  0
POINT
  5
269C
330
2692
100
AcDbEntity
  8
Defpoints
 62
     0
100
AcDbPoint
 10
116.170657426664
 20
159.2364729358646
 30
0.0
  0
POINT
  5
269D
330
2692
100
AcDbEntity
  8
Defpoints
 62
     0
100
AcDbPoint
 10
120.370657426664
 20
159.9441746337895
 30
0.0
  0
POINT
  5
269E
330
2692
100
AcDbEntity
  8
Defpoints
 62
     0
100
AcDbPoint
 10
120.370657426664
 20
147.1912177499177
 30
0.0
  0
ENDBLK
  5
2694
330
2692
100
AcDbEntity
  8
0
100
AcDbBlockEnd
  0
BLOCK
  5
26A3
330
26A2
100
AcDbEntity
  8
0
100
AcDbBlockBegin
  2
*D27
 70
     1
 10
0.0
 20
0.0
 30
0.0
  3
*D27
  1
*D248
  0
LINE
  5
26A5
330
26A2
100
AcDbEntity
  8
寸法
  6
Continuous
 62
     0
370
    -2
100
AcDbLine
 10
123.4339743092099
 20
163.9486594672401
 30
0.0
 11
132.5495214232204
 21
163.9486594672401
 31
0.0
  0
LINE
  5
26A6
330
26A2
100
AcDbEntity
  8
寸法
  6
Continuous
 62
     0
370
    -2
100
AcDbLine
 10
123.3498434136381
 20
167.1486594672401
 30
0.0
 11
132.5495214232204
 21
167.1486594672401
 31
0.0
  0
LINE
  5
26A7
330
26A2
100
AcDbEntity
  8
寸法
  6
Continuous
 62
     0
370
    -2
100
AcDbLine
 10
131.2995214232204
 20
161.4486594672401
 30
0.0
 11
131.2995214232204
 21
158.9486594672401
 31
0.0
  0
LINE
  5
26A8
330
26A2
100
AcDbEntity
  8
寸法
  6
Continuous
 62
     0
370
    -2
100
AcDbLine
 10
131.2995214232204
 20
169.6486594672401
 30
0.0
 11
131.2995214232204
 21
172.1486594672401
 31
0.0
  0
SOLID
  5
26A9
330
26A2
100
AcDbEntity
  8
寸法
 62
     0
100
AcDbTrace
 10
131.7161880898871
 20
161.4486594672401
 30
0.0
 11
130.8828547565538
 21
161.4486594672401
 31
0.0
 12
131.2995214232204
 22
163.9486594672401
 32
0.0
 13
131.2995214232204
 23
163.9486594672401
 33
0.0
  0
SOLID
  5
26AA
330
26A2
100
AcDbEntity
  8
寸法
 62
     0
100
AcDbTrace
 10
130.8828547565538
 20
169.6486594672401
 30
0.0
 11
131.7161880898871
 21
169.6486594672401
 31
0.0
 12
131.2995214232204
 22
167.1486594672401
 32
0.0
 13
131.2995214232204
 23
167.1486594672401
 33
0.0
  0
MTEXT
  5
26AB
330
26A2
100
AcDbEntity
  8
寸法
  6
Continuous
 62
     0
100
AcDbMText
 10
140.0075192282891
 20
165.9698131541258
 30
0.0
 40
5.0
 41
0.0
 46
0.0
 71
     5
 72
     1
  1
1.6
 73
     1
 44
1.0
  0
POINT
  5
26AC
330
26A2
100
AcDbEntity
  8
Defpoints
 62
     0
100
AcDbPoint
 10
122.8089743092099
 20
163.9486594672401
 30
0.0
  0
POINT
  5
26AD
330
26A2
100
AcDbEntity
  8
Defpoints
 62
     0
100
AcDbPoint
 10
122.7248434136381
 20
167.1486594672401
 30
0.0
  0
POINT
  5
26AE
330
26A2
100
AcDbEntity
  8
Defpoints
 62
     0
100
AcDbPoint
 10
131.2995214232204
 20
167.1486594672401
 30
0.0
  0
ENDBLK
  5
26A4
330
26A2
100
AcDbEntity
  8
0
100
AcDbBlockEnd
  0
BLOCK
  5
26B3
330
26B2
100
AcDbEntity
  8
0
100
AcDbBlockBegin
  2
*D28
 70
     1
 10
0.0
 20
0.0
 30
0.0
  3
*D28
  1
*D249
  0
LINE
  5
26B5
330
26B2
100
AcDbEntity
  8
寸法
  6
Continuous
 62
     0
370
    -2
100
AcDbLine
 10
122.8645763147587
 20
159.9436418102187
 30
0.0
 11
132.5495214232204
 21
159.9436418102187
 31
0.0
  0
LINE
  5
26B6
330
26B2
100
AcDbEntity
  8
寸法
  6
Continuous
 62
     0
370
    -2
100
AcDbLine
 10
122.8089743092099
 20
163.9486594672401
 30
0.0
 11
132.5495214232204
 21
163.9486594672401
 31
0.0
  0
LINE
  5
26B7
330
26B2
100
AcDbEntity
  8
寸法
  6
Continuous
 62
     0
370
    -2
100
AcDbLine
 10
131.2995214232204
 20
157.4436418102187
 30
0.0
 11
131.2995214232204
 21
154.9436418102187
 31
0.0
  0
LINE
  5
26B8
330
26B2
100
AcDbEntity
  8
寸法
  6
Continuous
 62
     0
370
    -2
100
AcDbLine
 10
131.2995214232204
 20
166.4486594672401
 30
0.0
 11
131.2995214232204
 21
168.9486594672401
 31
0.0
  0
SOLID
  5
26B9
330
26B2
100
AcDbEntity
  8
寸法
 62
     0
100
AcDbTrace
 10
131.7161880898871
 20
157.4436418102187
 30
0.0
 11
130.8828547565538
 21
157.4436418102187
 31
0.0
 12
131.2995214232204
 22
159.9436418102187
 32
0.0
 13
131.2995214232204
 23
159.9436418102187
 33
0.0
  0
SOLID
  5
26BA
330
26B2
100
AcDbEntity
  8
寸法
 62
     0
100
AcDbTrace
 10
130.8828547565538
 20
166.4486594672401
 30
0.0
 11
131.7161880898871
 21
166.4486594672401
 31
0.0
 12
131.2995214232204
 22
163.9486594672401
 32
0.0
 13
131.2995214232204
 23
163.9486594672401
 33
0.0
  0
MTEXT
  5
26BB
330
26B2
100
AcDbEntity
  8
寸法
  6
Continuous
 62
     0
100
AcDbMText
 10
139.6844657207703
 20
159.8317965112699
 30
0.0
 40
5.0
 41
0.0
 46
0.0
 71
     5
 72
     1
  1
2
 73
     1
 44
1.0
  0
POINT
  5
26BC
330
26B2
100
AcDbEntity
  8
Defpoints
 62
     0
100
AcDbPoint
 10
122.2395763147587
 20
159.9436418102187
 30
0.0
  0
POINT
  5
26BD
330
26B2
100
AcDbEntity
  8
Defpoints
 62
     0
100
AcDbPoint
 10
122.1839743092099
 20
163.9486594672401
 30
0.0
  0
POINT
  5
26BE
330
26B2
100
AcDbEntity
  8
Defpoints
 62
     0
100
AcDbPoint
 10
131.2995214232204
 20
163.9486594672401
 30
0.0
  0
ENDBLK
  5
26B4
330
26B2
100
AcDbEntity
  8
0
100
AcDbBlockEnd
  0
BLOCK
  5
26C3
330
26C2
100
AcDbEntity
  8
0
100
AcDbBlockBegin
  2
*D29
 70
     1
 10
0.0
 20
0.0
 30
0.0
  3
*D29
  1
*D250
  0
LINE
  5
26C5
330
26C2
100
AcDbEntity
  8
寸法
  6
Continuous
 62
     0
370
    -2
100
AcDbLine
 10
123.3498434136381
 20
167.1486594672401
 30
0.0
 11
132.5495214232204
 21
167.1486594672401
 31
0.0
  0
LINE
  5
26C6
330
26C2
100
AcDbEntity
  8
寸法
  6
Continuous
 62
     0
370
    -2
100
AcDbLine
 10
120.3956574266639
 20
173.54865946724
 30
0.0
 11
132.5495214232204
 21
173.54865946724
 31
0.0
  0
LINE
  5
26C7
330
26C2
100
AcDbEntity
  8
寸法
  6
Continuous
 62
     0
370
    -2
100
AcDbLine
 10
131.2995214232204
 20
169.6486594672401
 30
0.0
 11
131.2995214232204
 21
171.04865946724
 31
0.0
  0
SOLID
  5
26C8
330
26C2
100
AcDbEntity
  8
寸法
 62
     0
100
AcDbTrace
 10
130.8828547565538
 20
169.6486594672401
 30
0.0
 11
131.7161880898871
 21
169.6486594672401
 31
0.0
 12
131.2995214232204
 22
167.1486594672401
 32
0.0
 13
131.2995214232204
 23
167.1486594672401
 33
0.0
  0
SOLID
  5
26C9
330
26C2
100
AcDbEntity
  8
寸法
 62
     0
100
AcDbTrace
 10
131.7161880898871
 20
171.04865946724
 30
0.0
 11
130.8828547565538
 21
171.04865946724
 31
0.0
 12
131.2995214232204
 22
173.54865946724
 32
0.0
 13
131.2995214232204
 23
173.54865946724
 33
0.0
  0
MTEXT
  5
26CA
330
26C2
100
AcDbEntity
  8
寸法
  6
Continuous
 62
     0
100
AcDbMText
 10
139.8782978252816
 20
171.9139976924706
 30
0.0
 40
5.0
 41
0.0
 46
0.0
 71
     5
 72
     1
  1
3.2
 73
     1
 44
1.0
  0
POINT
  5
26CB
330
26C2
100
AcDbEntity
  8
Defpoints
 62
     0
100
AcDbPoint
 10
122.7248434136381
 20
167.1486594672401
 30
0.0
  0
POINT
  5
26CC
330
26C2
100
AcDbEntity
  8
Defpoints
 62
     0
100
AcDbPoint
 10
119.7706574266639
 20
173.54865946724
 30
0.0
  0
POINT
  5
26CD
330
26C2
100
AcDbEntity
  8
Defpoints
 62
     0
100
AcDbPoint
 10
131.2995214232204
 20
173.54865946724
 30
0.0
  0
ENDBLK
  5
26C4
330
26C2
100
AcDbEntity
  8
0
100
AcDbBlockEnd
  0
BLOCK
  5
26D2
330
26D1
100
AcDbEntity
  8
0
100
AcDbBlockBegin
  2
*D30
 70
     1
 10
0.0
 20
0.0
 30
0.0
  3
*D30
  1
*D251
  0
LINE
  5
26D4
330
26D1
100
AcDbEntity
  8
寸法
  6
Continuous
 62
     0
370
    -2
100
AcDbLine
 10
72.77065742666394
 20
174.17365946724
 30
0.0
 11
72.77065742666394
 21
181.4551374233195
 31
0.0
  0
LINE
  5
26D5
330
26D1
100
AcDbEntity
  8
寸法
  6
Continuous
 62
     0
370
    -2
100
AcDbLine
 10
70.37065742666397
 20
174.17365946724
 30
0.0
 11
70.37065742666397
 21
181.4551374233195
 31
0.0
  0
LINE
  5
26D6
330
26D1
100
AcDbEntity
  8
寸法
  6
Continuous
 62
     0
370
    -2
100
AcDbLine
 10
75.27065742666394
 20
180.2051374233195
 30
0.0
 11
77.77065742666394
 21
180.2051374233195
 31
0.0
  0
LINE
  5
26D7
330
26D1
100
AcDbEntity
  8
寸法
  6
Continuous
 62
     0
370
    -2
100
AcDbLine
 10
67.87065742666397
 20
180.2051374233195
 30
0.0
 11
65.37065742666397
 21
180.2051374233195
 31
0.0
  0
SOLID
  5
26D8
330
26D1
100
AcDbEntity
  8
寸法
 62
     0
100
AcDbTrace
 10
75.27065742666394
 20
180.6218040899861
 30
0.0
 11
75.27065742666394
 21
179.7884707566528
 31
0.0
 12
72.77065742666394
 22
180.2051374233195
 32
0.0
 13
72.77065742666394
 23
180.2051374233195
 33
0.0
  0
SOLID
  5
26D9
330
26D1
100
AcDbEntity
  8
寸法
 62
     0
100
AcDbTrace
 10
67.87065742666397
 20
179.7884707566528
 30
0.0
 11
67.87065742666397
 21
180.6218040899861
 31
0.0
 12
70.37065742666397
 22
180.2051374233195
 32
0.0
 13
70.37065742666397
 23
180.2051374233195
 33
0.0
  0
MTEXT
  5
26DA
330
26D1
100
AcDbEntity
  8
寸法
  6
Continuous
 62
     0
100
AcDbMText
 10
83.31859153634457
 20
180.2051374233195
 30
0.0
 40
5.0
 41
0.0
 46
0.0
 71
     5
 72
     1
  1
1.2
 73
     1
 44
1.0
  0
POINT
  5
26DB
330
26D1
100
AcDbEntity
  8
Defpoints
 62
     0
100
AcDbPoint
 10
72.77065742666394
 20
173.54865946724
 30
0.0
  0
POINT
  5
26DC
330
26D1
100
AcDbEntity
  8
Defpoints
 62
     0
100
AcDbPoint
 10
70.37065742666397
 20
173.54865946724
 30
0.0
  0
POINT
  5
26DD
330
26D1
100
AcDbEntity
  8
Defpoints
 62
     0
100
AcDbPoint
 10
70.37065742666397
 20
180.2051374233195
 30
0.0
  0
ENDBLK
  5
26D3
330
26D1
100
AcDbEntity
  8
0
100
AcDbBlockEnd
  0
BLOCK
  5
2739
330
2738
100
AcDbEntity
  8
0
100
AcDbBlockBegin
  2
*D31
 70
     1
 10
0.0
 20
0.0
 30
0.0
  3
*D31
  1
*D255
  0
LINE
  5
273B
330
2738
100
AcDbEntity
  8
寸法
  6
Continuous
 62
     0
370
    -2
100
AcDbLine
 10
120.995657426664
 20
105.3796652516883
 30
0.0
 11
129.5924992000002
 21
105.3796652516883
 31
0.0
  0
LINE
  5
273C
330
2738
100
AcDbEntity
  8
寸法
  6
Continuous
 62
     0
370
    -2
100
AcDbLine
 10
120.995657426664
 20
102.9796652516883
 30
0.0
 11
129.5924992000002
 21
102.9796652516883
 31
0.0
  0
LINE
  5
273D
330
2738
100
AcDbEntity
  8
寸法
  6
Continuous
 62
     0
370
    -2
100
AcDbLine
 10
128.3424992000002
 20
107.8796652516883
 30
0.0
 11
128.3424992000002
 21
110.3796652516883
 31
0.0
  0
LINE
  5
273E
330
2738
100
AcDbEntity
  8
寸法
  6
Continuous
 62
     0
370
    -2
100
AcDbLine
 10
128.3424992000002
 20
100.4796652516883
 30
0.0
 11
128.3424992000002
 21
97.97966525168835
 31
0.0
  0
SOLID
  5
273F
330
2738
100
AcDbEntity
  8
寸法
 62
     0
100
AcDbTrace
 10
127.9258325333335
 20
107.8796652516883
 30
0.0
 11
128.7591658666668
 21
107.8796652516883
 31
0.0
 12
128.3424992000002
 22
105.3796652516883
 32
0.0
 13
128.3424992000002
 23
105.3796652516883
 33
0.0
  0
SOLID
  5
2740
330
2738
100
AcDbEntity
  8
寸法
 62
     0
100
AcDbTrace
 10
128.7591658666668
 20
100.4796652516883
 30
0.0
 11
127.9258325333335
 21
100.4796652516883
 31
0.0
 12
128.3424992000002
 22
102.9796652516883
 32
0.0
 13
128.3424992000002
 23
102.9796652516883
 33
0.0
  0
MTEXT
  5
2741
330
2738
100
AcDbEntity
  8
寸法
  6
Continuous
 62
     0
100
AcDbMText
 10
128.3424992000002
 20
96.56199679999997
 30
0.0
 40
5.0
 41
0.0
 46
0.0
 71
     5
 72
     1
  1
1.2
 73
     1
 44
1.0
  0
POINT
  5
2742
330
2738
100
AcDbEntity
  8
Defpoints
 62
     0
100
AcDbPoint
 10
120.370657426664
 20
105.3796652516883
 30
0.0
  0
POINT
  5
2743
330
2738
100
AcDbEntity
  8
Defpoints
 62
     0
100
AcDbPoint
 10
120.370657426664
 20
102.9796652516883
 30
0.0
  0
POINT
  5
2744
330
2738
100
AcDbEntity
  8
Defpoints
 62
     0
100
AcDbPoint
 10
128.3424992000002
 20
102.9796652516883
 30
0.0
  0
ENDBLK
  5
273A
330
2738
100
AcDbEntity
  8
0
100
AcDbBlockEnd
  0
BLOCK
  5
2749
330
2748
100
AcDbEntity
  8
0
100
AcDbBlockBegin
  2
*D32
 70
     1
 10
0.0
 20
0.0
 30
0.0
  3
*D32
  1
*D256
  0
LINE
  5
274B
330
2748
100
AcDbEntity
  8
寸法
  6
Continuous
 62
     0
370
    -2
100
AcDbLine
 10
97.94565742666396
 20
106.9796652516883
 30
0.0
 11
97.26160000000013
 21
106.9796652516883
 31
0.0
  0
LINE
  5
274C
330
2748
100
AcDbEntity
  8
寸法
  6
Continuous
 62
     0
370
    -2
100
AcDbLine
 10
97.94565742666396
 20
102.9796652516883
 30
0.0
 11
97.26160000000013
 21
102.9796652516883
 31
0.0
  0
LINE
  5
274D
330
2748
100
AcDbEntity
  8
寸法
  6
Continuous
 62
     0
370
    -2
100
AcDbLine
 10
98.51160000000013
 20
109.4796652516883
 30
0.0
 11
98.51160000000013
 21
111.9796652516883
 31
0.0
  0
LINE
  5
274E
330
2748
100
AcDbEntity
  8
寸法
  6
Continuous
 62
     0
370
    -2
100
AcDbLine
 10
98.51160000000013
 20
100.4796652516883
 30
0.0
 11
98.51160000000013
 21
97.97966525168835
 31
0.0
  0
SOLID
  5
274F
330
2748
100
AcDbEntity
  8
寸法
 62
     0
100
AcDbTrace
 10
98.09493333333346
 20
109.4796652516883
 30
0.0
 11
98.9282666666668
 21
109.4796652516883
 31
0.0
 12
98.51160000000013
 22
106.9796652516883
 32
0.0
 13
98.51160000000013
 23
106.9796652516883
 33
0.0
  0
SOLID
  5
2750
330
2748
100
AcDbEntity
  8
寸法
 62
     0
100
AcDbTrace
 10
98.9282666666668
 20
100.4796652516883
 30
0.0
 11
98.09493333333346
 21
100.4796652516883
 31
0.0
 12
98.51160000000013
 22
102.9796652516883
 32
0.0
 13
98.51160000000013
 23
102.9796652516883
 33
0.0
  0
MTEXT
  5
2751
330
2748
100
AcDbEntity
  8
寸法
  6
Continuous
 62
     0
100
AcDbMText
 10
98.51160000000013
 20
116.0655104
 30
0.0
 40
5.0
 41
0.0
 46
0.0
 71
     5
 72
     1
  1
2
 73
     1
 44
1.0
  0
POINT
  5
2752
330
2748
100
AcDbEntity
  8
Defpoints
 62
     0
100
AcDbPoint
 10
98.57065742666396
 20
106.9796652516883
 30
0.0
  0
POINT
  5
2753
330
2748
100
AcDbEntity
  8
Defpoints
 62
     0
100
AcDbPoint
 10
98.57065742666396
 20
102.9796652516883
 30
0.0
  0
POINT
  5
2754
330
2748
100
AcDbEntity
  8
Defpoints
 62
     0
100
AcDbPoint
 10
98.51160000000013
 20
102.9796652516883
 30
0.0
  0
ENDBLK
  5
274A
330
2748
100
AcDbEntity
  8
0
100
AcDbBlockEnd
  0
BLOCK
  5
2776
330
2775
100
AcDbEntity
  8
0
100
AcDbBlockBegin
  2
*D33
 70
     1
 10
0.0
 20
0.0
 30
0.0
  3
*D33
  1
*D257
  0
LINE
  5
2778
330
2775
100
AcDbEntity
  8
寸法
  6
Continuous
 62
     0
370
    -2
100
AcDbLine
 10
68.98549775103012
 20
175.1101069724078
 30
0.0
 11
67.28181226843452
 21
176.939712333242
 31
0.0
  0
MTEXT
  5
2779
330
2775
100
AcDbEntity
  8
寸法
  6
Continuous
 62
     0
100
AcDbMText
 10
53.67303868550013
 20
180.8616213265623
 30
0.0
 40
5.0
 41
0.0
 46
0.0
 71
     5
 72
     1
  1
R0.5
 73
     1
 44
1.0
  0
SOLID
  5
277A
330
2775
100
AcDbEntity
  8
寸法
 62
     0
100
AcDbTrace
 10
68.68056352422444
 20
174.8261593919752
 30
0.0
 11
69.29043197783581
 21
175.3940545528404
 31
0.0
 12
70.68918323362573
 22
173.2805016115737
 32
0.0
 13
70.68918323362573
 23
173.2805016115737
 33
0.0
  0
POINT
  5
277B
330
2775
100
AcDbEntity
  8
Defpoints
 62
     0
100
AcDbPoint
 10
70.68918323362573
 20
173.2805016115737
 30
0.0
  0
POINT
  5
277C
330
2775
100
AcDbEntity
  8
Defpoints
 62
     0
100
AcDbPoint
 10
71.37065742666397
 20
172.54865946724
 30
0.0
  0
ENDBLK
  5
2777
330
2775
100
AcDbEntity
  8
0
100
AcDbBlockEnd
  0
BLOCK
  5
2781
330
2780
100
AcDbEntity
  8
0
100
AcDbBlockBegin
  2
*D34
 70
     1
 10
0.0
 20
0.0
 30
0.0
  3
*D34
  1
*D258
  0
LINE
  5
2783
330
2780
100
AcDbEntity
  8
寸法
  6
Continuous
 62
     0
370
    -2
100
AcDbLine
 10
121.4749286257628
 20
175.6056939256527
 30
0.0
 11
122.6922651965477
 21
177.789289967376
 31
0.0
  0
MTEXT
  5
2784
330
2780
100
AcDbEntity
  8
寸法
  6
Continuous
 62
     0
100
AcDbMText
 10
134.2036754855001
 20
178.3450389265623
 30
0.0
 40
5.0
 41
0.0
 46
0.0
 71
     5
 72
     1
  1
R0.5
 73
     1
 44
1.0
  0
SOLID
  5
2785
330
2780
100
AcDbEntity
  8
寸法
 62
     0
100
AcDbTrace
 10
121.1109959521423
 20
175.8085833541168
 30
0.0
 11
121.8388612993834
 21
175.4028044971885
 31
0.0
 12
120.2575920549779
 22
173.4220978839294
 32
0.0
 13
120.2575920549779
 23
173.4220978839294
 33
0.0
  0
POINT
  5
2786
330
2780
100
AcDbEntity
  8
Defpoints
 62
     0
100
AcDbPoint
 10
120.2575920549779
 20
173.4220978839294
 30
0.0
  0
POINT
  5
2787
330
2780
100
AcDbEntity
  8
Defpoints
 62
     0
100
AcDbPoint
 10
119.7706574266639
 20
172.54865946724
 30
0.0
  0
ENDBLK
  5
2782
330
2780
100
AcDbEntity
  8
0
100
AcDbBlockEnd
  0
BLOCK
  5
278E
330
278D
100
AcDbEntity
  8
0
100
AcDbBlockBegin
  2
*D35
 70
     1
 10
0.0
 20
0.0
 30
0.0
  3
*D35
  1
*D259
  0
LINE
  5
2790
330
278D
100
AcDbEntity
  8
寸法
  6
Continuous
 62
     0
370
    -2
100
AcDbLine
 10
68.77756152638493
 20
160.1979460325662
 30
0.0
 11
66.92535016904276
 21
158.5188650077992
 31
0.0
  0
MTEXT
  5
2791
330
278D
100
AcDbEntity
  8
寸法
  6
Continuous
 62
     0
100
AcDbMText
 10
60.5200938695001
 20
153.4082052985622
 30
0.0
 40
5.0
 41
0.0
 46
0.0
 71
     5
 72
     1
  1
R0.5
 73
     1
 44
1.0
  0
SOLID
  5
2792
330
278D
100
AcDbEntity
  8
寸法
 62
     0
100
AcDbTrace
 10
69.0574083638461
 20
159.8892441396759
 30
0.0
 11
68.49771468892376
 21
160.5066479254566
 31
0.0
 12
70.6297728837271
 22
161.8770270573332
 32
0.0
 13
70.6297728837271
 23
161.8770270573332
 33
0.0
  0
POINT
  5
2793
330
278D
100
AcDbEntity
  8
Defpoints
 62
     0
100
AcDbPoint
 10
70.6297728837271
 20
161.8770270573332
 30
0.0
  0
POINT
  5
2794
330
278D
100
AcDbEntity
  8
Defpoints
 62
     0
100
AcDbPoint
 10
71.37065742666397
 20
162.54865946724
 30
0.0
  0
ENDBLK
  5
278F
330
278D
100
AcDbEntity
  8
0
100
AcDbBlockEnd
  0
BLOCK
  5
28D2
330
28D1
100
AcDbEntity
  8
0
100
AcDbBlockBegin
  2
*D36
 70
     1
 10
0.0
 20
0.0
 30
0.0
  3
*D36
  1
*D261
  0
LINE
  5
28D4
330
28D1
100
AcDbEntity
  8
寸法
  6
Continuous
 62
     0
370
    -2
100
AcDbLine
 10
73.74565742666397
 20
159.5531935070345
 30
0.0
 11
44.35183872000002
 21
159.5531935070345
 31
0.0
  0
LINE
  5
28D5
330
28D1
100
AcDbEntity
  8
寸法
  6
Continuous
 62
     0
370
    -2
100
AcDbLine
 10
73.74565742666397
 20
157.54865946724
 30
0.0
 11
44.35183872000002
 21
157.54865946724
 31
0.0
  0
LINE
  5
28D6
330
28D1
100
AcDbEntity
  8
寸法
  6
Continuous
 62
     0
370
    -2
100
AcDbLine
 10
45.60183872000002
 20
162.0531935070345
 30
0.0
 11
45.60183872000002
 21
164.5531935070345
 31
0.0
  0
LINE
  5
28D7
330
28D1
100
AcDbEntity
  8
寸法
  6
Continuous
 62
     0
370
    -2
100
AcDbLine
 10
45.60183872000002
 20
155.04865946724
 30
0.0
 11
45.60183872000002
 21
152.54865946724
 31
0.0
  0
SOLID
  5
28D8
330
28D1
100
AcDbEntity
  8
寸法
 62
     0
100
AcDbTrace
 10
45.18517205333335
 20
162.0531935070345
 30
0.0
 11
46.01850538666668
 21
162.0531935070345
 31
0.0
 12
45.60183872000002
 22
159.5531935070345
 32
0.0
 13
45.60183872000002
 23
159.5531935070345
 33
0.0
  0
SOLID
  5
28D9
330
28D1
100
AcDbEntity
  8
寸法
 62
     0
100
AcDbTrace
 10
46.01850538666668
 20
155.04865946724
 30
0.0
 11
45.18517205333335
 21
155.04865946724
 31
0.0
 12
45.60183872000002
 22
157.54865946724
 32
0.0
 13
45.60183872000002
 23
157.54865946724
 33
0.0
  0
MTEXT
  5
28DA
330
28D1
100
AcDbEntity
  8
寸法
  6
Continuous
 62
     0
100
AcDbMText
 10
45.60183872000002
 20
149.5714687999999
 30
0.0
 40
5.0
 41
0.0
 46
0.0
 71
     5
 72
     1
  1
1
 73
     1
 44
1.0
  0
POINT
  5
28DB
330
28D1
100
AcDbEntity
  8
Defpoints
 62
     0
100
AcDbPoint
 10
74.37065742666397
 20
159.5531935070345
 30
0.0
  0
POINT
  5
28DC
330
28D1
100
AcDbEntity
  8
Defpoints
 62
     0
100
AcDbPoint
 10
74.37065742666397
 20
157.54865946724
 30
0.0
  0
POINT
  5
28DD
330
28D1
100
AcDbEntity
  8
Defpoints
 62
     0
100
AcDbPoint
 10
45.60183872000002
 20
157.54865946724
 30
0.0
  0
ENDBLK
  5
28D3
330
28D1
100
AcDbEntity
  8
0
100
AcDbBlockEnd
  0
BLOCK
  5
2BE7
330
2BE6
100
AcDbEntity
  8
0
100
AcDbBlockBegin
  2
*D37
 70
     1
 10
0.0
 20
0.0
 30
0.0
  3
*D37
  1
*D263
  0
LINE
  5
2BE9
330
2BE6
100
AcDbEntity
  8
寸法
  6
Continuous
 62
     0
370
    -2
100
AcDbLine
 10
131.0173588546639
 20
46.09412081215515
 30
0.0
 11
131.0173588546639
 21
49.86232218415495
 31
0.0
  0
LINE
  5
2BEA
330
2BE6
100
AcDbEntity
  8
寸法
  6
Continuous
 62
     0
370
    -2
100
AcDbLine
 10
134.017358854664
 20
46.09412081215515
 30
0.0
 11
134.017358854664
 21
49.86232218415495
 31
0.0
  0
LINE
  5
2BEB
330
2BE6
100
AcDbEntity
  8
寸法
  6
Continuous
 62
     0
370
    -2
100
AcDbLine
 10
128.5173588546639
 20
48.61232218415495
 30
0.0
 11
126.0173588546639
 21
48.61232218415495
 31
0.0
  0
LINE
  5
2BEC
330
2BE6
100
AcDbEntity
  8
寸法
  6
Continuous
 62
     0
370
    -2
100
AcDbLine
 10
136.517358854664
 20
48.61232218415495
 30
0.0
 11
139.017358854664
 21
48.61232218415495
 31
0.0
  0
SOLID
  5
2BED
330
2BE6
100
AcDbEntity
  8
寸法
 62
     0
100
AcDbTrace
 10
128.5173588546639
 20
48.19565551748828
 30
0.0
 11
128.5173588546639
 21
49.02898885082161
 31
0.0
 12
131.0173588546639
 22
48.61232218415495
 32
0.0
 13
131.0173588546639
 23
48.61232218415495
 33
0.0
  0
SOLID
  5
2BEE
330
2BE6
100
AcDbEntity
  8
寸法
 62
     0
100
AcDbTrace
 10
136.517358854664
 20
49.02898885082161
 30
0.0
 11
136.517358854664
 21
48.19565551748828
 31
0.0
 12
134.017358854664
 22
48.61232218415495
 32
0.0
 13
134.017358854664
 23
48.61232218415495
 33
0.0
  0
MTEXT
  5
2BEF
330
2BE6
100
AcDbEntity
  8
寸法
  6
Continuous
 62
     0
100
AcDbMText
 10
135.0769806974426
 20
53.49449204015497
 30
0.0
 40
5.0
 41
0.0
 46
0.0
 71
     5
 72
     1
  1
0.6
 73
     1
 44
1.0
  0
POINT
  5
2BF0
330
2BE6
100
AcDbEntity
  8
Defpoints
 62
     0
100
AcDbPoint
 10
131.0173588546639
 20
45.46912081215515
 30
0.0
  0
POINT
  5
2BF1
330
2BE6
100
AcDbEntity
  8
Defpoints
 62
     0
100
AcDbPoint
 10
134.017358854664
 20
45.46912081215515
 30
0.0
  0
POINT
  5
2BF2
330
2BE6
100
AcDbEntity
  8
Defpoints
 62
     0
100
AcDbPoint
 10
134.017358854664
 20
48.61232218415495
 30
0.0
  0
ENDBLK
  5
2BE8
330
2BE6
100
AcDbEntity
  8
0
100
AcDbBlockEnd
  0
BLOCK
  5
2BF7
330
2BF6
100
AcDbEntity
  8
0
100
AcDbBlockBegin
  2
*D38
 70
     1
 10
0.0
 20
0.0
 30
0.0
  3
*D38
  1
*D264
  0
LINE
  5
2BF9
330
2BF6
100
AcDbEntity
  8
寸法
  6
Continuous
 62
     0
370
    -2
100
AcDbLine
 10
133.1423588546639
 20
43.96912081215504
 30
0.0
 11
140.8568290174426
 21
43.96912081215504
 31
0.0
  0
LINE
  5
2BFA
330
2BF6
100
AcDbEntity
  8
寸法
  6
Continuous
 62
     0
370
    -2
100
AcDbLine
 10
134.642358854664
 20
45.46912081215515
 30
0.0
 11
140.8568290174426
 21
45.46912081215515
 31
0.0
  0
LINE
  5
2BFB
330
2BF6
100
AcDbEntity
  8
寸法
  6
Continuous
 62
     0
370
    -2
100
AcDbLine
 10
139.6068290174426
 20
41.46912081215504
 30
0.0
 11
139.6068290174426
 21
38.96912081215504
 31
0.0
  0
LINE
  5
2BFC
330
2BF6
100
AcDbEntity
  8
寸法
  6
Continuous
 62
     0
370
    -2
100
AcDbLine
 10
139.6068290174426
 20
47.96912081215515
 30
0.0
 11
139.6068290174426
 21
50.46912081215515
 31
0.0
  0
SOLID
  5
2BFD
330
2BF6
100
AcDbEntity
  8
寸法
 62
     0
100
AcDbTrace
 10
140.0234956841092
 20
41.46912081215504
 30
0.0
 11
139.1901623507759
 21
41.46912081215504
 31
0.0
 12
139.6068290174426
 22
43.96912081215504
 32
0.0
 13
139.6068290174426
 23
43.96912081215504
 33
0.0
  0
SOLID
  5
2BFE
330
2BF6
100
AcDbEntity
  8
寸法
 62
     0
100
AcDbTrace
 10
139.1901623507759
 20
47.96912081215515
 30
0.0
 11
140.0234956841092
 21
47.96912081215515
 31
0.0
 12
139.6068290174426
 22
45.46912081215515
 32
0.0
 13
139.6068290174426
 23
45.46912081215515
 33
0.0
  0
MTEXT
  5
2BFF
330
2BF6
100
AcDbEntity
  8
寸法
  6
Continuous
 62
     0
100
AcDbMText
 10
139.6068290174426
 20
37.69035456815499
 30
0.0
 40
5.0
 41
0.0
 46
0.0
 71
     5
 72
     1
  1
0.3
 73
     1
 44
1.0
  0
POINT
  5
2C00
330
2BF6
100
AcDbEntity
  8
Defpoints
 62
     0
100
AcDbPoint
 10
132.5173588546639
 20
43.96912081215504
 30
0.0
  0
POINT
  5
2C01
330
2BF6
100
AcDbEntity
  8
Defpoints
 62
     0
100
AcDbPoint
 10
134.017358854664
 20
45.46912081215515
 30
0.0
  0
POINT
  5
2C02
330
2BF6
100
AcDbEntity
  8
Defpoints
 62
     0
100
AcDbPoint
 10
139.6068290174426
 20
45.46912081215515
 30
0.0
  0
ENDBLK
  5
2BF8
330
2BF6
100
AcDbEntity
  8
0
100
AcDbBlockEnd
  0
BLOCK
  5
2D6D
330
2D6C
100
AcDbEntity
  8
0
100
AcDbBlockBegin
  2
*D39
 70
     1
 10
0.0
 20
0.0
 30
0.0
  3
*D39
  1
*D266
  0
LINE
  5
2D6F
330
2D6C
100
AcDbEntity
  8
寸法
  6
Continuous
 62
     0
370
    -2
100
AcDbLine
 10
88.59565742666396
 20
167.1486594672401
 30
0.0
 11
94.82988437182206
 21
167.1486594672401
 31
0.0
  0
LINE
  5
2D70
330
2D6C
100
AcDbEntity
  8
寸法
  6
Continuous
 62
     0
370
    -2
100
AcDbLine
 10
86.77347646325063
 20
160.1486594672401
 30
0.0
 11
94.82988437182206
 21
160.1486594672401
 31
0.0
  0
LINE
  5
2D71
330
2D6C
100
AcDbEntity
  8
寸法
  6
Continuous
 62
     0
370
    -2
100
AcDbLine
 10
93.57988437182206
 20
164.6486594672401
 30
0.0
 11
93.57988437182206
 21
162.6486594672401
 31
0.0
  0
SOLID
  5
2D72
330
2D6C
100
AcDbEntity
  8
寸法
 62
     0
100
AcDbTrace
 10
93.99655103848873
 20
164.6486594672401
 30
0.0
 11
93.16321770515539
 21
164.6486594672401
 31
0.0
 12
93.57988437182206
 22
167.1486594672401
 32
0.0
 13
93.57988437182206
 23
167.1486594672401
 33
0.0
  0
SOLID
  5
2D73
330
2D6C
100
AcDbEntity
  8
寸法
 62
     0
100
AcDbTrace
 10
93.16321770515539
 20
162.6486594672401
 30
0.0
 11
93.99655103848873
 21
162.6486594672401
 31
0.0
 12
93.57988437182206
 22
160.1486594672401
 32
0.0
 13
93.57988437182206
 23
160.1486594672401
 33
0.0
  0
MTEXT
  5
2D74
330
2D6C
100
AcDbEntity
  8
寸法
  6
Continuous
 62
     0
100
AcDbMText
 10
100.0286267718221
 20
163.0423886670308
 30
0.0
 40
5.0
 41
0.0
 46
0.0
 71
     5
 72
     1
  1
3.5
 73
     1
 44
1.0
  0
POINT
  5
2D75
330
2D6C
100
AcDbEntity
  8
Defpoints
 62
     0
100
AcDbPoint
 10
87.97065742666396
 20
167.1486594672401
 30
0.0
  0
POINT
  5
2D76
330
2D6C
100
AcDbEntity
  8
Defpoints
 62
     0
100
AcDbPoint
 10
86.14847646325063
 20
160.1486594672401
 30
0.0
  0
POINT
  5
2D77
330
2D6C
100
AcDbEntity
  8
Defpoints
 62
     0
100
AcDbPoint
 10
93.57988437182206
 20
160.1486594672401
 30
0.0
  0
ENDBLK
  5
2D6E
330
2D6C
100
AcDbEntity
  8
0
100
AcDbBlockEnd
  0
BLOCK
  5
2F0B
330
2F0A
100
AcDbEntity
  8
0
100
AcDbBlockBegin
  2
*D40
 70
     1
 10
0.0
 20
0.0
 30
0.0
  3
*D40
  1
*D217
  0
LINE
  5
2F0C
330
2F0A
100
AcDbEntity
  8
寸法
  6
Continuous
 62
     0
370
    -2
100
AcDbLine
 10
34.20225314247151
 20
20.27431262584416
 30
0.0
 11
39.72767314247145
 21
20.27431262584416
 31
0.0
  0
LINE
  5
2F0D
330
2F0A
100
AcDbEntity
  8
寸法
  6
Continuous
 62
     0
370
    -2
100
AcDbLine
 10
34.20225314247151
 20
12.27431262584416
 30
0.0
 11
39.72767314247145
 21
12.27431262584416
 31
0.0
  0
LINE
  5
2F0E
330
2F0A
100
AcDbEntity
  8
寸法
  6
Continuous
 62
     0
370
    -2
100
AcDbLine
 10
38.47767314247145
 20
17.77431262584416
 30
0.0
 11
38.47767314247145
 21
17.72626055972036
 31
0.0
  0
LINE
  5
2F0F
330
2F0A
100
AcDbEntity
  8
寸法
  6
Continuous
 62
     0
370
    -2
100
AcDbLine
 10
38.47767314247145
 20
14.77431262584416
 30
0.0
 11
38.47767314247145
 21
13.97626055972036
 31
0.0
  0
SOLID
  5
2F10
330
2F0A
100
AcDbEntity
  8
寸法
 62
     0
100
AcDbTrace
 10
38.89433980913811
 20
17.77431262584416
 30
0.0
 11
38.06100647580478
 21
17.77431262584416
 31
0.0
 12
38.47767314247145
 22
20.27431262584416
 32
0.0
 13
38.47767314247145
 23
20.27431262584416
 33
0.0
  0
SOLID
  5
2F11
330
2F0A
100
AcDbEntity
  8
寸法
 62
     0
100
AcDbTrace
 10
38.06100647580478
 20
14.77431262584416
 30
0.0
 11
38.89433980913811
 21
14.77431262584416
 31
0.0
 12
38.47767314247145
 22
12.27431262584416
 32
0.0
 13
38.47767314247145
 23
12.27431262584416
 33
0.0
  0
MTEXT
  5
2F12
330
2F0A
100
AcDbEntity
  8
寸法
  6
Continuous
 62
     0
100
AcDbMText
 10
38.47767314247145
 20
15.85126055972036
 30
0.0
 40
2.5
 41
0.0
 46
0.0
 71
     5
 72
     1
  1
8
 73
     1
 44
1.0
  0
POINT
  5
2F13
330
2F0A
100
AcDbEntity
  8
Defpoints
 62
     0
100
AcDbPoint
 10
33.57725314247151
 20
20.27431262584416
 30
0.0
  0
POINT
  5
2F14
330
2F0A
100
AcDbEntity
  8
Defpoints
 62
     0
100
AcDbPoint
 10
33.57725314247151
 20
12.27431262584416
 30
0.0
  0
POINT
  5
2F15
330
2F0A
100
AcDbEntity
  8
Defpoints
 62
     0
100
AcDbPoint
 10
38.47767314247145
 20
12.27431262584416
 30
0.0
  0
ENDBLK
  5
2F16
330
2F0A
100
AcDbEntity
  8
0
100
AcDbBlockEnd
  0
BLOCK
  5
2F1A
330
2F19
100
AcDbEntity
  8
0
100
AcDbBlockBegin
  2
*D41
 70
     1
 10
0.0
 20
0.0
 30
0.0
  3
*D41
  1
*D218
  0
LINE
  5
2F1B
330
2F19
100
AcDbEntity
  8
寸法
  6
Continuous
 62
     0
370
    -2
100
AcDbLine
 10
12.57725314247151
 20
11.64931262584416
 30
0.0
 11
12.57725314247151
 21
3.55400000000003
 31
0.0
  0
LINE
  5
2F1C
330
2F19
100
AcDbEntity
  8
寸法
  6
Continuous
 62
     0
370
    -2
100
AcDbLine
 10
33.57725314247151
 20
11.64931262584416
 30
0.0
 11
33.57725314247151
 21
3.55400000000003
 31
0.0
  0
LINE
  5
2F1D
330
2F19
100
AcDbEntity
  8
寸法
  6
Continuous
 62
     0
370
    -2
100
AcDbLine
 10
15.07725314247151
 20
4.80400000000003
 30
0.0
 11
31.07725314247151
 21
4.80400000000003
 31
0.0
  0
LINE
  5
2F1E
330
2F19
100
AcDbEntity
  8
寸法
  6
Continuous
 62
     0
370
    -2
100
AcDbLine
 10
31.07725314247151
 20
4.80400000000003
 30
0.0
 11
15.07725314247151
 21
4.80400000000003
 31
0.0
  0
SOLID
  5
2F1F
330
2F19
100
AcDbEntity
  8
寸法
 62
     0
100
AcDbTrace
 10
15.07725314247151
 20
5.220666666666697
 30
0.0
 11
15.07725314247151
 21
4.387333333333364
 31
0.0
 12
12.57725314247151
 22
4.80400000000003
 32
0.0
 13
12.57725314247151
 23
4.80400000000003
 33
0.0
  0
SOLID
  5
2F20
330
2F19
100
AcDbEntity
  8
寸法
 62
     0
100
AcDbTrace
 10
31.07725314247151
 20
4.387333333333364
 30
0.0
 11
31.07725314247151
 21
5.220666666666697
 31
0.0
 12
33.57725314247151
 22
4.80400000000003
 32
0.0
 13
33.57725314247151
 23
4.80400000000003
 33
0.0
  0
MTEXT
  5
2F21
330
2F19
100
AcDbEntity
  8
寸法
  6
Continuous
 62
     0
100
AcDbMText
 10
23.2152475424715
 20
2.807200000000023
 30
0.0
 40
2.5
 41
0.0
 46
0.0
 71
     5
 72
     1
  1
21
 73
     1
 44
1.0
  0
POINT
  5
2F22
330
2F19
100
AcDbEntity
  8
Defpoints
 62
     0
100
AcDbPoint
 10
12.57725314247151
 20
12.27431262584416
 30
0.0
  0
POINT
  5
2F23
330
2F19
100
AcDbEntity
  8
Defpoints
 62
     0
100
AcDbPoint
 10
33.57725314247151
 20
12.27431262584416
 30
0.0
  0
POINT
  5
2F24
330
2F19
100
AcDbEntity
  8
Defpoints
 62
     0
100
AcDbPoint
 10
33.57725314247151
 20
4.80400000000003
 30
0.0
  0
ENDBLK
  5
2F25
330
2F19
100
AcDbEntity
  8
0
100
AcDbBlockEnd
  0
BLOCK
  5
2F29
330
2F28
100
AcDbEntity
  8
0
100
AcDbBlockBegin
  2
*D42
 70
     1
 10
0.0
 20
0.0
 30
0.0
  3
*D42
  1
*D220
  0
LINE
  5
2F2A
330
2F28
100
AcDbEntity
  8
寸法
  6
Continuous
 62
     0
370
    -2
100
AcDbLine
 10
8.577253142471505
 20
20.89931262584416
 30
0.0
 11
8.577253142471505
 21
30.6068753124884
 31
0.0
  0
LINE
  5
2F2B
330
2F28
100
AcDbEntity
  8
寸法
  6
Continuous
 62
     0
370
    -2
100
AcDbLine
 10
33.77725314247149
 20
20.69931262584414
 30
0.0
 11
33.77725314247149
 21
30.6068753124884
 31
0.0
  0
LINE
  5
2F2C
330
2F28
100
AcDbEntity
  8
寸法
  6
Continuous
 62
     0
370
    -2
100
AcDbLine
 10
11.07725314247151
 20
29.3568753124884
 30
0.0
 11
18.20395169274352
 21
29.3568753124884
 31
0.0
  0
LINE
  5
2F2D
330
2F28
100
AcDbEntity
  8
寸法
  6
Continuous
 62
     0
370
    -2
100
AcDbLine
 10
31.27725314247149
 20
29.3568753124884
 30
0.0
 11
26.95395169274352
 21
29.3568753124884
 31
0.0
  0
SOLID
  5
2F2E
330
2F28
100
AcDbEntity
  8
寸法
 62
     0
100
AcDbTrace
 10
11.07725314247151
 20
29.77354197915507
 30
0.0
 11
11.07725314247151
 21
28.94020864582173
 31
0.0
 12
8.577253142471505
 22
29.3568753124884
 32
0.0
 13
8.577253142471505
 23
29.3568753124884
 33
0.0
  0
SOLID
  5
2F2F
330
2F28
100
AcDbEntity
  8
寸法
 62
     0
100
AcDbTrace
 10
31.27725314247149
 20
28.94020864582173
 30
0.0
 11
31.27725314247149
 21
29.77354197915507
 31
0.0
 12
33.77725314247149
 22
29.3568753124884
 32
0.0
 13
33.77725314247149
 23
29.3568753124884
 33
0.0
  0
MTEXT
  5
2F30
330
2F28
100
AcDbEntity
  8
寸法
  6
Continuous
 62
     0
100
AcDbMText
 10
22.57895169274352
 20
29.3568753124884
 30
0.0
 40
2.5
 41
0.0
 46
0.0
 71
     5
 72
     1
  1
25.2
 73
     1
 44
1.0
  0
POINT
  5
2F31
330
2F28
100
AcDbEntity
  8
Defpoints
 62
     0
100
AcDbPoint
 10
8.577253142471505
 20
20.27431262584416
 30
0.0
  0
POINT
  5
2F32
330
2F28
100
AcDbEntity
  8
Defpoints
 62
     0
100
AcDbPoint
 10
33.77725314247149
 20
20.07431262584414
 30
0.0
  0
POINT
  5
2F33
330
2F28
100
AcDbEntity
  8
Defpoints
 62
     0
100
AcDbPoint
 10
33.77725314247149
 20
29.3568753124884
 30
0.0
  0
ENDBLK
  5
2F34
330
2F28
100
AcDbEntity
  8
0
100
AcDbBlockEnd
  0
BLOCK
  5
2F38
330
2F37
100
AcDbEntity
  8
0
100
AcDbBlockBegin
  2
*D43
 70
     1
 10
0.0
 20
0.0
 30
0.0
  3
*D43
  1
*D221
  0
LINE
  5
2F39
330
2F37
100
AcDbEntity
  8
寸法
  6
Continuous
 62
     0
370
    -2
100
AcDbLine
 10
8.577253142471505
 20
20.89931262584416
 30
0.0
 11
8.577253142471505
 21
25.87280811248836
 31
0.0
  0
LINE
  5
2F3A
330
2F37
100
AcDbEntity
  8
寸法
  6
Continuous
 62
     0
370
    -2
100
AcDbLine
 10
33.57725314247151
 20
20.89931262584416
 30
0.0
 11
33.57725314247151
 21
25.87280811248836
 31
0.0
  0
LINE
  5
2F3B
330
2F37
100
AcDbEntity
  8
寸法
  6
Continuous
 62
     0
370
    -2
100
AcDbLine
 10
11.07725314247151
 20
24.62280811248836
 30
0.0
 11
19.73826123941014
 21
24.62280811248836
 31
0.0
  0
LINE
  5
2F3C
330
2F37
100
AcDbEntity
  8
寸法
  6
Continuous
 62
     0
370
    -2
100
AcDbLine
 10
31.07725314247151
 20
24.62280811248836
 30
0.0
 11
25.1549279060768
 21
24.62280811248836
 31
0.0
  0
SOLID
  5
2F3D
330
2F37
100
AcDbEntity
  8
寸法
 62
     0
100
AcDbTrace
 10
11.07725314247151
 20
25.03947477915503
 30
0.0
 11
11.07725314247151
 21
24.20614144582169
 31
0.0
 12
8.577253142471505
 22
24.62280811248836
 32
0.0
 13
8.577253142471505
 23
24.62280811248836
 33
0.0
  0
SOLID
  5
2F3E
330
2F37
100
AcDbEntity
  8
寸法
 62
     0
100
AcDbTrace
 10
31.07725314247151
 20
24.20614144582169
 30
0.0
 11
31.07725314247151
 21
25.03947477915503
 31
0.0
 12
33.57725314247151
 22
24.62280811248836
 32
0.0
 13
33.57725314247151
 23
24.62280811248836
 33
0.0
  0
MTEXT
  5
2F3F
330
2F37
100
AcDbEntity
  8
寸法
  6
Continuous
 62
     0
100
AcDbMText
 10
22.44659457274346
 20
24.62280811248836
 30
0.0
 40
2.5
 41
0.0
 46
0.0
 71
     5
 72
     1
  1
25
 73
     1
 44
1.0
  0
POINT
  5
2F40
330
2F37
100
AcDbEntity
  8
Defpoints
 62
     0
100
AcDbPoint
 10
8.577253142471505
 20
20.27431262584416
 30
0.0
  0
POINT
  5
2F41
330
2F37
100
AcDbEntity
  8
Defpoints
 62
     0
100
AcDbPoint
 10
33.57725314247151
 20
20.27431262584416
 30
0.0
  0
POINT
  5
2F42
330
2F37
100
AcDbEntity
  8
Defpoints
 62
     0
100
AcDbPoint
 10
33.57725314247151
 20
24.62280811248836
 30
0.0
  0
ENDBLK
  5
2F43
330
2F37
100
AcDbEntity
  8
0
100
AcDbBlockEnd
  0
BLOCK
  5
2F47
330
2F46
100
AcDbEntity
  8
0
100
AcDbBlockBegin
  2
*D44
 70
     1
 10
0.0
 20
0.0
 30
0.0
  3
*D44
  1
*D222
  0
LINE
  5
2F48
330
2F46
100
AcDbEntity
  8
寸法
  6
Continuous
 62
     0
370
    -2
100
AcDbLine
 10
8.577253142471505
 20
11.68658119288411
 30
0.0
 11
8.577253142471505
 21
3.591268567040004
 31
0.0
  0
LINE
  5
2F49
330
2F46
100
AcDbEntity
  8
寸法
  6
Continuous
 62
     0
370
    -2
100
AcDbLine
 10
10.57725314247151
 20
12.0255909636755
 30
0.0
 11
10.57725314247151
 21
3.591268567040004
 31
0.0
  0
LINE
  5
2F4A
330
2F46
100
AcDbEntity
  8
寸法
  6
Continuous
 62
     0
370
    -2
100
AcDbLine
 10
6.077253142471505
 20
4.841268567040004
 30
0.0
 11
3.577253142471505
 21
4.841268567040004
 31
0.0
  0
LINE
  5
2F4B
330
2F46
100
AcDbEntity
  8
寸法
  6
Continuous
 62
     0
370
    -2
100
AcDbLine
 10
13.07725314247151
 20
4.841268567040004
 30
0.0
 11
15.57725314247151
 21
4.841268567040004
 31
0.0
  0
SOLID
  5
2F4C
330
2F46
100
AcDbEntity
  8
寸法
 62
     0
100
AcDbTrace
 10
6.077253142471505
 20
4.424601900373337
 30
0.0
 11
6.077253142471505
 21
5.257935233706671
 31
0.0
 12
8.577253142471505
 22
4.841268567040004
 32
0.0
 13
8.577253142471505
 23
4.841268567040004
 33
0.0
  0
SOLID
  5
2F4D
330
2F46
100
AcDbEntity
  8
寸法
 62
     0
100
AcDbTrace
 10
13.07725314247151
 20
5.257935233706671
 30
0.0
 11
13.07725314247151
 21
4.424601900373337
 31
0.0
 12
10.57725314247151
 22
4.841268567040004
 32
0.0
 13
10.57725314247151
 23
4.841268567040004
 33
0.0
  0
MTEXT
  5
2F4E
330
2F46
100
AcDbEntity
  8
寸法
  6
Continuous
 62
     0
100
AcDbMText
 10
8.915658457543515
 20
2.614068567039993
 30
0.0
 40
2.5
 41
0.0
 46
0.0
 71
     5
 72
     1
  1
2
 73
     1
 44
1.0
  0
POINT
  5
2F4F
330
2F46
100
AcDbEntity
  8
Defpoints
 62
     0
100
AcDbPoint
 10
8.577253142471505
 20
12.31158119288411
 30
0.0
  0
POINT
  5
2F50
330
2F46
100
AcDbEntity
  8
Defpoints
 62
     0
100
AcDbPoint
 10
10.57725314247151
 20
12.6505909636755
 30
0.0
  0
POINT
  5
2F51
330
2F46
100
AcDbEntity
  8
Defpoints
 62
     0
100
AcDbPoint
 10
10.57725314247151
 20
4.841268567040004
 30
0.0
  0
ENDBLK
  5
2F52
330
2F46
100
AcDbEntity
  8
0
100
AcDbBlockEnd
  0
BLOCK
  5
2F56
330
2F55
100
AcDbEntity
  8
0
100
AcDbBlockBegin
  2
*D45
 70
     1
 10
0.0
 20
0.0
 30
0.0
  3
*D45
  1
*D223
  0
LINE
  5
2F57
330
2F55
100
AcDbEntity
  8
寸法
  6
Continuous
 62
     0
370
    -2
100
AcDbLine
 10
10.57725314247151
 20
12.0255909636755
 30
0.0
 11
10.57725314247151
 21
3.55400000000003
 31
0.0
  0
LINE
  5
2F58
330
2F55
100
AcDbEntity
  8
寸法
  6
Continuous
 62
     0
370
    -2
100
AcDbLine
 10
12.57725314247151
 20
11.64931262584416
 30
0.0
 11
12.57725314247151
 21
3.55400000000003
 31
0.0
  0
LINE
  5
2F59
330
2F55
100
AcDbEntity
  8
寸法
  6
Continuous
 62
     0
370
    -2
100
AcDbLine
 10
8.077253142471505
 20
4.80400000000003
 30
0.0
 11
5.577253142471505
 21
4.80400000000003
 31
0.0
  0
LINE
  5
2F5A
330
2F55
100
AcDbEntity
  8
寸法
  6
Continuous
 62
     0
370
    -2
100
AcDbLine
 10
15.07725314247151
 20
4.80400000000003
 30
0.0
 11
17.57725314247151
 21
4.80400000000003
 31
0.0
  0
SOLID
  5
2F5B
330
2F55
100
AcDbEntity
  8
寸法
 62
     0
100
AcDbTrace
 10
8.077253142471505
 20
4.387333333333364
 30
0.0
 11
8.077253142471505
 21
5.220666666666697
 31
0.0
 12
10.57725314247151
 22
4.80400000000003
 32
0.0
 13
10.57725314247151
 23
4.80400000000003
 33
0.0
  0
SOLID
  5
2F5C
330
2F55
100
AcDbEntity
  8
寸法
 62
     0
100
AcDbTrace
 10
15.07725314247151
 20
5.220666666666697
 30
0.0
 11
15.07725314247151
 21
4.387333333333364
 31
0.0
 12
12.57725314247151
 22
4.80400000000003
 32
0.0
 13
12.57725314247151
 23
4.80400000000003
 33
0.0
  0
MTEXT
  5
2F5D
330
2F55
100
AcDbEntity
  8
寸法
  6
Continuous
 62
     0
100
AcDbMText
 10
11.63291714861546
 20
2.5
 30
0.0
 40
2.5
 41
0.0
 46
0.0
 71
     5
 72
     1
  1
2
 73
     1
 44
1.0
  0
POINT
  5
2F5E
330
2F55
100
AcDbEntity
  8
Defpoints
 62
     0
100
AcDbPoint
 10
10.57725314247151
 20
12.6505909636755
 30
0.0
  0
POINT
  5
2F5F
330
2F55
100
AcDbEntity
  8
Defpoints
 62
     0
100
AcDbPoint
 10
12.57725314247151
 20
12.27431262584416
 30
0.0
  0
POINT
  5
2F60
330
2F55
100
AcDbEntity
  8
Defpoints
 62
     0
100
AcDbPoint
 10
12.57725314247151
 20
4.80400000000003
 30
0.0
  0
ENDBLK
  5
2F61
330
2F55
100
AcDbEntity
  8
0
100
AcDbBlockEnd
  0
BLOCK
  5
2F65
330
2F64
100
AcDbEntity
  8
0
100
AcDbBlockBegin
  2
*D46
 70
     1
 10
0.0
 20
0.0
 30
0.0
  3
*D46
  1
*D225
  0
LINE
  5
2F66
330
2F64
100
AcDbEntity
  8
寸法
  6
Continuous
 62
     0
370
    -2
100
AcDbLine
 10
7.639894410183473
 20
20.27431262584416
 30
0.0
 11
3.367056089543468
 21
20.27431262584416
 31
0.0
  0
LINE
  5
2F67
330
2F64
100
AcDbEntity
  8
寸法
  6
Continuous
 62
     0
370
    -2
100
AcDbLine
 10
7.952253142471505
 20
14.27431262584416
 30
0.0
 11
3.367056089543468
 21
14.27431262584416
 31
0.0
  0
LINE
  5
2F68
330
2F64
100
AcDbEntity
  8
寸法
  6
Continuous
 62
     0
370
    -2
100
AcDbLine
 10
4.617056089543468
 20
22.77431262584416
 30
0.0
 11
4.617056089543468
 21
25.27431262584416
 31
0.0
  0
LINE
  5
2F69
330
2F64
100
AcDbEntity
  8
寸法
  6
Continuous
 62
     0
370
    -2
100
AcDbLine
 10
4.617056089543468
 20
11.77431262584416
 30
0.0
 11
4.617056089543468
 21
9.27431262584416
 31
0.0
  0
SOLID
  5
2F6A
330
2F64
100
AcDbEntity
  8
寸法
 62
     0
100
AcDbTrace
 10
4.200389422876801
 20
22.77431262584416
 30
0.0
 11
5.033722756210135
 21
22.77431262584416
 31
0.0
 12
4.617056089543468
 22
20.27431262584416
 32
0.0
 13
4.617056089543468
 23
20.27431262584416
 33
0.0
  0
SOLID
  5
2F6B
330
2F64
100
AcDbEntity
  8
寸法
 62
     0
100
AcDbTrace
 10
5.033722756210135
 20
11.77431262584416
 30
0.0
 11
4.200389422876801
 21
11.77431262584416
 31
0.0
 12
4.617056089543468
 22
14.27431262584416
 32
0.0
 13
4.617056089543468
 23
14.27431262584416
 33
0.0
  0
MTEXT
  5
2F6C
330
2F64
100
AcDbEntity
  8
寸法
  6
Continuous
 62
     0
100
AcDbMText
 10
2.061152089543469
 20
17.2124812516884
 30
0.0
 40
2.5
 41
0.0
 46
0.0
 71
     5
 72
     1
  1
6
 73
     1
 44
1.0
  0
POINT
  5
2F6D
330
2F64
100
AcDbEntity
  8
Defpoints
 62
     0
100
AcDbPoint
 10
8.264894410183473
 20
20.27431262584416
 30
0.0
  0
POINT
  5
2F6E
330
2F64
100
AcDbEntity
  8
Defpoints
 62
     0
100
AcDbPoint
 10
8.577253142471505
 20
14.27431262584416
 30
0.0
  0
POINT
  5
2F6F
330
2F64
100
AcDbEntity
  8
Defpoints
 62
     0
100
AcDbPoint
 10
4.617056089543468
 20
14.27431262584416
 30
0.0
  0
ENDBLK
  5
2F70
330
2F64
100
AcDbEntity
  8
0
100
AcDbBlockEnd
  0
BLOCK
  5
2F74
330
2F73
100
AcDbEntity
  8
0
100
AcDbBlockBegin
  2
*D47
 70
     1
 10
0.0
 20
0.0
 30
0.0
  3
*D47
  1
*D226
  0
LINE
  5
2F75
330
2F73
100
AcDbEntity
  8
寸法
  6
Continuous
 62
     0
370
    -2
100
AcDbLine
 10
7.952253142471505
 20
14.27431262584416
 30
0.0
 11
3.367056089543468
 21
14.27431262584416
 31
0.0
  0
LINE
  5
2F76
330
2F73
100
AcDbEntity
  8
寸法
  6
Continuous
 62
     0
370
    -2
100
AcDbLine
 10
7.952253142471505
 20
12.27431262584416
 30
0.0
 11
3.367056089543468
 21
12.27431262584416
 31
0.0
  0
LINE
  5
2F77
330
2F73
100
AcDbEntity
  8
寸法
  6
Continuous
 62
     0
370
    -2
100
AcDbLine
 10
4.617056089543468
 20
16.77431262584416
 30
0.0
 11
4.617056089543468
 21
19.27431262584416
 31
0.0
  0
LINE
  5
2F78
330
2F73
100
AcDbEntity
  8
寸法
  6
Continuous
 62
     0
370
    -2
100
AcDbLine
 10
4.617056089543468
 20
9.77431262584416
 30
0.0
 11
4.617056089543468
 21
7.274312625844161
 31
0.0
  0
SOLID
  5
2F79
330
2F73
100
AcDbEntity
  8
寸法
 62
     0
100
AcDbTrace
 10
4.200389422876801
 20
16.77431262584416
 30
0.0
 11
5.033722756210135
 21
16.77431262584416
 31
0.0
 12
4.617056089543468
 22
14.27431262584416
 32
0.0
 13
4.617056089543468
 23
14.27431262584416
 33
0.0
  0
SOLID
  5
2F7A
330
2F73
100
AcDbEntity
  8
寸法
 62
     0
100
AcDbTrace
 10
5.033722756210135
 20
9.77431262584416
 30
0.0
 11
4.200389422876801
 21
9.77431262584416
 31
0.0
 12
4.617056089543468
 22
12.27431262584416
 32
0.0
 13
4.617056089543468
 23
12.27431262584416
 33
0.0
  0
MTEXT
  5
2F7B
330
2F73
100
AcDbEntity
  8
寸法
  6
Continuous
 62
     0
100
AcDbMText
 10
1.982508889543453
 20
13.0443916516884
 30
0.0
 40
2.5
 41
0.0
 46
0.0
 71
     5
 72
     1
  1
2
 73
     1
 44
1.0
  0
POINT
  5
2F7C
330
2F73
100
AcDbEntity
  8
Defpoints
 62
     0
100
AcDbPoint
 10
8.577253142471505
 20
14.27431262584416
 30
0.0
  0
POINT
  5
2F7D
330
2F73
100
AcDbEntity
  8
Defpoints
 62
     0
100
AcDbPoint
 10
8.577253142471505
 20
12.27431262584416
 30
0.0
  0
POINT
  5
2F7E
330
2F73
100
AcDbEntity
  8
Defpoints
 62
     0
100
AcDbPoint
 10
4.617056089543468
 20
12.27431262584416
 30
0.0
  0
ENDBLK
  5
2F7F
330
2F73
100
AcDbEntity
  8
0
100
AcDbBlockEnd
  0
BLOCK
  5
303E
330
303D
100
AcDbEntity
  8
0
100
AcDbBlockBegin
  2
*D48
 70
     1
 10
0.0
 20
0.0
 30
0.0
  3
*D48
  1

  0
LINE
  5
3040
330
303D
100
AcDbEntity
  8
寸法
  6
Continuous
 62
     0
370
    -2
100
AcDbLine
 10
136.5022982001895
 20
110.1481043649188
 30
0.0
 11
142.0277182001895
 21
110.1481043649188
 31
0.0
  0
LINE
  5
3041
330
303D
100
AcDbEntity
  8
寸法
  6
Continuous
 62
     0
370
    -2
100
AcDbLine
 10
136.5022982001895
 20
102.1481043649188
 30
0.0
 11
142.0277182001895
 21
102.1481043649188
 31
0.0
  0
LINE
  5
3042
330
303D
100
AcDbEntity
  8
寸法
  6
Continuous
 62
     0
370
    -2
100
AcDbLine
 10
140.7777182001895
 20
107.6481043649188
 30
0.0
 11
140.7777182001895
 21
104.6481043649188
 31
0.0
  0
LINE
  5
3043
330
303D
100
AcDbEntity
  8
寸法
  6
Continuous
 62
     0
370
    -2
100
AcDbLine
 10
140.7777182001895
 20
104.6481043649188
 30
0.0
 11
140.7777182001895
 21
107.6481043649188
 31
0.0
  0
SOLID
  5
3044
330
303D
100
AcDbEntity
  8
寸法
 62
     0
100
AcDbTrace
 10
141.1943848668561
 20
107.6481043649188
 30
0.0
 11
140.3610515335228
 21
107.6481043649188
 31
0.0
 12
140.7777182001895
 22
110.1481043649188
 32
0.0
 13
140.7777182001895
 23
110.1481043649188
 33
0.0
  0
SOLID
  5
3045
330
303D
100
AcDbEntity
  8
寸法
 62
     0
100
AcDbTrace
 10
140.3610515335228
 20
104.6481043649188
 30
0.0
 11
141.1943848668561
 21
104.6481043649188
 31
0.0
 12
140.7777182001895
 22
102.1481043649188
 32
0.0
 13
140.7777182001895
 23
102.1481043649188
 33
0.0
  0
MTEXT
  5
3046
330
303D
100
AcDbEntity
  8
寸法
  6
Continuous
 62
     0
100
AcDbMText
 10
142.974583816062
 20
106.0792505484279
 30
0.0
 40
2.5
 41
0.0
 46
0.0
 71
     5
 72
     1
  1
8
 73
     1
 44
1.0
  0
POINT
  5
3047
330
303D
100
AcDbEntity
  8
Defpoints
 62
     0
100
AcDbPoint
 10
135.8772982001895
 20
110.1481043649188
 30
0.0
  0
POINT
  5
3048
330
303D
100
AcDbEntity
  8
Defpoints
 62
     0
100
AcDbPoint
 10
135.8772982001895
 20
102.1481043649188
 30
0.0
  0
POINT
  5
3049
330
303D
100
AcDbEntity
  8
Defpoints
 62
     0
100
AcDbPoint
 10
140.7777182001895
 20
102.1481043649188
 30
0.0
  0
ENDBLK
  5
303F
330
303D
100
AcDbEntity
  8
0
100
AcDbBlockEnd
  0
BLOCK
  5
304B
330
304A
100
AcDbEntity
  8
0
100
AcDbBlockBegin
  2
*D49
 70
     1
 10
0.0
 20
0.0
 30
0.0
  3
*D49
  1

  0
LINE
  5
304D
330
304A
100
AcDbEntity
  8
寸法
  6
Continuous
 62
     0
370
    -2
100
AcDbLine
 10
114.8772982001895
 20
101.5231043649188
 30
0.0
 11
114.8772982001895
 21
93.42779173907466
 31
0.0
  0
LINE
  5
304E
330
304A
100
AcDbEntity
  8
寸法
  6
Continuous
 62
     0
370
    -2
100
AcDbLine
 10
135.8772982001895
 20
101.5231043649188
 30
0.0
 11
135.8772982001895
 21
93.42779173907466
 31
0.0
  0
LINE
  5
304F
330
304A
100
AcDbEntity
  8
寸法
  6
Continuous
 62
     0
370
    -2
100
AcDbLine
 10
117.3772982001895
 20
94.67779173907466
 30
0.0
 11
133.3772982001895
 21
94.67779173907466
 31
0.0
  0
LINE
  5
3050
330
304A
100
AcDbEntity
  8
寸法
  6
Continuous
 62
     0
370
    -2
100
AcDbLine
 10
133.3772982001895
 20
94.67779173907466
 30
0.0
 11
117.3772982001895
 21
94.67779173907466
 31
0.0
  0
SOLID
  5
3051
330
304A
100
AcDbEntity
  8
寸法
 62
     0
100
AcDbTrace
 10
117.3772982001895
 20
95.09445840574134
 30
0.0
 11
117.3772982001895
 21
94.26112507240799
 31
0.0
 12
114.8772982001895
 22
94.67779173907466
 32
0.0
 13
114.8772982001895
 23
94.67779173907466
 33
0.0
  0
SOLID
  5
3052
330
304A
100
AcDbEntity
  8
寸法
 62
     0
100
AcDbTrace
 10
133.3772982001895
 20
94.26112507240799
 30
0.0
 11
133.3772982001895
 21
95.09445840574134
 31
0.0
 12
135.8772982001895
 22
94.67779173907466
 32
0.0
 13
135.8772982001895
 23
94.67779173907466
 33
0.0
  0
MTEXT
  5
3053
330
304A
100
AcDbEntity
  8
寸法
  6
Continuous
 62
     0
100
AcDbMText
 10
125.5152926001895
 20
92.68099173907466
 30
0.0
 40
2.5
 41
0.0
 46
0.0
 71
     5
 72
     1
  1
21
 73
     1
 44
1.0
  0
POINT
  5
3054
330
304A
100
AcDbEntity
  8
Defpoints
 62
     0
100
AcDbPoint
 10
114.8772982001895
 20
102.1481043649188
 30
0.0
  0
POINT
  5
3055
330
304A
100
AcDbEntity
  8
Defpoints
 62
     0
100
AcDbPoint
 10
135.8772982001895
 20
102.1481043649188
 30
0.0
  0
POINT
  5
3056
330
304A
100
AcDbEntity
  8
Defpoints
 62
     0
100
AcDbPoint
 10
135.8772982001895
 20
94.67779173907466
 30
0.0
  0
ENDBLK
  5
304C
330
304A
100
AcDbEntity
  8
0
100
AcDbBlockEnd
  0
BLOCK
  5
3058
330
3057
100
AcDbEntity
  8
0
100
AcDbBlockBegin
  2
*D50
 70
     1
 10
0.0
 20
0.0
 30
0.0
  3
*D50
  1

  0
LINE
  5
305A
330
3057
100
AcDbEntity
  8
寸法
  6
Continuous
 62
     0
370
    -2
100
AcDbLine
 10
110.8772982001895
 20
110.7731043649188
 30
0.0
 11
110.8772982001895
 21
120.480667051563
 31
0.0
  0
LINE
  5
305B
330
3057
100
AcDbEntity
  8
寸法
  6
Continuous
 62
     0
370
    -2
100
AcDbLine
 10
136.0772982001895
 20
110.5731043649188
 30
0.0
 11
136.0772982001895
 21
120.480667051563
 31
0.0
  0
LINE
  5
305C
330
3057
100
AcDbEntity
  8
寸法
  6
Continuous
 62
     0
370
    -2
100
AcDbLine
 10
113.3772982001895
 20
119.230667051563
 30
0.0
 11
120.5039967504615
 21
119.230667051563
 31
0.0
  0
LINE
  5
305D
330
3057
100
AcDbEntity
  8
寸法
  6
Continuous
 62
     0
370
    -2
100
AcDbLine
 10
133.5772982001895
 20
119.230667051563
 30
0.0
 11
129.2539967504615
 21
119.230667051563
 31
0.0
  0
SOLID
  5
305E
330
3057
100
AcDbEntity
  8
寸法
 62
     0
100
AcDbTrace
 10
113.3772982001895
 20
119.6473337182297
 30
0.0
 11
113.3772982001895
 21
118.8140003848964
 31
0.0
 12
110.8772982001895
 22
119.230667051563
 32
0.0
 13
110.8772982001895
 23
119.230667051563
 33
0.0
  0
SOLID
  5
305F
330
3057
100
AcDbEntity
  8
寸法
 62
     0
100
AcDbTrace
 10
133.5772982001895
 20
118.8140003848964
 30
0.0
 11
133.5772982001895
 21
119.6473337182297
 31
0.0
 12
136.0772982001895
 22
119.230667051563
 32
0.0
 13
136.0772982001895
 23
119.230667051563
 33
0.0
  0
MTEXT
  5
3060
330
3057
100
AcDbEntity
  8
寸法
  6
Continuous
 62
     0
100
AcDbMText
 10
124.8789967504615
 20
119.230667051563
 30
0.0
 40
2.5
 41
0.0
 46
0.0
 71
     5
 72
     1
  1
25.2
 73
     1
 44
1.0
  0
POINT
  5
3061
330
3057
100
AcDbEntity
  8
Defpoints
 62
     0
100
AcDbPoint
 10
110.8772982001895
 20
110.1481043649188
 30
0.0
  0
POINT
  5
3062
330
3057
100
AcDbEntity
  8
Defpoints
 62
     0
100
AcDbPoint
 10
136.0772982001895
 20
109.9481043649188
 30
0.0
  0
POINT
  5
3063
330
3057
100
AcDbEntity
  8
Defpoints
 62
     0
100
AcDbPoint
 10
136.0772982001895
 20
119.230667051563
 30
0.0
  0
ENDBLK
  5
3059
330
3057
100
AcDbEntity
  8
0
100
AcDbBlockEnd
  0
BLOCK
  5
3065
330
3064
100
AcDbEntity
  8
0
100
AcDbBlockBegin
  2
*D51
 70
     1
 10
0.0
 20
0.0
 30
0.0
  3
*D51
  1

  0
LINE
  5
3067
330
3064
100
AcDbEntity
  8
寸法
  6
Continuous
 62
     0
370
    -2
100
AcDbLine
 10
110.8772982001895
 20
110.7731043649188
 30
0.0
 11
110.8772982001895
 21
115.746599851563
 31
0.0
  0
LINE
  5
3068
330
3064
100
AcDbEntity
  8
寸法
  6
Continuous
 62
     0
370
    -2
100
AcDbLine
 10
135.8772982001895
 20
110.7731043649188
 30
0.0
 11
135.8772982001895
 21
115.746599851563
 31
0.0
  0
LINE
  5
3069
330
3064
100
AcDbEntity
  8
寸法
  6
Continuous
 62
     0
370
    -2
100
AcDbLine
 10
113.3772982001895
 20
114.496599851563
 30
0.0
 11
122.0383062971282
 21
114.496599851563
 31
0.0
  0
LINE
  5
306A
330
3064
100
AcDbEntity
  8
寸法
  6
Continuous
 62
     0
370
    -2
100
AcDbLine
 10
133.3772982001895
 20
114.496599851563
 30
0.0
 11
127.4549729637948
 21
114.496599851563
 31
0.0
  0
SOLID
  5
306B
330
3064
100
AcDbEntity
  8
寸法
 62
     0
100
AcDbTrace
 10
113.3772982001895
 20
114.9132665182297
 30
0.0
 11
113.3772982001895
 21
114.0799331848963
 31
0.0
 12
110.8772982001895
 22
114.496599851563
 32
0.0
 13
110.8772982001895
 23
114.496599851563
 33
0.0
  0
SOLID
  5
306C
330
3064
100
AcDbEntity
  8
寸法
 62
     0
100
AcDbTrace
 10
133.3772982001895
 20
114.0799331848963
 30
0.0
 11
133.3772982001895
 21
114.9132665182297
 31
0.0
 12
135.8772982001895
 22
114.496599851563
 32
0.0
 13
135.8772982001895
 23
114.496599851563
 33
0.0
  0
MTEXT
  5
306D
330
3064
100
AcDbEntity
  8
寸法
  6
Continuous
 62
     0
100
AcDbMText
 10
124.7466396304615
 20
114.496599851563
 30
0.0
 40
2.5
 41
0.0
 46
0.0
 71
     5
 72
     1
  1
25
 73
     1
 44
1.0
  0
POINT
  5
306E
330
3064
100
AcDbEntity
  8
Defpoints
 62
     0
100
AcDbPoint
 10
110.8772982001895
 20
110.1481043649188
 30
0.0
  0
POINT
  5
306F
330
3064
100
AcDbEntity
  8
Defpoints
 62
     0
100
AcDbPoint
 10
135.8772982001895
 20
110.1481043649188
 30
0.0
  0
POINT
  5
3070
330
3064
100
AcDbEntity
  8
Defpoints
 62
     0
100
AcDbPoint
 10
135.8772982001895
 20
114.496599851563
 30
0.0
  0
ENDBLK
  5
3066
330
3064
100
AcDbEntity
  8
0
100
AcDbBlockEnd
  0
BLOCK
  5
3072
330
3071
100
AcDbEntity
  8
0
100
AcDbBlockBegin
  2
*D52
 70
     1
 10
0.0
 20
0.0
 30
0.0
  3
*D52
  1

  0
LINE
  5
3074
330
3071
100
AcDbEntity
  8
寸法
  6
Continuous
 62
     0
370
    -2
100
AcDbLine
 10
110.8772982001895
 20
101.5603729319587
 30
0.0
 11
110.8772982001895
 21
93.46506030611464
 31
0.0
  0
LINE
  5
3075
330
3071
100
AcDbEntity
  8
寸法
  6
Continuous
 62
     0
370
    -2
100
AcDbLine
 10
112.8772982001895
 20
101.8993827027501
 30
0.0
 11
112.8772982001895
 21
93.46506030611464
 31
0.0
  0
LINE
  5
3076
330
3071
100
AcDbEntity
  8
寸法
  6
Continuous
 62
     0
370
    -2
100
AcDbLine
 10
108.3772982001895
 20
94.71506030611464
 30
0.0
 11
105.8772982001895
 21
94.71506030611464
 31
0.0
  0
LINE
  5
3077
330
3071
100
AcDbEntity
  8
寸法
  6
Continuous
 62
     0
370
    -2
100
AcDbLine
 10
115.3772982001895
 20
94.71506030611464
 30
0.0
 11
117.8772982001895
 21
94.71506030611464
 31
0.0
  0
SOLID
  5
3078
330
3071
100
AcDbEntity
  8
寸法
 62
     0
100
AcDbTrace
 10
108.3772982001895
 20
94.29839363944797
 30
0.0
 11
108.3772982001895
 21
95.13172697278131
 31
0.0
 12
110.8772982001895
 22
94.71506030611464
 32
0.0
 13
110.8772982001895
 23
94.71506030611464
 33
0.0
  0
SOLID
  5
3079
330
3071
100
AcDbEntity
  8
寸法
 62
     0
100
AcDbTrace
 10
115.3772982001895
 20
95.13172697278131
 30
0.0
 11
115.3772982001895
 21
94.29839363944797
 31
0.0
 12
112.8772982001895
 22
94.71506030611464
 32
0.0
 13
112.8772982001895
 23
94.71506030611464
 33
0.0
  0
MTEXT
  5
307A
330
3071
100
AcDbEntity
  8
寸法
  6
Continuous
 62
     0
100
AcDbMText
 10
111.7997887114682
 20
91.86487374245289
 30
0.0
 40
2.5
 41
0.0
 46
0.0
 71
     5
 72
     1
  1
2
 73
     1
 44
1.0
  0
POINT
  5
307B
330
3071
100
AcDbEntity
  8
Defpoints
 62
     0
100
AcDbPoint
 10
110.8772982001895
 20
102.1853729319587
 30
0.0
  0
POINT
  5
307C
330
3071
100
AcDbEntity
  8
Defpoints
 62
     0
100
AcDbPoint
 10
112.8772982001895
 20
102.5243827027501
 30
0.0
  0
POINT
  5
307D
330
3071
100
AcDbEntity
  8
Defpoints
 62
     0
100
AcDbPoint
 10
112.8772982001895
 20
94.71506030611464
 30
0.0
  0
ENDBLK
  5
3073
330
3071
100
AcDbEntity
  8
0
100
AcDbBlockEnd
  0
BLOCK
  5
307F
330
307E
100
AcDbEntity
  8
0
100
AcDbBlockBegin
  2
*D53
 70
     1
 10
0.0
 20
0.0
 30
0.0
  3
*D53
  1

  0
LINE
  5
3081
330
307E
100
AcDbEntity
  8
寸法
  6
Continuous
 62
     0
370
    -2
100
AcDbLine
 10
112.8772982001895
 20
101.8993827027501
 30
0.0
 11
112.8772982001895
 21
93.42779173907466
 31
0.0
  0
LINE
  5
3082
330
307E
100
AcDbEntity
  8
寸法
  6
Continuous
 62
     0
370
    -2
100
AcDbLine
 10
114.8772982001895
 20
101.5231043649188
 30
0.0
 11
114.8772982001895
 21
93.42779173907466
 31
0.0
  0
LINE
  5
3083
330
307E
100
AcDbEntity
  8
寸法
  6
Continuous
 62
     0
370
    -2
100
AcDbLine
 10
110.3772982001895
 20
94.67779173907466
 30
0.0
 11
107.8772982001895
 21
94.67779173907466
 31
0.0
  0
LINE
  5
3084
330
307E
100
AcDbEntity
  8
寸法
  6
Continuous
 62
     0
370
    -2
100
AcDbLine
 10
117.3772982001895
 20
94.67779173907466
 30
0.0
 11
119.8772982001895
 21
94.67779173907466
 31
0.0
  0
SOLID
  5
3085
330
307E
100
AcDbEntity
  8
寸法
 62
     0
100
AcDbTrace
 10
110.3772982001895
 20
94.26112507240799
 30
0.0
 11
110.3772982001895
 21
95.09445840574134
 31
0.0
 12
112.8772982001895
 22
94.67779173907466
 32
0.0
 13
112.8772982001895
 23
94.67779173907466
 33
0.0
  0
SOLID
  5
3086
330
307E
100
AcDbEntity
  8
寸法
 62
     0
100
AcDbTrace
 10
117.3772982001895
 20
95.09445840574134
 30
0.0
 11
117.3772982001895
 21
94.26112507240799
 31
0.0
 12
114.8772982001895
 22
94.67779173907466
 32
0.0
 13
114.8772982001895
 23
94.67779173907466
 33
0.0
  0
MTEXT
  5
3087
330
307E
100
AcDbEntity
  8
寸法
  6
Continuous
 62
     0
100
AcDbMText
 10
113.9329622063335
 20
92.37379173907463
 30
0.0
 40
2.5
 41
0.0
 46
0.0
 71
     5
 72
     1
  1
2
 73
     1
 44
1.0
  0
POINT
  5
3088
330
307E
100
AcDbEntity
  8
Defpoints
 62
     0
100
AcDbPoint
 10
112.8772982001895
 20
102.5243827027501
 30
0.0
  0
POINT
  5
3089
330
307E
100
AcDbEntity
  8
Defpoints
 62
     0
100
AcDbPoint
 10
114.8772982001895
 20
102.1481043649188
 30
0.0
  0
POINT
  5
308A
330
307E
100
AcDbEntity
  8
Defpoints
 62
     0
100
AcDbPoint
 10
114.8772982001895
 20
94.67779173907466
 30
0.0
  0
ENDBLK
  5
3080
330
307E
100
AcDbEntity
  8
0
100
AcDbBlockEnd
  0
BLOCK
  5
308C
330
308B
100
AcDbEntity
  8
0
100
AcDbBlockBegin
  2
*D54
 70
     1
 10
0.0
 20
0.0
 30
0.0
  3
*D54
  1

  0
LINE
  5
308E
330
308B
100
AcDbEntity
  8
寸法
  6
Continuous
 62
     0
370
    -2
100
AcDbLine
 10
109.9399394679015
 20
110.1481043649188
 30
0.0
 11
105.6671011472615
 21
110.1481043649188
 31
0.0
  0
LINE
  5
308F
330
308B
100
AcDbEntity
  8
寸法
  6
Continuous
 62
     0
370
    -2
100
AcDbLine
 10
110.2522982001895
 20
104.1481043649188
 30
0.0
 11
105.6671011472615
 21
104.1481043649188
 31
0.0
  0
LINE
  5
3090
330
308B
100
AcDbEntity
  8
寸法
  6
Continuous
 62
     0
370
    -2
100
AcDbLine
 10
106.9171011472615
 20
112.6481043649188
 30
0.0
 11
106.9171011472615
 21
115.1481043649188
 31
0.0
  0
LINE
  5
3091
330
308B
100
AcDbEntity
  8
寸法
  6
Continuous
 62
     0
370
    -2
100
AcDbLine
 10
106.9171011472615
 20
101.6481043649188
 30
0.0
 11
106.9171011472615
 21
99.1481043649188
 31
0.0
  0
SOLID
  5
3092
330
308B
100
AcDbEntity
  8
寸法
 62
     0
100
AcDbTrace
 10
106.5004344805948
 20
112.6481043649188
 30
0.0
 11
107.3337678139282
 21
112.6481043649188
 31
0.0
 12
106.9171011472615
 22
110.1481043649188
 32
0.0
 13
106.9171011472615
 23
110.1481043649188
 33
0.0
  0
SOLID
  5
3093
330
308B
100
AcDbEntity
  8
寸法
 62
     0
100
AcDbTrace
 10
107.3337678139282
 20
101.6481043649188
 30
0.0
 11
106.5004344805948
 21
101.6481043649188
 31
0.0
 12
106.9171011472615
 22
104.1481043649188
 32
0.0
 13
106.9171011472615
 23
104.1481043649188
 33
0.0
  0
MTEXT
  5
3094
330
308B
100
AcDbEntity
  8
寸法
  6
Continuous
 62
     0
100
AcDbMText
 10
104.3611971472615
 20
107.086272990763
 30
0.0
 40
2.5
 41
0.0
 46
0.0
 71
     5
 72
     1
  1
6
 73
     1
 44
1.0
  0
POINT
  5
3095
330
308B
100
AcDbEntity
  8
Defpoints
 62
     0
100
AcDbPoint
 10
110.5649394679015
 20
110.1481043649188
 30
0.0
  0
POINT
  5
3096
330
308B
100
AcDbEntity
  8
Defpoints
 62
     0
100
AcDbPoint
 10
110.8772982001895
 20
104.1481043649188
 30
0.0
  0
POINT
  5
3097
330
308B
100
AcDbEntity
  8
Defpoints
 62
     0
100
AcDbPoint
 10
106.9171011472615
 20
104.1481043649188
 30
0.0
  0
ENDBLK
  5
308D
330
308B
100
AcDbEntity
  8
0
100
AcDbBlockEnd
  0
BLOCK
  5
3099
330
3098
100
AcDbEntity
  8
0
100
AcDbBlockBegin
  2
*D55
 70
     1
 10
0.0
 20
0.0
 30
0.0
  3
*D55
  1

  0
LINE
  5
309B
330
3098
100
AcDbEntity
  8
寸法
  6
Continuous
 62
     0
370
    -2
100
AcDbLine
 10
110.2522982001895
 20
104.1481043649188
 30
0.0
 11
105.6671011472615
 21
104.1481043649188
 31
0.0
  0
LINE
  5
309C
330
3098
100
AcDbEntity
  8
寸法
  6
Continuous
 62
     0
370
    -2
100
AcDbLine
 10
110.2522982001895
 20
102.1481043649188
 30
0.0
 11
105.6671011472615
 21
102.1481043649188
 31
0.0
  0
LINE
  5
309D
330
3098
100
AcDbEntity
  8
寸法
  6
Continuous
 62
     0
370
    -2
100
AcDbLine
 10
106.9171011472615
 20
106.6481043649188
 30
0.0
 11
106.9171011472615
 21
109.1481043649188
 31
0.0
  0
LINE
  5
309E
330
3098
100
AcDbEntity
  8
寸法
  6
Continuous
 62
     0
370
    -2
100
AcDbLine
 10
106.9171011472615
 20
99.6481043649188
 30
0.0
 11
106.9171011472615
 21
97.1481043649188
 31
0.0
  0
SOLID
  5
309F
330
3098
100
AcDbEntity
  8
寸法
 62
     0
100
AcDbTrace
 10
106.5004344805948
 20
106.6481043649188
 30
0.0
 11
107.3337678139282
 21
106.6481043649188
 31
0.0
 12
106.9171011472615
 22
104.1481043649188
 32
0.0
 13
106.9171011472615
 23
104.1481043649188
 33
0.0
  0
SOLID
  5
30A0
330
3098
100
AcDbEntity
  8
寸法
 62
     0
100
AcDbTrace
 10
107.3337678139282
 20
99.6481043649188
 30
0.0
 11
106.5004344805948
 21
99.6481043649188
 31
0.0
 12
106.9171011472615
 22
102.1481043649188
 32
0.0
 13
106.9171011472615
 23
102.1481043649188
 33
0.0
  0
MTEXT
  5
30A1
330
3098
100
AcDbEntity
  8
寸法
  6
Continuous
 62
     0
100
AcDbMText
 10
104.2825539472615
 20
102.918183390763
 30
0.0
 40
2.5
 41
0.0
 46
0.0
 71
     5
 72
     1
  1
2
 73
     1
 44
1.0
  0
POINT
  5
30A2
330
3098
100
AcDbEntity
  8
Defpoints
 62
     0
100
AcDbPoint
 10
110.8772982001895
 20
104.1481043649188
 30
0.0
  0
POINT
  5
30A3
330
3098
100
AcDbEntity
  8
Defpoints
 62
     0
100
AcDbPoint
 10
110.8772982001895
 20
102.1481043649188
 30
0.0
  0
POINT
  5
30A4
330
3098
100
AcDbEntity
  8
Defpoints
 62
     0
100
AcDbPoint
 10
106.9171011472615
 20
102.1481043649188
 30
0.0
  0
ENDBLK
  5
309A
330
3098
100
AcDbEntity
  8
0
100
AcDbBlockEnd
  0
BLOCK
  5
30A9
330
30A8
100
AcDbEntity
  8
0
100
AcDbBlockBegin
  2
*D56
 70
     1
 10
0.0
 20
0.0
 30
0.0
  3
*D56
  1

  0
LINE
  5
30AB
330
30A8
100
AcDbEntity
  8
寸法
  6
Continuous
 62
     0
370
    -2
100
AcDbLine
 10
114.8772982001895
 20
101.5231043649188
 30
0.0
 11
114.8772982001895
 21
94.94876064155487
 31
0.0
  0
LINE
  5
30AC
330
30A8
100
AcDbEntity
  8
寸法
  6
Continuous
 62
     0
370
    -2
100
AcDbLine
 10
135.8772982001895
 20
101.5231043649188
 30
0.0
 11
135.8772982001895
 21
94.94876064155487
 31
0.0
  0
LINE
  5
30AD
330
30A8
100
AcDbEntity
  8
寸法
  6
Continuous
 62
     0
370
    -2
100
AcDbLine
 10
117.3772982001895
 20
96.19876064155487
 30
0.0
 11
123.0856315335229
 21
96.19876064155487
 31
0.0
  0
LINE
  5
30AE
330
30A8
100
AcDbEntity
  8
寸法
  6
Continuous
 62
     0
370
    -2
100
AcDbLine
 10
133.3772982001895
 20
96.19876064155487
 30
0.0
 11
127.6689648668562
 21
96.19876064155487
 31
0.0
  0
SOLID
  5
30AF
330
30A8
100
AcDbEntity
  8
寸法
 62
     0
100
AcDbTrace
 10
117.3772982001895
 20
96.61542730822154
 30
0.0
 11
117.3772982001895
 21
95.7820939748882
 31
0.0
 12
114.8772982001895
 22
96.19876064155487
 32
0.0
 13
114.8772982001895
 23
96.19876064155487
 33
0.0
  0
SOLID
  5
30B0
330
30A8
100
AcDbEntity
  8
寸法
 62
     0
100
AcDbTrace
 10
133.3772982001895
 20
95.7820939748882
 30
0.0
 11
133.3772982001895
 21
96.61542730822154
 31
0.0
 12
135.8772982001895
 22
96.19876064155487
 32
0.0
 13
135.8772982001895
 23
96.19876064155487
 33
0.0
  0
MTEXT
  5
30B1
330
30A8
100
AcDbEntity
  8
寸法
  6
Continuous
 62
     0
100
AcDbMText
 10
125.3772982001895
 20
96.19876064155487
 30
0.0
 40
2.5
 41
0.0
 46
0.0
 71
     5
 72
     1
  1
21
 73
     1
 44
1.0
  0
POINT
  5
30B2
330
30A8
100
AcDbEntity
  8
Defpoints
 62
     0
100
AcDbPoint
 10
114.8772982001895
 20
102.1481043649188
 30
0.0
  0
POINT
  5
30B3
330
30A8
100
AcDbEntity
  8
Defpoints
 62
     0
100
AcDbPoint
 10
135.8772982001895
 20
102.1481043649188
 30
0.0
  0
POINT
  5
30B4
330
30A8
100
AcDbEntity
  8
Defpoints
 62
     0
100
AcDbPoint
 10
135.8772982001895
 20
96.19876064155487
 30
0.0
  0
ENDBLK
  5
30AA
330
30A8
100
AcDbEntity
  8
0
100
AcDbBlockEnd
  0
BLOCK
  5
3126
330
3125
100
AcDbEntity
  8
0
100
AcDbBlockBegin
  2
*D57
 70
     1
 10
0.0
 20
0.0
 30
0.0
  3
*D57
  1

  0
LINE
  5
3128
330
3125
100
AcDbEntity
  8
寸法
  6
Continuous
 62
     0
370
    -2
100
AcDbLine
 10
11.00000000000003
 20
192.875
 30
0.0
 11
11.00000000000003
 21
178.1215051034483
 31
0.0
  0
LINE
  5
3129
330
3125
100
AcDbEntity
  8
寸法
  6
Continuous
 62
     0
370
    -2
100
AcDbLine
 10
235.0
 20
192.875
 30
0.0
 11
235.0
 21
178.1215051034483
 31
0.0
  0
LINE
  5
312A
330
3125
100
AcDbEntity
  8
寸法
  6
Continuous
 62
     0
370
    -2
100
AcDbLine
 10
13.50000000000003
 20
179.3715051034483
 30
0.0
 11
155.1887210114943
 21
179.3715051034483
 31
0.0
  0
LINE
  5
312B
330
3125
100
AcDbEntity
  8
寸法
  6
Continuous
 62
     0
370
    -2
100
AcDbLine
 10
232.5
 20
179.3715051034483
 30
0.0
 11
163.105387678161
 21
179.3715051034483
 31
0.0
  0
SOLID
  5
312C
330
3125
100
AcDbEntity
  8
寸法
 62
     0
100
AcDbTrace
 10
13.50000000000003
 20
179.7881717701149
 30
0.0
 11
13.50000000000003
 21
178.9548384367816
 31
0.0
 12
11.00000000000003
 22
179.3715051034483
 32
0.0
 13
11.00000000000003
 23
179.3715051034483
 33
0.0
  0
SOLID
  5
312D
330
3125
100
AcDbEntity
  8
寸法
 62
     0
100
AcDbTrace
 10
232.5
 20
178.9548384367816
 30
0.0
 11
232.5
 21
179.7881717701149
 31
0.0
 12
235.0
 22
179.3715051034483
 32
0.0
 13
235.0
 23
179.3715051034483
 33
0.0
  0
MTEXT
  5
312E
330
3125
100
AcDbEntity
  8
寸法
  6
Continuous
 62
     0
100
AcDbMText
 10
159.1470543448276
 20
179.3715051034483
 30
0.0
 40
2.5
 41
0.0
 46
0.0
 71
     5
 72
     1
  1
224
 73
     1
 44
1.0
  0
POINT
  5
312F
330
3125
100
AcDbEntity
  8
Defpoints
 62
     0
100
AcDbPoint
 10
11.00000000000003
 20
193.5
 30
0.0
  0
POINT
  5
3130
330
3125
100
AcDbEntity
  8
Defpoints
 62
     0
100
AcDbPoint
 10
235.0
 20
193.5
 30
0.0
  0
POINT
  5
3131
330
3125
100
AcDbEntity
  8
Defpoints
 62
     0
100
AcDbPoint
 10
235.0
 20
179.3715051034483
 30
0.0
  0
ENDBLK
  5
3127
330
3125
100
AcDbEntity
  8
0
100
AcDbBlockEnd
  0
BLOCK
  5
3136
330
3135
100
AcDbEntity
  8
0
100
AcDbBlockBegin
  2
*D58
 70
     1
 10
0.0
 20
0.0
 30
0.0
  3
*D58
  1

  0
LINE
  5
3138
330
3135
100
AcDbEntity
  8
寸法
  6
Continuous
 62
     0
370
    -2
100
AcDbLine
 10
11.62500000000003
 20
193.5
 30
0.0
 11
17.68104439827582
 21
193.5
 31
0.0
  0
LINE
  5
3139
330
3135
100
AcDbEntity
  8
寸法
  6
Continuous
 62
     0
370
    -2
100
AcDbLine
 10
11.62500000000003
 20
11.5
 30
0.0
 11
17.68104439827581
 21
11.5
 31
0.0
  0
LINE
  5
313A
330
3135
100
AcDbEntity
  8
寸法
  6
Continuous
 62
     0
370
    -2
100
AcDbLine
 10
16.43104439827582
 20
191.0
 30
0.0
 11
16.43104439827581
 21
23.42317157413785
 31
0.0
  0
LINE
  5
313B
330
3135
100
AcDbEntity
  8
寸法
  6
Continuous
 62
     0
370
    -2
100
AcDbLine
 10
16.43104439827581
 20
14.0
 30
0.0
 11
16.43104439827581
 21
19.67317157413783
 31
0.0
  0
SOLID
  5
313C
330
3135
100
AcDbEntity
  8
寸法
 62
     0
100
AcDbTrace
 10
16.84771106494249
 20
191.0
 30
0.0
 11
16.01437773160915
 21
191.0
 31
0.0
 12
16.43104439827582
 22
193.5
 32
0.0
 13
16.43104439827582
 23
193.5
 33
0.0
  0
SOLID
  5
313D
330
3135
100
AcDbEntity
  8
寸法
 62
     0
100
AcDbTrace
 10
16.01437773160914
 20
14.0
 30
0.0
 11
16.84771106494248
 21
14.0
 31
0.0
 12
16.43104439827581
 22
11.5
 32
0.0
 13
16.43104439827581
 23
11.5
 33
0.0
  0
MTEXT
  5
313E
330
3135
100
AcDbEntity
  8
寸法
  6
Continuous
 62
     0
100
AcDbMText
 10
16.43104439827581
 20
21.54817157413782
 30
0.0
 40
2.5
 41
0.0
 46
0.0
 71
     5
 72
     1
  1
182
 73
     1
 44
1.0
  0
POINT
  5
313F
330
3135
100
AcDbEntity
  8
Defpoints
 62
     0
100
AcDbPoint
 10
11.00000000000003
 20
193.5
 30
0.0
  0
POINT
  5
3140
330
3135
100
AcDbEntity
  8
Defpoints
 62
     0
100
AcDbPoint
 10
11.00000000000003
 20
11.5
 30
0.0
  0
POINT
  5
3141
330
3135
100
AcDbEntity
  8
Defpoints
 62
     0
100
AcDbPoint
 10
16.43104439827581
 20
11.5
 30
0.0
  0
ENDBLK
  5
3137
330
3135
100
AcDbEntity
  8
0
100
AcDbBlockEnd
  0
BLOCK
  5
3159
330
3158
100
AcDbEntity
  8
0
100
AcDbBlockBegin
  2
*D59
 70
     1
 10
0.0
 20
0.0
 30
0.0
  3
*D59
  1

  0
LINE
  5
315A
330
3158
100
AcDbEntity
  8
寸法
  6
Continuous
 62
     0
370
    -2
100
AcDbLine
 10
37.34317109413011
 20
19.89787111739905
 30
0.0
 11
42.86859109413011
 21
19.89787111739905
 31
0.0
  0
LINE
  5
315B
330
3158
100
AcDbEntity
  8
寸法
  6
Continuous
 62
     0
370
    -2
100
AcDbLine
 10
37.34317109413011
 20
11.89787111739905
 30
0.0
 11
42.86859109413011
 21
11.89787111739905
 31
0.0
  0
LINE
  5
315C
330
3158
100
AcDbEntity
  8
寸法
  6
Continuous
 62
     0
370
    -2
100
AcDbLine
 10
41.61859109413011
 20
17.39787111739905
 30
0.0
 11
41.61859109413011
 21
14.39787111739905
 31
0.0
  0
LINE
  5
315D
330
3158
100
AcDbEntity
  8
寸法
  6
Continuous
 62
     0
370
    -2
100
AcDbLine
 10
41.61859109413011
 20
14.39787111739905
 30
0.0
 11
41.61859109413011
 21
17.39787111739905
 31
0.0
  0
SOLID
  5
315E
330
3158
100
AcDbEntity
  8
寸法
 62
     0
100
AcDbTrace
 10
42.03525776079677
 20
17.39787111739905
 30
0.0
 11
41.20192442746345
 21
17.39787111739905
 31
0.0
 12
41.61859109413011
 22
19.89787111739905
 32
0.0
 13
41.61859109413011
 23
19.89787111739905
 33
0.0
  0
SOLID
  5
315F
330
3158
100
AcDbEntity
  8
寸法
 62
     0
100
AcDbTrace
 10
41.20192442746345
 20
14.39787111739905
 30
0.0
 11
42.03525776079677
 21
14.39787111739905
 31
0.0
 12
41.61859109413011
 22
11.89787111739905
 32
0.0
 13
41.61859109413011
 23
11.89787111739905
 33
0.0
  0
MTEXT
  5
3160
330
3158
100
AcDbEntity
  8
寸法
  6
Continuous
 62
     0
100
AcDbMText
 10
43.81545671000261
 20
15.82901730090815
 30
0.0
 40
2.5
 41
0.0
 46
0.0
 71
     5
 72
     1
  1
8
 73
     1
 44
1.0
  0
POINT
  5
3161
330
3158
100
AcDbEntity
  8
Defpoints
 62
     0
100
AcDbPoint
 10
36.71817109413011
 20
19.89787111739905
 30
0.0
  0
POINT
  5
3162
330
3158
100
AcDbEntity
  8
Defpoints
 62
     0
100
AcDbPoint
 10
36.71817109413011
 20
11.89787111739905
 30
0.0
  0
POINT
  5
3163
330
3158
100
AcDbEntity
  8
Defpoints
 62
     0
100
AcDbPoint
 10
41.61859109413011
 20
11.89787111739905
 30
0.0
  0
ENDBLK
  5
3164
330
3158
100
AcDbEntity
  8
0
100
AcDbBlockEnd
  0
BLOCK
  5
3168
330
3167
100
AcDbEntity
  8
0
100
AcDbBlockBegin
  2
*D60
 70
     1
 10
0.0
 20
0.0
 30
0.0
  3
*D60
  1

  0
LINE
  5
3169
330
3167
100
AcDbEntity
  8
寸法
  6
Continuous
 62
     0
370
    -2
100
AcDbLine
 10
11.71817109413011
 20
20.52287111739905
 30
0.0
 11
11.71817109413011
 21
30.23043380404326
 31
0.0
  0
LINE
  5
316A
330
3167
100
AcDbEntity
  8
寸法
  6
Continuous
 62
     0
370
    -2
100
AcDbLine
 10
36.9181710941301
 20
20.32287111739906
 30
0.0
 11
36.9181710941301
 21
30.23043380404326
 31
0.0
  0
LINE
  5
316B
330
3167
100
AcDbEntity
  8
寸法
  6
Continuous
 62
     0
370
    -2
100
AcDbLine
 10
14.21817109413011
 20
28.98043380404326
 30
0.0
 11
21.34486964440211
 21
28.98043380404326
 31
0.0
  0
LINE
  5
316C
330
3167
100
AcDbEntity
  8
寸法
  6
Continuous
 62
     0
370
    -2
100
AcDbLine
 10
34.4181710941301
 20
28.98043380404326
 30
0.0
 11
30.09486964440211
 21
28.98043380404326
 31
0.0
  0
SOLID
  5
316D
330
3167
100
AcDbEntity
  8
寸法
 62
     0
100
AcDbTrace
 10
14.21817109413011
 20
29.39710047070993
 30
0.0
 11
14.21817109413011
 21
28.56376713737659
 31
0.0
 12
11.71817109413011
 22
28.98043380404326
 32
0.0
 13
11.71817109413011
 23
28.98043380404326
 33
0.0
  0
SOLID
  5
316E
330
3167
100
AcDbEntity
  8
寸法
 62
     0
100
AcDbTrace
 10
34.4181710941301
 20
28.56376713737659
 30
0.0
 11
34.4181710941301
 21
29.39710047070993
 31
0.0
 12
36.9181710941301
 22
28.98043380404326
 32
0.0
 13
36.9181710941301
 23
28.98043380404326
 33
0.0
  0
MTEXT
  5
316F
330
3167
100
AcDbEntity
  8
寸法
  6
Continuous
 62
     0
100
AcDbMText
 10
25.71986964440211
 20
28.98043380404326
 30
0.0
 40
2.5
 41
0.0
 46
0.0
 71
     5
 72
     1
  1
25.2
 73
     1
 44
1.0
  0
POINT
  5
3170
330
3167
100
AcDbEntity
  8
Defpoints
 62
     0
100
AcDbPoint
 10
11.71817109413011
 20
19.89787111739905
 30
0.0
  0
POINT
  5
3171
330
3167
100
AcDbEntity
  8
Defpoints
 62
     0
100
AcDbPoint
 10
36.9181710941301
 20
19.69787111739906
 30
0.0
  0
POINT
  5
3172
330
3167
100
AcDbEntity
  8
Defpoints
 62
     0
100
AcDbPoint
 10
36.9181710941301
 20
28.98043380404326
 30
0.0
  0
ENDBLK
  5
3173
330
3167
100
AcDbEntity
  8
0
100
AcDbBlockEnd
  0
BLOCK
  5
3177
330
3176
100
AcDbEntity
  8
0
100
AcDbBlockBegin
  2
*D61
 70
     1
 10
0.0
 20
0.0
 30
0.0
  3
*D61
  1

  0
LINE
  5
3178
330
3176
100
AcDbEntity
  8
寸法
  6
Continuous
 62
     0
370
    -2
100
AcDbLine
 10
11.71817109413011
 20
20.52287111739905
 30
0.0
 11
11.71817109413011
 21
25.49636660404326
 31
0.0
  0
LINE
  5
3179
330
3176
100
AcDbEntity
  8
寸法
  6
Continuous
 62
     0
370
    -2
100
AcDbLine
 10
36.71817109413011
 20
20.52287111739905
 30
0.0
 11
36.71817109413011
 21
25.49636660404326
 31
0.0
  0
LINE
  5
317A
330
3176
100
AcDbEntity
  8
寸法
  6
Continuous
 62
     0
370
    -2
100
AcDbLine
 10
14.21817109413011
 20
24.24636660404326
 30
0.0
 11
22.87917919106878
 21
24.24636660404326
 31
0.0
  0
LINE
  5
317B
330
3176
100
AcDbEntity
  8
寸法
  6
Continuous
 62
     0
370
    -2
100
AcDbLine
 10
34.21817109413011
 20
24.24636660404326
 30
0.0
 11
28.29584585773545
 21
24.24636660404326
 31
0.0
  0
SOLID
  5
317C
330
3176
100
AcDbEntity
  8
寸法
 62
     0
100
AcDbTrace
 10
14.21817109413011
 20
24.66303327070993
 30
0.0
 11
14.21817109413011
 21
23.82969993737659
 31
0.0
 12
11.71817109413011
 22
24.24636660404326
 32
0.0
 13
11.71817109413011
 23
24.24636660404326
 33
0.0
  0
SOLID
  5
317D
330
3176
100
AcDbEntity
  8
寸法
 62
     0
100
AcDbTrace
 10
34.21817109413011
 20
23.82969993737659
 30
0.0
 11
34.21817109413011
 21
24.66303327070993
 31
0.0
 12
36.71817109413011
 22
24.24636660404326
 32
0.0
 13
36.71817109413011
 23
24.24636660404326
 33
0.0
  0
MTEXT
  5
317E
330
3176
100
AcDbEntity
  8
寸法
  6
Continuous
 62
     0
100
AcDbMText
 10
25.58751252440211
 20
24.24636660404326
 30
0.0
 40
2.5
 41
0.0
 46
0.0
 71
     5
 72
     1
  1
25
 73
     1
 44
1.0
  0
POINT
  5
317F
330
3176
100
AcDbEntity
  8
Defpoints
 62
     0
100
AcDbPoint
 10
11.71817109413011
 20
19.89787111739905
 30
0.0
  0
POINT
  5
3180
330
3176
100
AcDbEntity
  8
Defpoints
 62
     0
100
AcDbPoint
 10
36.71817109413011
 20
19.89787111739905
 30
0.0
  0
POINT
  5
3181
330
3176
100
AcDbEntity
  8
Defpoints
 62
     0
100
AcDbPoint
 10
36.71817109413011
 20
24.24636660404326
 30
0.0
  0
ENDBLK
  5
3182
330
3176
100
AcDbEntity
  8
0
100
AcDbBlockEnd
  0
BLOCK
  5
3186
330
3185
100
AcDbEntity
  8
0
100
AcDbBlockBegin
  2
*D62
 70
     1
 10
0.0
 20
0.0
 30
0.0
  3
*D62
  1

  0
LINE
  5
3187
330
3185
100
AcDbEntity
  8
寸法
  6
Continuous
 62
     0
370
    -2
100
AcDbLine
 10
11.71817109413011
 20
11.31013968443895
 30
0.0
 11
11.71817109413011
 21
3.214827058594892
 31
0.0
  0
LINE
  5
3188
330
3185
100
AcDbEntity
  8
寸法
  6
Continuous
 62
     0
370
    -2
100
AcDbLine
 10
13.71817109413011
 20
11.64914945523036
 30
0.0
 11
13.71817109413011
 21
3.214827058594892
 31
0.0
  0
LINE
  5
3189
330
3185
100
AcDbEntity
  8
寸法
  6
Continuous
 62
     0
370
    -2
100
AcDbLine
 10
9.218171094130113
 20
4.464827058594892
 30
0.0
 11
6.718171094130113
 21
4.464827058594892
 31
0.0
  0
LINE
  5
318A
330
3185
100
AcDbEntity
  8
寸法
  6
Continuous
 62
     0
370
    -2
100
AcDbLine
 10
16.21817109413011
 20
4.464827058594892
 30
0.0
 11
18.71817109413011
 21
4.464827058594892
 31
0.0
  0
SOLID
  5
318B
330
3185
100
AcDbEntity
  8
寸法
 62
     0
100
AcDbTrace
 10
9.218171094130113
 20
4.048160391928225
 30
0.0
 11
9.218171094130113
 21
4.881493725261559
 31
0.0
 12
11.71817109413011
 22
4.464827058594892
 32
0.0
 13
11.71817109413011
 23
4.464827058594892
 33
0.0
  0
SOLID
  5
318C
330
3185
100
AcDbEntity
  8
寸法
 62
     0
100
AcDbTrace
 10
16.21817109413011
 20
4.881493725261559
 30
0.0
 11
16.21817109413011
 21
4.048160391928225
 31
0.0
 12
13.71817109413011
 22
4.464827058594892
 32
0.0
 13
13.71817109413011
 23
4.464827058594892
 33
0.0
  0
MTEXT
  5
318D
330
3185
100
AcDbEntity
  8
寸法
  6
Continuous
 62
     0
100
AcDbMText
 10
12.64066160540881
 20
1.614640494933141
 30
0.0
 40
2.5
 41
0.0
 46
0.0
 71
     5
 72
     1
  1
2
 73
     1
 44
1.0
  0
POINT
  5
318E
330
3185
100
AcDbEntity
  8
Defpoints
 62
     0
100
AcDbPoint
 10
11.71817109413011
 20
11.93513968443895
 30
0.0
  0
POINT
  5
318F
330
3185
100
AcDbEntity
  8
Defpoints
 62
     0
100
AcDbPoint
 10
13.71817109413011
 20
12.27414945523036
 30
0.0
  0
POINT
  5
3190
330
3185
100
AcDbEntity
  8
Defpoints
 62
     0
100
AcDbPoint
 10
13.71817109413011
 20
4.464827058594892
 30
0.0
  0
ENDBLK
  5
3191
330
3185
100
AcDbEntity
  8
0
100
AcDbBlockEnd
  0
BLOCK
  5
3195
330
3194
100
AcDbEntity
  8
0
100
AcDbBlockBegin
  2
*D63
 70
     1
 10
0.0
 20
0.0
 30
0.0
  3
*D63
  1

  0
LINE
  5
3196
330
3194
100
AcDbEntity
  8
寸法
  6
Continuous
 62
     0
370
    -2
100
AcDbLine
 10
10.78081236184211
 20
19.89787111739905
 30
0.0
 11
6.507974041202118
 21
19.89787111739905
 31
0.0
  0
LINE
  5
3197
330
3194
100
AcDbEntity
  8
寸法
  6
Continuous
 62
     0
370
    -2
100
AcDbLine
 10
11.09317109413011
 20
13.89787111739905
 30
0.0
 11
6.507974041202118
 21
13.89787111739905
 31
0.0
  0
LINE
  5
3198
330
3194
100
AcDbEntity
  8
寸法
  6
Continuous
 62
     0
370
    -2
100
AcDbLine
 10
7.757974041202118
 20
22.39787111739905
 30
0.0
 11
7.757974041202118
 21
24.89787111739905
 31
0.0
  0
LINE
  5
3199
330
3194
100
AcDbEntity
  8
寸法
  6
Continuous
 62
     0
370
    -2
100
AcDbLine
 10
7.757974041202118
 20
11.39787111739905
 30
0.0
 11
7.757974041202118
 21
8.897871117399049
 31
0.0
  0
SOLID
  5
319A
330
3194
100
AcDbEntity
  8
寸法
 62
     0
100
AcDbTrace
 10
7.341307374535451
 20
22.39787111739905
 30
0.0
 11
8.174640707868784
 21
22.39787111739905
 31
0.0
 12
7.757974041202118
 22
19.89787111739905
 32
0.0
 13
7.757974041202118
 23
19.89787111739905
 33
0.0
  0
SOLID
  5
319B
330
3194
100
AcDbEntity
  8
寸法
 62
     0
100
AcDbTrace
 10
8.174640707868784
 20
11.39787111739905
 30
0.0
 11
7.341307374535451
 21
11.39787111739905
 31
0.0
 12
7.757974041202118
 22
13.89787111739905
 32
0.0
 13
7.757974041202118
 23
13.89787111739905
 33
0.0
  0
MTEXT
  5
319C
330
3194
100
AcDbEntity
  8
寸法
  6
Continuous
 62
     0
100
AcDbMText
 10
5.20207004120212
 20
16.83603974324326
 30
0.0
 40
2.5
 41
0.0
 46
0.0
 71
     5
 72
     1
  1
6
 73
     1
 44
1.0
  0
POINT
  5
319D
330
3194
100
AcDbEntity
  8
Defpoints
 62
     0
100
AcDbPoint
 10
11.40581236184211
 20
19.89787111739905
 30
0.0
  0
POINT
  5
319E
330
3194
100
AcDbEntity
  8
Defpoints
 62
     0
100
AcDbPoint
 10
11.71817109413011
 20
13.89787111739905
 30
0.0
  0
POINT
  5
319F
330
3194
100
AcDbEntity
  8
Defpoints
 62
     0
100
AcDbPoint
 10
7.757974041202118
 20
13.89787111739905
 30
0.0
  0
ENDBLK
  5
31A0
330
3194
100
AcDbEntity
  8
0
100
AcDbBlockEnd
  0
BLOCK
  5
31A4
330
31A3
100
AcDbEntity
  8
0
100
AcDbBlockBegin
  2
*D64
 70
     1
 10
0.0
 20
0.0
 30
0.0
  3
*D64
  1

  0
LINE
  5
31A5
330
31A3
100
AcDbEntity
  8
寸法
  6
Continuous
 62
     0
370
    -2
100
AcDbLine
 10
11.09317109413011
 20
13.89787111739905
 30
0.0
 11
6.507974041202118
 21
13.89787111739905
 31
0.0
  0
LINE
  5
31A6
330
31A3
100
AcDbEntity
  8
寸法
  6
Continuous
 62
     0
370
    -2
100
AcDbLine
 10
11.09317109413011
 20
11.89787111739905
 30
0.0
 11
6.507974041202118
 21
11.89787111739905
 31
0.0
  0
LINE
  5
31A7
330
31A3
100
AcDbEntity
  8
寸法
  6
Continuous
 62
     0
370
    -2
100
AcDbLine
 10
7.757974041202118
 20
16.39787111739905
 30
0.0
 11
7.757974041202118
 21
18.89787111739905
 31
0.0
  0
LINE
  5
31A8
330
31A3
100
AcDbEntity
  8
寸法
  6
Continuous
 62
     0
370
    -2
100
AcDbLine
 10
7.757974041202118
 20
9.397871117399049
 30
0.0
 11
7.757974041202118
 21
6.897871117399049
 31
0.0
  0
SOLID
  5
31A9
330
31A3
100
AcDbEntity
  8
寸法
 62
     0
100
AcDbTrace
 10
7.341307374535451
 20
16.39787111739905
 30
0.0
 11
8.174640707868784
 21
16.39787111739905
 31
0.0
 12
7.757974041202118
 22
13.89787111739905
 32
0.0
 13
7.757974041202118
 23
13.89787111739905
 33
0.0
  0
SOLID
  5
31AA
330
31A3
100
AcDbEntity
  8
寸法
 62
     0
100
AcDbTrace
 10
8.174640707868784
 20
9.397871117399049
 30
0.0
 11
7.341307374535451
 21
9.397871117399049
 31
0.0
 12
7.757974041202118
 22
11.89787111739905
 32
0.0
 13
7.757974041202118
 23
11.89787111739905
 33
0.0
  0
MTEXT
  5
31AB
330
31A3
100
AcDbEntity
  8
寸法
  6
Continuous
 62
     0
100
AcDbMText
 10
5.123426841202118
 20
12.66795014324326
 30
0.0
 40
2.5
 41
0.0
 46
0.0
 71
     5
 72
     1
  1
2
 73
     1
 44
1.0
  0
POINT
  5
31AC
330
31A3
100
AcDbEntity
  8
Defpoints
 62
     0
100
AcDbPoint
 10
11.71817109413011
 20
13.89787111739905
 30
0.0
  0
POINT
  5
31AD
330
31A3
100
AcDbEntity
  8
Defpoints
 62
     0
100
AcDbPoint
 10
11.71817109413011
 20
11.89787111739905
 30
0.0
  0
POINT
  5
31AE
330
31A3
100
AcDbEntity
  8
Defpoints
 62
     0
100
AcDbPoint
 10
7.757974041202118
 20
11.89787111739905
 30
0.0
  0
ENDBLK
  5
31AF
330
31A3
100
AcDbEntity
  8
0
100
AcDbBlockEnd
  0
BLOCK
  5
3209
330
3208
100
AcDbEntity
  8
0
100
AcDbBlockBegin
  2
*D65
 70
     1
 10
0.0
 20
0.0
 30
0.0
  3
*D65
  1

  0
LINE
  5
320A
330
3208
100
AcDbEntity
  8
寸法
  6
Continuous
 62
     0
370
    -2
100
AcDbLine
 10
15.71817109413011
 20
11.27287111739905
 30
0.0
 11
15.71817109413011
 21
4.698527394035125
 31
0.0
  0
LINE
  5
320B
330
3208
100
AcDbEntity
  8
寸法
  6
Continuous
 62
     0
370
    -2
100
AcDbLine
 10
36.71817109413011
 20
11.27287111739905
 30
0.0
 11
36.71817109413011
 21
4.698527394035125
 31
0.0
  0
LINE
  5
320C
330
3208
100
AcDbEntity
  8
寸法
  6
Continuous
 62
     0
370
    -2
100
AcDbLine
 10
18.21817109413011
 20
5.948527394035125
 30
0.0
 11
23.92650442746344
 21
5.948527394035125
 31
0.0
  0
LINE
  5
320D
330
3208
100
AcDbEntity
  8
寸法
  6
Continuous
 62
     0
370
    -2
100
AcDbLine
 10
34.21817109413011
 20
5.948527394035125
 30
0.0
 11
28.50983776079678
 21
5.948527394035125
 31
0.0
  0
SOLID
  5
320E
330
3208
100
AcDbEntity
  8
寸法
 62
     0
100
AcDbTrace
 10
18.21817109413011
 20
6.365194060701792
 30
0.0
 11
18.21817109413011
 21
5.531860727368458
 31
0.0
 12
15.71817109413011
 22
5.948527394035125
 32
0.0
 13
15.71817109413011
 23
5.948527394035125
 33
0.0
  0
SOLID
  5
320F
330
3208
100
AcDbEntity
  8
寸法
 62
     0
100
AcDbTrace
 10
34.21817109413011
 20
5.531860727368458
 30
0.0
 11
34.21817109413011
 21
6.365194060701792
 31
0.0
 12
36.71817109413011
 22
5.948527394035125
 32
0.0
 13
36.71817109413011
 23
5.948527394035125
 33
0.0
  0
MTEXT
  5
3210
330
3208
100
AcDbEntity
  8
寸法
  6
Continuous
 62
     0
100
AcDbMText
 10
26.21817109413011
 20
5.948527394035125
 30
0.0
 40
2.5
 41
0.0
 46
0.0
 71
     5
 72
     1
  1
21
 73
     1
 44
1.0
  0
POINT
  5
3211
330
3208
100
AcDbEntity
  8
Defpoints
 62
     0
100
AcDbPoint
 10
15.71817109413011
 20
11.89787111739905
 30
0.0
  0
POINT
  5
3212
330
3208
100
AcDbEntity
  8
Defpoints
 62
     0
100
AcDbPoint
 10
36.71817109413011
 20
11.89787111739905
 30
0.0
  0
POINT
  5
3213
330
3208
100
AcDbEntity
  8
Defpoints
 62
     0
100
AcDbPoint
 10
36.71817109413011
 20
5.948527394035125
 30
0.0
  0
ENDBLK
  5
3214
330
3208
100
AcDbEntity
  8
0
100
AcDbBlockEnd
  0
BLOCK
  5
328B
330
328A
100
AcDbEntity
  8
0
100
AcDbBlockBegin
  2
*D66
 70
     1
 10
0.0
 20
0.0
 30
0.0
  3
*D66
  1

  0
LINE
  5
328D
330
328A
100
AcDbEntity
  8
寸法
  6
Continuous
 62
     0
370
    -2
100
AcDbLine
 10
132.625
 20
108.7999999999999
 30
0.0
 11
138.25
 21
108.7999999999999
 31
0.0
  0
LINE
  5
328E
330
328A
100
AcDbEntity
  8
寸法
  6
Continuous
 62
     0
370
    -2
100
AcDbLine
 10
132.625
 20
100.7999999999999
 30
0.0
 11
138.25
 21
100.7999999999999
 31
0.0
  0
LINE
  5
328F
330
328A
100
AcDbEntity
  8
寸法
  6
Continuous
 62
     0
370
    -2
100
AcDbLine
 10
137.0
 20
108.7999999999999
 30
0.0
 11
137.0
 21
106.606146183509
 31
0.0
  0
LINE
  5
3290
330
328A
100
AcDbEntity
  8
寸法
  6
Continuous
 62
     0
370
    -2
100
AcDbLine
 10
137.0
 20
100.7999999999999
 30
0.0
 11
137.0
 21
102.856146183509
 31
0.0
  0
LINE
  5
3291
330
328A
100
AcDbEntity
  8
寸法
  6
Continuous
 62
     0
370
    -2
100
AcDbLine
 10
137.0
 20
111.2999999999999
 30
0.0
 11
137.0
 21
113.7999999999999
 31
0.0
  0
LINE
  5
3292
330
328A
100
AcDbEntity
  8
寸法
  6
Continuous
 62
     0
370
    -2
100
AcDbLine
 10
137.0
 20
98.2999999999999
 30
0.0
 11
137.0
 21
95.7999999999999
 31
0.0
  0
SOLID
  5
3293
330
328A
100
AcDbEntity
  8
寸法
 62
     0
100
AcDbTrace
 10
136.5833333333333
 20
111.2999999999999
 30
0.0
 11
137.4166666666667
 21
111.2999999999999
 31
0.0
 12
137.0
 22
108.7999999999999
 32
0.0
 13
137.0
 23
108.7999999999999
 33
0.0
  0
SOLID
  5
3294
330
328A
100
AcDbEntity
  8
寸法
 62
     0
100
AcDbTrace
 10
137.4166666666667
 20
98.2999999999999
 30
0.0
 11
136.5833333333333
 21
98.2999999999999
 31
0.0
 12
137.0
 22
100.7999999999999
 32
0.0
 13
137.0
 23
100.7999999999999
 33
0.0
  0
MTEXT
  5
3295
330
328A
100
AcDbEntity
  8
寸法
  6
Continuous
 62
     0
100
AcDbMText
 10
137.0
 20
104.731146183509
 30
0.0
 40
2.5
 41
0.0
 46
0.0
 71
     5
 72
     1
  1
8
 73
     1
 44
1.0
  0
POINT
  5
3296
330
328A
100
AcDbEntity
  8
Defpoints
 62
     0
100
AcDbPoint
 10
132.0
 20
108.7999999999999
 30
0.0
  0
POINT
  5
32FD
330
328A
100
AcDbEntity
  8
Defpoints
 62
     0
100
AcDbPoint
 10
132.0
 20
100.7999999999999
 30
0.0
  0
POINT
  5
32FE
330
328A
100
AcDbEntity
  8
Defpoints
 62
     0
100
AcDbPoint
 10
137.0
 20
100.7999999999999
 30
0.0
  0
ENDBLK
  5
328C
330
328A
100
AcDbEntity
  8
0
100
AcDbBlockEnd
  0
BLOCK
  5
3298
330
3297
100
AcDbEntity
  8
0
100
AcDbBlockBegin
  2
*D67
 70
     1
 10
0.0
 20
0.0
 30
0.0
  3
*D67
  1

  0
LINE
  5
329A
330
3297
100
AcDbEntity
  8
寸法
  6
Continuous
 62
     0
370
    -2
100
AcDbLine
 10
107.0
 20
109.4249999999999
 30
0.0
 11
107.0
 21
120.0499999999998
 31
0.0
  0
LINE
  5
329B
330
3297
100
AcDbEntity
  8
寸法
  6
Continuous
 62
     0
370
    -2
100
AcDbLine
 10
132.2
 20
109.2249999999999
 30
0.0
 11
132.2
 21
120.0499999999998
 31
0.0
  0
LINE
  5
329C
330
3297
100
AcDbEntity
  8
寸法
  6
Continuous
 62
     0
370
    -2
100
AcDbLine
 10
109.5
 20
118.7999999999998
 30
0.0
 11
116.626698550272
 21
118.7999999999998
 31
0.0
  0
LINE
  5
329D
330
3297
100
AcDbEntity
  8
寸法
  6
Continuous
 62
     0
370
    -2
100
AcDbLine
 10
129.7
 20
118.7999999999998
 30
0.0
 11
125.376698550272
 21
118.7999999999998
 31
0.0
  0
SOLID
  5
329E
330
3297
100
AcDbEntity
  8
寸法
 62
     0
100
AcDbTrace
 10
109.5
 20
119.2166666666665
 30
0.0
 11
109.5
 21
118.3833333333331
 31
0.0
 12
107.0
 22
118.7999999999998
 32
0.0
 13
107.0
 23
118.7999999999998
 33
0.0
  0
SOLID
  5
329F
330
3297
100
AcDbEntity
  8
寸法
 62
     0
100
AcDbTrace
 10
129.7
 20
118.3833333333331
 30
0.0
 11
129.7
 21
119.2166666666665
 31
0.0
 12
132.2
 22
118.7999999999998
 32
0.0
 13
132.2
 23
118.7999999999998
 33
0.0
  0
MTEXT
  5
32A0
330
3297
100
AcDbEntity
  8
寸法
  6
Continuous
 62
     0
100
AcDbMText
 10
121.001698550272
 20
118.7999999999998
 30
0.0
 40
2.5
 41
0.0
 46
0.0
 71
     5
 72
     1
  1
25.2
 73
     1
 44
1.0
  0
POINT
  5
32A1
330
3297
100
AcDbEntity
  8
Defpoints
 62
     0
100
AcDbPoint
 10
107.0
 20
108.7999999999999
 30
0.0
  0
POINT
  5
32A2
330
3297
100
AcDbEntity
  8
Defpoints
 62
     0
100
AcDbPoint
 10
132.2
 20
108.5999999999999
 30
0.0
  0
POINT
  5
32A3
330
3297
100
AcDbEntity
  8
Defpoints
 62
     0
100
AcDbPoint
 10
132.2
 20
118.7999999999998
 30
0.0
  0
ENDBLK
  5
3299
330
3297
100
AcDbEntity
  8
0
100
AcDbBlockEnd
  0
BLOCK
  5
32A5
330
32A4
100
AcDbEntity
  8
0
100
AcDbBlockBegin
  2
*D68
 70
     1
 10
0.0
 20
0.0
 30
0.0
  3
*D68
  1

  0
LINE
  5
32A7
330
32A4
100
AcDbEntity
  8
寸法
  6
Continuous
 62
     0
370
    -2
100
AcDbLine
 10
107.0
 20
109.4249999999999
 30
0.0
 11
107.0
 21
115.0499999999998
 31
0.0
  0
LINE
  5
32A8
330
32A4
100
AcDbEntity
  8
寸法
  6
Continuous
 62
     0
370
    -2
100
AcDbLine
 10
132.0
 20
109.4249999999999
 30
0.0
 11
132.0
 21
115.0499999999998
 31
0.0
  0
LINE
  5
32A9
330
32A4
100
AcDbEntity
  8
寸法
  6
Continuous
 62
     0
370
    -2
100
AcDbLine
 10
109.5
 20
113.7999999999998
 30
0.0
 11
116.8916666666667
 21
113.7999999999998
 31
0.0
  0
LINE
  5
32AA
330
32A4
100
AcDbEntity
  8
寸法
  6
Continuous
 62
     0
370
    -2
100
AcDbLine
 10
129.5
 20
113.7999999999998
 30
0.0
 11
122.3083333333333
 21
113.7999999999998
 31
0.0
  0
SOLID
  5
32AB
330
32A4
100
AcDbEntity
  8
寸法
 62
     0
100
AcDbTrace
 10
109.5
 20
114.2166666666665
 30
0.0
 11
109.5
 21
113.3833333333331
 31
0.0
 12
107.0
 22
113.7999999999998
 32
0.0
 13
107.0
 23
113.7999999999998
 33
0.0
  0
SOLID
  5
32AC
330
32A4
100
AcDbEntity
  8
寸法
 62
     0
100
AcDbTrace
 10
129.5
 20
113.3833333333331
 30
0.0
 11
129.5
 21
114.2166666666665
 31
0.0
 12
132.0
 22
113.7999999999998
 32
0.0
 13
132.0
 23
113.7999999999998
 33
0.0
  0
MTEXT
  5
32AD
330
32A4
100
AcDbEntity
  8
寸法
  6
Continuous
 62
     0
100
AcDbMText
 10
119.6
 20
113.7999999999998
 30
0.0
 40
2.5
 41
0.0
 46
0.0
 71
     5
 72
     1
  1
25
 73
     1
 44
1.0
  0
POINT
  5
32AE
330
32A4
100
AcDbEntity
  8
Defpoints
 62
     0
100
AcDbPoint
 10
107.0
 20
108.7999999999999
 30
0.0
  0
POINT
  5
32AF
330
32A4
100
AcDbEntity
  8
Defpoints
 62
     0
100
AcDbPoint
 10
132.0
 20
108.7999999999999
 30
0.0
  0
POINT
  5
32B0
330
32A4
100
AcDbEntity
  8
Defpoints
 62
     0
100
AcDbPoint
 10
132.0
 20
113.7999999999998
 30
0.0
  0
ENDBLK
  5
32A6
330
32A4
100
AcDbEntity
  8
0
100
AcDbBlockEnd
  0
BLOCK
  5
32B2
330
32B1
100
AcDbEntity
  8
0
100
AcDbBlockBegin
  2
*D69
 70
     1
 10
0.0
 20
0.0
 30
0.0
  3
*D69
  1

  0
LINE
  5
32B4
330
32B1
100
AcDbEntity
  8
寸法
  6
Continuous
 62
     0
370
    -2
100
AcDbLine
 10
107.0
 20
102.6749999999998
 30
0.0
 11
107.0
 21
94.5499999999998
 31
0.0
  0
LINE
  5
32B5
330
32B1
100
AcDbEntity
  8
寸法
  6
Continuous
 62
     0
370
    -2
100
AcDbLine
 10
109.0
 20
100.5512783378312
 30
0.0
 11
109.0
 21
94.5499999999998
 31
0.0
  0
LINE
  5
32B6
330
32B1
100
AcDbEntity
  8
寸法
  6
Continuous
 62
     0
370
    -2
100
AcDbLine
 10
104.5
 20
95.7999999999998
 30
0.0
 11
102.0
 21
95.7999999999998
 31
0.0
  0
LINE
  5
32B7
330
32B1
100
AcDbEntity
  8
寸法
  6
Continuous
 62
     0
370
    -2
100
AcDbLine
 10
111.5
 20
95.7999999999998
 30
0.0
 11
114.0
 21
95.7999999999998
 31
0.0
  0
SOLID
  5
32B8
330
32B1
100
AcDbEntity
  8
寸法
 62
     0
100
AcDbTrace
 10
104.5
 20
95.38333333333313
 30
0.0
 11
104.5
 21
96.21666666666647
 31
0.0
 12
107.0
 22
95.7999999999998
 32
0.0
 13
107.0
 23
95.7999999999998
 33
0.0
  0
SOLID
  5
32B9
330
32B1
100
AcDbEntity
  8
寸法
 62
     0
100
AcDbTrace
 10
111.5
 20
96.21666666666647
 30
0.0
 11
111.5
 21
95.38333333333313
 31
0.0
 12
109.0
 22
95.7999999999998
 32
0.0
 13
109.0
 23
95.7999999999998
 33
0.0
  0
MTEXT
  5
32BA
330
32B1
100
AcDbEntity
  8
寸法
  6
Continuous
 62
     0
100
AcDbMText
 10
107.9224905112787
 20
92.43267136692906
 30
0.0
 40
2.5
 41
0.0
 46
0.0
 71
     5
 72
     1
  1
2
 73
     1
 44
1.0
  0
POINT
  5
32BB
330
32B1
100
AcDbEntity
  8
Defpoints
 62
     0
100
AcDbPoint
 10
107.0
 20
103.2999999999998
 30
0.0
  0
POINT
  5
3348
330
32B1
100
AcDbEntity
  8
Defpoints
 62
     0
100
AcDbPoint
 10
109.0
 20
101.1762783378312
 30
0.0
  0
POINT
  5
3349
330
32B1
100
AcDbEntity
  8
Defpoints
 62
     0
100
AcDbPoint
 10
109.0
 20
95.7999999999998
 30
0.0
  0
ENDBLK
  5
32B3
330
32B1
100
AcDbEntity
  8
0
100
AcDbBlockEnd
  0
BLOCK
  5
32BF
330
32BE
100
AcDbEntity
  8
0
100
AcDbBlockBegin
  2
*D70
 70
     1
 10
0.0
 20
0.0
 30
0.0
  3
*D70
  1

  0
LINE
  5
32C1
330
32BE
100
AcDbEntity
  8
寸法
  6
Continuous
 62
     0
370
    -2
100
AcDbLine
 10
106.062641267712
 20
108.7999999999999
 30
0.0
 11
100.75
 21
108.7999999999999
 31
0.0
  0
LINE
  5
32C2
330
32BE
100
AcDbEntity
  8
寸法
  6
Continuous
 62
     0
370
    -2
100
AcDbLine
 10
106.375
 20
102.7999999999999
 30
0.0
 11
100.75
 21
102.7999999999999
 31
0.0
  0
LINE
  5
32C3
330
32BE
100
AcDbEntity
  8
寸法
  6
Continuous
 62
     0
370
    -2
100
AcDbLine
 10
102.0
 20
111.2999999999999
 30
0.0
 11
102.0
 21
113.7999999999999
 31
0.0
  0
LINE
  5
32C4
330
32BE
100
AcDbEntity
  8
寸法
  6
Continuous
 62
     0
370
    -2
100
AcDbLine
 10
102.0
 20
100.2999999999999
 30
0.0
 11
102.0
 21
97.7999999999999
 31
0.0
  0
SOLID
  5
32C5
330
32BE
100
AcDbEntity
  8
寸法
 62
     0
100
AcDbTrace
 10
101.5833333333333
 20
111.2999999999999
 30
0.0
 11
102.4166666666667
 21
111.2999999999999
 31
0.0
 12
102.0
 22
108.7999999999999
 32
0.0
 13
102.0
 23
108.7999999999999
 33
0.0
  0
SOLID
  5
32C6
330
32BE
100
AcDbEntity
  8
寸法
 62
     0
100
AcDbTrace
 10
102.4166666666667
 20
100.2999999999999
 30
0.0
 11
101.5833333333333
 21
100.2999999999999
 31
0.0
 12
102.0
 22
102.7999999999999
 32
0.0
 13
102.0
 23
102.7999999999999
 33
0.0
  0
MTEXT
  5
32C7
330
32BE
100
AcDbEntity
  8
寸法
  6
Continuous
 62
     0
100
AcDbMText
 10
99.05809679450235
 20
105.7381686258441
 30
0.0
 40
2.5
 41
0.0
 46
0.0
 71
     5
 72
     1
  1
6
 73
     1
 44
1.0
  0
POINT
  5
32C8
330
32BE
100
AcDbEntity
  8
Defpoints
 62
     0
100
AcDbPoint
 10
106.687641267712
 20
108.7999999999999
 30
0.0
  0
POINT
  5
3344
330
32BE
100
AcDbEntity
  8
Defpoints
 62
     0
100
AcDbPoint
 10
107.0
 20
102.7999999999999
 30
0.0
  0
POINT
  5
3345
330
32BE
100
AcDbEntity
  8
Defpoints
 62
     0
100
AcDbPoint
 10
102.0
 20
102.7999999999999
 30
0.0
  0
ENDBLK
  5
32C0
330
32BE
100
AcDbEntity
  8
0
100
AcDbBlockEnd
  0
BLOCK
  5
32CC
330
32CB
100
AcDbEntity
  8
0
100
AcDbBlockBegin
  2
*D71
 70
     1
 10
0.0
 20
0.0
 30
0.0
  3
*D71
  1

  0
LINE
  5
32CE
330
32CB
100
AcDbEntity
  8
寸法
  6
Continuous
 62
     0
370
    -2
100
AcDbLine
 10
106.375
 20
102.7999999999999
 30
0.0
 11
100.75
 21
102.7999999999999
 31
0.0
  0
LINE
  5
32CF
330
32CB
100
AcDbEntity
  8
寸法
  6
Continuous
 62
     0
370
    -2
100
AcDbLine
 10
108.375
 20
100.7999999999998
 30
0.0
 11
100.75
 21
100.7999999999998
 31
0.0
  0
LINE
  5
32D0
330
32CB
100
AcDbEntity
  8
寸法
  6
Continuous
 62
     0
370
    -2
100
AcDbLine
 10
102.0
 20
105.2999999999999
 30
0.0
 11
102.0
 21
107.7999999999999
 31
0.0
  0
LINE
  5
32D1
330
32CB
100
AcDbEntity
  8
寸法
  6
Continuous
 62
     0
370
    -2
100
AcDbLine
 10
102.0
 20
98.2999999999998
 30
0.0
 11
102.0
 21
95.7999999999998
 31
0.0
  0
SOLID
  5
32D2
330
32CB
100
AcDbEntity
  8
寸法
 62
     0
100
AcDbTrace
 10
101.5833333333333
 20
105.2999999999999
 30
0.0
 11
102.4166666666667
 21
105.2999999999999
 31
0.0
 12
102.0
 22
102.7999999999999
 32
0.0
 13
102.0
 23
102.7999999999999
 33
0.0
  0
SOLID
  5
32D3
330
32CB
100
AcDbEntity
  8
寸法
 62
     0
100
AcDbTrace
 10
102.4166666666667
 20
98.2999999999998
 30
0.0
 11
101.5833333333333
 21
98.2999999999998
 31
0.0
 12
102.0
 22
100.7999999999998
 32
0.0
 13
102.0
 23
100.7999999999998
 33
0.0
  0
MTEXT
  5
32D4
330
32CB
100
AcDbEntity
  8
寸法
  6
Continuous
 62
     0
100
AcDbMText
 10
99.05809679450235
 20
101.5700790258441
 30
0.0
 40
2.5
 41
0.0
 46
0.0
 71
     5
 72
     1
  1
2
 73
     1
 44
1.0
  0
POINT
  5
32D5
330
32CB
100
AcDbEntity
  8
Defpoints
 62
     0
100
AcDbPoint
 10
107.0
 20
102.7999999999999
 30
0.0
  0
POINT
  5
3346
330
32CB
100
AcDbEntity
  8
Defpoints
 62
     0
100
AcDbPoint
 10
109.0
 20
100.7999999999998
 30
0.0
  0
POINT
  5
3347
330
32CB
100
AcDbEntity
  8
Defpoints
 62
     0
100
AcDbPoint
 10
102.0
 20
100.7999999999998
 30
0.0
  0
ENDBLK
  5
32CD
330
32CB
100
AcDbEntity
  8
0
100
AcDbBlockEnd
  0
BLOCK
  5
32D9
330
32D8
100
AcDbEntity
  8
0
100
AcDbBlockBegin
  2
*D72
 70
     1
 10
0.0
 20
0.0
 30
0.0
  3
*D72
  1

  0
LINE
  5
32DB
330
32D8
100
AcDbEntity
  8
寸法
  6
Continuous
 62
     0
370
    -2
100
AcDbLine
 10
111.0
 20
100.1749999999999
 30
0.0
 11
111.0
 21
94.5499999999999
 31
0.0
  0
LINE
  5
32DC
330
32D8
100
AcDbEntity
  8
寸法
  6
Continuous
 62
     0
370
    -2
100
AcDbLine
 10
132.0
 20
100.1749999999999
 30
0.0
 11
132.0
 21
94.5499999999999
 31
0.0
  0
LINE
  5
32DD
330
32D8
100
AcDbEntity
  8
寸法
  6
Continuous
 62
     0
370
    -2
100
AcDbLine
 10
113.5
 20
95.7999999999999
 30
0.0
 11
119.2083333333333
 21
95.7999999999999
 31
0.0
  0
LINE
  5
32DE
330
32D8
100
AcDbEntity
  8
寸法
  6
Continuous
 62
     0
370
    -2
100
AcDbLine
 10
129.5
 20
95.7999999999999
 30
0.0
 11
123.7916666666667
 21
95.7999999999999
 31
0.0
  0
SOLID
  5
32DF
330
32D8
100
AcDbEntity
  8
寸法
 62
     0
100
AcDbTrace
 10
113.5
 20
96.21666666666657
 30
0.0
 11
113.5
 21
95.38333333333323
 31
0.0
 12
111.0
 22
95.7999999999999
 32
0.0
 13
111.0
 23
95.7999999999999
 33
0.0
  0
SOLID
  5
32E0
330
32D8
100
AcDbEntity
  8
寸法
 62
     0
100
AcDbTrace
 10
129.5
 20
95.38333333333323
 30
0.0
 11
129.5
 21
96.21666666666657
 31
0.0
 12
132.0
 22
95.7999999999999
 32
0.0
 13
132.0
 23
95.7999999999999
 33
0.0
  0
MTEXT
  5
32E1
330
32D8
100
AcDbEntity
  8
寸法
  6
Continuous
 62
     0
100
AcDbMText
 10
121.5
 20
95.7999999999999
 30
0.0
 40
2.5
 41
0.0
 46
0.0
 71
     5
 72
     1
  1
21
 73
     1
 44
1.0
  0
POINT
  5
32E2
330
32D8
100
AcDbEntity
  8
Defpoints
 62
     0
100
AcDbPoint
 10
111.0
 20
100.7999999999999
 30
0.0
  0
POINT
  5
32E3
330
32D8
100
AcDbEntity
  8
Defpoints
 62
     0
100
AcDbPoint
 10
132.0
 20
100.7999999999999
 30
0.0
  0
POINT
  5
32E4
330
32D8
100
AcDbEntity
  8
Defpoints
 62
     0
100
AcDbPoint
 10
132.0
 20
95.7999999999999
 30
0.0
  0
ENDBLK
  5
32DA
330
32D8
100
AcDbEntity
  8
0
100
AcDbBlockEnd
  0
BLOCK
  5
32F4
330
32F3
100
AcDbEntity
  8
0
100
AcDbBlockBegin
  2
_None
 70
     0
 10
0.0
 20
0.0
 30
0.0
  3
_None
  1

  0
ENDBLK
  5
32F5
330
32F3
100
AcDbEntity
  8
0
100
AcDbBlockEnd
  0
BLOCK
  5
32F7
330
32F6
100
AcDbEntity
  8
0
100
AcDbBlockBegin
  2
_DotSmall
 70
     0
 10
0.0
 20
0.0
 30
0.0
  3
_DotSmall
  1

  0
LWPOLYLINE
  5
32F9
330
32F6
100
AcDbEntity
  8
0
  6
ByBlock
 62
     0
100
AcDbPolyline
 90
        2
 70
     1
 43
0.5
 10
-0.0625
 20
0.0
 42
1.0
 10
0.0625
 20
0.0
 42
1.0
  0
ENDBLK
  5
32F8
330
32F6
100
AcDbEntity
  8
0
100
AcDbBlockEnd
  0
ENDSEC
  0
SECTION
  2
ENTITIES
  0
LINE
  5
664
330
1F
100
AcDbEntity
  8
用紙範囲
  6
HIDDEN
100
AcDbLine
 10
0.0
 20
205.0
 30
0.0
 11
0.0
 21
0.0
 31
0.0
  0
LINE
  5
665
330
1F
100
AcDbEntity
  8
用紙範囲
  6
HIDDEN
100
AcDbLine
 10
292.0
 20
205.0
 30
0.0
 11
292.0
 21
0.0
 31
0.0
  0
LINE
  5
666
330
1F
100
AcDbEntity
  8
用紙範囲
  6
HIDDEN
100
AcDbLine
 10
0.0
 20
205.0
 30
0.0
 11
292.0
 21
205.0
 31
0.0
  0
LINE
  5
667
330
1F
100
AcDbEntity
  8
用紙範囲
  6
HIDDEN
100
AcDbLine
 10
0.0
 20
0.0
 30
0.0
 11
292.0
 21
0.0
 31
0.0
  0
LINE
  5
668
330
1F
100
AcDbEntity
  8
枠
  6
Continuous
100
AcDbLine
 10
11.00000000000003
 20
193.5
 30
0.0
 11
281.0
 21
193.5
 31
0.0
  0
LINE
  5
669
330
1F
100
AcDbEntity
  8
枠
  6
Continuous
100
AcDbLine
 10
11.00000000000003
 20
11.5
 30
0.0
 11
281.0
 21
11.5
 31
0.0
  0
LINE
  5
66A
330
1F
100
AcDbEntity
  8
枠
  6
Continuous
100
AcDbLine
 10
11.00000000000003
 20
193.5
 30
0.0
 11
11.00000000000003
 21
11.5
 31
0.0
  0
LINE
  5
66B
330
1F
100
AcDbEntity
  8
枠
  6
Continuous
100
AcDbLine
 10
281.0
 20
193.5
 30
0.0
 11
281.0
 21
11.5
 31
0.0
  0
LINE
  5
673
330
1F
100
AcDbEntity
  8
枠
  6
Continuous
100
AcDbLine
 10
10.00000000000003
 20
194.5
 30
0.0
 11
282.0
 21
194.5
 31
0.0
  0
LINE
  5
674
330
1F
100
AcDbEntity
  8
枠
  6
Continuous
100
AcDbLine
 10
10.00000000000003
 20
194.5
 30
0.0
 11
10.00000000000003
 21
10.5
 31
0.0
  0
LINE
  5
675
330
1F
100
AcDbEntity
  8
枠
  6
Continuous
100
AcDbLine
 10
10.00000000000003
 20
10.5
 30
0.0
 11
282.0
 21
10.5
 31
0.0
  0
LINE
  5
676
330
1F
100
AcDbEntity
  8
枠
  6
Continuous
100
AcDbLine
 10
282.0
 20
194.5
 30
0.0
 11
282.0
 21
10.5
 31
0.0
  0
LINE
  5
677
330
1F
100
AcDbEntity
  8
枠
  6
Continuous
100
AcDbLine
 10
236.0
 20
193.5
 30
0.0
 11
236.0
 21
11.5
 31
0.0
  0
LINE
  5
678
330
1F
100
AcDbEntity
  8
枠
  6
Continuous
100
AcDbLine
 10
236.0
 20
171.3660465293556
 30
0.0
 11
281.0
 21
171.3660465293556
 31
0.0
  0
LINE
  5
679
330
1F
100
AcDbEntity
  8
枠
  6
Continuous
100
AcDbLine
 10
236.0
 20
149.2320930587111
 30
0.0
 11
281.0
 21
149.2320930587111
 31
0.0
  0
LINE
  5
67A
330
1F
100
AcDbEntity
  8
枠
  6
Continuous
100
AcDbLine
 10
236.0
 20
31.87291584484291
 30
0.0
 11
281.0
 21
31.87291584484291
 31
0.0
  0
LINE
  5
67B
330
1F
100
AcDbEntity
  8
枠
  6
Continuous
100
AcDbLine
 10
236.0
 20
41.88960476803794
 30
0.0
 11
281.0
 21
41.88960476803794
 31
0.0
  0
LINE
  5
67D
330
1F
100
AcDbEntity
  8
枠
  6
Continuous
100
AcDbLine
 10
235.0
 20
193.5
 30
0.0
 11
235.0
 21
11.5
 31
0.0
  0
MTEXT
  5
A15
330
1F
100
AcDbEntity
  8
文字
100
AcDbMText
 10
238.0774350305441
 20
192.0038694137743
 30
0.0
 40
2.5
 41
19.50744578598591
 46
2.8275
 71
     1
 72
     5
  1
{\fＭＳ Ｐゴシック|b0|i0|c0|p0;名称}
 73
     1
 44
1.0
1001
ACAD
1000
ACAD_MTEXT_DEFINED_HEIGHT_BEGIN
1070
    46
1040
2.8275
1000
ACAD_MTEXT_DEFINED_HEIGHT_END
  0
MTEXT
  5
A17
330
1F
100
AcDbEntity
  8
文字
100
AcDbMText
 10
237.7199788358598
 20
183.859332666015
 30
0.0
 40
2.5
 41
45.00000000000003
 46
7.509469696969697
 71
     1
 72
     5
  1
{\pxql;\fＭＳ Ｐゴシック|b0|i0|c0|p0;Ｐｒｅｖｉｏ Ｍ　室内木階段用　\P上足用ノンスリップ}
 73
     1
 44
1.0
1001
ACAD
1000
ACAD_MTEXT_DEFINED_HEIGHT_BEGIN
1070
    46
1040
7.509469696969697
1000
ACAD_MTEXT_DEFINED_HEIGHT_END
  0
MTEXT
  5
A18
330
1F
100
AcDbEntity
  8
文字
100
AcDbMText
 10
238.0774350305441
 20
169.6766048811238
 30
0.0
 40
2.5
 41
12.9189203585147
 46
2.84
 71
     1
 72
     5
  1
{\fＭＳ Ｐゴシック|b0|i0|c0|p0;品番}
 73
     1
 44
1.0
1001
ACAD
1000
ACAD_MTEXT_DEFINED_HEIGHT_BEGIN
1070
    46
1040
2.84
1000
ACAD_MTEXT_DEFINED_HEIGHT_END
  0
MTEXT
  5
A1C
330
1F
100
AcDbEntity
  8
文字
100
AcDbMText
 10
238.0774350305441
 20
148.0690084662711
 30
0.0
 40
2.5
 41
9.970036363636382
 46
2.8125
 71
     1
 72
     5
  1
{\fＭＳ Ｐゴシック|b0|i0|c0|p0;仕様}
 73
     1
 44
1.0
1001
ACAD
1000
ACAD_MTEXT_DEFINED_HEIGHT_BEGIN
1070
    46
1040
2.8125
1000
ACAD_MTEXT_DEFINED_HEIGHT_END
  0
MTEXT
  5
A1D
330
1F
100
AcDbEntity
  8
文字
100
AcDbMText
 10
245.3794334940524
 20
138.8428917133901
 30
0.0
 40
2.0
 41
31.03349346991041
 46
2.33
 71
     1
 72
     5
  1
{\fＭＳ Ｐゴシック|b0|i0|c0|p0;材質：アルミ製}
 73
     1
 44
1.0
1001
ACAD
1000
ACAD_MTEXT_DEFINED_HEIGHT_BEGIN
1070
    46
1040
2.33
1000
ACAD_MTEXT_DEFINED_HEIGHT_END
  0
MTEXT
  5
A1E
330
1F
100
AcDbEntity
  8
文字
100
AcDbMText
 10
245.3794334940524
 20
130.5090576528301
 30
0.0
 40
2.0
 41
31.03349346991041
 46
2.124
 71
     1
 72
     5
  1
{\fＭＳ Ｐゴシック|b0|i0|c0|p0;仕上：シルバー}
 73
     1
 44
1.0
1001
ACAD
1000
ACAD_MTEXT_DEFINED_HEIGHT_BEGIN
1070
    46
1040
2.124
1000
ACAD_MTEXT_DEFINED_HEIGHT_END
  0
MTEXT
  5
A22
330
1F
100
AcDbEntity
  8
社名
100
AcDbMText
 10
236.0
 20
27.36191229983774
 30
0.0
 40
3.0
 41
46.0
 46
3.375
 71
     1
 72
     5
  1
{\pxqc;\fＭＳ Ｐゴシック|b0|i0|c0|p0;株式会社ＡＳＳＩＳＴ}
 73
     1
 44
1.0
1001
ACAD
1000
ACAD_MTEXT_DEFINED_HEIGHT_BEGIN
1070
    46
1040
3.375
1000
ACAD_MTEXT_DEFINED_HEIGHT_END
  0
MTEXT
  5
A24
330
1F
100
AcDbEntity
  8
文字
100
AcDbMText
 10
238.0774350305441
 20
40.58955921885172
 30
0.0
 40
2.5
 41
9.970036363636382
 46
2.8275
 71
     1
 72
     5
  1
{\fＭＳ Ｐゴシック|b0|i0|c0|p0;縮尺}
 73
     1
 44
1.0
1001
ACAD
1000
ACAD_MTEXT_DEFINED_HEIGHT_BEGIN
1070
    46
1040
2.8275
1000
ACAD_MTEXT_DEFINED_HEIGHT_END
  0
MTEXT
  5
A25
330
1F
100
AcDbEntity
  8
文字
100
AcDbMText
 10
251.2855836701089
 20
36.15844413562513
 30
0.0
 40
2.5
 41
28.36545556978234
 46
2.5
 71
     1
 72
     5
  1
{\fＭＳ Ｐゴシック|b0|i0|c0|p0;1：１ }
 73
     1
 44
1.0
1001
ACAD
1000
ACAD_MTEXT_DEFINED_HEIGHT_BEGIN
1070
    46
1040
2.5
1000
ACAD_MTEXT_DEFINED_HEIGHT_END
  0
MTEXT
  5
DF8
330
1F
100
AcDbEntity
  8
文字
100
AcDbMText
 10
253.810188672227
 20
134.80617212146
 30
0.0
 40
2.0
 41
31.03349346991041
 46
2.228
 71
     1
 72
     5
  1
{\fＭＳ Ｐゴシック|b0|i0|c0|p0;（A6063S-T5)}
 73
     1
 44
1.0
1001
ACAD
1000
ACAD_MTEXT_DEFINED_HEIGHT_BEGIN
1070
    46
1040
2.228
1000
ACAD_MTEXT_DEFINED_HEIGHT_END
  0
MTEXT
  5
13F5
330
1F
100
AcDbEntity
  8
文字
100
AcDbMText
 10
239.5379477351412
 20
143.0699637133901
 30
0.0
 40
2.0
 41
31.03349346991041
 46
2.25
 71
     1
 72
     5
  1
{\fＭＳ Ｐゴシック|b0|i0|c0|p0;ベース部分}
 73
     1
 44
1.0
1001
ACAD
1000
ACAD_MTEXT_DEFINED_HEIGHT_BEGIN
1070
    46
1040
2.25
1000
ACAD_MTEXT_DEFINED_HEIGHT_END
  0
MTEXT
  5
27D9
330
1F
100
AcDbEntity
  8
文字
100
AcDbMText
 10
245.3794334940524
 20
117.3880437133901
 30
0.0
 40
2.0
 41
31.03349346991041
 46
2.238
 71
     1
 72
     5
  1
{\fＭＳ Ｐゴシック|b0|i0|c0|p0;材質：軟硬同時成型品}
 73
     1
 44
1.0
1001
ACAD
1000
ACAD_MTEXT_DEFINED_HEIGHT_BEGIN
1070
    46
1040
2.238
1000
ACAD_MTEXT_DEFINED_HEIGHT_END
  0
MTEXT
  5
27DB
330
1F
100
AcDbEntity
  8
文字
100
AcDbMText
 10
239.5379477351412
 20
121.6151157133901
 30
0.0
 40
2.0
 41
31.03349346991041
 46
2.25
 71
     1
 72
     5
  1
{\fＭＳ Ｐゴシック|b0|i0|c0|p0;タイヤ部分}
 73
     1
 44
1.0
1001
ACAD
1000
ACAD_MTEXT_DEFINED_HEIGHT_BEGIN
1070
    46
1040
2.25
1000
ACAD_MTEXT_DEFINED_HEIGHT_END
  0
MTEXT
  5
27DC
330
1F
100
AcDbEntity
  8
文字
100
AcDbMText
 10
243.6094939751414
 20
107.9650013328301
 30
0.0
 40
2.0
 41
31.03349346991041
 46
2.182
 71
     1
 72
     5
  1
{\fＭＳ Ｐゴシック|b0|i0|c0|p0;カラー：５色}
 73
     1
 44
1.0
1001
ACAD
1000
ACAD_MTEXT_DEFINED_HEIGHT_BEGIN
1070
    46
1040
2.182
1000
ACAD_MTEXT_DEFINED_HEIGHT_END
  0
MTEXT
  5
27DD
330
1F
100
AcDbEntity
  8
文字
100
AcDbMText
 10
252.6953139510858
 20
89.55854370742851
 30
0.0
 40
2.0
 41
31.03349346991041
 46
2.102
 71
     1
 72
     5
  1
{\fＭＳ Ｐゴシック|b0|i0|c0|p0;ＷＴ：ホワイト}
 73
     1
 44
1.0
1001
ACAD
1000
ACAD_MTEXT_DEFINED_HEIGHT_BEGIN
1070
    46
1040
2.102
1000
ACAD_MTEXT_DEFINED_HEIGHT_END
  0
MTEXT
  5
27DE
330
1F
100
AcDbEntity
  8
文字
100
AcDbMText
 10
253.0466779751414
 20
104.0903107874587
 30
0.0
 40
2.0
 41
31.03349346991041
 46
2.194
 71
     1
 72
     5
  1
{\fＭＳ Ｐゴシック|b0|i0|c0|p0;ＣＡ：カカオ}
 73
     1
 44
1.0
1001
ACAD
1000
ACAD_MTEXT_DEFINED_HEIGHT_BEGIN
1070
    46
1040
2.194
1000
ACAD_MTEXT_DEFINED_HEIGHT_END
  0
MTEXT
  5
27DF
330
1F
100
AcDbEntity
  8
文字
100
AcDbMText
 10
253.0466779751414
 20
100.3940803874586
 30
0.0
 40
2.0
 41
31.03349346991041
 46
2.148
 71
     1
 72
     5
  1
{\fＭＳ Ｐゴシック|b0|i0|c0|p0;ＢＮ：ブラウン}
 73
     1
 44
1.0
1001
ACAD
1000
ACAD_MTEXT_DEFINED_HEIGHT_BEGIN
1070
    46
1040
2.148
1000
ACAD_MTEXT_DEFINED_HEIGHT_END
  0
LINE
  5
27E4
330
1F
100
AcDbEntity
  8
枠
  6
Continuous
100
AcDbLine
 10
236.0
 20
51.88960476803794
 30
0.0
 11
281.0
 21
51.88960476803794
 31
0.0
  0
MTEXT
  5
27E5
330
1F
100
AcDbEntity
  8
文字
100
AcDbMText
 10
238.0774350305441
 20
50.58955921885172
 30
0.0
 40
2.5
 41
9.970036363636382
 46
2.5
 71
     1
 72
     5
  1
{\fＭＳ Ｐゴシック|b0|i0|c0|p0;Date}
 73
     1
 44
1.0
1001
ACAD
1000
ACAD_MTEXT_DEFINED_HEIGHT_BEGIN
1070
    46
1040
2.5
1000
ACAD_MTEXT_DEFINED_HEIGHT_END
  0
MTEXT
  5
27E6
330
1F
100
AcDbEntity
  8
文字
100
AcDbMText
 10
246.1251641599999
 20
46.15844413562513
 30
0.0
 40
2.5
 41
28.36545556978231
 46
2.627860447667875
 71
     1
 72
     5
  1
{\fＭＳ Ｐゴシック|b0|i0|c0|p0;2022年6月24日}
 73
     1
 44
1.0
1001
ACAD
1000
ACAD_MTEXT_DEFINED_HEIGHT_BEGIN
1070
    46
1040
2.627860447667875
1000
ACAD_MTEXT_DEFINED_HEIGHT_END
  0
MTEXT
  5
27E7
330
1F
100
AcDbEntity
  8
文字
100
AcDbMText
 10
253.5802982857145
 20
96.58704733603014
 30
0.0
 40
2.0
 41
31.03349346991041
 46
2.148
 71
     1
 72
     5
  1
{\fＭＳ Ｐゴシック|b0|i0|c0|p0;Ｃ Ｉ：シナモン}
 73
     1
 44
1.0
1001
ACAD
1000
ACAD_MTEXT_DEFINED_HEIGHT_BEGIN
1070
    46
1040
2.148
1000
ACAD_MTEXT_DEFINED_HEIGHT_END
  0
MTEXT
  5
27E8
330
1F
100
AcDbEntity
  8
文字
100
AcDbMText
 10
253.0466779751414
 20
92.96946013603014
 30
0.0
 40
2.0
 41
31.03349346991041
 46
2.148
 71
     1
 72
     5
  1
{\fＭＳ Ｐゴシック|b0|i0|c0|p0;ＵＮ：アンバー}
 73
     1
 44
1.0
1001
ACAD
1000
ACAD_MTEXT_DEFINED_HEIGHT_BEGIN
1070
    46
1040
2.148
1000
ACAD_MTEXT_DEFINED_HEIGHT_END
  0
MTEXT
  5
2C03
330
1F
100
AcDbEntity
  8
文字
100
AcDbMText
 10
236.0
 20
160.4307612374436
 30
0.0
 40
2.5
 41
45.0
 46
2.5
 71
     1
 72
     5
  1
{\pxqc;\fＭＳ Ｐゴシック|b0|i0|c0|p0;PVＭ１０１}
 73
     1
 44
1.0
1001
ACAD
1000
ACAD_MTEXT_DEFINED_HEIGHT_BEGIN
1070
    46
1040
2.5
1000
ACAD_MTEXT_DEFINED_HEIGHT_END
  0
MTEXT
  5
2C09
330
1F
100
AcDbEntity
  8
社名
100
AcDbMText
 10
236.0
 20
19.58027172995764
 30
0.0
 40
5.0
 41
45.0
 46
5.0
 71
     1
 72
     5
  1
{\pxqc;\fＭＳ Ｐゴシック|b0|i0|c0|p0;\T1.15;\W1.3;AFOLA}
 73
     1
 44
1.0
1001
ACAD
1000
ACAD_MTEXT_DEFINED_HEIGHT_BEGIN
1070
    46
1040
5.0
1000
ACAD_MTEXT_DEFINED_HEIGHT_END
  0
DIMENSION
  5
321F
102
{ACAD_XDICTIONARY
360
3220
102
}
330
1F
100
AcDbEntity
  8
寸法
  6
Continuous
100
AcDbDimension
280
     0
  2
*D66
 10
137.0
 20
100.7999999999999
 30
0.0
 11
137.0
 21
104.731146183509
 31
0.0
 70
   160
 71
     5
 42
8.0
 73
     0
 74
     1
 75
     1
  3
ISO-1
100
AcDbAlignedDimension
 13
132.0
 23
108.7999999999999
 33
0.0
 14
132.0
 24
100.7999999999999
 34
0.0
 50
90.0
100
AcDbRotatedDimension
  0
DIMENSION
  5
3223
102
{ACAD_XDICTIONARY
360
3224
102
}
330
1F
100
AcDbEntity
  8
寸法
  6
Continuous
100
AcDbDimension
280
     0
  2
*D68
 10
132.0
 20
113.7999999999998
 30
0.0
 11
119.6
 21
113.7999999999998
 31
0.0
 70
   160
 71
     5
 42
25.0
 73
     0
 74
     0
 75
     0
  3
ISO-1
100
AcDbAlignedDimension
 13
107.0
 23
108.7999999999999
 33
0.0
 14
132.0
 24
108.7999999999999
 34
0.0
100
AcDbRotatedDimension
  0
DIMENSION
  5
3225
102
{ACAD_XDICTIONARY
360
3226
102
}
330
1F
100
AcDbEntity
  8
寸法
  6
Continuous
100
AcDbDimension
280
     0
  2
*D69
 10
109.0
 20
95.7999999999998
 30
0.0
 11
107.9224905112787
 21
92.43267136692906
 31
0.0
 70
   160
 71
     5
 42
2.0
 73
     0
 74
     0
 75
     0
  3
ISO-1
100
AcDbAlignedDimension
 13
107.0
 23
103.2999999999998
 33
0.0
 14
109.0
 24
101.1762783378312
 34
0.0
100
AcDbRotatedDimension
1001
ACAD
1000
DSTYLE
1002
{
1070
   173
1070
     1
1070
   342
1005
0
1070
   344
1005
0
1070
   343
1005
0
1002
}
  0
DIMENSION
  5
3227
102
{ACAD_XDICTIONARY
360
3228
102
}
330
1F
100
AcDbEntity
  8
寸法
  6
Continuous
100
AcDbDimension
280
     0
  2
*D70
 10
102.0
 20
102.7999999999999
 30
0.0
 11
99.05809679450235
 21
105.7381686258441
 31
0.0
 70
   160
 71
     5
 42
6.0
 73
     0
 74
     0
 75
     0
  3
ISO-1
100
AcDbAlignedDimension
 13
106.687641267712
 23
108.7999999999999
 33
0.0
 14
107.0
 24
102.7999999999999
 34
0.0
 50
90.0
100
AcDbRotatedDimension
1001
ACAD
1000
DSTYLE
1002
{
1070
   173
1070
     1
1070
   342
1005
0
1070
   344
1005
0
1070
   343
1005
0
1002
}
  0
DIMENSION
  5
3229
102
{ACAD_XDICTIONARY
360
322A
102
}
330
1F
100
AcDbEntity
  8
寸法
  6
Continuous
100
AcDbDimension
280
     0
  2
*D71
 10
102.0
 20
100.7999999999998
 30
0.0
 11
99.05809679450235
 21
101.5700790258441
 31
0.0
 70
   160
 71
     5
 42
2.000000000000099
 73
     0
 74
     0
 75
     0
  3
ISO-1
100
AcDbAlignedDimension
 13
107.0
 23
102.7999999999999
 33
0.0
 14
109.0
 24
100.7999999999998
 34
0.0
 50
90.0
100
AcDbRotatedDimension
1001
ACAD
1000
DSTYLE
1002
{
1070
   173
1070
     1
1070
   342
1005
0
1070
   344
1005
0
1070
   343
1005
0
1002
}
  0
LINE
  5
322B
330
1F
100
AcDbEntity
  8
文字
  6
Continuous
100
AcDbLine
 10
111.0
 20
101.9999999999999
 30
0.0
 11
111.0
 21
104.5999999999999
 31
0.0
  0
LINE
  5
322C
102
{ACAD_REACTORS
330
3282
102
}
330
1F
100
AcDbEntity
  8
金属部分
  6
Continuous
100
AcDbLine
 10
111.0
 20
100.7999999999999
 30
0.0
 11
111.0
 21
105.0999999999999
 31
0.0
  0
LINE
  5
322D
102
{ACAD_REACTORS
330
3282
102
}
330
1F
100
AcDbEntity
  8
金属部分
  6
Continuous
100
AcDbLine
 10
132.0
 20
100.7999999999999
 30
0.0
 11
132.0
 21
105.5999999999999
 31
0.0
  0
LINE
  5
322E
330
1F
100
AcDbEntity
  8
金属部分
  6
Continuous
100
AcDbLine
 10
113.5
 20
101.9999999999999
 30
0.0
 11
119.5
 21
101.9999999999999
 31
0.0
  0
ARC
  5
322F
330
1F
100
AcDbEntity
  8
金属部分
  6
Continuous
100
AcDbCircle
 10
111.5
 20
105.0999999999999
 30
0.0
 40
0.5
100
AcDbArc
 50
90.0
 51
180.0
  0
LINE
  5
3230
330
1F
100
AcDbEntity
  8
金属部分
  6
Continuous
100
AcDbLine
 10
111.0
 20
100.7999999999999
 30
0.0
 11
132.0
 21
100.7999999999999
 31
0.0
  0
LINE
  5
3231
330
1F
100
AcDbEntity
  8
金属部分
  6
Continuous
100
AcDbLine
 10
119.5
 20
102.7999999999999
 30
0.0
 11
122.7
 21
102.7999999999999
 31
0.0
  0
LINE
  5
3232
330
1F
100
AcDbEntity
  8
金属部分
  6
Continuous
100
AcDbLine
 10
126.5
 20
102.7999999999999
 30
0.0
 11
126.5
 21
101.9999999999999
 31
0.0
  0
LINE
  5
3233
330
1F
100
AcDbEntity
  8
金属部分
  6
Continuous
100
AcDbLine
 10
119.5
 20
101.9999999999999
 30
0.0
 11
119.5
 21
102.7999999999999
 31
0.0
  0
LINE
  5
3234
330
1F
100
AcDbEntity
  8
金属部分
  6
Continuous
100
AcDbLine
 10
126.5
 20
101.9999999999999
 30
0.0
 11
129.5
 21
101.9999999999999
 31
0.0
  0
LINE
  5
3235
330
1F
100
AcDbEntity
  8
金属部分
  6
Continuous
100
AcDbLine
 10
123.0
 20
102.4999999999999
 30
0.0
 11
122.7
 21
102.7999999999999
 31
0.0
  0
LINE
  5
3236
330
1F
100
AcDbEntity
  8
金属部分
  6
Continuous
100
AcDbLine
 10
123.3
 20
102.7999999999999
 30
0.0
 11
123.0
 21
102.4999999999999
 31
0.0
  0
LINE
  5
3237
330
1F
100
AcDbEntity
  8
金属部分
  6
Continuous
100
AcDbLine
 10
123.3
 20
102.7999999999999
 30
0.0
 11
126.5
 21
102.7999999999999
 31
0.0
  0
LINE
  5
3238
330
1F
100
AcDbEntity
  8
金属部分
  6
Continuous
100
AcDbLine
 10
112.6840578921568
 20
105.5999999999999
 30
0.0
 11
111.5
 21
105.5999999999999
 31
0.0
  0
LINE
  5
3239
330
1F
100
AcDbEntity
  8
金属部分
  6
Continuous
100
AcDbLine
 10
113.0
 20
102.4999999999999
 30
0.0
 11
113.0
 21
103.9999999999999
 31
0.0
  0
LINE
  5
323A
330
1F
100
AcDbEntity
  8
金属部分
  6
Continuous
100
AcDbLine
 10
113.0
 20
103.9999999999999
 30
0.0
 11
113.7
 21
104.1273763833121
 31
0.0
  0
LINE
  5
323B
330
1F
100
AcDbEntity
  8
金属部分
  6
Continuous
100
AcDbLine
 10
113.7
 20
104.1273763833121
 30
0.0
 11
113.1356367551882
 21
105.3146544443127
 31
0.0
  0
ARC
  5
323C
330
1F
100
AcDbEntity
  8
金属部分
  6
Continuous
100
AcDbCircle
 10
111.5
 20
105.0999999999999
 30
0.0
 40
0.5
100
AcDbArc
 50
90.0
 51
180.0
  0
ARC
  5
323D
330
1F
100
AcDbEntity
  8
金属部分
  6
Continuous
100
AcDbCircle
 10
113.5
 20
102.4999999999999
 30
0.0
 40
0.5
100
AcDbArc
 50
180.0
 51
270.0
  0
ARC
  5
323E
330
1F
100
AcDbEntity
  8
金属部分
  6
Continuous
100
AcDbCircle
 10
112.6840578921568
 20
105.0999999999999
 30
0.0
 40
0.4999999999999996
100
AcDbArc
 50
25.42370847413699
 51
90.0
  0
LINE
  5
323F
330
1F
100
AcDbEntity
  8
金属部分
  6
Continuous
100
AcDbLine
 10
132.0
 20
105.5999999999999
 30
0.0
 11
130.3159421078433
 21
105.5999999999999
 31
0.0
  0
LINE
  5
3240
330
1F
100
AcDbEntity
  8
金属部分
  6
Continuous
100
AcDbLine
 10
130.0
 20
102.4999999999999
 30
0.0
 11
130.0
 21
103.9999999999999
 31
0.0
  0
ARC
  5
3241
330
1F
100
AcDbEntity
  8
金属部分
  6
Continuous
100
AcDbCircle
 10
129.5
 20
102.4999999999999
 30
0.0
 40
0.5
100
AcDbArc
 50
270.0
 51
0.0
  0
LINE
  5
3242
330
1F
100
AcDbEntity
  8
金属部分
  6
Continuous
100
AcDbLine
 10
130.0
 20
103.9999999999999
 30
0.0
 11
129.3
 21
104.1273763833121
 31
0.0
  0
LINE
  5
3243
330
1F
100
AcDbEntity
  8
金属部分
  6
Continuous
100
AcDbLine
 10
129.3
 20
104.1273763833121
 30
0.0
 11
129.8643632448118
 21
105.3146544443127
 31
0.0
  0
ARC
  5
3244
330
1F
100
AcDbEntity
  8
金属部分
  6
Continuous
100
AcDbCircle
 10
130.3159421078433
 20
105.0999999999999
 30
0.0
 40
0.4999999999999996
100
AcDbArc
 50
90.0
 51
154.576291525863
  0
LINE
  5
3245
330
1F
100
AcDbEntity
  8
軟質樹脂部分
  6
Continuous
100
AcDbLine
 10
107.5
 20
108.7999999999998
 30
0.0
 11
131.7
 21
108.7999999999998
 31
0.0
  0
LINE
  5
3246
330
1F
100
AcDbEntity
  8
硬質樹脂部分
  6
Continuous
100
AcDbLine
 10
109.2
 20
107.5999999999998
 30
0.0
 11
131.5
 21
107.5999999999998
 31
0.0
  0
LINE
  5
3247
330
1F
100
AcDbEntity
  8
硬質樹脂部分
  6
Continuous
100
AcDbLine
 10
132.0
 20
107.0999999999998
 30
0.0
 11
132.0
 21
106.0999999999998
 31
0.0
  0
LINE
  5
3248
330
1F
100
AcDbEntity
  8
硬質樹脂部分
  6
Continuous
100
AcDbLine
 10
127.2
 20
105.5999999999998
 30
0.0
 11
115.8
 21
105.5999999999998
 31
0.0
  0
LINE
  5
3249
330
1F
100
AcDbEntity
  8
硬質樹脂部分
  6
Continuous
100
AcDbLine
 10
131.5
 20
105.5999999999998
 30
0.0
 11
129.8
 21
105.5999999999998
 31
0.0
  0
ARC
  5
324A
330
1F
100
AcDbEntity
  8
軟質樹脂部分
  6
Continuous
100
AcDbCircle
 10
107.5
 20
108.2999999999998
 30
0.0
 40
0.5
100
AcDbArc
 50
90.0
 51
180.0
  0
LINE
  5
324B
330
1F
100
AcDbEntity
  8
軟質樹脂部分
  6
Continuous
100
AcDbLine
 10
132.2
 20
108.2999999999998
 30
0.0
 11
132.2
 21
107.5999999999998
 31
0.0
  0
LINE
  5
324C
330
1F
100
AcDbEntity
  8
硬質樹脂部分
  6
Continuous
100
AcDbLine
 10
110.6049813070075
 20
105.012104680758
 30
0.0
 11
111.0
 21
102.7999999999998
 31
0.0
  0
ARC
  5
324D
330
1F
100
AcDbEntity
  8
硬質樹脂部分
  6
Continuous
100
AcDbCircle
 10
131.5
 20
106.0999999999998
 30
0.0
 40
0.5
100
AcDbArc
 50
270.0
 51
0.0
  0
ARC
  5
324E
330
1F
100
AcDbEntity
  8
硬質樹脂部分
  6
Continuous
100
AcDbCircle
 10
131.5
 20
107.0999999999998
 30
0.0
 40
0.5
100
AcDbArc
 50
0.0
 51
90.0
  0
ARC
  5
324F
330
1F
100
AcDbEntity
  8
軟質樹脂部分
  6
Continuous
100
AcDbCircle
 10
126.1031665878029
 20
107.5999999999998
 30
0.0
 40
6.0968334121971
100
AcDbArc
 50
345.1290860465917
 51
0.0
  0
LINE
  5
3250
330
1F
100
AcDbEntity
  8
硬質樹脂部分
  6
Continuous
100
AcDbLine
 10
113.2
 20
105.5999999999998
 30
0.0
 11
111.0971950947618
 21
105.5999999999998
 31
0.0
  0
LINE
  5
3251
330
1F
100
AcDbEntity
  8
硬質樹脂部分
  6
Continuous
100
AcDbLine
 10
115.1000000000001
 20
102.0999999999998
 30
0.0
 11
114.2207464268799
 21
102.0999999999998
 31
0.0
  0
ARC
  5
3252
330
1F
100
AcDbEntity
  8
硬質樹脂部分
  6
Continuous
100
AcDbCircle
 10
111.0971950947618
 20
105.0999999999998
 30
0.0
 40
0.5
100
AcDbArc
 50
90.0
 51
190.1246716554005
  0
ARC
  5
3253
330
1F
100
AcDbEntity
  8
硬質樹脂部分
  6
Continuous
100
AcDbCircle
 10
109.2
 20
106.5999999999998
 30
0.0
 40
1.0
100
AcDbArc
 50
90.0
 51
180.0
  0
ARC
  5
3254
330
1F
100
AcDbEntity
  8
軟質樹脂部分
  6
Continuous
100
AcDbCircle
 10
131.7
 20
108.2999999999998
 30
0.0
 40
0.5
100
AcDbArc
 50
0.0
 51
90.0
  0
ARC
  5
3255
330
1F
100
AcDbEntity
  8
軟質樹脂部分
  6
Continuous
100
AcDbCircle
 10
107.5
 20
108.2999999999998
 30
0.0
 40
0.5
100
AcDbArc
 50
90.0
 51
180.0
  0
LINE
  5
3256
330
1F
100
AcDbEntity
  8
硬質樹脂部分
  6
Continuous
100
AcDbLine
 10
111.0
 20
101.802267019897
 30
0.0
 11
111.0
 21
102.7999999999998
 31
0.0
  0
LINE
  5
3257
330
1F
100
AcDbEntity
  8
硬質樹脂部分
  6
Continuous
100
AcDbLine
 10
111.0
 20
101.802267019897
 30
0.0
 11
111.0
 21
102.7999999999998
 31
0.0
  0
LINE
  5
3258
330
1F
100
AcDbEntity
  8
軟質樹脂部分
  6
Continuous
100
AcDbLine
 10
108.5
 20
102.7999999999998
 30
0.0
 11
107.5
 21
102.7999999999998
 31
0.0
  0
LINE
  5
3259
330
1F
100
AcDbEntity
  8
軟質樹脂部分
  6
Continuous
100
AcDbLine
 10
107.0
 20
103.2999999999998
 30
0.0
 11
107.0
 21
108.2999999999998
 31
0.0
  0
LINE
  5
325A
330
1F
100
AcDbEntity
  8
硬質樹脂部分
  6
Continuous
100
AcDbLine
 10
108.2
 20
104.4999999999998
 30
0.0
 11
108.2
 21
106.5999999999998
 31
0.0
  0
ARC
  5
325B
330
1F
100
AcDbEntity
  8
軟質樹脂部分
  6
Continuous
100
AcDbCircle
 10
107.5
 20
103.2999999999998
 30
0.0
 40
0.5
100
AcDbArc
 50
180.0
 51
270.0
  0
LINE
  5
325C
330
1F
100
AcDbEntity
  8
軟質樹脂部分
  6
Continuous
100
AcDbLine
 10
109.0
 20
100.7999999999998
 30
0.0
 11
109.0
 21
102.2999999999998
 31
0.0
  0
LINE
  5
325D
330
1F
100
AcDbEntity
  8
軟質樹脂部分
  6
Continuous
100
AcDbLine
 10
109.0
 20
100.7999999999998
 30
0.0
 11
111.0
 21
100.7999999999999
 31
0.0
  0
ARC
  5
325E
330
1F
100
AcDbEntity
  8
軟質樹脂部分
  6
Continuous
100
AcDbCircle
 10
108.5
 20
102.2999999999998
 30
0.0
 40
0.5
100
AcDbArc
 50
0.0
 51
90.0
  0
LINE
  5
325F
330
1F
100
AcDbEntity
  8
軟質樹脂部分
  6
Continuous
100
AcDbLine
 10
109.0
 20
100.7999999999998
 30
0.0
 11
109.0
 21
100.7999999999998
 31
0.0
  0
LINE
  5
3260
330
1F
100
AcDbEntity
  8
硬質樹脂部分
  6
Continuous
100
AcDbLine
 10
111.0
 20
101.802267019897
 30
0.0
 11
110.0
 21
101.802267019897
 31
0.0
  0
LINE
  5
3261
330
1F
100
AcDbEntity
  8
軟質樹脂部分
  6
Continuous
100
AcDbLine
 10
110.2
 20
100.7999999999998
 30
0.0
 11
110.2
 21
100.8013602119381
 31
0.0
  0
LINE
  5
3262
330
1F
100
AcDbEntity
  8
硬質樹脂部分
  6
Continuous
100
AcDbLine
 10
108.7
 20
103.9999999999998
 30
0.0
 11
109.7698955247623
 21
103.9999999999998
 31
0.0
  0
LINE
  5
3263
330
1F
100
AcDbEntity
  8
硬質樹脂部分
  6
Continuous
100
AcDbLine
 10
110.0
 20
101.802267019897
 30
0.0
 11
110.0
 21
102.7114149386687
 31
0.0
  0
LINE
  5
3264
330
1F
100
AcDbEntity
  8
硬質樹脂部分
  6
Continuous
100
AcDbLine
 10
109.7698955247623
 20
103.9999999999998
 30
0.0
 11
110.0
 21
102.7114149386687
 31
0.0
  0
ARC
  5
3265
330
1F
100
AcDbEntity
  8
硬質樹脂部分
  6
Continuous
100
AcDbCircle
 10
108.7
 20
104.4999999999998
 30
0.0
 40
0.5
100
AcDbArc
 50
180.0
 51
270.0
  0
LINE
  5
3266
330
1F
100
AcDbEntity
  8
軟質樹脂部分
  6
Continuous
100
AcDbLine
 10
111.0
 20
101.802267019897
 30
0.0
 11
111.0
 21
100.7999999999999
 31
0.0
  0
LINE
  5
3267
330
1F
100
AcDbEntity
  8
硬質樹脂部分
  6
Continuous
100
AcDbLine
 10
115.3
 20
105.0999999999998
 30
0.0
 11
115.3
 21
102.2999999999998
 31
0.0
  0
ARC
  5
3268
330
1F
100
AcDbEntity
  8
硬質樹脂部分
  6
Continuous
100
AcDbCircle
 10
115.1000000000001
 20
102.2999999999998
 30
0.0
 40
0.2000000000000001
100
AcDbArc
 50
270.0
 51
0.0
  0
LINE
  5
3269
330
1F
100
AcDbEntity
  8
硬質樹脂部分
  6
Continuous
100
AcDbLine
 10
113.7
 20
105.0999999999998
 30
0.0
 11
113.7
 21
103.9999999999998
 31
0.0
  0
LINE
  5
326A
330
1F
100
AcDbEntity
  8
硬質樹脂部分
  6
Continuous
100
AcDbLine
 10
113.7
 20
103.9999999999998
 30
0.0
 11
113.2656363713347
 21
103.9999999999998
 31
0.0
  0
LINE
  5
326B
330
1F
100
AcDbEntity
  8
硬質樹脂部分
  6
Continuous
100
AcDbLine
 10
113.1771445490965
 20
103.8534253567166
 30
0.0
 11
114.0437627824035
 21
102.2068507134333
 31
0.0
  0
ARC
  5
326C
330
1F
100
AcDbEntity
  8
硬質樹脂部分
  6
Continuous
100
AcDbCircle
 10
113.2656363713347
 20
103.8999999999998
 30
0.0
 40
0.1
100
AcDbArc
 50
90.0
 51
207.7585406010433
  0
ARC
  5
326D
330
1F
100
AcDbEntity
  8
硬質樹脂部分
  6
Continuous
100
AcDbCircle
 10
114.2207464268799
 20
102.2999999999998
 30
0.0
 40
0.2
100
AcDbArc
 50
207.7585406010616
 51
270.0
  0
ARC
  5
326E
330
1F
100
AcDbEntity
  8
硬質樹脂部分
  6
Continuous
100
AcDbCircle
 10
115.8
 20
105.0999999999998
 30
0.0
 40
0.5
100
AcDbArc
 50
90.0
 51
180.0
  0
ARC
  5
326F
330
1F
100
AcDbEntity
  8
硬質樹脂部分
  6
Continuous
100
AcDbCircle
 10
127.2
 20
105.0999999999998
 30
0.0
 40
0.5
100
AcDbArc
 50
0.0
 51
90.0
  0
ARC
  5
3270
330
1F
100
AcDbEntity
  8
硬質樹脂部分
  6
Continuous
100
AcDbCircle
 10
113.2
 20
105.0999999999998
 30
0.0
 40
0.5
100
AcDbArc
 50
0.0
 51
90.0
  0
LINE
  5
3271
330
1F
100
AcDbEntity
  8
硬質樹脂部分
  6
Continuous
100
AcDbLine
 10
127.9
 20
102.0999999999998
 30
0.0
 11
128.7792535731202
 21
102.0999999999998
 31
0.0
  0
LINE
  5
3272
330
1F
100
AcDbEntity
  8
硬質樹脂部分
  6
Continuous
100
AcDbLine
 10
127.7
 20
105.0999999999998
 30
0.0
 11
127.7
 21
102.2999999999998
 31
0.0
  0
ARC
  5
3273
330
1F
100
AcDbEntity
  8
硬質樹脂部分
  6
Continuous
100
AcDbCircle
 10
127.9
 20
102.2999999999998
 30
0.0
 40
0.2000000000000001
100
AcDbArc
 50
180.0
 51
270.0
  0
LINE
  5
3274
330
1F
100
AcDbEntity
  8
硬質樹脂部分
  6
Continuous
100
AcDbLine
 10
129.8228554509036
 20
103.8534253567166
 30
0.0
 11
128.9562372175966
 21
102.2068507134333
 31
0.0
  0
ARC
  5
3275
330
1F
100
AcDbEntity
  8
硬質樹脂部分
  6
Continuous
100
AcDbCircle
 10
128.7792535731202
 20
102.2999999999998
 30
0.0
 40
0.2
100
AcDbArc
 50
270.0
 51
332.2414593989346
  0
LINE
  5
3276
330
1F
100
AcDbEntity
  8
硬質樹脂部分
  6
Continuous
100
AcDbLine
 10
129.3
 20
103.9999999999998
 30
0.0
 11
129.7343636286654
 21
103.9999999999998
 31
0.0
  0
ARC
  5
3277
330
1F
100
AcDbEntity
  8
硬質樹脂部分
  6
Continuous
100
AcDbCircle
 10
129.7343636286654
 20
103.8999999999998
 30
0.0
 40
0.1
100
AcDbArc
 50
332.2414593989567
 51
90.0
  0
LINE
  5
3278
330
1F
100
AcDbEntity
  8
硬質樹脂部分
  6
Continuous
100
AcDbLine
 10
129.3
 20
105.0999999999998
 30
0.0
 11
129.3
 21
103.9999999999998
 31
0.0
  0
ARC
  5
3279
330
1F
100
AcDbEntity
  8
硬質樹脂部分
  6
Continuous
100
AcDbCircle
 10
127.2
 20
105.0999999999998
 30
0.0
 40
0.5
100
AcDbArc
 50
0.0
 51
90.0
  0
ARC
  5
327A
330
1F
100
AcDbEntity
  8
硬質樹脂部分
  6
Continuous
100
AcDbCircle
 10
129.8
 20
105.0999999999998
 30
0.0
 40
0.5
100
AcDbArc
 50
90.0
 51
180.0
  0
LEADER
  5
327C
330
1F
100
AcDbEntity
  8
TOS_M1
  6
Continuous
100
AcDbLeader
  3
ISO-1
 76
     2
 10
127.2211378110504
 20
106.5941348952744
 30
0.0
 10
136.1069075974898
 20
114.5661252794939
 30
0.0
  0
LEADER
  5
327E
102
{ACAD_XDICTIONARY
360
327F
102
}
330
1F
100
AcDbEntity
  8
TOS_M1
  6
Continuous
100
AcDbLeader
  3
ISO-1
 76
     2
 10
110.3764218575284
 20
108.2073949848115
 30
0.0
 10
99.30145270066296
 20
118.2344146006925
 30
0.0
  0
DIMENSION
  5
3280
102
{ACAD_REACTORS
330
3282
102
}
102
{ACAD_XDICTIONARY
360
3281
102
}
330
1F
100
AcDbEntity
  8
寸法
  6
Continuous
100
AcDbDimension
280
     0
  2
*D72
 10
132.0
 20
95.7999999999999
 30
0.0
 11
121.5
 21
95.7999999999999
 31
0.0
 70
   160
 71
     5
 42
21.0
 73
     0
 74
     0
 75
     0
  3
ISO-1
100
AcDbAlignedDimension
 13
111.0
 23
100.7999999999999
 33
0.0
 14
132.0
 24
100.7999999999999
 34
0.0
100
AcDbRotatedDimension
  0
LINE
  5
3283
330
1F
100
AcDbEntity
  8
金属部分
  6
Continuous
100
AcDbLine
 10
123.5
 20
100.2912074001955
 30
0.0
 11
122.5
 21
100.2912074001955
 31
0.0
  0
LINE
  5
3284
330
1F
100
AcDbEntity
  8
TOS_M1
  6
Continuous
100
AcDbLine
 10
123.0
 20
99.2912074001955
 30
0.0
 11
122.5
 21
100.2912074001955
 31
0.0
  0
LINE
  5
3285
330
1F
100
AcDbEntity
  8
TOS_M1
  6
Continuous
100
AcDbLine
 10
123.0
 20
99.2912074001955
 30
0.0
 11
123.5
 21
100.2912074001955
 31
0.0
  0
HATCH
  5
3286
330
1F
100
AcDbEntity
  8
TOS_M1
  6
Continuous
100
AcDbHatch
 10
0.0
 20
0.0
 30
0.0
210
0.0
220
0.0
230
1.0
  2
SOLID
 70
     1
 71
     0
 91
        1
 92
        7
 72
     0
 73
     1
 93
        3
 10
123.0
 20
99.2912074001955
 10
123.5
 20
100.2912074001955
 10
122.5
 20
100.2912074001955
 97
        0
 75
     0
 76
     1
 47
0.0
 98
        1
 10
122.9396744030721
 20
100.0862868089019
1001
ACAD
1010
0.0
1020
0.0
1030
0.0
  0
LINE
  5
3287
330
1F
100
AcDbEntity
  8
TOS_M1
  6
ACAD_ISO07W100
 48
0.5
100
AcDbLine
 10
132.0
 20
98.0412074001955
 30
0.0
 11
123.0
 21
98.15583572269546
 31
0.0
  0
MTEXT
  5
3288
330
1F
100
AcDbEntity
  8
TOS_M1
  6
Continuous
100
AcDbMText
 10
126.4679008197841
 20
99.19932171302298
 30
0.0
 40
2.0
 41
5.011594093714294
 46
2.0
 71
     1
 72
     5
  1
{9}
 73
     1
 44
1.0
1001
ACAD
1000
ACAD_MTEXT_DEFINED_HEIGHT_BEGIN
1070
    46
1040
2.0
1000
ACAD_MTEXT_DEFINED_HEIGHT_END
  0
LINE
  5
3289
330
1F
100
AcDbEntity
  8
寸法
  6
Continuous
100
AcDbLine
 10
132.0
 20
100.7999999999999
 30
0.0
 11
132.0000000000001
 21
88.90212888260083
 31
0.0
  0
LINE
  5
32FF
330
1F
100
AcDbEntity
  8
寸法
  6
Continuous
100
AcDbLine
 10
111.0
 20
100.7999999999999
 30
0.0
 11
111.0
 21
95.7999999999999
 31
0.0
  0
LINE
  5
3301
330
1F
100
AcDbEntity
  8
寸法
  6
Continuous
100
AcDbLine
 10
109.0
 20
100.7999999999998
 30
0.0
 11
109.0
 21
95.7999999999998
 31
0.0
  0
MTEXT
  5
332D
330
1F
100
AcDbEntity
  8
文字
  6
Continuous
100
AcDbMText
 10
136.8723028690448
 20
116.512097810166
 30
0.0
 40
1.5
 41
5.247846471750506
 46
1.704545454545455
 71
     1
 72
     5
  1
{\fＭＳ Ｐゴシック|b0|i0|c0|p0;\C6;硬質}
 73
     1
 44
1.0
1001
ACAD
1000
ACAD_MTEXT_DEFINED_HEIGHT_BEGIN
1070
    46
1040
1.704545454545455
1000
ACAD_MTEXT_DEFINED_HEIGHT_END
  0
MTEXT
  5
3340
330
1F
100
AcDbEntity
  8
文字
  6
Continuous
100
AcDbMText
 10
93.86367182516061
 20
119.4757374601169
 30
0.0
 40
1.5
 41
4.877490748310095
 46
1.704545454545455
 71
     1
 72
     5
  1
{\fＭＳ Ｐゴシック|b0|i0|c0|p0;軟質}
 73
     1
 44
1.0
1001
ACAD
1000
ACAD_MTEXT_DEFINED_HEIGHT_BEGIN
1070
    46
1040
1.704545454545455
1000
ACAD_MTEXT_DEFINED_HEIGHT_END
  0
ENDSEC
  0
SECTION
  2
OBJECTS
  0
DICTIONARY
  5
C
330
0
100
AcDbDictionary
281
     1
  3
ACAD_COLOR
350
A9A
  3
ACAD_DETAILVIEWSTYLE
350
A4E
  3
ACAD_GROUP
350
D
  3
ACAD_IMAGE_VARS
350
96F
  3
ACAD_LAYOUT
350
1A
  3
ACAD_MATERIAL
350
A42
  3
ACAD_MLEADERSTYLE
350
A48
  3
ACAD_MLINESTYLE
350
17
  3
ACAD_PLOTSETTINGS
350
19
  3
ACAD_PLOTSTYLENAME
350
E
  3
ACAD_SCALELIST
350
935
  3
ACAD_SECTIONVIEWSTYLE
350
A4F
  3
ACAD_TABLESTYLE
350
A46
  3
ACAD_VISUALSTYLE
350
A29
  3
ACDB_RECOMPOSE_DATA
350
334C
  3
AcDbVariableDictionary
350
3E1
  3
APPDATA
350
96E
  3
DimOffsetDictionary
350
14C9
  0
SUN
  5
A4A
330
934
100
AcDbSun
 90
        1
290
     0
 63
     7
421
 16777215
 40
1.0
291
     1
 91
  2455826
 92
 54000000
292
     0
 70
     2
 71
   256
280
     1
  0
DICTIONARY
  5
970
330
2
100
AcDbDictionary
280
     1
281
     1
  3
ACAD_LAYERSTATES
360
971
  3
ACLYDICTIONARY
360
207B
  0
DICTIONARY
  5
A87
330
A86
100
AcDbDictionary
280
     1
281
     1
  3
ADSK_XREC_LAYER_RECONCILED
360
A88
  0
DICTIONARY
  5
A8B
330
A8A
100
AcDbDictionary
280
     1
281
     1
  3
ADSK_XREC_LAYER_RECONCILED
360
A8C
  0
DICTIONARY
  5
3220
330
321F
100
AcDbDictionary
280
     1
281
     1
  0
DICTIONARY
  5
3224
330
3223
100
AcDbDictionary
280
     1
281
     1
  0
DICTIONARY
  5
3226
330
3225
100
AcDbDictionary
280
     1
281
     1
  0
DICTIONARY
  5
3228
330
3227
100
AcDbDictionary
280
     1
281
     1
  0
DICTIONARY
  5
322A
330
3229
100
AcDbDictionary
280
     1
281
     1
  0
DICTIONARY
  5
327F
330
327E
100
AcDbDictionary
280
     1
281
     1
  0
DICTIONARY
  5
3281
330
3280
100
AcDbDictionary
280
     1
281
     1
  3
ACAD_DIMASSOC
360
3282
  0
DICTIONARY
  5
A9A
102
{ACAD_REACTORS
330
C
102
}
330
C
100
AcDbDictionary
281
     1
  0
DICTIONARY
  5
A4E
102
{ACAD_REACTORS
330
C
102
}
330
C
100
AcDbDictionary
281
     1
  0
DICTIONARY
  5
D
102
{ACAD_REACTORS
330
C
102
}
330
C
100
AcDbDictionary
281
     1
  0
RASTERVARIABLES
  5
96F
102
{ACAD_REACTORS
330
C
102
}
330
C
100
AcDbRasterVariables
 90
        0
 70
     1
 71
     1
 72
     1
  0
DICTIONARY
  5
1A
102
{ACAD_REACTORS
330
C
102
}
330
C
100
AcDbDictionary
281
     1
  3
Model
350
22
  3
ﾚｲｱｳﾄ1
350
1E
  3
ﾚｲｱｳﾄ2
350
26
  0
DICTIONARY
  5
A42
102
{ACAD_REACTORS
330
C
102
}
330
C
100
AcDbDictionary
281
     1
  3
ByBlock
350
A44
  3
ByLayer
350
A43
  3
Global
350
A45
  0
DICTIONARY
  5
A48
102
{ACAD_REACTORS
330
C
102
}
330
C
100
AcDbDictionary
281
     1
  3
Standard
350
A49
  0
DICTIONARY
  5
17
102
{ACAD_REACTORS
330
C
102
}
330
C
100
AcDbDictionary
281
     1
  3
Standard
350
18
  0
DICTIONARY
  5
19
102
{ACAD_REACTORS
330
C
102
}
330
C
100
AcDbDictionary
281
     1
  0
ACDBDICTIONARYWDFLT
  5
E
102
{ACAD_REACTORS
330
C
102
}
330
C
100
AcDbDictionary
281
     1
  3
Normal
350
F
100
AcDbDictionaryWithDefault
340
F
  0
DICTIONARY
  5
935
102
{ACAD_REACTORS
330
C
102
}
330
C
100
AcDbDictionary
281
     1
  3
A0
350
936
  3
A1
350
937
  3
A2
350
938
  3
A3
350
939
  3
A4
350
93A
  3
A5
350
93B
  3
A6
350
93C
  3
A7
350
93D
  3
A8
350
93E
  3
A9
350
93F
  3
B0
350
940
  3
B1
350
941
  3
B2
350
942
  3
B3
350
943
  3
B4
350
944
  3
B5
350
945
  3
B6
350
946
  3
B7
350
947
  3
B8
350
948
  3
B9
350
949
  3
C0
350
94A
  3
C1
350
94B
  3
C2
350
94C
  3
C3
350
94D
  3
C4
350
94E
  3
C5
350
94F
  3
C6
350
950
  3
C7
350
951
  3
C8
350
952
  3
C9
350
953
  3
D0
350
954
  3
D1
350
955
  3
D2
350
956
  0
DICTIONARY
  5
A4F
102
{ACAD_REACTORS
330
C
102
}
330
C
100
AcDbDictionary
281
     1
  0
DICTIONARY
  5
A46
102
{ACAD_REACTORS
330
C
102
}
330
C
100
AcDbDictionary
281
     1
  3
Standard
350
A47
  0
DICTIONARY
  5
A29
102
{ACAD_REACTORS
330
C
102
}
330
C
100
AcDbDictionary
281
     1
  3
2dWireframe
350
A2E
  3
Basic
350
A31
  3
Brighten
350
A35
  3
ColorChange
350
A39
  3
Conceptual
350
A33
  3
Dim
350
A34
  3
EdgeColorOff
350
A3C
  3
Facepattern
350
A38
  3
Flat
350
A2A
  3
FlatWithEdges
350
A2B
  3
Gouraud
350
A2C
  3
GouraudWithEdges
350
A2D
  3
Hidden
350
A30
  3
JitterOff
350
A3A
  3
Linepattern
350
A37
  3
OverhangOff
350
A3B
  3
Realistic
350
A32
  3
Shaded
350
A41
  3
Shaded with edges
350
A40
  3
Shades of Gray
350
A3D
  3
Sketchy
350
A3E
  3
Thicken
350
A36
  3
Wireframe
350
A2F
  3
X-Ray
350
A3F
  0
XRECORD
  5
334C
102
{ACAD_REACTORS
330
C
102
}
330
C
100
AcDbXrecord
280
     1
 90
        1
330
A47
  0
DICTIONARY
  5
3E1
102
{ACAD_REACTORS
330
C
102
}
330
C
100
AcDbDictionary
281
     1
  3
CANNOSCALE
350
137E
  3
CMLEADERSTYLE
350
A4C
  3
CTABLESTYLE
350
A4B
  3
HPTRANSPARENCY
350
14C8
  3
MSLTSCALE
350
A4D
  3
SORTENTS
350
3E2
  0
DICTIONARY
  5
96E
102
{ACAD_REACTORS
330
C
102
}
330
C
100
AcDbDictionary
281
     1
  0
DICTIONARY
  5
14C9
102
{ACAD_REACTORS
330
C
102
}
330
C
100
AcDbDictionary
281
     1
  3
DIMRAILANGLE
350
2D66
  3
DIMRAILFIRSTOFFSET
350
2D64
  3
DIMRAILOFFSET
350
2D65
  3
DIMRAILSENABLED
350
2D67
  0
DICTIONARY
  5
971
102
{ACAD_REACTORS
330
970
102
}
330
970
100
AcDbDictionary
281
     1
  0
DICTIONARY
  5
207B
102
{ACAD_REACTORS
330
970
102
}
330
970
100
AcDbDictionary
281
     1
1001
ACAD
1000
<All
  0
XRECORD
  5
A88
102
{ACAD_REACTORS
330
A87
102
}
330
A87
100
AcDbXrecord
280
     1
290
     1
  0
XRECORD
  5
A8C
102
{ACAD_REACTORS
330
A8B
102
}
330
A8B
100
AcDbXrecord
280
     1
290
     1
  0
DIMASSOC
  5
3282
102
{ACAD_REACTORS
330
3281
102
}
330
3281
100
AcDbDimAssoc
330
3280
 90
        3
 70
     0
 71
     1
  1
AcDbOsnapPointRef
 72
    13
331
322C
 73
     0
 91
        0
 40
0.0
 10
0.0
 20
0.0
 30
0.0
 75
     0
  1
AcDbOsnapPointRef
 72
    13
331
322D
 73
     0
 91
        0
 40
0.0
 10
0.0
 20
0.0
 30
0.0
 75
     0
  0
LAYOUT
  5
22
102
{ACAD_REACTORS
330
1A
102
}
330
1A
100
AcDbPlotSettings
  1

  2
RICOH IPSiO NX850 RPCS
  4
A4
  6

 40
5.873749732971191
 41
5.873747825622559
 42
5.873748779296875
 43
5.873748779296875
 44
209.9733276367188
 45
296.9259948730469
 46
56.21
 47
68.71
 48
0.0
 49
0.0
140
0.0
141
0.0
142
1.0
143
1.0
 70
 11940
 72
     1
 73
     1
 74
     0
  7

 75
     0
 76
     0
 77
     2
 78
   300
147
1.0
148
-86.56519164515282
149
-171.1912652483589
100
AcDbLayout
  1
Model
 70
     1
 71
     0
 10
0.0
 20
0.0
 11
12.0
 21
9.0
 12
0.0
 22
0.0
 32
0.0
 14
0.0
 24
0.0
 34
0.0
 15
292.0
 25
205.0
 35
0.0
146
0.0
 13
0.0
 23
0.0
 33
0.0
 16
1.0
 26
0.0
 36
0.0
 17
0.0
 27
1.0
 37
0.0
 76
     0
330
1F
331
934
  0
LAYOUT
  5
1E
102
{ACAD_REACTORS
330
1A
102
}
330
1A
100
AcDbPlotSettings
  1

  2
RICOH IPSiO NX850 RPCS
  4

  6

 40
0.0
 41
0.0
 42
0.0
 43
0.0
 44
0.0
 45
0.0
 46
0.0
 47
0.0
 48
0.0
 49
0.0
140
0.0
141
0.0
142
1.0
143
1.0
 70
   688
 72
     0
 73
     0
 74
     5
  7

 75
    16
 76
     0
 77
     2
 78
   300
147
1.0
148
0.0
149
0.0
100
AcDbLayout
  1
ﾚｲｱｳﾄ1
 70
     1
 71
     1
 10
0.0
 20
0.0
 11
420.0
 21
297.0
 12
0.0
 22
0.0
 32
0.0
 14
1.000000000000000E+20
 24
1.000000000000000E+20
 34
1.000000000000000E+20
 15
-1.000000000000000E+20
 25
-1.000000000000000E+20
 35
-1.000000000000000E+20
146
0.0
 13
0.0
 23
0.0
 33
0.0
 16
1.0
 26
0.0
 36
0.0
 17
0.0
 27
1.0
 37
0.0
 76
     0
330
1B
  0
LAYOUT
  5
26
102
{ACAD_REACTORS
330
1A
102
}
330
1A
100
AcDbPlotSettings
  1

  2
RICOH IPSiO NX850 RPCS
  4

  6

 40
0.0
 41
0.0
 42
0.0
 43
0.0
 44
0.0
 45
0.0
 46
0.0
 47
0.0
 48
0.0
 49
0.0
140
0.0
141
0.0
142
1.0
143
1.0
 70
   688
 72
     0
 73
     0
 74
     5
  7

 75
    16
 76
     0
 77
     2
 78
   300
147
1.0
148
0.0
149
0.0
100
AcDbLayout
  1
ﾚｲｱｳﾄ2
 70
     1
 71
     2
 10
0.0
 20
0.0
 11
12.0
 21
9.0
 12
0.0
 22
0.0
 32
0.0
 14
0.0
 24
0.0
 34
0.0
 15
0.0
 25
0.0
 35
0.0
146
0.0
 13
0.0
 23
0.0
 33
0.0
 16
1.0
 26
0.0
 36
0.0
 17
0.0
 27
1.0
 37
0.0
 76
     0
330
23
  0
MATERIAL
  5
A44
102
{ACAD_REACTORS
330
A42
102
}
330
A42
100
AcDbMaterial
  1
ByBlock
 72
     1
 94
      127
  0
MATERIAL
  5
A43
102
{ACAD_REACTORS
330
A42
102
}
330
A42
100
AcDbMaterial
  1
ByLayer
 72
     1
 94
      127
  0
MATERIAL
  5
A45
102
{ACAD_REACTORS
330
A42
102
}
330
A42
100
AcDbMaterial
  1
Global
 72
     1
 94
      127
  0
MLEADERSTYLE
  5
A49
102
{ACAD_REACTORS
330
A48
102
}
330
A48
100
AcDbMLeaderStyle
179
     2
170
     2
171
     1
172
     0
 90
        2
 40
0.0
 41
0.0
173
     1
 91
-1056964608
340
14
 92
       -2
290
     1
 42
2.0
291
     1
 43
8.0
  3
Standard
341
0
 44
4.0
300

342
11
174
     1
178
     6
175
     1
176
     0
 93
-1056964608
 45
4.0
292
     0
297
     0
 46
4.0
343
0
 94
-1056964608
 47
1.0
 49
1.0
140
1.0
293
     1
141
0.0
294
     1
177
     0
142
1.0
295
     0
296
     0
143
3.75
271
     0
272
     9
273
     9
  0
MLINESTYLE
  5
18
102
{ACAD_REACTORS
330
17
102
}
330
17
100
AcDbMlineStyle
  2
STANDARD
 70
     0
  3

 62
   256
 51
90.0
 52
90.0
 71
     2
 49
0.5
 62
   256
  6
BYLAYER
 49
-0.5
 62
   256
  6
BYLAYER
  0
ACDBPLACEHOLDER
  5
F
102
{ACAD_REACTORS
330
E
102
}
330
E
  0
SCALE
  5
936
102
{ACAD_REACTORS
330
935
102
}
330
935
100
AcDbScale
 70
     0
300
1:1
140
1.0
141
1.0
290
     1
  0
SCALE
  5
937
102
{ACAD_REACTORS
330
935
102
}
330
935
100
AcDbScale
 70
     0
300
1:2
140
1.0
141
2.0
290
     0
  0
SCALE
  5
938
102
{ACAD_REACTORS
330
935
102
}
330
935
100
AcDbScale
 70
     0
300
1:4
140
1.0
141
4.0
290
     0
  0
SCALE
  5
939
102
{ACAD_REACTORS
330
935
102
}
330
935
100
AcDbScale
 70
     0
300
1:5
140
1.0
141
5.0
290
     0
  0
SCALE
  5
93A
102
{ACAD_REACTORS
330
935
102
}
330
935
100
AcDbScale
 70
     0
300
1:8
140
1.0
141
8.0
290
     0
  0
SCALE
  5
93B
102
{ACAD_REACTORS
330
935
102
}
330
935
100
AcDbScale
 70
     0
300
1:10
140
1.0
141
10.0
290
     0
  0
SCALE
  5
93C
102
{ACAD_REACTORS
330
935
102
}
330
935
100
AcDbScale
 70
     0
300
1:16
140
1.0
141
16.0
290
     0
  0
SCALE
  5
93D
102
{ACAD_REACTORS
330
935
102
}
330
935
100
AcDbScale
 70
     0
300
1:20
140
1.0
141
20.0
290
     0
  0
SCALE
  5
93E
102
{ACAD_REACTORS
330
935
102
}
330
935
100
AcDbScale
 70
     0
300
1:30
140
1.0
141
30.0
290
     0
  0
SCALE
  5
93F
102
{ACAD_REACTORS
330
935
102
}
330
935
100
AcDbScale
 70
     0
300
1:40
140
1.0
141
40.0
290
     0
  0
SCALE
  5
940
102
{ACAD_REACTORS
330
935
102
}
330
935
100
AcDbScale
 70
     0
300
1:50
140
1.0
141
50.0
290
     0
  0
SCALE
  5
941
102
{ACAD_REACTORS
330
935
102
}
330
935
100
AcDbScale
 70
     0
300
1:100
140
1.0
141
100.0
290
     0
  0
SCALE
  5
942
102
{ACAD_REACTORS
330
935
102
}
330
935
100
AcDbScale
 70
     0
300
2:1
140
2.0
141
1.0
290
     0
  0
SCALE
  5
943
102
{ACAD_REACTORS
330
935
102
}
330
935
100
AcDbScale
 70
     0
300
4:1
140
4.0
141
1.0
290
     0
  0
SCALE
  5
944
102
{ACAD_REACTORS
330
935
102
}
330
935
100
AcDbScale
 70
     0
300
8:1
140
8.0
141
1.0
290
     0
  0
SCALE
  5
945
102
{ACAD_REACTORS
330
935
102
}
330
935
100
AcDbScale
 70
     0
300
10:1
140
10.0
141
1.0
290
     0
  0
SCALE
  5
946
102
{ACAD_REACTORS
330
935
102
}
330
935
100
AcDbScale
 70
     0
300
100:1
140
100.0
141
1.0
290
     0
  0
SCALE
  5
947
102
{ACAD_REACTORS
330
935
102
}
330
935
100
AcDbScale
 70
     0
300
1/128" = 1'-0"
140
0.0078125
141
12.0
290
     0
  0
SCALE
  5
948
102
{ACAD_REACTORS
330
935
102
}
330
935
100
AcDbScale
 70
     0
300
1/64" = 1'-0"
140
0.015625
141
12.0
290
     0
  0
SCALE
  5
949
102
{ACAD_REACTORS
330
935
102
}
330
935
100
AcDbScale
 70
     0
300
1/32" = 1'-0"
140
0.03125
141
12.0
290
     0
  0
SCALE
  5
94A
102
{ACAD_REACTORS
330
935
102
}
330
935
100
AcDbScale
 70
     0
300
1/16" = 1'-0"
140
0.0625
141
12.0
290
     0
  0
SCALE
  5
94B
102
{ACAD_REACTORS
330
935
102
}
330
935
100
AcDbScale
 70
     0
300
3/32" = 1'-0"
140
0.09375
141
12.0
290
     0
  0
SCALE
  5
94C
102
{ACAD_REACTORS
330
935
102
}
330
935
100
AcDbScale
 70
     0
300
1/8" = 1'-0"
140
0.125
141
12.0
290
     0
  0
SCALE
  5
94D
102
{ACAD_REACTORS
330
935
102
}
330
935
100
AcDbScale
 70
     0
300
3/16" = 1'-0"
140
0.1875
141
12.0
290
     0
  0
SCALE
  5
94E
102
{ACAD_REACTORS
330
935
102
}
330
935
100
AcDbScale
 70
     0
300
1/4" = 1'-0"
140
0.25
141
12.0
290
     0
  0
SCALE
  5
94F
102
{ACAD_REACTORS
330
935
102
}
330
935
100
AcDbScale
 70
     0
300
3/8" = 1'-0"
140
0.375
141
12.0
290
     0
  0
SCALE
  5
950
102
{ACAD_REACTORS
330
935
102
}
330
935
100
AcDbScale
 70
     0
300
1/2" = 1'-0"
140
0.5
141
12.0
290
     0
  0
SCALE
  5
951
102
{ACAD_REACTORS
330
935
102
}
330
935
100
AcDbScale
 70
     0
300
3/4" = 1'-0"
140
0.75
141
12.0
290
     0
  0
SCALE
  5
952
102
{ACAD_REACTORS
330
935
102
}
330
935
100
AcDbScale
 70
     0
300
1" = 1'-0"
140
1.0
141
12.0
290
     0
  0
SCALE
  5
953
102
{ACAD_REACTORS
330
935
102
}
330
935
100
AcDbScale
 70
     0
300
1-1/2" = 1'-0"
140
1.5
141
12.0
290
     0
  0
SCALE
  5
954
102
{ACAD_REACTORS
330
935
102
}
330
935
100
AcDbScale
 70
     0
300
3" = 1'-0"
140
3.0
141
12.0
290
     0
  0
SCALE
  5
955
102
{ACAD_REACTORS
330
935
102
}
330
935
100
AcDbScale
 70
     0
300
6" = 1'-0"
140
6.0
141
12.0
290
     0
  0
SCALE
  5
956
102
{ACAD_REACTORS
330
935
102
}
330
935
100
AcDbScale
 70
     0
300
1'-0" = 1'-0"
140
12.0
141
12.0
290
     0
  0
TABLESTYLE
  5
A47
102
{ACAD_REACTORS
330
A46
102
}
102
{ACAD_XDICTIONARY
360
334A
102
}
330
A46
100
AcDbTableStyle
  3
Standard
 70
     0
 71
     0
 40
1.5
 41
1.5
280
     0
281
     0
  7
Standard
140
4.5
170
     2
 62
     0
 63
   257
283
     0
 90
        4
 91
        0
  1

274
    -2
284
     1
 64
     0
275
    -2
285
     1
 65
     0
276
    -2
286
     1
 66
     0
277
    -2
287
     1
 67
     0
278
    -2
288
     1
 68
     0
279
    -2
289
     1
 69
     0
  7
Standard
140
6.0
170
     5
 62
     0
 63
   257
283
     0
 90
        4
 91
        0
  1

274
    -2
284
     1
 64
     0
275
    -2
285
     1
 65
     0
276
    -2
286
     1
 66
     0
277
    -2
287
     1
 67
     0
278
    -2
288
     1
 68
     0
279
    -2
289
     1
 69
     0
  7
Standard
140
4.5
170
     5
 62
     0
 63
   257
283
     0
 90
        4
 91
        0
  1

274
    -2
284
     1
 64
     0
275
    -2
285
     1
 65
     0
276
    -2
286
     1
 66
     0
277
    -2
287
     1
 67
     0
278
    -2
288
     1
 68
     0
279
    -2
289
     1
 69
     0
  0
VISUALSTYLE
  5
A2E
102
{ACAD_REACTORS
330
A29
102
}
330
A29
100
AcDbVisualStyle
  2
2dWireframe
 70
     4
177
     2
291
     0
 71
     0
176
     1
 72
     2
176
     1
 73
     0
176
     1
 90
        0
176
     1
 40
0.6
176
     1
 41
30.0
176
     1
 62
     5
 63
     7
421
 16777215
176
     1
 74
     1
176
     1
 91
        4
176
     1
 64
     7
176
     1
 65
   257
176
     1
 75
     1
176
     1
175
     1
176
     1
 42
1.0
176
     1
 92
        0
176
     1
 66
   257
176
     1
 43
1.0
176
     1
 76
     1
176
     1
 77
     6
176
     1
 78
     2
176
     1
 67
     7
176
     1
 79
     5
176
     1
170
     0
176
     1
171
     0
176
     1
290
     0
176
     1
 93
        1
176
     1
 44
0.0
176
     1
173
     0
176
     1
  0
VISUALSTYLE
  5
A31
102
{ACAD_REACTORS
330
A29
102
}
330
A29
100
AcDbVisualStyle
  2
Basic
 70
     7
177
     2
291
     1
 71
     1
176
     1
 72
     0
176
     1
 73
     1
176
     1
 90
        0
176
     1
 40
0.6
176
     1
 41
30.0
176
     1
 62
     5
 63
     7
421
 16777215
176
     1
 74
     0
176
     1
 91
        4
176
     1
 64
     7
176
     1
 65
   257
176
     1
 75
     1
176
     1
175
     1
176
     1
 42
1.0
176
     1
 92
        8
176
     1
 66
     7
176
     1
 43
1.0
176
     1
 76
     1
176
     1
 77
     6
176
     1
 78
     2
176
     1
 67
     7
176
     1
 79
     5
176
     1
170
     0
176
     1
171
     0
176
     1
290
     0
176
     1
 93
        1
176
     1
 44
0.0
176
     1
173
     0
176
     1
  0
VISUALSTYLE
  5
A35
102
{ACAD_REACTORS
330
A29
102
}
330
A29
100
AcDbVisualStyle
  2
Brighten
 70
    12
177
     2
291
     1
 71
     2
176
     1
 72
     2
176
     1
 73
     0
176
     1
 90
        0
176
     1
 40
0.6
176
     1
 41
30.0
176
     1
 62
     5
 63
     7
421
 16777215
176
     1
 74
     1
176
     1
 91
        4
176
     1
 64
     7
176
     1
 65
   257
176
     1
 75
     1
176
     1
175
     1
176
     1
 42
1.0
176
     1
 92
        8
176
     1
 66
     7
176
     1
 43
1.0
176
     1
 76
     1
176
     1
 77
     6
176
     1
 78
     2
176
     1
 67
     7
176
     1
 79
     5
176
     1
170
     0
176
     1
171
     0
176
     1
290
     0
176
     1
 93
        1
176
     1
 44
50.0
176
     1
173
     0
176
     1
  0
VISUALSTYLE
  5
A39
102
{ACAD_REACTORS
330
A29
102
}
330
A29
100
AcDbVisualStyle
  2
ColorChange
 70
    16
177
     2
291
     1
 71
     2
176
     1
 72
     2
176
     1
 73
     3
176
     1
 90
        0
176
     1
 40
0.6
176
     1
 41
30.0
176
     1
 62
     5
 63
     8
421
  8421504
176
     1
 74
     1
176
     1
 91
        4
176
     1
 64
     7
176
     1
 65
   257
176
     1
 75
     1
176
     1
175
     1
176
     1
 42
1.0
176
     1
 92
        8
176
     1
 66
     8
424
  8421504
176
     1
 43
1.0
176
     1
 76
     1
176
     1
 77
     6
176
     1
 78
     2
176
     1
 67
     7
176
     1
 79
     5
176
     1
170
     0
176
     1
171
     0
176
     1
290
     0
176
     1
 93
        1
176
     1
 44
0.0
176
     1
173
     0
176
     1
  0
VISUALSTYLE
  5
A33
102
{ACAD_REACTORS
330
A29
102
}
330
A29
100
AcDbVisualStyle
  2
Conceptual
 70
     9
177
     2
291
     0
 71
     3
176
     1
 72
     2
176
     1
 73
     0
176
     1
 90
        0
176
     1
 40
0.6
176
     1
 41
30.0
176
     1
 62
     5
 63
     7
421
 16777215
176
     1
 74
     2
176
     1
 91
        2
176
     1
 64
     7
176
     1
 65
   257
176
     1
 75
     1
176
     1
175
     1
176
     1
 42
179.0
176
     1
 92
        8
176
     1
 66
     7
176
     1
 43
1.0
176
     1
 76
     1
176
     1
 77
     6
176
     1
 78
     2
176
     1
 67
     7
176
     1
 79
     3
176
     1
170
     0
176
     1
171
     0
176
     1
290
     0
176
     1
 93
        1
176
     1
 44
0.0
176
     1
173
     0
176
     1
  0
VISUALSTYLE
  5
A34
102
{ACAD_REACTORS
330
A29
102
}
330
A29
100
AcDbVisualStyle
  2
Dim
 70
    11
177
     2
291
     1
 71
     2
176
     1
 72
     2
176
     1
 73
     0
176
     1
 90
        0
176
     1
 40
0.6
176
     1
 41
30.0
176
     1
 62
     5
 63
     7
421
 16777215
176
     1
 74
     1
176
     1
 91
        4
176
     1
 64
     7
176
     1
 65
   257
176
     1
 75
     1
176
     1
175
     1
176
     1
 42
1.0
176
     1
 92
        8
176
     1
 66
     7
176
     1
 43
1.0
176
     1
 76
     1
176
     1
 77
     6
176
     1
 78
     2
176
     1
 67
     7
176
     1
 79
     5
176
     1
170
     0
176
     1
171
     0
176
     1
290
     0
176
     1
 93
        1
176
     1
 44
-50.0
176
     1
173
     0
176
     1
  0
VISUALSTYLE
  5
A3C
102
{ACAD_REACTORS
330
A29
102
}
330
A29
100
AcDbVisualStyle
  2
EdgeColorOff
 70
    22
177
     2
291
     1
 71
     2
176
     0
 72
     2
176
     0
 73
     0
176
     0
 90
        0
176
     0
 40
0.6
176
     0
 41
30.0
176
     0
 62
     5
 63
     7
421
 16777215
176
     0
 74
     1
176
     0
 91
        4
176
     0
 64
     7
176
     0
 65
   257
176
     0
 75
     1
176
     0
175
     1
176
     0
 42
1.0
176
     0
 92
        8
176
     2
 66
     7
176
     0
 43
1.0
176
     0
 76
     1
176
     0
 77
     6
176
     0
 78
     2
176
     0
 67
     7
176
     0
 79
     5
176
     0
170
     0
176
     0
171
     0
176
     0
290
     0
176
     0
 93
        1
176
     0
 44
0.0
176
     0
173
     0
176
     0
  0
VISUALSTYLE
  5
A38
102
{ACAD_REACTORS
330
A29
102
}
330
A29
100
AcDbVisualStyle
  2
Facepattern
 70
    15
177
     2
291
     1
 71
     2
176
     1
 72
     2
176
     1
 73
     0
176
     1
 90
        0
176
     1
 40
0.6
176
     1
 41
30.0
176
     1
 62
     5
 63
     7
421
 16777215
176
     1
 74
     1
176
     1
 91
        4
176
     1
 64
     7
176
     1
 65
   257
176
     1
 75
     1
176
     1
175
     1
176
     1
 42
1.0
176
     1
 92
        8
176
     1
 66
     7
176
     1
 43
1.0
176
     1
 76
     1
176
     1
 77
     6
176
     1
 78
     2
176
     1
 67
     7
176
     1
 79
     5
176
     1
170
     0
176
     1
171
     0
176
     1
290
     0
176
     1
 93
        1
176
     1
 44
0.0
176
     1
173
     0
176
     1
  0
VISUALSTYLE
  5
A2A
102
{ACAD_REACTORS
330
A29
102
}
330
A29
100
AcDbVisualStyle
  2
Flat
 70
     0
177
     2
291
     1
 71
     2
176
     1
 72
     1
176
     1
 73
     1
176
     1
 90
        2
176
     1
 40
0.6
176
     1
 41
30.0
176
     1
 62
     5
 63
     7
421
 16777215
176
     1
 74
     0
176
     1
 91
        0
176
     1
 64
     7
176
     1
 65
   257
176
     1
 75
     1
176
     1
175
     1
176
     1
 42
1.0
176
     1
 92
        8
176
     1
 66
     7
176
     1
 43
1.0
176
     1
 76
     1
176
     1
 77
     6
176
     1
 78
     2
176
     1
 67
     7
176
     1
 79
     5
176
     1
170
     0
176
     1
171
     0
176
     1
290
     0
176
     1
 93
       13
176
     1
 44
0.0
176
     1
173
     0
176
     1
  0
VISUALSTYLE
  5
A2B
102
{ACAD_REACTORS
330
A29
102
}
330
A29
100
AcDbVisualStyle
  2
FlatWithEdges
 70
     1
177
     2
291
     1
 71
     2
176
     1
 72
     1
176
     1
 73
     1
176
     1
 90
        2
176
     1
 40
0.6
176
     1
 41
30.0
176
     1
 62
     5
 63
     7
421
 16777215
176
     1
 74
     1
176
     1
 91
        0
176
     1
 64
     7
176
     1
 65
   257
176
     1
 75
     1
176
     1
175
     1
176
     1
 42
1.0
176
     1
 92
        0
176
     1
 66
   257
176
     1
 43
1.0
176
     1
 76
     1
176
     1
 77
     6
176
     1
 78
     2
176
     1
 67
     7
176
     1
 79
     5
176
     1
170
     0
176
     1
171
     0
176
     1
290
     0
176
     1
 93
       13
176
     1
 44
0.0
176
     1
173
     0
176
     1
  0
VISUALSTYLE
  5
A2C
102
{ACAD_REACTORS
330
A29
102
}
330
A29
100
AcDbVisualStyle
  2
Gouraud
 70
     2
177
     2
291
     1
 71
     2
176
     1
 72
     2
176
     1
 73
     1
176
     1
 90
        2
176
     1
 40
0.6
176
     1
 41
30.0
176
     1
 62
     5
 63
     7
421
 16777215
176
     1
 74
     0
176
     1
 91
        0
176
     1
 64
     7
176
     1
 65
   257
176
     1
 75
     1
176
     1
175
     1
176
     1
 42
1.0
176
     1
 92
        0
176
     1
 66
     7
176
     1
 43
1.0
176
     1
 76
     1
176
     1
 77
     6
176
     1
 78
     2
176
     1
 67
     7
176
     1
 79
     5
176
     1
170
     0
176
     1
171
     0
176
     1
290
     0
176
     1
 93
       13
176
     1
 44
0.0
176
     1
173
     0
176
     1
  0
VISUALSTYLE
  5
A2D
102
{ACAD_REACTORS
330
A29
102
}
330
A29
100
AcDbVisualStyle
  2
GouraudWithEdges
 70
     3
177
     2
291
     1
 71
     2
176
     1
 72
     2
176
     1
 73
     1
176
     1
 90
        2
176
     1
 40
0.6
176
     1
 41
30.0
176
     1
 62
     5
 63
     7
421
 16777215
176
     1
 74
     1
176
     1
 91
        0
176
     1
 64
     7
176
     1
 65
   257
176
     1
 75
     1
176
     1
175
     1
176
     1
 42
1.0
176
     1
 92
        0
176
     1
 66
   257
176
     1
 43
1.0
176
     1
 76
     1
176
     1
 77
     6
176
     1
 78
     2
176
     1
 67
     7
176
     1
 79
     5
176
     1
170
     0
176
     1
171
     0
176
     1
290
     0
176
     1
 93
       13
176
     1
 44
0.0
176
     1
173
     0
176
     1
  0
VISUALSTYLE
  5
A30
102
{ACAD_REACTORS
330
A29
102
}
330
A29
100
AcDbVisualStyle
  2
Hidden
 70
     6
177
     2
291
     0
 71
     1
176
     1
 72
     2
176
     1
 73
     2
176
     1
 90
        0
176
     1
 40
0.6
176
     1
 41
30.0
176
     1
 62
     5
 63
     7
421
 16777215
176
     1
 74
     2
176
     1
 91
        2
176
     1
 64
     7
176
     1
 65
   257
176
     1
 75
     2
176
     1
175
     1
176
     1
 42
40.0
176
     1
 92
        0
176
     1
 66
   257
176
     1
 43
1.0
176
     1
 76
     1
176
     1
 77
     6
176
     1
 78
     2
176
     1
 67
     7
176
     1
 79
     3
176
     1
170
     0
176
     1
171
     0
176
     1
290
     0
176
     1
 93
        1
176
     1
 44
0.0
176
     1
173
     0
176
     1
  0
VISUALSTYLE
  5
A3A
102
{ACAD_REACTORS
330
A29
102
}
330
A29
100
AcDbVisualStyle
  2
JitterOff
 70
    20
177
     2
291
     1
 71
     2
176
     0
 72
     2
176
     0
 73
     0
176
     0
 90
        0
176
     0
 40
0.6
176
     0
 41
30.0
176
     0
 62
     5
 63
     7
421
 16777215
176
     0
 74
     1
176
     0
 91
        4
176
     0
 64
     7
176
     0
 65
   257
176
     0
 75
     1
176
     0
175
     1
176
     0
 42
1.0
176
     0
 92
       10
176
     2
 66
     7
176
     0
 43
1.0
176
     0
 76
     1
176
     0
 77
     6
176
     0
 78
     2
176
     0
 67
     7
176
     0
 79
     5
176
     0
170
     0
176
     0
171
     0
176
     0
290
     0
176
     0
 93
        1
176
     0
 44
0.0
176
     0
173
     0
176
     0
  0
VISUALSTYLE
  5
A37
102
{ACAD_REACTORS
330
A29
102
}
330
A29
100
AcDbVisualStyle
  2
Linepattern
 70
    14
177
     2
291
     1
 71
     2
176
     1
 72
     2
176
     1
 73
     0
176
     1
 90
        0
176
     1
 40
0.6
176
     1
 41
30.0
176
     1
 62
     5
 63
     7
421
 16777215
176
     1
 74
     1
176
     1
 91
        4
176
     1
 64
     7
176
     1
 65
   257
176
     1
 75
     7
176
     1
175
     7
176
     1
 42
1.0
176
     1
 92
        8
176
     1
 66
     7
176
     1
 43
1.0
176
     1
 76
     1
176
     1
 77
     6
176
     1
 78
     2
176
     1
 67
     7
176
     1
 79
     5
176
     1
170
     0
176
     1
171
     0
176
     1
290
     0
176
     1
 93
        1
176
     1
 44
0.0
176
     1
173
     0
176
     1
  0
VISUALSTYLE
  5
A3B
102
{ACAD_REACTORS
330
A29
102
}
330
A29
100
AcDbVisualStyle
  2
OverhangOff
 70
    21
177
     2
291
     1
 71
     2
176
     0
 72
     2
176
     0
 73
     0
176
     0
 90
        0
176
     0
 40
0.6
176
     0
 41
30.0
176
     0
 62
     5
 63
     7
421
 16777215
176
     0
 74
     1
176
     0
 91
        4
176
     0
 64
     7
176
     0
 65
   257
176
     0
 75
     1
176
     0
175
     1
176
     0
 42
1.0
176
     0
 92
        9
176
     2
 66
     7
176
     0
 43
1.0
176
     0
 76
     1
176
     0
 77
     6
176
     0
 78
     2
176
     0
 67
     7
176
     0
 79
     5
176
     0
170
     0
176
     0
171
     0
176
     0
290
     0
176
     0
 93
        1
176
     0
 44
0.0
176
     0
173
     0
176
     0
  0
VISUALSTYLE
  5
A32
102
{ACAD_REACTORS
330
A29
102
}
330
A29
100
AcDbVisualStyle
  2
Realistic
 70
     8
177
     2
291
     0
 71
     2
176
     1
 72
     3
176
     1
 73
     0
176
     1
 90
        2
176
     1
 40
0.6
176
     1
 41
30.0
176
     1
 62
     5
 63
     7
421
 16777215
176
     1
 74
     0
176
     1
 91
        0
176
     1
 64
     7
176
     1
 65
   257
176
     1
 75
     1
176
     1
175
     1
176
     1
 42
1.0
176
     1
 92
        8
176
     1
 66
   257
176
     1
 43
1.0
176
     1
 76
     1
176
     1
 77
     6
176
     1
 78
     2
176
     1
 67
     7
176
     1
 79
     3
176
     1
170
     0
176
     1
171
     0
176
     1
290
     0
176
     1
 93
       13
176
     1
 44
0.0
176
     1
173
     0
176
     1
  0
VISUALSTYLE
  5
A41
102
{ACAD_REACTORS
330
A29
102
}
330
A29
100
AcDbVisualStyle
  2
Shaded
 70
    27
177
     2
291
     0
 71
     2
176
     1
 72
     2
176
     1
 73
     1
176
     1
 90
        2
176
     1
 40
0.6
176
     1
 41
30.0
176
     1
 62
     5
 63
     7
421
 16777215
176
     1
 74
     0
176
     1
 91
        4
176
     1
 64
     7
176
     1
 65
   257
176
     1
 75
     1
176
     1
175
     1
176
     1
 42
1.0
176
     1
 92
        8
176
     1
 66
   257
176
     1
 43
1.0
176
     1
 76
     1
176
     1
 77
     6
176
     1
 78
     2
176
     1
 67
     8
425
  7895160
176
     1
 79
     3
176
     1
170
     0
176
     1
171
     0
176
     1
290
     0
176
     1
 93
        5
176
     1
 44
0.0
176
     1
173
     0
176
     1
  0
VISUALSTYLE
  5
A40
102
{ACAD_REACTORS
330
A29
102
}
330
A29
100
AcDbVisualStyle
  2
Shaded with edges
 70
    26
177
     2
291
     0
 71
     2
176
     1
 72
     2
176
     1
 73
     1
176
     1
 90
        2
176
     1
 40
0.6
176
     1
 41
30.0
176
     1
 62
     5
 63
     7
421
 16777215
176
     1
 74
     1
176
     1
 91
       10
176
     1
 64
     7
176
     1
 65
   257
176
     1
 75
     2
176
     1
175
     1
176
     1
 42
1.0
176
     1
 92
        8
176
     1
 66
   257
176
     1
 43
1.0
176
     1
 76
     1
176
     1
 77
     6
176
     1
 78
     2
176
     1
 67
     7
176
     1
 79
     3
176
     1
170
     0
176
     1
171
     0
176
     1
290
     0
176
     1
 93
        5
176
     1
 44
0.0
176
     1
173
     0
176
     1
  0
VISUALSTYLE
  5
A3D
102
{ACAD_REACTORS
330
A29
102
}
330
A29
100
AcDbVisualStyle
  2
Shades of Gray
 70
    23
177
     2
291
     0
 71
     2
176
     1
 72
     2
176
     1
 73
     3
176
     1
 90
        0
176
     1
 40
0.6
176
     1
 41
30.0
176
     1
 62
     5
 63
     7
421
 16777215
176
     1
 74
     2
176
     1
 91
        2
176
     1
 64
     7
176
     1
 65
     7
176
     1
 75
     1
176
     1
175
     1
176
     1
 42
40.0
176
     1
 92
        8
176
     1
 66
     7
176
     1
 43
1.0
176
     1
 76
     1
176
     1
 77
     6
176
     1
 78
     2
176
     1
 67
     7
176
     1
 79
     3
176
     1
170
     0
176
     1
171
     0
176
     1
290
     0
176
     1
 93
        1
176
     1
 44
0.0
176
     1
173
     0
176
     1
  0
VISUALSTYLE
  5
A3E
102
{ACAD_REACTORS
330
A29
102
}
330
A29
100
AcDbVisualStyle
  2
Sketchy
 70
    24
177
     2
291
     0
 71
     1
176
     1
 72
     2
176
     1
 73
     2
176
     1
 90
        0
176
     1
 40
0.6
176
     1
 41
30.0
176
     1
 62
     5
 63
     7
421
 16777215
176
     1
 74
     2
176
     1
 91
        2
176
     1
 64
     7
176
     1
 65
     7
176
     1
 75
     1
176
     1
175
     1
176
     1
 42
40.0
176
     1
 92
       11
176
     1
 66
     7
176
     1
 43
1.0
176
     1
 76
     1
176
     1
 77
     6
176
     1
 78
     2
176
     1
 67
     7
176
     1
 79
     6
176
     1
170
     0
176
     1
171
     0
176
     1
290
     0
176
     1
 93
        1
176
     1
 44
0.0
176
     1
173
     0
176
     1
  0
VISUALSTYLE
  5
A36
102
{ACAD_REACTORS
330
A29
102
}
330
A29
100
AcDbVisualStyle
  2
Thicken
 70
    13
177
     2
291
     1
 71
     2
176
     1
 72
     2
176
     1
 73
     0
176
     1
 90
        0
176
     1
 40
0.6
176
     1
 41
30.0
176
     1
 62
     5
 63
     7
421
 16777215
176
     1
 74
     1
176
     1
 91
        4
176
     1
 64
     7
176
     1
 65
   257
176
     1
 75
     1
176
     1
175
     1
176
     1
 42
1.0
176
     1
 92
       12
176
     1
 66
     7
176
     1
 43
1.0
176
     1
 76
     1
176
     1
 77
     6
176
     1
 78
     2
176
     1
 67
     7
176
     1
 79
     5
176
     1
170
     0
176
     1
171
     0
176
     1
290
     0
176
     1
 93
        1
176
     1
 44
0.0
176
     1
173
     0
176
     1
  0
VISUALSTYLE
  5
A2F
102
{ACAD_REACTORS
330
A29
102
}
330
A29
100
AcDbVisualStyle
  2
Wireframe
 70
     5
177
     2
291
     0
 71
     0
176
     1
 72
     2
176
     1
 73
     0
176
     1
 90
        0
176
     1
 40
0.6
176
     1
 41
30.0
176
     1
 62
     5
 63
     7
421
 16777215
176
     1
 74
     1
176
     1
 91
        4
176
     1
 64
     7
176
     1
 65
   257
176
     1
 75
     1
176
     1
175
     1
176
     1
 42
1.0
176
     1
 92
        0
176
     1
 66
   257
176
     1
 43
1.0
176
     1
 76
     1
176
     1
 77
     6
176
     1
 78
     2
176
     1
 67
     7
176
     1
 79
     3
176
     1
170
     0
176
     1
171
     0
176
     1
290
     0
176
     1
 93
        1
176
     1
 44
0.0
176
     1
173
     0
176
     1
  0
VISUALSTYLE
  5
A3F
102
{ACAD_REACTORS
330
A29
102
}
330
A29
100
AcDbVisualStyle
  2
X-Ray
 70
    25
177
     2
291
     0
 71
     2
176
     1
 72
     2
176
     1
 73
     1
176
     1
 90
        1
176
     1
 40
0.5
176
     1
 41
30.0
176
     1
 62
     5
 63
     7
421
 16777215
176
     1
 74
     1
176
     1
 91
        0
176
     1
 64
     7
176
     1
 65
   257
176
     1
 75
     1
176
     1
175
     1
176
     1
 42
1.0
176
     1
 92
        8
176
     1
 66
     7
176
     1
 43
1.0
176
     1
 76
     1
176
     1
 77
     6
176
     1
 78
     2
176
     1
 67
     7
176
     1
 79
     3
176
     1
170
     0
176
     1
171
     0
176
     1
290
     0
176
     1
 93
       13
176
     1
 44
0.0
176
     1
173
     0
176
     1
  0
DICTIONARYVAR
  5
137E
102
{ACAD_REACTORS
330
3E1
102
}
330
3E1
100
DictionaryVariables
280
     0
  1
1:1
  0
DICTIONARYVAR
  5
A4C
102
{ACAD_REACTORS
330
3E1
102
}
330
3E1
100
DictionaryVariables
280
     0
  1
Standard
  0
DICTIONARYVAR
  5
A4B
102
{ACAD_REACTORS
330
3E1
102
}
330
3E1
100
DictionaryVariables
280
     0
  1
Standard
  0
DICTIONARYVAR
  5
14C8
102
{ACAD_REACTORS
330
3E1
102
}
330
3E1
100
DictionaryVariables
280
     0
  1
ByLayer
  0
DICTIONARYVAR
  5
A4D
102
{ACAD_REACTORS
330
3E1
102
}
330
3E1
100
DictionaryVariables
280
     0
  1
0
  0
DICTIONARYVAR
  5
3E2
102
{ACAD_REACTORS
330
3E1
102
}
330
3E1
100
DictionaryVariables
280
     0
  1
96
  0
DICTIONARYVAR
  5
2D66
102
{ACAD_REACTORS
330
14C9
102
}
330
14C9
100
DictionaryVariables
280
     0
  1
0.261799
  0
DICTIONARYVAR
  5
2D64
102
{ACAD_REACTORS
330
14C9
102
}
330
14C9
100
DictionaryVariables
280
     0
  1
10.000000
  0
DICTIONARYVAR
  5
2D65
102
{ACAD_REACTORS
330
14C9
102
}
330
14C9
100
DictionaryVariables
280
     0
  1
6.000000
  0
DICTIONARYVAR
  5
2D67
102
{ACAD_REACTORS
330
14C9
102
}
330
14C9
100
DictionaryVariables
280
     0
  1
0
  0
DICTIONARY
  5
334A
330
A47
100
AcDbDictionary
280
     1
281
     1
  3
ACAD_ROUNDTRIP_2008_TABLESTYLE_CELLSTYLEMAP
360
334B
  0
CELLSTYLEMAP
  5
334B
102
{ACAD_REACTORS
330
334A
102
}
330
334A
100
AcDbCellStyleMap
 90
        3
300
CELLSTYLE
  1
TABLEFORMAT_BEGIN
 90
        5
170
     1
 91
        0
 92
    32768
 62
   257
 93
        1
300
CONTENTFORMAT
  1
CONTENTFORMAT_BEGIN
 90
        0
 91
        0
 92
        4
 93
        0
300

 40
0.0
140
1.0
 94
        5
 62
     0
340
11
144
6.0
309
CONTENTFORMAT_END
171
     1
301
MARGIN
  1
CELLMARGIN_BEGIN
 40
1.5
 40
1.5
 40
1.5
 40
1.5
 40
1.5
 40
1.5
309
CELLMARGIN_END
 94
        6
 95
        1
302
GRIDFORMAT
  1
GRIDFORMAT_BEGIN
 90
        0
 91
        1
 62
     0
 92
       -2
340
14
 93
        0
 40
0.045
309
GRIDFORMAT_END
 95
        2
302
GRIDFORMAT
  1
GRIDFORMAT_BEGIN
 90
        0
 91
        1
 62
     0
 92
       -2
340
14
 93
        0
 40
0.045
309
GRIDFORMAT_END
 95
        4
302
GRIDFORMAT
  1
GRIDFORMAT_BEGIN
 90
        0
 91
        1
 62
     0
 92
       -2
340
14
 93
        0
 40
0.045
309
GRIDFORMAT_END
 95
        8
302
GRIDFORMAT
  1
GRIDFORMAT_BEGIN
 90
        0
 91
        1
 62
     0
 92
       -2
340
14
 93
        0
 40
0.045
309
GRIDFORMAT_END
 95
       16
302
GRIDFORMAT
  1
GRIDFORMAT_BEGIN
 90
        0
 91
        1
 62
     0
 92
       -2
340
14
 93
        0
 40
0.045
309
GRIDFORMAT_END
 95
       32
302
GRIDFORMAT
  1
GRIDFORMAT_BEGIN
 90
        0
 91
        1
 62
     0
 92
       -2
340
14
 93
        0
 40
0.045
309
GRIDFORMAT_END
309
TABLEFORMAT_END
  1
CELLSTYLE_BEGIN
 90
        1
 91
        1
300
_TITLE
309
CELLSTYLE_END
300
CELLSTYLE
  1
TABLEFORMAT_BEGIN
 90
        5
170
     1
 91
        0
 92
        0
 62
   257
 93
        1
300
CONTENTFORMAT
  1
CONTENTFORMAT_BEGIN
 90
        0
 91
        0
 92
        4
 93
        0
300

 40
0.0
140
1.0
 94
        5
 62
     0
340
11
144
4.5
309
CONTENTFORMAT_END
171
     1
301
MARGIN
  1
CELLMARGIN_BEGIN
 40
1.5
 40
1.5
 40
1.5
 40
1.5
 40
1.5
 40
1.5
309
CELLMARGIN_END
 94
        6
 95
        1
302
GRIDFORMAT
  1
GRIDFORMAT_BEGIN
 90
        0
 91
        1
 62
     0
 92
       -2
340
14
 93
        0
 40
0.045
309
GRIDFORMAT_END
 95
        2
302
GRIDFORMAT
  1
GRIDFORMAT_BEGIN
 90
        0
 91
        1
 62
     0
 92
       -2
340
14
 93
        0
 40
0.045
309
GRIDFORMAT_END
 95
        4
302
GRIDFORMAT
  1
GRIDFORMAT_BEGIN
 90
        0
 91
        1
 62
     0
 92
       -2
340
14
 93
        0
 40
0.045
309
GRIDFORMAT_END
 95
        8
302
GRIDFORMAT
  1
GRIDFORMAT_BEGIN
 90
        0
 91
        1
 62
     0
 92
       -2
340
14
 93
        0
 40
0.045
309
GRIDFORMAT_END
 95
       16
302
GRIDFORMAT
  1
GRIDFORMAT_BEGIN
 90
        0
 91
        1
 62
     0
 92
       -2
340
14
 93
        0
 40
0.045
309
GRIDFORMAT_END
 95
       32
302
GRIDFORMAT
  1
GRIDFORMAT_BEGIN
 90
        0
 91
        1
 62
     0
 92
       -2
340
14
 93
        0
 40
0.045
309
GRIDFORMAT_END
309
TABLEFORMAT_END
  1
CELLSTYLE_BEGIN
 90
        2
 91
        1
300
_HEADER
309
CELLSTYLE_END
300
CELLSTYLE
  1
TABLEFORMAT_BEGIN
 90
        5
170
     1
 91
        0
 92
        0
 62
   257
 93
        1
300
CONTENTFORMAT
  1
CONTENTFORMAT_BEGIN
 90
        0
 91
        0
 92
        4
 93
        0
300

 40
0.0
140
1.0
 94
        2
 62
     0
340
11
144
4.5
309
CONTENTFORMAT_END
171
     1
301
MARGIN
  1
CELLMARGIN_BEGIN
 40
1.5
 40
1.5
 40
1.5
 40
1.5
 40
1.5
 40
1.5
309
CELLMARGIN_END
 94
        6
 95
        1
302
GRIDFORMAT
  1
GRIDFORMAT_BEGIN
 90
        0
 91
        1
 62
     0
 92
       -2
340
14
 93
        0
 40
0.045
309
GRIDFORMAT_END
 95
        2
302
GRIDFORMAT
  1
GRIDFORMAT_BEGIN
 90
        0
 91
        1
 62
     0
 92
       -2
340
14
 93
        0
 40
0.045
309
GRIDFORMAT_END
 95
        4
302
GRIDFORMAT
  1
GRIDFORMAT_BEGIN
 90
        0
 91
        1
 62
     0
 92
       -2
340
14
 93
        0
 40
0.045
309
GRIDFORMAT_END
 95
        8
302
GRIDFORMAT
  1
GRIDFORMAT_BEGIN
 90
        0
 91
        1
 62
     0
 92
       -2
340
14
 93
        0
 40
0.045
309
GRIDFORMAT_END
 95
       16
302
GRIDFORMAT
  1
GRIDFORMAT_BEGIN
 90
        0
 91
        1
 62
     0
 92
       -2
340
14
 93
        0
 40
0.045
309
GRIDFORMAT_END
 95
       32
302
GRIDFORMAT
  1
GRIDFORMAT_BEGIN
 90
        0
 91
        1
 62
     0
 92
       -2
340
14
 93
        0
 40
0.045
309
GRIDFORMAT_END
309
TABLEFORMAT_END
  1
CELLSTYLE_BEGIN
 90
        3
 91
        2
300
_DATA
309
CELLSTYLE_END
  0
ENDSEC
  0
EOF
